  0
SECTION
  2
HEADER
  9
$ACADVER
  1
AC1009
  9
$DWGCODEPAGE
  3
ansi_1252
  9
$INSBASE
 10
0.0
 20
0.0
 30
0.0
  9
$EXTMIN
 10
0.0
 20
0.0
 30
0.0
  9
$EXTMAX
 10
420.0
 20
297.0
 30
0.0
  9
$LIMMIN
 10
0.0
 20
0.0
  9
$LIMMAX
 10
420.0
 20
297.0
  9
$ORTHOMODE
 70
     0
  9
$REGENMODE
 70
     1
  9
$FILLMODE
 70
     1
  9
$QTEXTMODE
 70
     0
  9
$MIRRTEXT
 70
     1
  9
$DRAGMODE
 70
     2
  9
$LTSCALE
 40
1.0
  9
$OSMODE
 70
    37
  9
$ATTMODE
 70
     1
  9
$TEXTSIZE
 40
3.5
  9
$TRACEWID
 40
1.0
  9
$TEXTSTYLE
  7
STANDARD
  9
$CLAYER
  8
0
  9
$CELTYPE
  6
BYLAYER
  9
$CECOLOR
 62
   256
  9
$DIMSCALE
 40
1.0
  9
$DIMASZ
 40
3.3
  9
$DIMEXO
 40
1.0
  9
$DIMDLI
 40
3.75
  9
$DIMRND
 40
0.0
  9
$DIMDLE
 40
0.0
  9
$DIMEXE
 40
1.0
  9
$DIMTP
 40
0.0
  9
$DIMTM
 40
0.0
  9
$DIMTXT
 40
3.5
  9
$DIMCEN
 40
2.5
  9
$DIMTSZ
 40
0.0
  9
$DIMTOL
 70
     0
  9
$DIMLIM
 70
     0
  9
$DIMTIH
 70
     1
  9
$DIMTOH
 70
     1
  9
$DIMSE1
 70
     0
  9
$DIMSE2
 70
     0
  9
$DIMTAD
 70
     1
  9
$DIMZIN
 70
     0
  9
$DIMBLK
  1

  9
$DIMASO
 70
     1
  9
$DIMSHO
 70
     1
  9
$DIMPOST
  1

  9
$DIMAPOST
  1

  9
$DIMALT
 70
     0
  9
$DIMALTD
 70
     3
  9
$DIMALTF
 40
0.0393700787
  9
$DIMLFAC
 40
1.0
  9
$DIMTOFL
 70
     1
  9
$DIMTVP
 40
0.0
  9
$DIMTIX
 70
     0
  9
$DIMSOXD
 70
     0
  9
$DIMSAH
 70
     0
  9
$DIMBLK1
  1

  9
$DIMBLK2
  1

  9
$DIMSTYLE
  2
ISO-25
  9
$DIMCLRD
 70
     0
  9
$DIMCLRE
 70
     0
  9
$DIMCLRT
 70
     0
  9
$DIMTFAC
 40
1.0
  9
$DIMGAP
 40
1.524
  9
$LUNITS
 70
     2
  9
$LUPREC
 70
     2
  9
$SKETCHINC
 40
1.0
  9
$FILLETRAD
 40
10.0
  9
$AUNITS
 70
     0
  9
$AUPREC
 70
     2
  9
$MENU
  1
.
  9
$ELEVATION
 40
0.0
  9
$PELEVATION
 40
0.0
  9
$THICKNESS
 40
0.0
  9
$LIMCHECK
 70
     0
  9
$CHAMFERA
 40
0.0
  9
$CHAMFERB
 40
0.0
  9
$SKPOLY
 70
     0
  9
$TDCREATE
 40
2459641.674812373
  9
$TDUPDATE
 40
2459641.674893935
  9
$TDINDWG
 40
0.0000000116
  9
$TDUSRTIMER
 40
0.0000000116
  9
$USRTIMER
 70
     1
  9
$ANGBASE
 50
0.0
  9
$ANGDIR
 70
     0
  9
$PDMODE
 70
     0
  9
$PDSIZE
 40
-1.0
  9
$PLINEWID
 40
0.0
  9
$COORDS
 70
     1
  9
$SPLFRAME
 70
     0
  9
$SPLINETYPE
 70
     6
  9
$SPLINESEGS
 70
     8
  9
$ATTDIA
 70
     0
  9
$ATTREQ
 70
     1
  9
$HANDLING
 70
     1
  9
$HANDSEED
  5
6A5
  9
$SURFTAB1
 70
     6
  9
$SURFTAB2
 70
     6
  9
$SURFTYPE
 70
     6
  9
$SURFU
 70
     6
  9
$SURFV
 70
     6
  9
$UCSNAME
  2

  9
$UCSORG
 10
0.0
 20
0.0
 30
0.0
  9
$UCSXDIR
 10
1.0
 20
0.0
 30
0.0
  9
$UCSYDIR
 10
0.0
 20
1.0
 30
0.0
  9
$PUCSNAME
  2

  9
$PUCSORG
 10
0.0
 20
0.0
 30
0.0
  9
$PUCSXDIR
 10
1.0
 20
0.0
 30
0.0
  9
$PUCSYDIR
 10
0.0
 20
1.0
 30
0.0
  9
$USERI1
 70
     0
  9
$USERI2
 70
     0
  9
$USERI3
 70
     0
  9
$USERI4
 70
     0
  9
$USERI5
 70
     0
  9
$USERR1
 40
0.0
  9
$USERR2
 40
0.0
  9
$USERR3
 40
0.0
  9
$USERR4
 40
0.0
  9
$USERR5
 40
0.0
  9
$WORLDVIEW
 70
     1
  9
$SHADEDGE
 70
     3
  9
$SHADEDIF
 70
    70
  9
$TILEMODE
 70
     1
  9
$MAXACTVP
 70
    64
  9
$PLIMCHECK
 70
     0
  9
$PEXTMIN
 10
1.0000000000E+20
 20
1.0000000000E+20
 30
1.0000000000E+20
  9
$PEXTMAX
 10
-1.0000000000E+20
 20
-1.0000000000E+20
 30
-1.0000000000E+20
  9
$PLIMMIN
 10
0.0
 20
0.0
  9
$PLIMMAX
 10
420.0
 20
297.0
  9
$UNITMODE
 70
     0
  9
$VISRETAIN
 70
     1
  9
$PLINEGEN
 70
     0
  9
$PSLTSCALE
 70
     1
  0
ENDSEC
  0
SECTION
  2
TABLES
  0
TABLE
  2
VPORT
 70
     1
  0
VPORT
  2
*ACTIVE
 70
     0
 10
0.0
 20
0.0
 11
1.0
 21
1.0
 12
210.0
 22
148.5
 13
0.0
 23
0.0
 14
10.0
 24
10.0
 15
10.0
 25
10.0
 16
0.0
 26
0.0
 36
1.0
 17
0.0
 27
0.0
 37
0.0
 40
297.0
 41
1.4141414141
 42
50.0
 43
0.0
 44
0.0
 50
0.0
 51
0.0
 71
     0
 72
  2000
 73
     1
 74
     3
 75
     0
 76
     0
 77
     0
 78
     0
  0
ENDTAB
  0
TABLE
  2
LTYPE
 70
     6
  0
LTYPE
  2
CONTINUOUS
 70
     0
  3
Solid line
 72
    65
 73
     0
 40
0.0
  0
LTYPE
  2
HIDDEN
 70
     0
  3
Hidden __ __ __ __ __ __ __ __ __ __ __ __ __ __
 72
    65
 73
     2
 40
1.905
 49
1.27
 49
-0.635
  0
LTYPE
  2
PHANTOM
 70
     0
  3
Phantom ______  __  __  ______  __  __  ______
 72
    65
 73
     6
 40
12.7
 49
6.35
 49
-1.27
 49
1.27
 49
-1.27
 49
1.27
 49
-1.27
  0
LTYPE
  2
CENTER
 70
     0
  3
Center ____ _ ____ _ ____ _ ____ _ ____ _ ____
 72
    65
 73
     4
 40
10.16
 49
6.35
 49
-1.27
 49
1.27
 49
-1.27
  0
LTYPE
  2
CENTERX2
 70
     0
  3
Center (2x) ________  __  ________  __  _____
 72
    65
 73
     4
 40
20.32
 49
12.7
 49
-2.54
 49
2.54
 49
-2.54
  0
LTYPE
  2
DOT2
 70
     0
  3
Dot (.5x) ........................................
 72
    65
 73
     2
 40
0.635
 49
0.0
 49
-0.635
  0
ENDTAB
  0
TABLE
  2
LAYER
 70
     1
  0
LAYER
  2
0
 70
     0
 62
     7
  6
CONTINUOUS
  0
ENDTAB
  0
TABLE
  2
STYLE
 70
     1
  0
STYLE
  2
STANDARD
 70
     0
 40
0.0
 41
1.0
 50
0.0
 71
     0
 42
3.5
  3
txt
  4

  0
ENDTAB
  0
TABLE
  2
VIEW
 70
     0
  0
ENDTAB
  0
TABLE
  2
UCS
 70
     0
  0
ENDTAB
  0
TABLE
  2
APPID
 70
     1
  0
APPID
  2
ACAD
 70
     0
  0
ENDTAB
  0
TABLE
  2
DIMSTYLE
 70
     9
  0
DIMSTYLE
  2
ISO-25
 70
     0
  3

  4

  5

  6

  7

 40
1.0
 41
2.5
 42
0.625
 43
3.75
 44
1.25
 45
0.0
 46
0.0
 47
0.0
 48
0.0
140
2.5
141
2.5
142
0.0
143
0.0393700787
144
1.0
145
0.0
146
1.0
147
0.625
 71
     0
 72
     0
 73
     0
 74
     0
 75
     0
 76
     0
 77
     1
 78
     8
170
     0
171
     3
172
     1
173
     0
174
     0
175
     0
176
     0
177
     0
178
     0
  0
DIMSTYLE
  2
SLDDIMSTYLE0
 70
     0
  3

  4

  5

  6

  7

 40
1.0
 41
3.3
 42
0.0625
 43
0.38
 44
0.0
 45
0.000000001
 46
0.0
 47
0.0
 48
0.0
140
3.5
141
0.09
142
0.0
143
25.4
144
1.0
145
0.0
146
1.0
147
0.875
 71
     0
 72
     0
 73
     0
 74
     0
 75
     0
 76
     0
 77
     1
 78
    12
170
     0
171
     2
172
     1
173
     1
174
     0
175
     0
176
     0
177
     0
178
     0
  0
DIMSTYLE
  2
SLDDIMSTYLE1
 70
     0
  3

  4

  5

  6

  7

 40
1.0
 41
3.3
 42
0.0625
 43
0.38
 44
0.0
 45
0.000000001
 46
0.0
 47
0.0
 48
0.0
140
3.5
141
0.0
142
0.0
143
25.4
144
1.0
145
0.0
146
1.0
147
0.875
 71
     0
 72
     0
 73
     0
 74
     0
 75
     0
 76
     0
 77
     1
 78
    12
170
     0
171
     2
172
     0
173
     1
174
     0
175
     0
176
     0
177
     0
178
     0
  0
DIMSTYLE
  2
SLDDIMSTYLE2
 70
     0
  3

  4

  5

  6

  7

 40
1.0
 41
3.3
 42
0.0625
 43
0.38
 44
0.0
 45
0.000000001
 46
0.0
 47
0.0
 48
0.0
140
3.5
141
0.09
142
0.0
143
25.4
144
1.0
145
0.0
146
1.0
147
0.875
 71
     0
 72
     0
 73
     0
 74
     0
 75
     0
 76
     0
 77
     1
 78
    12
170
     0
171
     2
172
     0
173
     1
174
     0
175
     0
176
     0
177
     0
178
     0
  0
DIMSTYLE
  2
SLDDIMSTYLE3
 70
     0
  3

  4

  5

  6

  7

 40
1.0
 41
3.3
 42
0.0625
 43
0.38
 44
0.0
 45
0.000000001
 46
0.0
 47
0.0
 48
0.0
140
3.5
141
0.0
142
0.0
143
25.4
144
1.0
145
0.0
146
1.0
147
0.875
 71
     0
 72
     0
 73
     0
 74
     0
 75
     0
 76
     0
 77
     1
 78
    12
170
     0
171
     2
172
     0
173
     1
174
     0
175
     0
176
     0
177
     0
178
     0
  0
DIMSTYLE
  2
SLDDIMSTYLE4
 70
     0
  3

  4

  5

  6

  7

 40
1.0
 41
3.3
 42
0.0625
 43
0.38
 44
0.0
 45
0.0
 46
0.0
 47
0.0
 48
0.0
140
3.5
141
0.09
142
0.0
143
25.4
144
1.0
145
0.0
146
1.0
147
0.875
 71
     0
 72
     0
 73
     0
 74
     0
 75
     0
 76
     0
 77
     1
 78
    12
170
     0
171
     2
172
     0
173
     1
174
     0
175
     0
176
     0
177
     0
178
     0
  0
DIMSTYLE
  2
SLDDIMSTYLE5
 70
     0
  3

  4

  5

  6
NONE
  7

 40
1.0
 41
3.3
 42
0.0625
 43
0.38
 44
0.0
 45
0.000000001
 46
0.0
 47
0.0
 48
0.0
140
3.5
141
0.0
142
0.0
143
25.4
144
1.0
145
0.0
146
1.0
147
0.875
 71
     0
 72
     0
 73
     0
 74
     0
 75
     0
 76
     0
 77
     1
 78
    12
170
     0
171
     2
172
     1
173
     1
174
     0
175
     0
176
     0
177
     0
178
     0
  0
DIMSTYLE
  2
SLDDIMSTYLE6
 70
     0
  3

  4

  5

  6

  7

 40
1.0
 41
3.3
 42
0.0625
 43
0.38
 44
0.0
 45
0.000000001
 46
0.0
 47
0.0
 48
0.0
140
3.5
141
0.09
142
0.0
143
25.4
144
1.0
145
0.0
146
1.0
147
0.875
 71
     0
 72
     0
 73
     0
 74
     0
 75
     0
 76
     0
 77
     1
 78
    12
170
     0
171
     2
172
     1
173
     1
174
     0
175
     0
176
     0
177
     0
178
     0
  0
DIMSTYLE
  2
SLDDIMSTYLE7
 70
     0
  3

  4

  5

  6

  7

 40
1.0
 41
3.3
 42
0.0625
 43
0.38
 44
0.0
 45
0.000000001
 46
0.0
 47
0.0
 48
0.0
140
3.5
141
0.0
142
0.0
143
25.4
144
1.0
145
0.0
146
1.0
147
0.875
 71
     0
 72
     0
 73
     0
 74
     0
 75
     0
 76
     0
 77
     1
 78
    12
170
     0
171
     2
172
     0
173
     1
174
     0
175
     0
176
     0
177
     0
178
     0
  0
ENDTAB
  0
ENDSEC
  0
SECTION
  2
BLOCKS
  0
BLOCK
  8
0
  2
$MODEL_SPACE
 70
     0
 10
0.0
 20
0.0
 30
0.0
  3
$MODEL_SPACE
  1

  0
ENDBLK
  5
21
  8
0
  0
BLOCK
 67
     1
  8
0
  2
$PAPER_SPACE
 70
     0
 10
0.0
 20
0.0
 30
0.0
  3
$PAPER_SPACE
  1

  0
ENDBLK
  5
1D
 67
     1
  8
0
  0
BLOCK
  8
0
  2
SW_NOTE_0
 70
     0
 10
0.0
 20
0.0
 30
0.0
  3
SW_NOTE_0
  1

  0
TEXT
  5
CF
  8
0
  6
CONTINUOUS
 62
     0
 10
0.0
 20
0.8831501548
 30
0.0
 40
2.5
  1
Maßstab:      
 41
0.55
 11
0.0
 21
0.0
 31
0.0
 73
     1
  0
TEXT
  5
D0
  8
0
  6
CONTINUOUS
 62
     0
 10
19.7052955627
 20
0.9475215793
 30
0.0
 40
3.5
  1
1:1
 41
0.7
 11
19.7052955627
 21
-0.2888886374
 31
0.0
 73
     1
  0
ENDBLK
  5
CE
  8
0
  0
BLOCK
  8
0
  2
SW_NOTE_0_1
 70
     0
 10
0.0
 20
0.0
 30
0.0
  3
SW_NOTE_0_1
  1

  0
TEXT
  5
E1
  8
0
  6
CONTINUOUS
 62
     0
 10
0.0
 20
0.8831501548
 30
0.0
 40
2.5
  1
Breuer & Schmitz
 41
0.65625
 11
0.0
 21
0.0
 31
0.0
 73
     1
  0
TEXT
  5
E2
  8
0
  6
CONTINUOUS
 62
     0
 10
0.6718747318
 20
-2.6168499532
 30
0.0
 40
2.5
  1
GmbH & Co. KG
 41
0.6192307692
 11
0.6718747318
 21
-3.500000108
 31
0.0
 73
     1
  0
TEXT
  5
E3
  8
0
  6
CONTINUOUS
 62
     0
 10
1.2413188815
 20
-6.1168500613
 30
0.0
 40
2.5
  1
Solingen - Wald
 41
0.6533333333
 11
1.2413188815
 21
-7.0000002161
 31
0.0
 73
     1
  0
TEXT
  5
E4
  8
0
  6
CONTINUOUS
 62
     0
 10
-0.7673613727
 20
-9.6168501693
 30
0.0
 40
2.5
  1
Baubeschlagfabrik
 41
0.7
 11
-0.7673613727
 21
-10.5000003241
 31
0.0
 73
     1
  0
ENDBLK
  5
E0
  8
0
  0
BLOCK
  8
0
  2
SW_NOTE_0_2
 70
     0
 10
0.0
 20
0.0
 30
0.0
  3
SW_NOTE_0_2
  1

  0
TEXT
  5
E9
  8
0
  6
CONTINUOUS
 62
     0
 10
0.0
 20
0.5608003483
 30
0.0
 40
1.5875
  1
Diese Zeichung ist unser Eigentum und darf weder
 41
0.6489583333
 11
0.0
 21
0.0
 31
0.0
 73
     1
  0
TEXT
  5
EA
  8
0
  6
CONTINUOUS
 62
     0
 10
0.0
 20
-1.5558662928
 30
0.0
 40
1.5875
  1
verwertet, vervielfältigt noch Dritten zugänglich 
 41
0.665
 11
0.0
 21
-2.1166666411
 31
0.0
 73
     1
  0
TEXT
  5
EB
  8
0
  6
CONTINUOUS
 62
     0
 10
0.0
 20
-3.6725329339
 30
0.0
 40
1.5875
  1
gemacht werden.
 41
0.7
 11
0.0
 21
-4.2333332822
 31
0.0
 73
     1
  0
TEXT
  5
EC
  8
0
  6
CONTINUOUS
 62
     0
 10
0.0
 20
-7.905866216
 30
0.0
 40
1.5875
  1
This drawing is our property and cannot either be 
 41
0.637
 11
0.0
 21
-8.4666665643
 31
0.0
 73
     1
  0
TEXT
  5
ED
  8
0
  6
CONTINUOUS
 62
     0
 10
0.0
 20
-10.0225328571
 30
0.0
 40
1.5875
  1
utilized for an other purpose or copied nor made 
 41
0.6357142857
 11
0.0
 21
-10.5833332054
 31
0.0
 73
     1
  0
TEXT
  5
EE
  8
0
  6
CONTINUOUS
 62
     0
 10
0.0
 20
-12.1391994982
 30
0.0
 40
1.5875
  1
available to a third.
 41
0.65
 11
0.0
 21
-12.6999998465
 31
0.0
 73
     1
  0
ENDBLK
  5
E8
  8
0
  0
BLOCK
  8
0
  2
_D
 70
     0
 10
0.0
 20
0.0
 30
0.0
  3
_D
  1

  0
SOLID
  5
142
  8
0
  6
CONTINUOUS
 62
     7
 10
135.4657648546
 20
134.1106054659
 30
0.0
 11
138.7657648546
 21
133.6106054659
 31
0.0
 12
138.7657648546
 22
134.6106054659
 32
0.0
 13
138.7657648546
 23
134.6106054659
 33
0.0
  0
SOLID
  5
143
  8
0
  6
CONTINUOUS
 62
     7
 10
155.4657648546
 20
134.1106054659
 30
0.0
 11
152.1657648546
 21
134.6106054659
 31
0.0
 12
152.1657648546
 22
133.6106054659
 32
0.0
 13
152.1657648546
 23
133.6106054659
 33
0.0
  0
LINE
  5
144
  8
0
  6
CONTINUOUS
 62
     7
 10
135.4657648546
 20
125.7468968107
 30
0.0
 11
135.4657648546
 21
135.1106054659
 31
0.0
  0
LINE
  5
145
  8
0
  6
CONTINUOUS
 62
     7
 10
135.4657648546
 20
134.1106054659
 30
0.0
 11
155.4657648546
 21
134.1106054659
 31
0.0
  0
TEXT
  5
146
  8
0
  6
CONTINUOUS
 62
     7
 10
142.7921538097
 20
135.3470159154
 30
0.0
 40
3.5
  1
20
 50
0.0
 41
0.7
 11
142.7921538097
 21
134.1106056987
 31
0.0
 73
     1
  0
ENDBLK
  5
141
  8
0
  0
BLOCK
  8
0
  2
_D_1
 70
     0
 10
0.0
 20
0.0
 30
0.0
  3
_D_1
  1

  0
SOLID
  5
14B
  8
0
  6
CONTINUOUS
 62
     7
 10
145.4657648546
 20
167.1373333403
 30
0.0
 11
142.1657648546
 21
167.6373333403
 31
0.0
 12
142.1657648546
 22
166.6373333403
 32
0.0
 13
142.1657648546
 23
166.6373333403
 33
0.0
  0
SOLID
  5
14C
  8
0
  6
CONTINUOUS
 62
     7
 10
155.4657648546
 20
167.1373333403
 30
0.0
 11
158.7657648546
 21
166.6373333403
 31
0.0
 12
158.7657648546
 22
167.6373333403
 32
0.0
 13
158.7657648546
 23
167.6373333403
 33
0.0
  0
LINE
  5
14D
  8
0
  6
CONTINUOUS
 62
     7
 10
145.4657648546
 20
160.7468968107
 30
0.0
 11
145.4657648546
 21
168.1373333403
 31
0.0
  0
LINE
  5
14E
  8
0
  6
CONTINUOUS
 62
     7
 10
145.4657648546
 20
167.1373333403
 30
0.0
 11
139.2157648546
 21
167.1373333403
 31
0.0
  0
LINE
  5
14F
  8
0
  6
CONTINUOUS
 62
     7
 10
145.4657648546
 20
167.1373333403
 30
0.0
 11
155.4657648546
 21
167.1373333403
 31
0.0
  0
LINE
  5
150
  8
0
  6
CONTINUOUS
 62
     7
 10
155.4657648546
 20
167.1373333403
 30
0.0
 11
161.7157648546
 21
167.1373333403
 31
0.0
  0
TEXT
  5
151
  8
0
  6
CONTINUOUS
 62
     7
 10
147.7921538097
 20
168.3737437898
 30
0.0
 40
3.5
  1
10
 50
0.0
 41
0.7
 11
147.7921538097
 21
167.1373335731
 31
0.0
 73
     1
  0
ENDBLK
  5
14A
  8
0
  0
BLOCK
  8
0
  2
_D_2
 70
     0
 10
0.0
 20
0.0
 30
0.0
  3
_D_2
  1

  0
SOLID
  5
156
  8
0
  6
CONTINUOUS
 62
     7
 10
139.4657648546
 20
200.8727892807
 30
0.0
 11
136.1657648546
 21
201.3727892807
 31
0.0
 12
136.1657648546
 22
200.3727892807
 32
0.0
 13
136.1657648546
 23
200.3727892807
 33
0.0
  0
SOLID
  5
157
  8
0
  6
CONTINUOUS
 62
     7
 10
155.4657648546
 20
200.8727892807
 30
0.0
 11
158.7657648546
 21
200.3727892807
 31
0.0
 12
158.7657648546
 22
201.3727892807
 32
0.0
 13
158.7657648546
 23
201.3727892807
 33
0.0
  0
LINE
  5
158
  8
0
  6
CONTINUOUS
 62
     7
 10
139.4657648546
 20
195.7468968107
 30
0.0
 11
139.4657648546
 21
201.8727892807
 31
0.0
  0
LINE
  5
159
  8
0
  6
CONTINUOUS
 62
     7
 10
139.4657648546
 20
200.8727892807
 30
0.0
 11
133.2157648546
 21
200.8727892807
 31
0.0
  0
LINE
  5
15A
  8
0
  6
CONTINUOUS
 62
     7
 10
139.4657648546
 20
200.8727892807
 30
0.0
 11
155.4657648546
 21
200.8727892807
 31
0.0
  0
LINE
  5
15B
  8
0
  6
CONTINUOUS
 62
     7
 10
155.4657648546
 20
200.8727892807
 30
0.0
 11
161.7157648546
 21
200.8727892807
 31
0.0
  0
TEXT
  5
15C
  8
0
  6
CONTINUOUS
 62
     7
 10
144.7921538097
 20
202.1091997302
 30
0.0
 40
3.5
  1
16
 50
0.0
 41
0.7
 11
144.7921538097
 21
200.8727895135
 31
0.0
 73
     1
  0
ENDBLK
  5
155
  8
0
  0
BLOCK
  8
0
  2
_D_3
 70
     0
 10
0.0
 20
0.0
 30
0.0
  3
_D_3
  1

  0
SOLID
  5
162
  8
0
  6
CONTINUOUS
 62
     7
 10
141.7534542534
 20
225.7092074119
 30
0.0
 11
139.7735552661
 21
228.3962131804
 31
0.0
 12
139.0664484849
 22
227.6891063992
 32
0.0
 13
139.0664484849
 23
227.6891063992
 33
0.0
  0
LINE
  5
163
  8
0
  6
CONTINUOUS
 62
     7
 10
141.7534542534
 20
225.7092074119
 30
0.0
 11
124.3389688675
 21
243.1236927978
 31
0.0
  0
TEXT
  5
164
  8
0
  6
CONTINUOUS
 62
     7
 10
125.1891649463
 20
243.9738888766
 30
0.0
 40
3.5
  1
%%c
 50
-45.0
 41
0.7
 11
124.3148908977
 21
243.099614828
 31
0.0
 73
     1
  0
TEXT
  5
165
  8
0
  6
CONTINUOUS
 62
     7
 10
128.8043712988
 20
240.3724319456
 30
0.0
 40
3.5
  1
10,5
 50
-45.0
 41
0.7
 11
127.9300972502
 21
239.498157897
 31
0.0
 73
     1
  0
TEXT
  5
166
  8
0
  6
CONTINUOUS
 62
     7
 10
135.4212207198
 20
233.7555825246
 30
0.0
 40
3.5
  1
X90
 50
-45.0
 41
0.7
 11
134.5469466713
 21
232.881308476
 31
0.0
 73
     1
  0
TEXT
  5
167
  8
0
  6
CONTINUOUS
 62
     7
 10
141.4640374728
 20
227.6990163501
 30
0.0
 40
3.5
  1
%%d
 50
-45.0
 41
0.7
 11
140.5897634242
 21
226.8247423015
 31
0.0
 73
     1
  0
ENDBLK
  5
161
  8
0
  0
BLOCK
  8
0
  2
_D_4
 70
     0
 10
0.0
 20
0.0
 30
0.0
  3
_D_4
  1

  0
SOLID
  5
16C
  8
0
  6
CONTINUOUS
 62
     7
 10
136.9657648546
 20
254.3988205993
 30
0.0
 11
138.1827521527
 21
251.2909367668
 31
0.0
 12
139.0487775565
 22
251.7909367668
 32
0.0
 13
139.0487775565
 23
251.7909367668
 33
0.0
  0
LINE
  5
16D
  8
0
  6
CONTINUOUS
 62
     7
 10
136.9657648546
 20
254.3988205993
 30
0.0
 11
144.0286337751
 21
242.1655727818
 31
0.0
  0
TEXT
  5
16E
  8
0
  6
CONTINUOUS
 62
     7
 10
141.162205132
 20
249.4902404426
 30
0.0
 40
3.5
  1
%%c
 50
300.0
 41
0.7
 11
140.0914424748
 21
248.8720353342
 31
0.0
 73
     1
  0
TEXT
  5
16F
  8
0
  6
CONTINUOUS
 62
     7
 10
143.7221006713
 20
245.0758159247
 30
0.0
 40
3.5
  1
6
 50
300.0
 41
0.7
 11
142.6513380142
 21
244.4576108163
 31
0.0
 73
     1
  0
ENDBLK
  5
16B
  8
0
  0
BLOCK
  8
0
  2
_D_5
 70
     0
 10
0.0
 20
0.0
 30
0.0
  3
_D_5
  1

  0
SOLID
  5
175
  8
0
  6
CONTINUOUS
 62
     7
 10
176.522624734
 20
267.1468968107
 30
0.0
 11
176.022624734
 21
263.8468968107
 31
0.0
 12
177.022624734
 22
263.8468968107
 32
0.0
 13
177.022624734
 23
263.8468968107
 33
0.0
  0
SOLID
  5
176
  8
0
  6
CONTINUOUS
 62
     7
 10
176.522624734
 20
106.8468968107
 30
0.0
 11
177.022624734
 21
110.1468968107
 31
0.0
 12
176.022624734
 22
110.1468968107
 32
0.0
 13
176.022624734
 23
110.1468968107
 33
0.0
  0
LINE
  5
177
  8
0
  6
CONTINUOUS
 62
     7
 10
144.4657648546
 20
267.1468968107
 30
0.0
 11
177.522624734
 21
267.1468968107
 31
0.0
  0
LINE
  5
178
  8
0
  6
CONTINUOUS
 62
     7
 10
144.4657648546
 20
106.8468968107
 30
0.0
 11
177.522624734
 21
106.8468968107
 31
0.0
  0
LINE
  5
179
  8
0
  6
CONTINUOUS
 62
     7
 10
176.522624734
 20
267.1468968107
 30
0.0
 11
176.522624734
 21
106.8468968107
 31
0.0
  0
TEXT
  5
17A
  8
0
  6
CONTINUOUS
 62
     7
 10
175.2862142845
 20
180.9812719597
 30
0.0
 40
3.5
  1
160,3
 50
90.0
 41
0.7
 11
176.5226245012
 21
180.9812719597
 31
0.0
 73
     1
  0
ENDBLK
  5
174
  8
0
  0
BLOCK
  8
0
  2
_D_6
 70
     0
 10
0.0
 20
0.0
 30
0.0
  3
_D_6
  1

  0
SOLID
  5
17F
  8
0
  6
CONTINUOUS
 62
     7
 10
166.7391183765
 20
116.9968968107
 30
0.0
 11
167.2391183765
 21
120.2968968107
 31
0.0
 12
166.2391183765
 22
120.2968968107
 32
0.0
 13
166.2391183765
 23
120.2968968107
 33
0.0
  0
SOLID
  5
180
  8
0
  6
CONTINUOUS
 62
     7
 10
166.7391183765
 20
151.9968968107
 30
0.0
 11
166.2391183765
 21
148.6968968107
 31
0.0
 12
167.2391183765
 22
148.6968968107
 32
0.0
 13
167.2391183765
 23
148.6968968107
 33
0.0
  0
LINE
  5
181
  8
0
  6
CONTINUOUS
 62
     7
 10
136.4657648546
 20
116.9968968107
 30
0.0
 11
167.7391183765
 21
116.9968968107
 31
0.0
  0
LINE
  5
182
  8
0
  6
CONTINUOUS
 62
     7
 10
146.4657648546
 20
151.9968968107
 30
0.0
 11
167.7391183765
 21
151.9968968107
 31
0.0
  0
LINE
  5
183
  8
0
  6
CONTINUOUS
 62
     7
 10
166.7391183765
 20
116.9968968107
 30
0.0
 11
166.7391183765
 21
151.9968968107
 31
0.0
  0
TEXT
  5
184
  8
0
  6
CONTINUOUS
 62
     7
 10
165.5027079269
 20
131.8232857658
 30
0.0
 40
3.5
  1
35
 50
90.0
 41
0.7
 11
166.7391181436
 21
131.8232857658
 31
0.0
 73
     1
  0
ENDBLK
  5
17E
  8
0
  0
BLOCK
  8
0
  2
_D_7
 70
     0
 10
0.0
 20
0.0
 30
0.0
  3
_D_7
  1

  0
SOLID
  5
189
  8
0
  6
CONTINUOUS
 62
     7
 10
166.7391183765
 20
151.9968968107
 30
0.0
 11
167.2391183765
 21
155.2968968107
 31
0.0
 12
166.2391183765
 22
155.2968968107
 32
0.0
 13
166.2391183765
 23
155.2968968107
 33
0.0
  0
SOLID
  5
18A
  8
0
  6
CONTINUOUS
 62
     7
 10
166.7391183765
 20
186.9968968107
 30
0.0
 11
166.2391183765
 21
183.6968968107
 31
0.0
 12
167.2391183765
 22
183.6968968107
 32
0.0
 13
167.2391183765
 23
183.6968968107
 33
0.0
  0
LINE
  5
18B
  8
0
  6
CONTINUOUS
 62
     7
 10
146.4657648546
 20
151.9968968107
 30
0.0
 11
167.7391183765
 21
151.9968968107
 31
0.0
  0
LINE
  5
18C
  8
0
  6
CONTINUOUS
 62
     7
 10
140.4657648546
 20
186.9968968107
 30
0.0
 11
167.7391183765
 21
186.9968968107
 31
0.0
  0
LINE
  5
18D
  8
0
  6
CONTINUOUS
 62
     7
 10
166.7391183765
 20
151.9968968107
 30
0.0
 11
166.7391183765
 21
186.9968968107
 31
0.0
  0
TEXT
  5
18E
  8
0
  6
CONTINUOUS
 62
     7
 10
165.5027079269
 20
166.8232857658
 30
0.0
 40
3.5
  1
35
 50
90.0
 41
0.7
 11
166.7391181436
 21
166.8232857658
 31
0.0
 73
     1
  0
ENDBLK
  5
188
  8
0
  0
BLOCK
  8
0
  2
_D_8
 70
     0
 10
0.0
 20
0.0
 30
0.0
  3
_D_8
  1

  0
SOLID
  5
193
  8
0
  6
CONTINUOUS
 62
     7
 10
166.7391183765
 20
186.9968968107
 30
0.0
 11
167.2391183765
 21
190.2968968107
 31
0.0
 12
166.2391183765
 22
190.2968968107
 32
0.0
 13
166.2391183765
 23
190.2968968107
 33
0.0
  0
SOLID
  5
194
  8
0
  6
CONTINUOUS
 62
     7
 10
166.7391183765
 20
221.9968968107
 30
0.0
 11
166.2391183765
 21
218.6968968107
 31
0.0
 12
167.2391183765
 22
218.6968968107
 32
0.0
 13
167.2391183765
 23
218.6968968107
 33
0.0
  0
LINE
  5
195
  8
0
  6
CONTINUOUS
 62
     7
 10
140.4657648546
 20
186.9968968107
 30
0.0
 11
167.7391183765
 21
186.9968968107
 31
0.0
  0
LINE
  5
196
  8
0
  6
CONTINUOUS
 62
     7
 10
146.4657648546
 20
221.9968968107
 30
0.0
 11
167.7391183765
 21
221.9968968107
 31
0.0
  0
LINE
  5
197
  8
0
  6
CONTINUOUS
 62
     7
 10
166.7391183765
 20
186.9968968107
 30
0.0
 11
166.7391183765
 21
221.9968968107
 31
0.0
  0
TEXT
  5
198
  8
0
  6
CONTINUOUS
 62
     7
 10
165.5027079269
 20
201.8232857658
 30
0.0
 40
3.5
  1
35
 50
90.0
 41
0.7
 11
166.7391181436
 21
201.8232857658
 31
0.0
 73
     1
  0
ENDBLK
  5
192
  8
0
  0
BLOCK
  8
0
  2
_D_9
 70
     0
 10
0.0
 20
0.0
 30
0.0
  3
_D_9
  1

  0
SOLID
  5
19D
  8
0
  6
CONTINUOUS
 62
     7
 10
166.7391183765
 20
221.9968968107
 30
0.0
 11
167.2391183765
 21
225.2968968107
 31
0.0
 12
166.2391183765
 22
225.2968968107
 32
0.0
 13
166.2391183765
 23
225.2968968107
 33
0.0
  0
SOLID
  5
19E
  8
0
  6
CONTINUOUS
 62
     7
 10
166.7391183765
 20
256.9968968107
 30
0.0
 11
166.2391183765
 21
253.6968968107
 31
0.0
 12
167.2391183765
 22
253.6968968107
 32
0.0
 13
167.2391183765
 23
253.6968968107
 33
0.0
  0
LINE
  5
19F
  8
0
  6
CONTINUOUS
 62
     7
 10
146.4657648546
 20
221.9968968107
 30
0.0
 11
167.7391183765
 21
221.9968968107
 31
0.0
  0
LINE
  5
1A0
  8
0
  6
CONTINUOUS
 62
     7
 10
136.4657648546
 20
256.9968968107
 30
0.0
 11
167.7391183765
 21
256.9968968107
 31
0.0
  0
LINE
  5
1A1
  8
0
  6
CONTINUOUS
 62
     7
 10
166.7391183765
 20
221.9968968107
 30
0.0
 11
166.7391183765
 21
256.9968968107
 31
0.0
  0
TEXT
  5
1A2
  8
0
  6
CONTINUOUS
 62
     7
 10
165.5027079269
 20
236.8232857658
 30
0.0
 40
3.5
  1
35
 50
90.0
 41
0.7
 11
166.7391181436
 21
236.8232857658
 31
0.0
 73
     1
  0
ENDBLK
  5
19C
  8
0
  0
BLOCK
  8
0
  2
_D_10
 70
     0
 10
0.0
 20
0.0
 30
0.0
  3
_D_10
  1

  0
SOLID
  5
1A7
  8
0
  6
CONTINUOUS
 62
     7
 10
55.1216651961
 20
138.9968968107
 30
0.0
 11
55.6216651961
 21
142.2968968107
 31
0.0
 12
54.6216651961
 22
142.2968968107
 32
0.0
 13
54.6216651961
 23
142.2968968107
 33
0.0
  0
SOLID
  5
1A8
  8
0
  6
CONTINUOUS
 62
     7
 10
55.1216651961
 20
170.9968968107
 30
0.0
 11
54.6216651961
 21
167.6968968107
 31
0.0
 12
55.6216651961
 22
167.6968968107
 32
0.0
 13
55.6216651961
 23
167.6968968107
 33
0.0
  0
LINE
  5
1A9
  8
0
  6
CONTINUOUS
 62
     7
 10
66.9657648546
 20
138.9968968107
 30
0.0
 11
54.1216651961
 21
138.9968968107
 31
0.0
  0
LINE
  5
1AA
  8
0
  6
CONTINUOUS
 62
     7
 10
66.9657648546
 20
170.9968968107
 30
0.0
 11
54.1216651961
 21
170.9968968107
 31
0.0
  0
LINE
  5
1AB
  8
0
  6
CONTINUOUS
 62
     7
 10
55.1216651961
 20
138.9968968107
 30
0.0
 11
55.1216651961
 21
170.9968968107
 31
0.0
  0
TEXT
  5
1AC
  8
0
  6
CONTINUOUS
 62
     7
 10
53.8852547466
 20
152.3232857658
 30
0.0
 40
3.5
  1
32
 50
90.0
 41
0.7
 11
55.1216649633
 21
152.3232857658
 31
0.0
 73
     1
  0
ENDBLK
  5
1A6
  8
0
  0
BLOCK
  8
0
  2
_D_11
 70
     0
 10
0.0
 20
0.0
 30
0.0
  3
_D_11
  1

  0
SOLID
  5
1B1
  8
0
  6
CONTINUOUS
 62
     7
 10
55.1216651961
 20
170.9968968107
 30
0.0
 11
55.6216651961
 21
174.2968968107
 31
0.0
 12
54.6216651961
 22
174.2968968107
 32
0.0
 13
54.6216651961
 23
174.2968968107
 33
0.0
  0
SOLID
  5
1B2
  8
0
  6
CONTINUOUS
 62
     7
 10
55.1216651961
 20
202.9968968107
 30
0.0
 11
54.6216651961
 21
199.6968968107
 31
0.0
 12
55.6216651961
 22
199.6968968107
 32
0.0
 13
55.6216651961
 23
199.6968968107
 33
0.0
  0
LINE
  5
1B3
  8
0
  6
CONTINUOUS
 62
     7
 10
66.9657648546
 20
170.9968968107
 30
0.0
 11
54.1216651961
 21
170.9968968107
 31
0.0
  0
LINE
  5
1B4
  8
0
  6
CONTINUOUS
 62
     7
 10
66.9657648546
 20
202.9968968107
 30
0.0
 11
54.1216651961
 21
202.9968968107
 31
0.0
  0
LINE
  5
1B5
  8
0
  6
CONTINUOUS
 62
     7
 10
55.1216651961
 20
170.9968968107
 30
0.0
 11
55.1216651961
 21
202.9968968107
 31
0.0
  0
TEXT
  5
1B6
  8
0
  6
CONTINUOUS
 62
     7
 10
53.8852547466
 20
184.3232857658
 30
0.0
 40
3.5
  1
32
 50
90.0
 41
0.7
 11
55.1216649633
 21
184.3232857658
 31
0.0
 73
     1
  0
ENDBLK
  5
1B0
  8
0
  0
BLOCK
  8
0
  2
_D_12
 70
     0
 10
0.0
 20
0.0
 30
0.0
  3
_D_12
  1

  0
SOLID
  5
1BB
  8
0
  6
CONTINUOUS
 62
     7
 10
55.1216651961
 20
202.9968968107
 30
0.0
 11
55.6216651961
 21
206.2968968107
 31
0.0
 12
54.6216651961
 22
206.2968968107
 32
0.0
 13
54.6216651961
 23
206.2968968107
 33
0.0
  0
SOLID
  5
1BC
  8
0
  6
CONTINUOUS
 62
     7
 10
55.1216651961
 20
234.9968968107
 30
0.0
 11
54.6216651961
 21
231.6968968107
 31
0.0
 12
55.6216651961
 22
231.6968968107
 32
0.0
 13
55.6216651961
 23
231.6968968107
 33
0.0
  0
LINE
  5
1BD
  8
0
  6
CONTINUOUS
 62
     7
 10
66.9657648546
 20
202.9968968107
 30
0.0
 11
54.1216651961
 21
202.9968968107
 31
0.0
  0
LINE
  5
1BE
  8
0
  6
CONTINUOUS
 62
     7
 10
66.9657648546
 20
234.9968968107
 30
0.0
 11
54.1216651961
 21
234.9968968107
 31
0.0
  0
LINE
  5
1BF
  8
0
  6
CONTINUOUS
 62
     7
 10
55.1216651961
 20
202.9968968107
 30
0.0
 11
55.1216651961
 21
234.9968968107
 31
0.0
  0
TEXT
  5
1C0
  8
0
  6
CONTINUOUS
 62
     7
 10
53.8852547466
 20
216.3232857658
 30
0.0
 40
3.5
  1
32
 50
90.0
 41
0.7
 11
55.1216649633
 21
216.3232857658
 31
0.0
 73
     1
  0
ENDBLK
  5
1BA
  8
0
  0
BLOCK
  8
0
  2
_D_13
 70
     0
 10
0.0
 20
0.0
 30
0.0
  3
_D_13
  1

  0
SOLID
  5
1C5
  8
0
  6
CONTINUOUS
 62
     7
 10
45.9657648546
 20
256.9968968107
 30
0.0
 11
45.4657648546
 21
253.6968968107
 31
0.0
 12
46.4657648546
 22
253.6968968107
 32
0.0
 13
46.4657648546
 23
253.6968968107
 33
0.0
  0
SOLID
  5
1C6
  8
0
  6
CONTINUOUS
 62
     7
 10
45.9657648546
 20
116.9968968107
 30
0.0
 11
46.4657648546
 21
120.2968968107
 31
0.0
 12
45.4657648546
 22
120.2968968107
 32
0.0
 13
45.4657648546
 23
120.2968968107
 33
0.0
  0
LINE
  5
1C7
  8
0
  6
CONTINUOUS
 62
     7
 10
70.9657648546
 20
256.9968968107
 30
0.0
 11
44.9657648546
 21
256.9968968107
 31
0.0
  0
LINE
  5
1C8
  8
0
  6
CONTINUOUS
 62
     7
 10
70.9657648546
 20
116.9968968107
 30
0.0
 11
44.9657648546
 21
116.9968968107
 31
0.0
  0
LINE
  5
1C9
  8
0
  6
CONTINUOUS
 62
     7
 10
45.9657648546
 20
256.9968968107
 30
0.0
 11
45.9657648546
 21
116.9968968107
 31
0.0
  0
TEXT
  5
1CA
  8
0
  6
CONTINUOUS
 62
     7
 10
44.7293544051
 20
182.9864802433
 30
0.0
 40
3.5
  1
140
 50
90.0
 41
0.7
 11
45.9657646218
 21
182.9864802433
 31
0.0
 73
     1
  0
ENDBLK
  5
1C4
  8
0
  0
BLOCK
  8
0
  2
_D_14
 70
     0
 10
0.0
 20
0.0
 30
0.0
  3
_D_14
  1

  0
SOLID
  5
1CF
  8
0
  6
CONTINUOUS
 62
     7
 10
69.9657648546
 20
100.8678134976
 30
0.0
 11
73.2657648546
 21
100.3678134976
 31
0.0
 12
73.2657648546
 22
101.3678134976
 32
0.0
 13
73.2657648546
 23
101.3678134976
 33
0.0
  0
SOLID
  5
1D0
  8
0
  6
CONTINUOUS
 62
     7
 10
95.9657648546
 20
100.8678134976
 30
0.0
 11
92.6657648546
 21
101.3678134976
 31
0.0
 12
92.6657648546
 22
100.3678134976
 32
0.0
 13
92.6657648546
 23
100.3678134976
 33
0.0
  0
LINE
  5
1D1
  8
0
  6
CONTINUOUS
 62
     7
 10
69.9657648546
 20
117.9968968107
 30
0.0
 11
69.9657648546
 21
99.8678134976
 31
0.0
  0
LINE
  5
1D2
  8
0
  6
CONTINUOUS
 62
     7
 10
95.9657648546
 20
117.9968968107
 30
0.0
 11
95.9657648546
 21
99.8678134976
 31
0.0
  0
LINE
  5
1D3
  8
0
  6
CONTINUOUS
 62
     7
 10
69.9657648546
 20
100.8678134976
 30
0.0
 11
95.9657648546
 21
100.8678134976
 31
0.0
  0
TEXT
  5
1D4
  8
0
  6
CONTINUOUS
 62
     7
 10
80.2921538097
 20
102.1042239471
 30
0.0
 40
3.5
  1
26
 50
0.0
 41
0.7
 11
80.2921538097
 21
100.8678137304
 31
0.0
 73
     1
  0
ENDBLK
  5
1CE
  8
0
  0
BLOCK
  8
0
  2
_D_15
 70
     0
 10
0.0
 20
0.0
 30
0.0
  3
_D_15
  1

  0
SOLID
  5
1D9
  8
0
  6
CONTINUOUS
 62
     7
 10
94.9668874722
 20
167.4968968107
 30
0.0
 11
94.4668874722
 21
164.1968968107
 31
0.0
 12
95.4668874722
 22
164.1968968107
 32
0.0
 13
95.4668874722
 23
164.1968968107
 33
0.0
  0
SOLID
  5
1DA
  8
0
  6
CONTINUOUS
 62
     7
 10
94.9668874722
 20
174.4968968107
 30
0.0
 11
95.4668874722
 21
177.7968968107
 31
0.0
 12
94.4668874722
 22
177.7968968107
 32
0.0
 13
94.4668874722
 23
177.7968968107
 33
0.0
  0
LINE
  5
1DB
  8
0
  6
CONTINUOUS
 62
     7
 10
91.9657648546
 20
167.4968968107
 30
0.0
 11
95.9668874722
 21
167.4968968107
 31
0.0
  0
LINE
  5
1DC
  8
0
  6
CONTINUOUS
 62
     7
 10
91.9657648546
 20
174.4968968107
 30
0.0
 11
95.9668874722
 21
174.4968968107
 31
0.0
  0
LINE
  5
1DD
  8
0
  6
CONTINUOUS
 62
     7
 10
94.9668874722
 20
167.4968968107
 30
0.0
 11
94.9668874722
 21
161.2468968107
 31
0.0
  0
LINE
  5
1DE
  8
0
  6
CONTINUOUS
 62
     7
 10
94.9668874722
 20
167.4968968107
 30
0.0
 11
94.9668874722
 21
174.4968968107
 31
0.0
  0
LINE
  5
1DF
  8
0
  6
CONTINUOUS
 62
     7
 10
94.9668874722
 20
174.4968968107
 30
0.0
 11
94.9668874722
 21
180.7468968107
 31
0.0
  0
TEXT
  5
1E0
  8
0
  6
CONTINUOUS
 62
     7
 10
93.7304770227
 20
169.6600912882
 30
0.0
 40
3.5
  1
7
 50
90.0
 41
0.7
 11
94.9668872394
 21
169.6600912882
 31
0.0
 73
     1
  0
ENDBLK
  5
1D8
  8
0
  0
BLOCK
  8
0
  2
_D_16
 70
     0
 10
0.0
 20
0.0
 30
0.0
  3
_D_16
  1

  0
SOLID
  5
1E6
  8
0
  6
CONTINUOUS
 62
     7
 10
85.9175637856
 20
162.5892411443
 30
0.0
 11
87.4070818922
 21
159.6023806168
 31
0.0
 12
88.2250245032
 22
160.1776804387
 32
0.0
 13
88.2250245032
 23
160.1776804387
 33
0.0
  0
LINE
  5
1E7
  8
0
  6
CONTINUOUS
 62
     7
 10
85.9175637856
 20
162.5892411443
 30
0.0
 11
91.52661775
 21
154.6144703012
 31
0.0
  0
LINE
  5
1E8
  8
0
  6
CONTINUOUS
 62
     7
 10
85.9175637856
 20
162.5892411443
 30
0.0
 11
82.4657648546
 21
167.4968968107
 31
0.0
  0
TEXT
  5
1E9
  8
0
  6
CONTINUOUS
 62
     7
 10
88.9572416382
 20
160.3193727916
 30
0.0
 40
3.5
  1
R6
 50
305.1206316055
 41
0.7
 11
87.9459290372
 21
159.6080662143
 31
0.0
 73
     1
  0
ENDBLK
  5
1E5
  8
0
  0
BLOCK
  8
0
  2
_D_17
 70
     0
 10
0.0
 20
0.0
 30
0.0
  3
_D_17
  1

  0
SOLID
  5
1EE
  8
0
  6
CONTINUOUS
 62
     7
 10
82.4657648546
 20
271.1655273676
 30
0.0
 11
85.7657648546
 21
270.6655273676
 31
0.0
 12
85.7657648546
 22
271.6655273676
 32
0.0
 13
85.7657648546
 23
271.6655273676
 33
0.0
  0
SOLID
  5
1EF
  8
0
  6
CONTINUOUS
 62
     7
 10
69.9657648546
 20
271.1655273676
 30
0.0
 11
66.6657648546
 21
271.6655273676
 31
0.0
 12
66.6657648546
 22
270.6655273676
 32
0.0
 13
66.6657648546
 23
270.6655273676
 33
0.0
  0
LINE
  5
1F0
  8
0
  6
CONTINUOUS
 62
     7
 10
82.4657648546
 20
247.9968968107
 30
0.0
 11
82.4657648546
 21
272.1655273676
 31
0.0
  0
LINE
  5
1F1
  8
0
  6
CONTINUOUS
 62
     7
 10
69.9657648546
 20
255.9968968107
 30
0.0
 11
69.9657648546
 21
272.1655273676
 31
0.0
  0
LINE
  5
1F2
  8
0
  6
CONTINUOUS
 62
     7
 10
82.4657648546
 20
271.1655273676
 30
0.0
 11
88.7157648546
 21
271.1655273676
 31
0.0
  0
LINE
  5
1F3
  8
0
  6
CONTINUOUS
 62
     7
 10
82.4657648546
 20
271.1655273676
 30
0.0
 11
69.9657648546
 21
271.1655273676
 31
0.0
  0
LINE
  5
1F4
  8
0
  6
CONTINUOUS
 62
     7
 10
69.9657648546
 20
271.1655273676
 30
0.0
 11
63.7157648546
 21
271.1655273676
 31
0.0
  0
TEXT
  5
1F5
  8
0
  6
CONTINUOUS
 62
     7
 10
71.5369455261
 20
272.4019378172
 30
0.0
 40
3.5
  1
12,5
 50
0.0
 41
0.7
 11
71.5369455261
 21
271.1655276004
 31
0.0
 73
     1
  0
ENDBLK
  5
1ED
  8
0
  0
BLOCK
  8
0
  2
_D_18
 70
     0
 10
0.0
 20
0.0
 30
0.0
  3
_D_18
  1

  0
ARC
  5
1FB
  8
0
  6
CONTINUOUS
 62
     7
 10
76.4657648546
 20
231.4968968107
 30
0.0
 40
10.78649435461054
 50
180.0
 51
185.0
  0
ARC
  5
1FC
  8
0
  6
CONTINUOUS
 62
     7
 10
76.4657648546
 20
231.4968968107
 30
0.0
 40
10.78649435461054
 50
147.9217750226
 51
180.0
  0
ARC
  5
1FD
  8
0
  6
CONTINUOUS
 62
     7
 10
76.4657648546
 20
231.4968968107
 30
0.0
 40
10.78649435461054
 50
185.0
 51
213.3720161053
  0
SOLID
  5
1FE
  8
0
  6
CONTINUOUS
 62
     7
 10
65.6792705
 20
231.4968968107
 30
0.0
 11
66.6618520602
 21
234.6866512648
 31
0.0
 12
65.6728502219
 22
234.8345544893
 32
0.0
 13
65.6728502219
 23
234.8345544893
 33
0.0
  0
SOLID
  5
1FF
  8
0
  6
CONTINUOUS
 62
     7
 10
65.7203163676
 20
230.5567918835
 30
0.0
 11
66.0048165546
 21
227.2312754359
 31
0.0
 12
66.9771643269
 22
227.4648130338
 32
0.0
 13
66.9771643269
 23
227.4648130338
 33
0.0
  0
LINE
  5
200
  8
0
  6
CONTINUOUS
 62
     7
 10
72.9657648546
 20
231.4968968107
 30
0.0
 11
64.6792705
 21
231.4968968107
 31
0.0
  0
LINE
  5
201
  8
0
  6
CONTINUOUS
 62
     7
 10
68.9695701565
 20
230.841064755
 30
0.0
 11
64.7241216695
 21
230.4696361408
 31
0.0
  0
TEXT
  5
202
  8
0
  6
CONTINUOUS
 62
     7
 10
66.7337072459
 20
230.1634939622
 30
0.0
 40
3.5
  1
5°
 50
291.3386537922
 41
0.7
 11
65.582057953
 21
229.7135893833
 31
0.0
 73
     1
  0
ENDBLK
  5
1FA
  8
0
  0
BLOCK
  8
0
  2
_D_19
 70
     0
 10
0.0
 20
0.0
 30
0.0
  3
_D_19
  1

  0
SOLID
  5
207
  8
0
  6
CONTINUOUS
 62
     7
 10
62.4693626711
 20
206.4968968107
 30
0.0
 11
62.9693626711
 21
209.7968968107
 31
0.0
 12
61.9693626711
 22
209.7968968107
 32
0.0
 13
61.9693626711
 23
209.7968968107
 33
0.0
  0
SOLID
  5
208
  8
0
  6
CONTINUOUS
 62
     7
 10
62.4693626711
 20
199.4968968107
 30
0.0
 11
61.9693626711
 21
196.1968968107
 31
0.0
 12
62.9693626711
 22
196.1968968107
 32
0.0
 13
62.9693626711
 23
196.1968968107
 33
0.0
  0
LINE
  5
209
  8
0
  6
CONTINUOUS
 62
     7
 10
75.4657648546
 20
206.4968968107
 30
0.0
 11
61.4693626711
 21
206.4968968107
 31
0.0
  0
LINE
  5
20A
  8
0
  6
CONTINUOUS
 62
     7
 10
75.4657648546
 20
199.4968968107
 30
0.0
 11
61.4693626711
 21
199.4968968107
 31
0.0
  0
LINE
  5
20B
  8
0
  6
CONTINUOUS
 62
     7
 10
62.4693626711
 20
206.4968968107
 30
0.0
 11
62.4693626711
 21
212.9450674679
 31
0.0
  0
LINE
  5
20C
  8
0
  6
CONTINUOUS
 62
     7
 10
62.4693626711
 20
206.4968968107
 30
0.0
 11
62.4693626711
 21
199.4968968107
 31
0.0
  0
LINE
  5
20D
  8
0
  6
CONTINUOUS
 62
     7
 10
62.4693626711
 20
199.4968968107
 30
0.0
 11
62.4693626711
 21
193.2468968107
 31
0.0
  0
TEXT
  5
20E
  8
0
  6
CONTINUOUS
 62
     7
 10
61.2329522216
 20
210.271456423
 30
0.0
 40
3.5
  1
7
 50
90.0
 41
0.7
 11
62.4693624383
 21
210.271456423
 31
0.0
 73
     1
  0
ENDBLK
  5
206
  8
0
  0
BLOCK
  8
0
  2
SW_CENTERMARKSYMBOL_0
 70
     0
 10
0.0
 20
0.0
 30
0.0
  3
SW_CENTERMARKSYMBOL_0
  1

  0
LINE
  5
212
  8
0
  6
CONTINUOUS
 62
     0
 10
0.0
 20
0.0
 30
0.0
 11
0.0
 21
-2.5
 31
0.0
  0
LINE
  5
213
  8
0
  6
CONTINUOUS
 62
     0
 10
0.0
 20
0.0
 30
0.0
 11
2.5
 21
0.0
 31
0.0
  0
LINE
  5
214
  8
0
  6
CONTINUOUS
 62
     0
 10
0.0
 20
0.0
 30
0.0
 11
0.0
 21
2.5
 31
0.0
  0
LINE
  5
215
  8
0
  6
CONTINUOUS
 62
     0
 10
0.0
 20
0.0
 30
0.0
 11
-2.5
 21
0.0
 31
0.0
  0
LINE
  5
216
  8
0
  6
CONTINUOUS
 62
     0
 10
0.0
 20
-5.0
 30
0.0
 11
0.0
 21
-7.75
 31
0.0
  0
LINE
  5
217
  8
0
  6
CONTINUOUS
 62
     0
 10
5.0
 20
0.0
 30
0.0
 11
7.75
 21
0.0
 31
0.0
  0
LINE
  5
218
  8
0
  6
CONTINUOUS
 62
     0
 10
0.0
 20
5.0
 30
0.0
 11
0.0
 21
7.75
 31
0.0
  0
LINE
  5
219
  8
0
  6
CONTINUOUS
 62
     0
 10
-5.0
 20
0.0
 30
0.0
 11
-7.75
 21
0.0
 31
0.0
  0
ENDBLK
  5
211
  8
0
  0
BLOCK
  8
0
  2
SW_CENTERMARKSYMBOL_1
 70
     0
 10
0.0
 20
0.0
 30
0.0
  3
SW_CENTERMARKSYMBOL_1
  1

  0
LINE
  5
21E
  8
0
  6
CONTINUOUS
 62
     0
 10
0.0
 20
0.0
 30
0.0
 11
0.0
 21
-2.5
 31
0.0
  0
LINE
  5
21F
  8
0
  6
CONTINUOUS
 62
     0
 10
0.0
 20
0.0
 30
0.0
 11
2.5
 21
0.0
 31
0.0
  0
LINE
  5
220
  8
0
  6
CONTINUOUS
 62
     0
 10
0.0
 20
0.0
 30
0.0
 11
0.0
 21
2.5
 31
0.0
  0
LINE
  5
221
  8
0
  6
CONTINUOUS
 62
     0
 10
0.0
 20
0.0
 30
0.0
 11
-2.5
 21
0.0
 31
0.0
  0
LINE
  5
222
  8
0
  6
CONTINUOUS
 62
     0
 10
0.0
 20
-5.0
 30
0.0
 11
0.0
 21
-7.75
 31
0.0
  0
LINE
  5
223
  8
0
  6
CONTINUOUS
 62
     0
 10
5.0
 20
0.0
 30
0.0
 11
7.75
 21
0.0
 31
0.0
  0
LINE
  5
224
  8
0
  6
CONTINUOUS
 62
     0
 10
0.0
 20
5.0
 30
0.0
 11
0.0
 21
7.75
 31
0.0
  0
LINE
  5
225
  8
0
  6
CONTINUOUS
 62
     0
 10
-5.0
 20
0.0
 30
0.0
 11
-7.75
 21
0.0
 31
0.0
  0
ENDBLK
  5
21D
  8
0
  0
BLOCK
  8
0
  2
SW_CENTERMARKSYMBOL_2
 70
     0
 10
0.0
 20
0.0
 30
0.0
  3
SW_CENTERMARKSYMBOL_2
  1

  0
LINE
  5
22A
  8
0
  6
CONTINUOUS
 62
     0
 10
0.0
 20
0.0
 30
0.0
 11
0.0
 21
-2.5
 31
0.0
  0
LINE
  5
22B
  8
0
  6
CONTINUOUS
 62
     0
 10
0.0
 20
0.0
 30
0.0
 11
2.5
 21
0.0
 31
0.0
  0
LINE
  5
22C
  8
0
  6
CONTINUOUS
 62
     0
 10
0.0
 20
0.0
 30
0.0
 11
0.0
 21
2.5
 31
0.0
  0
LINE
  5
22D
  8
0
  6
CONTINUOUS
 62
     0
 10
0.0
 20
0.0
 30
0.0
 11
-2.5
 21
0.0
 31
0.0
  0
LINE
  5
22E
  8
0
  6
CONTINUOUS
 62
     0
 10
0.0
 20
-5.0
 30
0.0
 11
0.0
 21
-7.75
 31
0.0
  0
LINE
  5
22F
  8
0
  6
CONTINUOUS
 62
     0
 10
5.0
 20
0.0
 30
0.0
 11
18.7816198701
 21
0.0
 31
0.0
  0
LINE
  5
230
  8
0
  6
CONTINUOUS
 62
     0
 10
0.0
 20
5.0
 30
0.0
 11
0.0
 21
7.75
 31
0.0
  0
LINE
  5
231
  8
0
  6
CONTINUOUS
 62
     0
 10
-5.0
 20
0.0
 30
0.0
 11
-72.1773859879
 21
0.0
 31
0.0
  0
ENDBLK
  5
229
  8
0
  0
BLOCK
  8
0
  2
SW_CENTERMARKSYMBOL_3
 70
     0
 10
0.0
 20
0.0
 30
0.0
  3
SW_CENTERMARKSYMBOL_3
  1

  0
LINE
  5
236
  8
0
  6
CONTINUOUS
 62
     0
 10
0.0
 20
0.0
 30
0.0
 11
0.0
 21
-2.5
 31
0.0
  0
LINE
  5
237
  8
0
  6
CONTINUOUS
 62
     0
 10
0.0
 20
0.0
 30
0.0
 11
2.5
 21
0.0
 31
0.0
  0
LINE
  5
238
  8
0
  6
CONTINUOUS
 62
     0
 10
0.0
 20
0.0
 30
0.0
 11
0.0
 21
2.5
 31
0.0
  0
LINE
  5
239
  8
0
  6
CONTINUOUS
 62
     0
 10
0.0
 20
0.0
 30
0.0
 11
-2.5
 21
0.0
 31
0.0
  0
LINE
  5
23A
  8
0
  6
CONTINUOUS
 62
     0
 10
0.0
 20
-5.0
 30
0.0
 11
0.0
 21
-7.75
 31
0.0
  0
LINE
  5
23B
  8
0
  6
CONTINUOUS
 62
     0
 10
5.0
 20
0.0
 30
0.0
 11
7.75
 21
0.0
 31
0.0
  0
LINE
  5
23C
  8
0
  6
CONTINUOUS
 62
     0
 10
0.0
 20
5.0
 30
0.0
 11
0.0
 21
7.75
 31
0.0
  0
LINE
  5
23D
  8
0
  6
CONTINUOUS
 62
     0
 10
-5.0
 20
0.0
 30
0.0
 11
-7.75
 21
0.0
 31
0.0
  0
ENDBLK
  5
235
  8
0
  0
BLOCK
  8
0
  2
SW_CENTERMARKSYMBOL_4
 70
     0
 10
0.0
 20
0.0
 30
0.0
  3
SW_CENTERMARKSYMBOL_4
  1

  0
LINE
  5
242
  8
0
  6
CONTINUOUS
 62
     0
 10
0.0
 20
0.0
 30
0.0
 11
0.0
 21
-2.5
 31
0.0
  0
LINE
  5
243
  8
0
  6
CONTINUOUS
 62
     0
 10
0.0
 20
0.0
 30
0.0
 11
2.5
 21
0.0
 31
0.0
  0
LINE
  5
244
  8
0
  6
CONTINUOUS
 62
     0
 10
0.0
 20
0.0
 30
0.0
 11
0.0
 21
2.5
 31
0.0
  0
LINE
  5
245
  8
0
  6
CONTINUOUS
 62
     0
 10
0.0
 20
0.0
 30
0.0
 11
-2.5
 21
0.0
 31
0.0
  0
LINE
  5
246
  8
0
  6
CONTINUOUS
 62
     0
 10
0.0
 20
-5.0
 30
0.0
 11
0.0
 21
-7.75
 31
0.0
  0
LINE
  5
247
  8
0
  6
CONTINUOUS
 62
     0
 10
5.0
 20
0.0
 30
0.0
 11
7.75
 21
0.0
 31
0.0
  0
LINE
  5
248
  8
0
  6
CONTINUOUS
 62
     0
 10
0.0
 20
5.0
 30
0.0
 11
0.0
 21
7.75
 31
0.0
  0
LINE
  5
249
  8
0
  6
CONTINUOUS
 62
     0
 10
-5.0
 20
0.0
 30
0.0
 11
-7.75
 21
0.0
 31
0.0
  0
ENDBLK
  5
241
  8
0
  0
BLOCK
  8
0
  2
SW_CENTERMARKSYMBOL_5
 70
     0
 10
0.0
 20
0.0
 30
0.0
  3
SW_CENTERMARKSYMBOL_5
  1

  0
LINE
  5
24E
  8
0
  6
CONTINUOUS
 62
     0
 10
0.0
 20
0.0
 30
0.0
 11
0.0
 21
-2.5
 31
0.0
  0
LINE
  5
24F
  8
0
  6
CONTINUOUS
 62
     0
 10
0.0
 20
0.0
 30
0.0
 11
2.5
 21
0.0
 31
0.0
  0
LINE
  5
250
  8
0
  6
CONTINUOUS
 62
     0
 10
0.0
 20
0.0
 30
0.0
 11
0.0
 21
2.5
 31
0.0
  0
LINE
  5
251
  8
0
  6
CONTINUOUS
 62
     0
 10
0.0
 20
0.0
 30
0.0
 11
-2.5
 21
0.0
 31
0.0
  0
LINE
  5
252
  8
0
  6
CONTINUOUS
 62
     0
 10
0.0
 20
-5.0
 30
0.0
 11
0.0
 21
-8.5
 31
0.0
  0
LINE
  5
253
  8
0
  6
CONTINUOUS
 62
     0
 10
5.0
 20
0.0
 30
0.0
 11
8.5
 21
0.0
 31
0.0
  0
LINE
  5
254
  8
0
  6
CONTINUOUS
 62
     0
 10
0.0
 20
5.0
 30
0.0
 11
0.0
 21
8.5
 31
0.0
  0
LINE
  5
255
  8
0
  6
CONTINUOUS
 62
     0
 10
-5.0
 20
0.0
 30
0.0
 11
-8.5
 21
0.0
 31
0.0
  0
ENDBLK
  5
24D
  8
0
  0
BLOCK
  8
0
  2
SW_CENTERMARKSYMBOL_6
 70
     0
 10
0.0
 20
0.0
 30
0.0
  3
SW_CENTERMARKSYMBOL_6
  1

  0
LINE
  5
25A
  8
0
  6
CONTINUOUS
 62
     0
 10
0.0
 20
0.0
 30
0.0
 11
0.0
 21
-2.5
 31
0.0
  0
LINE
  5
25B
  8
0
  6
CONTINUOUS
 62
     0
 10
0.0
 20
0.0
 30
0.0
 11
2.5
 21
0.0
 31
0.0
  0
LINE
  5
25C
  8
0
  6
CONTINUOUS
 62
     0
 10
0.0
 20
0.0
 30
0.0
 11
0.0
 21
2.5
 31
0.0
  0
LINE
  5
25D
  8
0
  6
CONTINUOUS
 62
     0
 10
0.0
 20
0.0
 30
0.0
 11
-2.5
 21
0.0
 31
0.0
  0
LINE
  5
25E
  8
0
  6
CONTINUOUS
 62
     0
 10
0.0
 20
-5.0
 30
0.0
 11
0.0
 21
-8.5
 31
0.0
  0
LINE
  5
25F
  8
0
  6
CONTINUOUS
 62
     0
 10
5.0
 20
0.0
 30
0.0
 11
8.5
 21
0.0
 31
0.0
  0
LINE
  5
260
  8
0
  6
CONTINUOUS
 62
     0
 10
0.0
 20
5.0
 30
0.0
 11
0.0
 21
8.5
 31
0.0
  0
LINE
  5
261
  8
0
  6
CONTINUOUS
 62
     0
 10
-5.0
 20
0.0
 30
0.0
 11
-8.5
 21
0.0
 31
0.0
  0
ENDBLK
  5
259
  8
0
  0
BLOCK
  8
0
  2
SW_CENTERMARKSYMBOL_7
 70
     0
 10
0.0
 20
0.0
 30
0.0
  3
SW_CENTERMARKSYMBOL_7
  1

  0
LINE
  5
266
  8
0
  6
CONTINUOUS
 62
     0
 10
0.0
 20
0.0
 30
0.0
 11
0.0
 21
-2.5
 31
0.0
  0
LINE
  5
267
  8
0
  6
CONTINUOUS
 62
     0
 10
0.0
 20
0.0
 30
0.0
 11
2.5
 21
0.0
 31
0.0
  0
LINE
  5
268
  8
0
  6
CONTINUOUS
 62
     0
 10
0.0
 20
0.0
 30
0.0
 11
0.0
 21
2.5
 31
0.0
  0
LINE
  5
269
  8
0
  6
CONTINUOUS
 62
     0
 10
0.0
 20
0.0
 30
0.0
 11
-2.5
 21
0.0
 31
0.0
  0
LINE
  5
26A
  8
0
  6
CONTINUOUS
 62
     0
 10
0.0
 20
-5.0
 30
0.0
 11
0.0
 21
-8.5
 31
0.0
  0
LINE
  5
26B
  8
0
  6
CONTINUOUS
 62
     0
 10
5.0
 20
0.0
 30
0.0
 11
8.5
 21
0.0
 31
0.0
  0
LINE
  5
26C
  8
0
  6
CONTINUOUS
 62
     0
 10
0.0
 20
5.0
 30
0.0
 11
0.0
 21
8.5
 31
0.0
  0
LINE
  5
26D
  8
0
  6
CONTINUOUS
 62
     0
 10
-5.0
 20
0.0
 30
0.0
 11
-8.5
 21
0.0
 31
0.0
  0
ENDBLK
  5
265
  8
0
  0
BLOCK
  8
0
  2
SW_CENTERMARKSYMBOL_8
 70
     0
 10
0.0
 20
0.0
 30
0.0
  3
SW_CENTERMARKSYMBOL_8
  1

  0
LINE
  5
272
  8
0
  6
CONTINUOUS
 62
     0
 10
0.0
 20
0.0
 30
0.0
 11
0.0
 21
-2.5
 31
0.0
  0
LINE
  5
273
  8
0
  6
CONTINUOUS
 62
     0
 10
0.0
 20
0.0
 30
0.0
 11
2.5
 21
0.0
 31
0.0
  0
LINE
  5
274
  8
0
  6
CONTINUOUS
 62
     0
 10
0.0
 20
0.0
 30
0.0
 11
0.0
 21
2.5
 31
0.0
  0
LINE
  5
275
  8
0
  6
CONTINUOUS
 62
     0
 10
0.0
 20
0.0
 30
0.0
 11
-2.5
 21
0.0
 31
0.0
  0
LINE
  5
276
  8
0
  6
CONTINUOUS
 62
     0
 10
0.0
 20
-5.0
 30
0.0
 11
0.0
 21
-8.5
 31
0.0
  0
LINE
  5
277
  8
0
  6
CONTINUOUS
 62
     0
 10
5.0
 20
0.0
 30
0.0
 11
8.5
 21
0.0
 31
0.0
  0
LINE
  5
278
  8
0
  6
CONTINUOUS
 62
     0
 10
0.0
 20
5.0
 30
0.0
 11
0.0
 21
8.5
 31
0.0
  0
LINE
  5
279
  8
0
  6
CONTINUOUS
 62
     0
 10
-5.0
 20
0.0
 30
0.0
 11
-8.5
 21
0.0
 31
0.0
  0
ENDBLK
  5
271
  8
0
  0
BLOCK
  8
0
  2
SW_CENTERMARKSYMBOL_9
 70
     0
 10
0.0
 20
0.0
 30
0.0
  3
SW_CENTERMARKSYMBOL_9
  1

  0
LINE
  5
27E
  8
0
  6
CONTINUOUS
 62
     0
 10
0.0
 20
0.0
 30
0.0
 11
0.0
 21
-2.5
 31
0.0
  0
LINE
  5
27F
  8
0
  6
CONTINUOUS
 62
     0
 10
0.0
 20
0.0
 30
0.0
 11
2.5
 21
0.0
 31
0.0
  0
LINE
  5
280
  8
0
  6
CONTINUOUS
 62
     0
 10
0.0
 20
0.0
 30
0.0
 11
0.0
 21
2.5
 31
0.0
  0
LINE
  5
281
  8
0
  6
CONTINUOUS
 62
     0
 10
0.0
 20
0.0
 30
0.0
 11
-2.5
 21
0.0
 31
0.0
  0
LINE
  5
282
  8
0
  6
CONTINUOUS
 62
     0
 10
0.0
 20
-5.0
 30
0.0
 11
0.0
 21
-8.5
 31
0.0
  0
LINE
  5
283
  8
0
  6
CONTINUOUS
 62
     0
 10
5.0
 20
0.0
 30
0.0
 11
8.5
 21
0.0
 31
0.0
  0
LINE
  5
284
  8
0
  6
CONTINUOUS
 62
     0
 10
0.0
 20
5.0
 30
0.0
 11
0.0
 21
8.5
 31
0.0
  0
LINE
  5
285
  8
0
  6
CONTINUOUS
 62
     0
 10
-5.0
 20
0.0
 30
0.0
 11
-8.5
 21
0.0
 31
0.0
  0
ENDBLK
  5
27D
  8
0
  0
BLOCK
  8
0
  2
SW_CENTERMARKSYMBOL_10
 70
     0
 10
0.0
 20
0.0
 30
0.0
  3
SW_CENTERMARKSYMBOL_10
  1

  0
LINE
  5
28A
  8
0
  6
CONTINUOUS
 62
     0
 10
0.0
 20
0.0
 30
0.0
 11
0.0
 21
-2.5
 31
0.0
  0
LINE
  5
28B
  8
0
  6
CONTINUOUS
 62
     0
 10
0.0
 20
0.0
 30
0.0
 11
2.5
 21
0.0
 31
0.0
  0
LINE
  5
28C
  8
0
  6
CONTINUOUS
 62
     0
 10
0.0
 20
0.0
 30
0.0
 11
0.0
 21
2.5
 31
0.0
  0
LINE
  5
28D
  8
0
  6
CONTINUOUS
 62
     0
 10
0.0
 20
0.0
 30
0.0
 11
-2.5
 21
0.0
 31
0.0
  0
LINE
  5
28E
  8
0
  6
CONTINUOUS
 62
     0
 10
0.0
 20
-5.0
 30
0.0
 11
0.0
 21
-8.5
 31
0.0
  0
LINE
  5
28F
  8
0
  6
CONTINUOUS
 62
     0
 10
5.0
 20
0.0
 30
0.0
 11
8.5
 21
0.0
 31
0.0
  0
LINE
  5
290
  8
0
  6
CONTINUOUS
 62
     0
 10
0.0
 20
5.0
 30
0.0
 11
0.0
 21
8.5
 31
0.0
  0
LINE
  5
291
  8
0
  6
CONTINUOUS
 62
     0
 10
-5.0
 20
0.0
 30
0.0
 11
-8.5
 21
0.0
 31
0.0
  0
ENDBLK
  5
289
  8
0
  0
BLOCK
  8
0
  2
SW_CENTERMARKSYMBOL_11
 70
     0
 10
0.0
 20
0.0
 30
0.0
  3
SW_CENTERMARKSYMBOL_11
  1

  0
LINE
  5
296
  8
0
  6
CONTINUOUS
 62
     0
 10
0.0
 20
0.0
 30
0.0
 11
0.0
 21
-2.5
 31
0.0
  0
LINE
  5
297
  8
0
  6
CONTINUOUS
 62
     0
 10
0.0
 20
0.0
 30
0.0
 11
2.5
 21
0.0
 31
0.0
  0
LINE
  5
298
  8
0
  6
CONTINUOUS
 62
     0
 10
0.0
 20
0.0
 30
0.0
 11
0.0
 21
2.5
 31
0.0
  0
LINE
  5
299
  8
0
  6
CONTINUOUS
 62
     0
 10
0.0
 20
0.0
 30
0.0
 11
-2.5
 21
0.0
 31
0.0
  0
LINE
  5
29A
  8
0
  6
CONTINUOUS
 62
     0
 10
0.0
 20
-5.0
 30
0.0
 11
0.0
 21
-8.5
 31
0.0
  0
LINE
  5
29B
  8
0
  6
CONTINUOUS
 62
     0
 10
5.0
 20
0.0
 30
0.0
 11
8.5
 21
0.0
 31
0.0
  0
LINE
  5
29C
  8
0
  6
CONTINUOUS
 62
     0
 10
0.0
 20
5.0
 30
0.0
 11
0.0
 21
8.5
 31
0.0
  0
LINE
  5
29D
  8
0
  6
CONTINUOUS
 62
     0
 10
-5.0
 20
0.0
 30
0.0
 11
-8.5
 21
0.0
 31
0.0
  0
ENDBLK
  5
295
  8
0
  0
BLOCK
  8
0
  2
SW_CENTERMARKSYMBOL_12
 70
     0
 10
0.0
 20
0.0
 30
0.0
  3
SW_CENTERMARKSYMBOL_12
  1

  0
LINE
  5
2A2
  8
0
  6
CONTINUOUS
 62
     0
 10
0.0
 20
0.0
 30
0.0
 11
0.0
 21
-2.5
 31
0.0
  0
LINE
  5
2A3
  8
0
  6
CONTINUOUS
 62
     0
 10
0.0
 20
0.0
 30
0.0
 11
2.5
 21
0.0
 31
0.0
  0
LINE
  5
2A4
  8
0
  6
CONTINUOUS
 62
     0
 10
0.0
 20
0.0
 30
0.0
 11
0.0
 21
2.5
 31
0.0
  0
LINE
  5
2A5
  8
0
  6
CONTINUOUS
 62
     0
 10
0.0
 20
0.0
 30
0.0
 11
-2.5
 21
0.0
 31
0.0
  0
LINE
  5
2A6
  8
0
  6
CONTINUOUS
 62
     0
 10
0.0
 20
-5.0
 30
0.0
 11
0.0
 21
-8.5
 31
0.0
  0
LINE
  5
2A7
  8
0
  6
CONTINUOUS
 62
     0
 10
5.0
 20
0.0
 30
0.0
 11
8.5
 21
0.0
 31
0.0
  0
LINE
  5
2A8
  8
0
  6
CONTINUOUS
 62
     0
 10
0.0
 20
5.0
 30
0.0
 11
0.0
 21
8.5
 31
0.0
  0
LINE
  5
2A9
  8
0
  6
CONTINUOUS
 62
     0
 10
-5.0
 20
0.0
 30
0.0
 11
-8.5
 21
0.0
 31
0.0
  0
ENDBLK
  5
2A1
  8
0
  0
BLOCK
  8
0
  2
_NONE
 70
     0
 10
0.0
 20
0.0
 30
0.0
  3
_NONE
  1

  0
ENDBLK
  5
2D8
  8
0
  0
BLOCK
  8
0
  2
_D_20
 70
     0
 10
0.0
 20
0.0
 30
0.0
  3
_D_20
  1

  0
SOLID
  5
2DC
  8
0
  6
CONTINUOUS
 62
     7
 10
119.0827176223
 20
47.9480199718
 30
0.0
 11
121.6906014548
 21
45.8650072699
 31
0.0
 12
122.1906014548
 22
46.7310326737
 32
0.0
 13
122.1906014548
 23
46.7310326737
 33
0.0
  0
LINE
  5
2DD
  8
0
  6
CONTINUOUS
 62
     7
 10
119.0827176223
 20
47.9480199718
 30
0.0
 11
135.6161679383
 21
38.4024279812
 31
0.0
  0
LINE
  5
2DE
  8
0
  6
CONTINUOUS
 62
     7
 10
119.0827176223
 20
47.9480199718
 30
0.0
 11
101.848812087
 21
57.8980199718
 31
0.0
  0
TEXT
  5
2DF
  8
0
  6
CONTINUOUS
 62
     7
 10
127.175096602
 20
44.6824098951
 30
-0.0070485174
 40
3.5
  1
%%c
 50
330.0
 41
0.7
 11
126.5568914937
 21
43.6116472379
 31
-0.0070485174
 73
     1
  0
TEXT
  5
2E0
  8
0
  6
CONTINUOUS
 62
     7
 10
131.5992434291
 20
42.1393538892
 30
-0.0070485174
 40
3.5
  1
20
 50
330.0
 41
0.7
 11
130.9810383207
 21
41.068591232
 31
-0.0070485174
 73
     1
  0
ENDBLK
  5
2DB
  8
0
  0
BLOCK
  8
0
  2
_D_21
 70
     0
 10
0.0
 20
0.0
 30
0.0
  3
_D_21
  1

  0
SOLID
  5
2E5
  8
0
  6
CONTINUOUS
 62
     7
 10
110.4657648546
 20
71.051515736
 30
0.0
 11
107.1657648546
 21
71.551515736
 31
0.0
 12
107.1657648546
 22
70.551515736
 32
0.0
 13
107.1657648546
 23
70.551515736
 33
0.0
  0
SOLID
  5
2E6
  8
0
  6
CONTINUOUS
 62
     7
 10
65.4657648546
 20
71.051515736
 30
0.0
 11
68.7657648546
 21
70.551515736
 31
0.0
 12
68.7657648546
 22
71.551515736
 32
0.0
 13
68.7657648546
 23
71.551515736
 33
0.0
  0
LINE
  5
2E7
  8
0
  6
CONTINUOUS
 62
     7
 10
110.4657648546
 20
66.3730199718
 30
0.0
 11
110.4657648546
 21
72.051515736
 31
0.0
  0
LINE
  5
2E8
  8
0
  6
CONTINUOUS
 62
     7
 10
65.4657648546
 20
63.8730199718
 30
0.0
 11
65.4657648546
 21
72.051515736
 31
0.0
  0
LINE
  5
2E9
  8
0
  6
CONTINUOUS
 62
     7
 10
110.4657648546
 20
71.051515736
 30
0.0
 11
65.4657648546
 21
71.051515736
 31
0.0
  0
TEXT
  5
2EA
  8
0
  6
CONTINUOUS
 62
     7
 10
85.2921538097
 20
72.2879261856
 30
-0.0070485174
 40
3.5
  1
45
 50
0.0
 41
0.7
 11
85.2921538097
 21
71.0515159689
 31
-0.0070485174
 73
     1
  0
ENDBLK
  5
2E4
  8
0
  0
BLOCK
  8
0
  2
_D_22
 70
     0
 10
0.0
 20
0.0
 30
0.0
  3
_D_22
  1

  0
SOLID
  5
2EF
  8
0
  6
CONTINUOUS
 62
     7
 10
110.4657648546
 20
38.637490478
 30
0.0
 11
107.1657648546
 21
39.137490478
 31
0.0
 12
107.1657648546
 22
38.137490478
 32
0.0
 13
107.1657648546
 23
38.137490478
 33
0.0
  0
SOLID
  5
2F0
  8
0
  6
CONTINUOUS
 62
     7
 10
69.9657648546
 20
38.637490478
 30
0.0
 11
73.2657648546
 21
38.137490478
 31
0.0
 12
73.2657648546
 22
39.137490478
 32
0.0
 13
73.2657648546
 23
39.137490478
 33
0.0
  0
LINE
  5
2F1
  8
0
  6
CONTINUOUS
 62
     7
 10
110.4657648546
 20
39.4730199718
 30
0.0
 11
110.4657648546
 21
37.637490478
 31
0.0
  0
LINE
  5
2F2
  8
0
  6
CONTINUOUS
 62
     7
 10
69.9657648546
 20
43.4230199718
 30
0.0
 11
69.9657648546
 21
37.637490478
 31
0.0
  0
LINE
  5
2F3
  8
0
  6
CONTINUOUS
 62
     7
 10
110.4657648546
 20
38.637490478
 30
0.0
 11
69.9657648546
 21
38.637490478
 31
0.0
  0
TEXT
  5
2F4
  8
0
  6
CONTINUOUS
 62
     7
 10
85.5369455261
 20
39.8739009276
 30
-0.0070485174
 40
3.5
  1
40,5
 50
0.0
 41
0.7
 11
85.5369455261
 21
38.6374907109
 31
-0.0070485174
 73
     1
  0
ENDBLK
  5
2EE
  8
0
  0
BLOCK
  8
0
  2
_D_23
 70
     0
 10
0.0
 20
0.0
 30
0.0
  3
_D_23
  1

  0
SOLID
  5
2F9
  8
0
  6
CONTINUOUS
 62
     7
 10
58.2171573285
 20
44.4230199718
 30
0.0
 11
57.7171573285
 21
41.1230199718
 31
0.0
 12
58.7171573285
 22
41.1230199718
 32
0.0
 13
58.7171573285
 23
41.1230199718
 33
0.0
  0
SOLID
  5
2FA
  8
0
  6
CONTINUOUS
 62
     7
 10
58.2171573285
 20
47.4230199718
 30
0.0
 11
58.7171573285
 21
50.7230199718
 31
0.0
 12
57.7171573285
 22
50.7230199718
 32
0.0
 13
57.7171573285
 23
50.7230199718
 33
0.0
  0
LINE
  5
2FB
  8
0
  6
CONTINUOUS
 62
     7
 10
68.9657648546
 20
44.4230199718
 30
0.0
 11
57.2171573285
 21
44.4230199718
 31
0.0
  0
LINE
  5
2FC
  8
0
  6
CONTINUOUS
 62
     7
 10
68.9657648546
 20
47.4230199718
 30
0.0
 11
57.2171573285
 21
47.4230199718
 31
0.0
  0
LINE
  5
2FD
  8
0
  6
CONTINUOUS
 62
     7
 10
58.2171573285
 20
44.4230199718
 30
0.0
 11
58.2171573285
 21
37.3006849556
 31
0.0
  0
LINE
  5
2FE
  8
0
  6
CONTINUOUS
 62
     7
 10
58.2171573285
 20
44.4230199718
 30
0.0
 11
58.2171573285
 21
47.4230199718
 31
0.0
  0
LINE
  5
2FF
  8
0
  6
CONTINUOUS
 62
     7
 10
58.2171573285
 20
47.4230199718
 30
0.0
 11
58.2171573285
 21
53.6730199718
 31
0.0
  0
TEXT
  5
300
  8
0
  6
CONTINUOUS
 62
     7
 10
56.9807468789
 20
37.3006849556
 30
-0.0070485174
 40
3.5
  1
3
 50
90.0
 41
0.7
 11
58.2171570957
 21
37.3006849556
 31
-0.0070485174
 73
     1
  0
ENDBLK
  5
2F8
  8
0
  0
BLOCK
  8
0
  2
_D_24
 70
     0
 10
0.0
 20
0.0
 30
0.0
  3
_D_24
  1

  0
SOLID
  5
306
  8
0
  6
CONTINUOUS
 62
     7
 10
48.4657648546
 20
44.4230199718
 30
0.0
 11
47.9657648546
 21
41.1230199718
 31
0.0
 12
48.9657648546
 22
41.1230199718
 32
0.0
 13
48.9657648546
 23
41.1230199718
 33
0.0
  0
SOLID
  5
307
  8
0
  6
CONTINUOUS
 62
     7
 10
48.4657648546
 20
62.8730199718
 30
0.0
 11
48.9657648546
 21
66.1730199718
 31
0.0
 12
47.9657648546
 22
66.1730199718
 32
0.0
 13
47.9657648546
 23
66.1730199718
 33
0.0
  0
LINE
  5
308
  8
0
  6
CONTINUOUS
 62
     7
 10
68.9657648546
 20
44.4230199718
 30
0.0
 11
47.4657648546
 21
44.4230199718
 31
0.0
  0
LINE
  5
309
  8
0
  6
CONTINUOUS
 62
     7
 10
64.4657648546
 20
62.8730199718
 30
0.0
 11
47.4657648546
 21
62.8730199718
 31
0.0
  0
LINE
  5
30A
  8
0
  6
CONTINUOUS
 62
     7
 10
48.4657648546
 20
44.4230199718
 30
0.0
 11
48.4657648546
 21
38.1730199718
 31
0.0
  0
LINE
  5
30B
  8
0
  6
CONTINUOUS
 62
     7
 10
48.4657648546
 20
44.4230199718
 30
0.0
 11
48.4657648546
 21
62.8730199718
 31
0.0
  0
LINE
  5
30C
  8
0
  6
CONTINUOUS
 62
     7
 10
48.4657648546
 20
62.8730199718
 30
0.0
 11
48.4657648546
 21
69.1230199718
 31
0.0
  0
TEXT
  5
30D
  8
0
  6
CONTINUOUS
 62
     7
 10
47.2293544051
 20
48.9692006432
 30
-0.0070485174
 40
3.5
  1
18,5
 50
90.0
 41
0.7
 11
48.4657646218
 21
48.9692006432
 31
-0.0070485174
 73
     1
  0
ENDBLK
  5
305
  8
0
  0
BLOCK
  8
0
  2
SW_CENTERMARKSYMBOL_13
 70
     0
 10
0.0
 20
0.0
 30
0.0
  3
SW_CENTERMARKSYMBOL_13
  1

  0
LINE
  5
311
  8
0
  6
CONTINUOUS
 62
     0
 10
0.0
 20
0.0
 30
0.0
 11
0.0
 21
-2.5
 31
0.0
  0
LINE
  5
312
  8
0
  6
CONTINUOUS
 62
     0
 10
0.0
 20
0.0
 30
0.0
 11
2.5
 21
0.0
 31
0.0
  0
LINE
  5
313
  8
0
  6
CONTINUOUS
 62
     0
 10
0.0
 20
0.0
 30
0.0
 11
0.0
 21
2.5
 31
0.0
  0
LINE
  5
314
  8
0
  6
CONTINUOUS
 62
     0
 10
0.0
 20
0.0
 30
0.0
 11
-2.5
 21
0.0
 31
0.0
  0
LINE
  5
315
  8
0
  6
CONTINUOUS
 62
     0
 10
0.0
 20
-5.0
 30
0.0
 11
0.0
 21
-12.45
 31
0.0
  0
LINE
  5
316
  8
0
  6
CONTINUOUS
 62
     0
 10
5.0
 20
0.0
 30
0.0
 11
12.45
 21
0.0
 31
0.0
  0
LINE
  5
317
  8
0
  6
CONTINUOUS
 62
     0
 10
0.0
 20
5.0
 30
0.0
 11
0.0
 21
12.45
 31
0.0
  0
LINE
  5
318
  8
0
  6
CONTINUOUS
 62
     0
 10
-5.0
 20
0.0
 30
0.0
 11
-12.45
 21
0.0
 31
0.0
  0
ENDBLK
  5
310
  8
0
  0
BLOCK
  8
0
  2
_D_25
 70
     0
 10
0.0
 20
0.0
 30
0.0
  3
_D_25
  1

  0
SOLID
  5
430
  8
0
  6
CONTINUOUS
 62
     7
 10
307.2672657225
 20
195.2468968107
 30
0.0
 11
306.7672657225
 21
191.9468968107
 31
0.0
 12
307.7672657225
 22
191.9468968107
 32
0.0
 13
307.7672657225
 23
191.9468968107
 33
0.0
  0
SOLID
  5
431
  8
0
  6
CONTINUOUS
 62
     7
 10
307.2672657225
 20
198.7468968107
 30
0.0
 11
307.7672657225
 21
202.0468968107
 31
0.0
 12
306.7672657225
 22
202.0468968107
 32
0.0
 13
306.7672657225
 23
202.0468968107
 33
0.0
  0
LINE
  5
432
  8
0
  6
CONTINUOUS
 62
     7
 10
289.7309336427
 20
195.2468968107
 30
0.0
 11
308.2672657225
 21
195.2468968107
 31
0.0
  0
LINE
  5
433
  8
0
  6
CONTINUOUS
 62
     7
 10
302.7309336427
 20
198.7468968107
 30
0.0
 11
308.2672657225
 21
198.7468968107
 31
0.0
  0
LINE
  5
434
  8
0
  6
CONTINUOUS
 62
     7
 10
307.2672657225
 20
195.2468968107
 30
0.0
 11
307.2672657225
 21
188.9968968107
 31
0.0
  0
LINE
  5
435
  8
0
  6
CONTINUOUS
 62
     7
 10
307.2672657225
 20
195.2468968107
 30
0.0
 11
307.2672657225
 21
198.7468968107
 31
0.0
  0
LINE
  5
436
  8
0
  6
CONTINUOUS
 62
     7
 10
307.2672657225
 20
198.7468968107
 30
0.0
 11
307.2672657225
 21
207.7592211254
 31
0.0
  0
TEXT
  5
437
  8
0
  6
CONTINUOUS
 62
     7
 10
306.0308552729
 20
201.0751935131
 30
-0.0070485174
 40
3.5
  1
3,5
 50
90.0
 41
0.7
 11
307.2672654896
 21
201.0751935131
 31
-0.0070485174
 73
     1
  0
ENDBLK
  5
42F
  8
0
  0
BLOCK
  8
0
  2
_D_26
 70
     0
 10
0.0
 20
0.0
 30
0.0
  3
_D_26
  1

  0
SOLID
  5
43C
  8
0
  6
CONTINUOUS
 62
     7
 10
315.146853082
 20
192.2468968107
 30
0.0
 11
314.646853082
 21
188.9468968107
 31
0.0
 12
315.646853082
 22
188.9468968107
 32
0.0
 13
315.646853082
 23
188.9468968107
 33
0.0
  0
SOLID
  5
43D
  8
0
  6
CONTINUOUS
 62
     7
 10
315.146853082
 20
210.6968968107
 30
0.0
 11
315.646853082
 21
213.9968968107
 31
0.0
 12
314.646853082
 22
213.9968968107
 32
0.0
 13
314.646853082
 23
213.9968968107
 33
0.0
  0
LINE
  5
43E
  8
0
  6
CONTINUOUS
 62
     7
 10
289.7309336427
 20
192.2468968107
 30
0.0
 11
316.146853082
 21
192.2468968107
 31
0.0
  0
LINE
  5
43F
  8
0
  6
CONTINUOUS
 62
     7
 10
285.2309336427
 20
210.6968968107
 30
0.0
 11
316.146853082
 21
210.6968968107
 31
0.0
  0
LINE
  5
440
  8
0
  6
CONTINUOUS
 62
     7
 10
315.146853082
 20
192.2468968107
 30
0.0
 11
315.146853082
 21
185.9968968107
 31
0.0
  0
LINE
  5
441
  8
0
  6
CONTINUOUS
 62
     7
 10
315.146853082
 20
192.2468968107
 30
0.0
 11
315.146853082
 21
210.6968968107
 31
0.0
  0
LINE
  5
442
  8
0
  6
CONTINUOUS
 62
     7
 10
315.146853082
 20
210.6968968107
 30
0.0
 11
315.146853082
 21
216.9468968107
 31
0.0
  0
TEXT
  5
443
  8
0
  6
CONTINUOUS
 62
     7
 10
313.9104426324
 20
196.7930774821
 30
-0.0070485174
 40
3.5
  1
18,5
 50
90.0
 41
0.7
 11
315.1468528491
 21
196.7930774821
 31
-0.0070485174
 73
     1
  0
ENDBLK
  5
43B
  8
0
  0
BLOCK
  8
0
  2
_D_27
 70
     0
 10
0.0
 20
0.0
 30
0.0
  3
_D_27
  1

  0
SOLID
  5
448
  8
0
  6
CONTINUOUS
 62
     7
 10
243.7309336427
 20
240.1481710444
 30
0.0
 11
240.4309336427
 21
240.6481710444
 31
0.0
 12
240.4309336427
 22
239.6481710444
 32
0.0
 13
240.4309336427
 23
239.6481710444
 33
0.0
  0
SOLID
  5
449
  8
0
  6
CONTINUOUS
 62
     7
 10
256.7309336427
 20
240.1481710444
 30
0.0
 11
260.0309336427
 21
239.6481710444
 31
0.0
 12
260.0309336427
 22
240.6481710444
 32
0.0
 13
260.0309336427
 23
240.6481710444
 33
0.0
  0
LINE
  5
44A
  8
0
  6
CONTINUOUS
 62
     7
 10
243.7309336427
 20
203.1968968107
 30
0.0
 11
243.7309336427
 21
241.1481710444
 31
0.0
  0
LINE
  5
44B
  8
0
  6
CONTINUOUS
 62
     7
 10
256.7309336427
 20
227.2468968107
 30
0.0
 11
256.7309336427
 21
241.1481710444
 31
0.0
  0
LINE
  5
44C
  8
0
  6
CONTINUOUS
 62
     7
 10
243.7309336427
 20
240.1481710444
 30
0.0
 11
237.4809336427
 21
240.1481710444
 31
0.0
  0
LINE
  5
44D
  8
0
  6
CONTINUOUS
 62
     7
 10
243.7309336427
 20
240.1481710444
 30
0.0
 11
256.7309336427
 21
240.1481710444
 31
0.0
  0
LINE
  5
44E
  8
0
  6
CONTINUOUS
 62
     7
 10
256.7309336427
 20
240.1481710444
 30
0.0
 11
262.9809336427
 21
240.1481710444
 31
0.0
  0
TEXT
  5
44F
  8
0
  6
CONTINUOUS
 62
     7
 10
247.5573225978
 20
241.3845814939
 30
-0.0070485174
 40
3.5
  1
13
 50
360.0
 41
0.7
 11
247.5573225978
 21
240.1481712772
 31
-0.0070485174
 73
     1
  0
ENDBLK
  5
447
  8
0
  0
BLOCK
  8
0
  2
_D_28
 70
     0
 10
0.0
 20
0.0
 30
0.0
  3
_D_28
  1

  0
SOLID
  5
454
  8
0
  6
CONTINUOUS
 62
     7
 10
284.2309336427
 20
247.4854744096
 30
0.0
 11
280.9309336427
 21
247.9854744096
 31
0.0
 12
280.9309336427
 22
246.9854744096
 32
0.0
 13
280.9309336427
 23
246.9854744096
 33
0.0
  0
SOLID
  5
455
  8
0
  6
CONTINUOUS
 62
     7
 10
243.7309336427
 20
247.4854744096
 30
0.0
 11
247.0309336427
 21
246.9854744096
 31
0.0
 12
247.0309336427
 22
247.9854744096
 32
0.0
 13
247.0309336427
 23
247.9854744096
 33
0.0
  0
LINE
  5
456
  8
0
  6
CONTINUOUS
 62
     7
 10
284.2309336427
 20
211.6968968107
 30
0.0
 11
284.2309336427
 21
248.4854744096
 31
0.0
  0
LINE
  5
457
  8
0
  6
CONTINUOUS
 62
     7
 10
243.7309336427
 20
203.1968968107
 30
0.0
 11
243.7309336427
 21
248.4854744096
 31
0.0
  0
LINE
  5
458
  8
0
  6
CONTINUOUS
 62
     7
 10
284.2309336427
 20
247.4854744096
 30
0.0
 11
243.7309336427
 21
247.4854744096
 31
0.0
  0
TEXT
  5
459
  8
0
  6
CONTINUOUS
 62
     7
 10
259.3021143142
 20
248.7218848591
 30
-0.0070485174
 40
3.5
  1
40,5
 50
0.0
 41
0.7
 11
259.3021143142
 21
247.4854746424
 31
-0.0070485174
 73
     1
  0
ENDBLK
  5
453
  8
0
  0
BLOCK
  8
0
  2
_D_29
 70
     0
 10
0.0
 20
0.0
 30
0.0
  3
_D_29
  1

  0
SOLID
  5
45E
  8
0
  6
CONTINUOUS
 62
     7
 10
256.7309336427
 20
135.2468968107
 30
0.0
 11
260.0309336427
 21
134.7468968107
 31
0.0
 12
260.0309336427
 22
135.7468968107
 32
0.0
 13
260.0309336427
 23
135.7468968107
 33
0.0
  0
SOLID
  5
45F
  8
0
  6
CONTINUOUS
 62
     7
 10
288.7309336427
 20
135.2468968107
 30
0.0
 11
285.4309336427
 21
135.7468968107
 31
0.0
 12
285.4309336427
 22
134.7468968107
 32
0.0
 13
285.4309336427
 23
134.7468968107
 33
0.0
  0
LINE
  5
460
  8
0
  6
CONTINUOUS
 62
     7
 10
256.7309336427
 20
144.2468968107
 30
0.0
 11
256.7309336427
 21
134.2468968107
 31
0.0
  0
LINE
  5
461
  8
0
  6
CONTINUOUS
 62
     7
 10
288.7309336427
 20
191.2468968107
 30
0.0
 11
288.7309336427
 21
134.2468968107
 31
0.0
  0
LINE
  5
462
  8
0
  6
CONTINUOUS
 62
     7
 10
256.7309336427
 20
135.2468968107
 30
0.0
 11
288.7309336427
 21
135.2468968107
 31
0.0
  0
TEXT
  5
463
  8
0
  6
CONTINUOUS
 62
     7
 10
270.0573225978
 20
136.4833072602
 30
-0.0070485174
 40
3.5
  1
32
 50
0.0
 41
0.7
 11
270.0573225978
 21
135.2468970435
 31
-0.0070485174
 73
     1
  0
ENDBLK
  5
45D
  8
0
  0
BLOCK
  8
0
  2
_D_30
 70
     0
 10
0.0
 20
0.0
 30
0.0
  3
_D_30
  1

  0
SOLID
  5
468
  8
0
  6
CONTINUOUS
 62
     7
 10
288.7309336427
 20
128.2468968107
 30
0.0
 11
285.4309336427
 21
128.7468968107
 31
0.0
 12
285.4309336427
 22
127.7468968107
 32
0.0
 13
285.4309336427
 23
127.7468968107
 33
0.0
  0
SOLID
  5
469
  8
0
  6
CONTINUOUS
 62
     7
 10
243.7309336427
 20
128.2468968107
 30
0.0
 11
247.0309336427
 21
127.7468968107
 31
0.0
 12
247.0309336427
 22
128.7468968107
 32
0.0
 13
247.0309336427
 23
128.7468968107
 33
0.0
  0
LINE
  5
46A
  8
0
  6
CONTINUOUS
 62
     7
 10
288.7309336427
 20
191.2468968107
 30
0.0
 11
288.7309336427
 21
127.2468968107
 31
0.0
  0
LINE
  5
46B
  8
0
  6
CONTINUOUS
 62
     7
 10
243.7309336427
 20
201.1968968107
 30
0.0
 11
243.7309336427
 21
127.2468968107
 31
0.0
  0
LINE
  5
46C
  8
0
  6
CONTINUOUS
 62
     7
 10
288.7309336427
 20
128.2468968107
 30
0.0
 11
243.7309336427
 21
128.2468968107
 31
0.0
  0
TEXT
  5
46D
  8
0
  6
CONTINUOUS
 62
     7
 10
263.5573225978
 20
129.4833072602
 30
-0.0070485174
 40
3.5
  1
45
 50
0.0
 41
0.7
 11
263.5573225978
 21
128.2468970435
 31
-0.0070485174
 73
     1
  0
ENDBLK
  5
467
  8
0
  0
BLOCK
  8
0
  2
_D_31
 70
     0
 10
0.0
 20
0.0
 30
0.0
  3
_D_31
  1

  0
SOLID
  5
473
  8
0
  6
CONTINUOUS
 62
     7
 10
237.977134954
 20
194.0792431688
 30
0.0
 11
235.6609176179
 21
191.6760916438
 31
0.0
 12
236.4767622051
 22
191.0978204188
 32
0.0
 13
236.4767622051
 23
191.0978204188
 33
0.0
  0
LINE
  5
474
  8
0
  6
CONTINUOUS
 62
     7
 10
237.977134954
 20
194.0792431688
 30
0.0
 11
229.0118711369
 21
181.430745991
 31
0.0
  0
TEXT
  5
475
  8
0
  6
CONTINUOUS
 62
     7
 10
228.0236926912
 20
182.1311675778
 30
-0.0070485174
 40
3.5
  1
%%c
 50
54.6709585443
 41
0.7
 11
229.0324112739
 21
181.4161871272
 31
-0.0070485174
 73
     1
  0
TEXT
  5
476
  8
0
  6
CONTINUOUS
 62
     7
 10
230.966650839
 20
186.300005106
 30
-0.0070485174
 40
3.5
  1
20
 50
54.6709585443
 41
0.7
 11
231.9753694218
 21
185.5850246554
 31
-0.0070485174
 73
     1
  0
ENDBLK
  5
472
  8
0
  0
BLOCK
  8
0
  2
SW_CENTERMARKSYMBOL_14
 70
     0
 10
0.0
 20
0.0
 30
0.0
  3
SW_CENTERMARKSYMBOL_14
  1

  0
LINE
  5
47A
  8
0
  6
CONTINUOUS
 62
     0
 10
0.0
 20
0.0
 30
0.0
 11
0.0
 21
2.5
 31
0.0
  0
LINE
  5
47B
  8
0
  6
CONTINUOUS
 62
     0
 10
0.0
 20
0.0
 30
0.0
 11
-2.5
 21
0.0
 31
0.0
  0
LINE
  5
47C
  8
0
  6
CONTINUOUS
 62
     0
 10
0.0
 20
0.0
 30
0.0
 11
0.0
 21
-2.5
 31
0.0
  0
LINE
  5
47D
  8
0
  6
CONTINUOUS
 62
     0
 10
0.0
 20
0.0
 30
0.0
 11
2.5
 21
0.0
 31
0.0
  0
LINE
  5
47E
  8
0
  6
CONTINUOUS
 62
     0
 10
0.0
 20
5.0
 30
0.0
 11
0.0
 21
12.45
 31
0.0
  0
LINE
  5
47F
  8
0
  6
CONTINUOUS
 62
     0
 10
-5.0
 20
0.0
 30
0.0
 11
-12.45
 21
0.0
 31
0.0
  0
LINE
  5
480
  8
0
  6
CONTINUOUS
 62
     0
 10
0.0
 20
-5.0
 30
0.0
 11
0.0
 21
-12.45
 31
0.0
  0
LINE
  5
481
  8
0
  6
CONTINUOUS
 62
     0
 10
5.0
 20
0.0
 30
0.0
 11
12.45
 21
0.0
 31
0.0
  0
ENDBLK
  5
479
  8
0
  0
ENDSEC
  0
SECTION
  2
ENTITIES
  0
LINE
  5
74
  8
0
  6
CONTINUOUS
 62
     7
 10
227.8
 20
60.25
 30
0.0
 11
227.8
 21
5.0
 31
0.0
  0
LINE
  5
75
  8
0
  6
CONTINUOUS
 62
     7
 10
235.42
 20
43.25
 30
0.0
 11
235.42
 21
5.0
 31
0.0
  0
LINE
  5
76
  8
0
  6
CONTINUOUS
 62
     7
 10
260.82
 20
5.0
 30
0.0
 11
260.82
 21
43.25
 31
0.0
  0
LINE
  5
77
  8
0
  6
CONTINUOUS
 62
     7
 10
410.0
 20
287.0
 30
0.0
 11
410.0
 21
60.25
 31
0.0
  0
LINE
  5
78
  8
0
  6
CONTINUOUS
 62
     7
 10
281.14
 20
22.0
 30
0.0
 11
415.0
 21
22.0
 31
0.0
  0
LINE
  5
79
  8
0
  6
CONTINUOUS
 62
     7
 10
415.0
 20
43.25
 30
0.0
 11
227.8
 21
43.25
 31
0.0
  0
LINE
  5
7A
  8
0
  6
CONTINUOUS
 62
     7
 10
227.8
 20
60.25
 30
0.0
 11
415.0
 21
60.25
 31
0.0
  0
LINE
  5
7B
  8
0
  6
CONTINUOUS
 62
     7
 10
281.14
 20
38.9447711707
 30
0.0
 11
227.8
 21
38.9447711707
 31
0.0
  0
LINE
  5
7C
  8
0
  6
CONTINUOUS
 62
     7
 10
281.14
 20
5.0
 30
0.0
 11
281.14
 21
60.25
 31
0.0
  0
LINE
  5
7D
  8
0
  6
CONTINUOUS
 62
     7
 10
324.32
 20
60.25
 30
0.0
 11
324.32
 21
5.0
 31
0.0
  0
LINE
  5
7E
  8
0
  6
CONTINUOUS
 62
     7
 10
273.52
 20
43.25
 30
0.0
 11
273.52
 21
5.0
 31
0.0
  0
LINE
  5
7F
  8
0
  6
CONTINUOUS
 62
     7
 10
290.5491845626
 20
22.0
 30
0.0
 11
290.5491845626
 21
43.25
 31
0.0
  0
LINE
  5
80
  8
0
  6
CONTINUOUS
 62
     7
 10
281.14
 20
13.5
 30
0.0
 11
227.8
 21
13.5
 31
0.0
  0
LINE
  5
81
  8
0
  6
CONTINUOUS
 62
     7
 10
306.6969257405
 20
43.25
 30
0.0
 11
306.6969257405
 21
22.0
 31
0.0
  0
LINE
  5
82
  8
0
  6
CONTINUOUS
 62
     7
 10
368.48
 20
5.0
 30
0.0
 11
368.48
 21
9.25
 31
0.0
  0
LINE
  5
83
  8
0
  6
CONTINUOUS
 62
     7
 10
376.28
 20
53.875
 30
0.0
 11
376.28
 21
60.25
 31
0.0
  0
LINE
  5
84
  8
0
  6
CONTINUOUS
 62
     7
 10
227.8
 20
9.23
 30
0.0
 11
281.14
 21
9.23
 31
0.0
  0
LINE
  5
85
  8
0
  6
CONTINUOUS
 62
     7
 10
399.68
 20
9.25
 30
0.0
 11
399.68
 21
22.0
 31
0.0
  0
LINE
  5
86
  8
0
  6
CONTINUOUS
 62
     7
 10
415.0
 20
53.875
 30
0.0
 11
324.32
 21
53.875
 31
0.0
  0
LINE
  5
87
  8
0
  6
CONTINUOUS
 62
     7
 10
415.0
 20
5.0
 30
0.0
 11
415.0
 21
60.25
 31
0.0
  0
LINE
  5
88
  8
0
  6
CONTINUOUS
 62
     7
 10
227.8
 20
5.0
 30
0.0
 11
415.0
 21
5.0
 31
0.0
  0
LINE
  5
89
  8
0
  6
CONTINUOUS
 62
     7
 10
281.14
 20
17.75
 30
0.0
 11
227.8
 21
17.75
 31
0.0
  0
LINE
  5
8A
  8
0
  6
CONTINUOUS
 62
     7
 10
281.14
 20
22.0
 30
0.0
 11
227.8
 21
22.0
 31
0.0
  0
LINE
  5
8B
  8
0
  6
CONTINUOUS
 62
     7
 10
324.32
 20
26.25
 30
0.0
 11
227.8
 21
26.25
 31
0.0
  0
LINE
  5
8C
  8
0
  6
CONTINUOUS
 62
     7
 10
324.32
 20
30.5
 30
0.0
 11
227.8
 21
30.5
 31
0.0
  0
LINE
  5
8D
  8
0
  6
CONTINUOUS
 62
     7
 10
324.32
 20
34.75
 30
0.0
 11
227.8
 21
34.75
 31
0.0
  0
LINE
  5
8E
  8
0
  6
CONTINUOUS
 62
     7
 10
324.32
 20
38.9447711707
 30
0.0
 11
281.14
 21
38.9447711707
 31
0.0
  0
LINE
  5
8F
  8
0
  6
CONTINUOUS
 62
     7
 10
415.0
 20
13.5
 30
0.0
 11
399.68
 21
13.5
 31
0.0
  0
LINE
  5
90
  8
0
  6
CONTINUOUS
 62
     7
 10
324.32
 20
9.23
 30
0.0
 11
415.0
 21
9.23
 31
0.0
  0
LINE
  5
91
  8
0
  6
CONTINUOUS
 62
     7
 10
222.8
 20
5.0
 30
0.0
 11
227.8
 21
5.0
 31
0.0
  0
LINE
  5
92
  8
0
  6
CONTINUOUS
 62
     7
 10
415.0
 20
292.0
 30
0.0
 11
5.0
 21
292.0
 31
0.0
  0
LINE
  5
93
  8
0
  6
CONTINUOUS
 62
     7
 10
410.0
 20
287.0
 30
0.0
 11
10.0
 21
287.0
 31
0.0
  0
LINE
  5
94
  8
0
  6
CONTINUOUS
 62
     7
 10
5.0
 20
292.0
 30
0.0
 11
5.0
 21
5.0
 31
0.0
  0
LINE
  5
95
  8
0
  6
CONTINUOUS
 62
     7
 10
10.0
 20
287.0
 30
0.0
 11
10.0
 21
10.0
 31
0.0
  0
LINE
  5
96
  8
0
  6
CONTINUOUS
 62
     7
 10
10.0
 20
48.5
 30
0.0
 11
5.0
 21
48.5
 31
0.0
  0
LINE
  5
97
  8
0
  6
CONTINUOUS
 62
     7
 10
5.0
 20
98.5
 30
0.0
 11
10.0
 21
98.5
 31
0.0
  0
LINE
  5
98
  8
0
  6
CONTINUOUS
 62
     7
 10
5.0
 20
198.5
 30
0.0
 11
10.0
 21
198.5
 31
0.0
  0
LINE
  5
99
  8
0
  6
CONTINUOUS
 62
     7
 10
5.0
 20
148.5
 30
0.0
 11
15.0
 21
148.5
 31
0.0
  0
LINE
  5
9A
  8
0
  6
CONTINUOUS
 62
     7
 10
5.0
 20
5.0
 30
0.0
 11
227.8
 21
5.0
 31
0.0
  0
LINE
  5
9B
  8
0
  6
CONTINUOUS
 62
     7
 10
10.0
 20
10.0
 30
0.0
 11
227.8
 21
10.0
 31
0.0
  0
LINE
  5
9C
  8
0
  6
CONTINUOUS
 62
     7
 10
60.0
 20
5.0
 30
0.0
 11
60.0
 21
10.0
 31
0.0
  0
LINE
  5
9D
  8
0
  6
CONTINUOUS
 62
     7
 10
110.0
 20
10.0
 30
0.0
 11
110.0
 21
5.0
 31
0.0
  0
LINE
  5
9E
  8
0
  6
CONTINUOUS
 62
     7
 10
160.0
 20
5.0
 30
0.0
 11
160.0
 21
10.0
 31
0.0
  0
LINE
  5
9F
  8
0
  6
CONTINUOUS
 62
     7
 10
10.0
 20
248.5
 30
0.0
 11
5.0
 21
248.5
 31
0.0
  0
LINE
  5
A0
  8
0
  6
CONTINUOUS
 62
     7
 10
60.0
 20
287.0
 30
0.0
 11
60.0
 21
292.0
 31
0.0
  0
LINE
  5
A1
  8
0
  6
CONTINUOUS
 62
     7
 10
110.0
 20
292.0
 30
0.0
 11
110.0
 21
287.0
 31
0.0
  0
LINE
  5
A2
  8
0
  6
CONTINUOUS
 62
     7
 10
160.0
 20
287.0
 30
0.0
 11
160.0
 21
292.0
 31
0.0
  0
LINE
  5
A3
  8
0
  6
CONTINUOUS
 62
     7
 10
260.0
 20
287.0
 30
0.0
 11
260.0
 21
292.0
 31
0.0
  0
LINE
  5
A4
  8
0
  6
CONTINUOUS
 62
     7
 10
415.0
 20
60.25
 30
0.0
 11
415.0
 21
292.0
 31
0.0
  0
LINE
  5
A5
  8
0
  6
CONTINUOUS
 62
     7
 10
210.0
 20
5.0
 30
0.0
 11
210.0
 21
15.0
 31
0.0
  0
LINE
  5
A6
  8
0
  6
CONTINUOUS
 62
     7
 10
410.0
 20
198.5
 30
0.0
 11
415.0
 21
198.5
 31
0.0
  0
LINE
  5
A7
  8
0
  6
CONTINUOUS
 62
     7
 10
410.0
 20
98.5
 30
0.0
 11
415.0
 21
98.5
 31
0.0
  0
LINE
  5
A8
  8
0
  6
CONTINUOUS
 62
     7
 10
415.0
 20
148.5
 30
0.0
 11
405.0
 21
148.5
 31
0.0
  0
LINE
  5
A9
  8
0
  6
CONTINUOUS
 62
     7
 10
310.0
 20
292.0
 30
0.0
 11
310.0
 21
287.0
 31
0.0
  0
LINE
  5
AA
  8
0
  6
CONTINUOUS
 62
     7
 10
360.0
 20
287.0
 30
0.0
 11
360.0
 21
292.0
 31
0.0
  0
LINE
  5
AB
  8
0
  6
CONTINUOUS
 62
     7
 10
210.0
 20
292.0
 30
0.0
 11
210.0
 21
282.0
 31
0.0
  0
LINE
  5
AC
  8
0
  6
CONTINUOUS
 62
     7
 10
415.0
 20
248.5
 30
0.0
 11
410.0
 21
248.5
 31
0.0
  0
TEXT
  5
AD
  8
0
  6
CONTINUOUS
 62
     7
 10
6.6666666667
 20
122.9348266002
 30
0.0
 40
1.8520833333
  1
D
 41
0.7
 11
6.6666666667
 21
122.2805595272
 31
0.0
 73
     1
  0
TEXT
  5
AE
  8
0
  6
CONTINUOUS
 62
     7
 10
6.6666666667
 20
72.9348266002
 30
0.0
 40
1.8520833333
  1
E
 41
0.7
 11
6.6666666667
 21
72.2805595272
 31
0.0
 73
     1
  0
TEXT
  5
AF
  8
0
  6
CONTINUOUS
 62
     7
 10
6.6666666667
 20
22.9348266002
 30
0.0
 40
1.8520833333
  1
F
 41
0.7
 11
6.6666666667
 21
22.2805595272
 31
0.0
 73
     1
  0
TEXT
  5
B0
  8
0
  6
CONTINUOUS
 62
     7
 10
6.6666666667
 20
172.9348266002
 30
0.0
 40
1.8520833333
  1
C
 41
0.7
 11
6.6666666667
 21
172.2805595272
 31
0.0
 73
     1
  0
TEXT
  5
B1
  8
0
  6
CONTINUOUS
 62
     7
 10
34.5833333333
 20
6.9348306002
 30
0.0
 40
1.8520833333
  1
1
 41
0.7
 11
34.5833333333
 21
6.2805635272
 31
0.0
 73
     1
  0
TEXT
  5
B2
  8
0
  6
CONTINUOUS
 62
     7
 10
84.1666666667
 20
6.9348306002
 30
0.0
 40
1.8520833333
  1
2
 41
0.7
 11
84.1666666667
 21
6.2805635272
 31
0.0
 73
     1
  0
TEXT
  5
B3
  8
0
  6
CONTINUOUS
 62
     7
 10
134.1666666667
 20
6.9348306002
 30
0.0
 40
1.8520833333
  1
3
 41
0.7
 11
134.1666666667
 21
6.2805635272
 31
0.0
 73
     1
  0
TEXT
  5
B4
  8
0
  6
CONTINUOUS
 62
     7
 10
184.1666666667
 20
6.9348306002
 30
0.0
 40
1.8520833333
  1
4
 41
0.7
 11
184.1666666667
 21
6.2805635272
 31
0.0
 73
     1
  0
TEXT
  5
B5
  8
0
  6
CONTINUOUS
 62
     7
 10
6.6666666667
 20
222.9348266002
 30
0.0
 40
1.8520833333
  1
B
 41
0.7
 11
6.6666666667
 21
222.2805595272
 31
0.0
 73
     1
  0
TEXT
  5
B6
  8
0
  6
CONTINUOUS
 62
     7
 10
6.6666666667
 20
272.9348266002
 30
0.0
 40
1.8520833333
  1
A
 41
0.7
 11
6.6666666667
 21
272.2805595272
 31
0.0
 73
     1
  0
TEXT
  5
B7
  8
0
  6
CONTINUOUS
 62
     7
 10
134.1666666667
 20
288.9348306002
 30
0.0
 40
1.8520833333
  1
3
 41
0.7
 11
134.1666666667
 21
288.2805635272
 31
0.0
 73
     1
  0
TEXT
  5
B8
  8
0
  6
CONTINUOUS
 62
     7
 10
84.1666666667
 20
288.9348306002
 30
0.0
 40
1.8520833333
  1
2
 41
0.7
 11
84.1666666667
 21
288.2805635272
 31
0.0
 73
     1
  0
TEXT
  5
B9
  8
0
  6
CONTINUOUS
 62
     7
 10
34.5833333333
 20
288.9348306002
 30
0.0
 40
1.8520833333
  1
1
 41
0.7
 11
34.5833333333
 21
288.2805635272
 31
0.0
 73
     1
  0
TEXT
  5
BA
  8
0
  6
CONTINUOUS
 62
     7
 10
234.1666666667
 20
288.9348306002
 30
0.0
 40
1.8520833333
  1
5
 41
0.7
 11
234.1666666667
 21
288.2805635272
 31
0.0
 73
     1
  0
TEXT
  5
BB
  8
0
  6
CONTINUOUS
 62
     7
 10
411.6666666667
 20
172.9348266002
 30
0.0
 40
1.8520833333
  1
C
 41
0.7
 11
411.6666666667
 21
172.2805595272
 31
0.0
 73
     1
  0
TEXT
  5
BC
  8
0
  6
CONTINUOUS
 62
     7
 10
411.6666666667
 20
122.9348266002
 30
0.0
 40
1.8520833333
  1
D
 41
0.7
 11
411.6666666667
 21
122.2805595272
 31
0.0
 73
     1
  0
TEXT
  5
BD
  8
0
  6
CONTINUOUS
 62
     7
 10
184.1666666667
 20
288.9348306002
 30
0.0
 40
1.8520833333
  1
4
 41
0.7
 11
184.1666666667
 21
288.2805635272
 31
0.0
 73
     1
  0
TEXT
  5
BE
  8
0
  6
CONTINUOUS
 62
     7
 10
284.1666666667
 20
288.9348306002
 30
0.0
 40
1.8520833333
  1
6
 41
0.7
 11
284.1666666667
 21
288.2805635272
 31
0.0
 73
     1
  0
TEXT
  5
BF
  8
0
  6
CONTINUOUS
 62
     7
 10
334.1666666667
 20
288.9348306002
 30
0.0
 40
1.8520833333
  1
7
 41
0.7
 11
334.1666666667
 21
288.2805635272
 31
0.0
 73
     1
  0
TEXT
  5
C0
  8
0
  6
CONTINUOUS
 62
     7
 10
384.1666666667
 20
288.9348306002
 30
0.0
 40
1.8520833333
  1
8
 41
0.7
 11
384.1666666667
 21
288.2805635272
 31
0.0
 73
     1
  0
TEXT
  5
C1
  8
0
  6
CONTINUOUS
 62
     7
 10
411.6666666667
 20
272.9348266002
 30
0.0
 40
1.8520833333
  1
A
 41
0.7
 11
411.6666666667
 21
272.2805595272
 31
0.0
 73
     1
  0
TEXT
  5
C2
  8
0
  6
CONTINUOUS
 62
     7
 10
411.6666666667
 20
222.9348266002
 30
0.0
 40
1.8520833333
  1
B
 41
0.7
 11
411.6666666667
 21
222.2805595272
 31
0.0
 73
     1
  0
TEXT
  5
C3
  8
0
  6
CONTINUOUS
 62
     7
 10
307.4976618519
 20
36.0024960752
 30
0.0
 40
2.0
  1
M. Olmesdahl
 41
0.7
 11
307.4976618519
 21
35.2959759514
 31
0.0
 73
     1
  0
TEXT
  5
C4
  8
0
  6
CONTINUOUS
 62
     7
 10
292.0542197728
 20
36.1435491418
 30
0.0
 40
2.0
  1
27.05.2014
 41
0.7
 11
292.0542197728
 21
35.437029018
 31
0.0
 73
     1
  0
TEXT
  5
C5
  8
0
  6
CONTINUOUS
 62
     7
 10
325.8260642912
 20
31.8991350896
 30
0.0
 40
3.5
  1
060-3/160
 41
0.7
 11
325.8260642912
 21
30.6627248729
 31
0.0
 73
     1
  0
TEXT
  5
C6
  8
0
  6
CONTINUOUS
 62
     7
 10
228.6542475233
 20
5.8405442472
 30
0.0
 40
2.0
  1
Zust.
 41
0.7
 11
228.6542475233
 21
5.1340241233
 31
0.0
 73
     1
  0
TEXT
  5
C7
  8
0
  6
CONTINUOUS
 62
     7
 10
242.3236265502
 20
5.8405442472
 30
0.0
 40
2.0
  1
Änderung
 41
0.7
 11
242.3236265502
 21
5.1340241233
 31
0.0
 73
     1
  0
TEXT
  5
C8
  8
0
  6
CONTINUOUS
 62
     7
 10
273.7487245318
 20
5.8293213552
 30
0.0
 40
2.0
  1
Name
 41
0.7
 11
273.7487245318
 21
5.1228012314
 31
0.0
 73
     1
  0
TEXT
  5
C9
  8
0
  6
CONTINUOUS
 62
     7
 10
281.9346052427
 20
36.0024961334
 30
0.0
 40
2.0
  1
Bearb.
 41
0.7
 11
281.9346052427
 21
35.2959760096
 31
0.0
 73
     1
  0
TEXT
  5
CA
  8
0
  6
CONTINUOUS
 62
     7
 10
282.5538425523
 20
31.8123005822
 30
0.0
 40
2.0
  1
Gepr.
 41
0.7
 11
282.5538425523
 21
31.1057804584
 31
0.0
 73
     1
  0
TEXT
  5
CB
  8
0
  6
CONTINUOUS
 62
     7
 10
282.568021583
 20
27.5024931334
 30
0.0
 40
2.0
  1
Norm
 41
0.7
 11
282.568021583
 21
26.7959730096
 31
0.0
 73
     1
  0
INSERT
  5
D1
  8
0
  6
CONTINUOUS
 62
     7
  2
SW_NOTE_0
 10
326.1421941634
 20
54.7004161895
 30
0.0
  0
TEXT
  5
D2
  8
0
  6
CONTINUOUS
 62
     7
 10
293.8208978724
 20
40.2378571451
 30
0.0
 40
2.0
  1
Datum
 41
0.7
 11
293.8208978724
 21
39.5313370213
 31
0.0
 73
     1
  0
TEXT
  5
D3
  8
0
  6
CONTINUOUS
 62
     7
 10
310.9758605414
 20
40.2399684874
 30
0.0
 40
2.0
  1
Name
 41
0.7
 11
310.9758605414
 21
39.5334483635
 31
0.0
 73
     1
  0
TEXT
  5
D4
  8
0
  6
CONTINUOUS
 62
     7
 10
400.679992
 20
18.8834825574
 30
0.0
 40
2.5
  1
Blatt
 41
0.7
 11
400.679992
 21
18.0003324026
 31
0.0
 73
     1
  0
TEXT
  5
D5
  8
0
  6
CONTINUOUS
 62
     7
 10
401.6114022462
 20
14.9434680153
 30
0.0
 40
2.0
  1
2 (A3)
 41
0.7
 11
401.6114022462
 21
14.2369478915
 31
0.0
 73
     1
  0
TEXT
  5
D6
  8
0
  6
CONTINUOUS
 62
     7
 10
401.6114022462
 20
10.7163935227
 30
0.0
 40
2.0
  1
2 von 2
 41
0.6
 11
401.6114022462
 21
10.0098733989
 31
0.0
 73
     1
  0
TEXT
  5
D7
  8
0
  6
CONTINUOUS
 62
     7
 10
325.769379396
 20
6.0126746831
 30
0.0
 40
2.0
  1
Ers. für:
 41
0.7
 11
325.769379396
 21
5.3061545592
 31
0.0
 73
     1
  0
TEXT
  5
D8
  8
0
  6
CONTINUOUS
 62
     7
 10
369.3744127484
 20
6.1456631557
 30
0.0
 40
2.0
  1
Ers. durch: 
 41
0.6416666667
 11
369.3744127484
 21
5.4391430318
 31
0.0
 73
     1
  0
TEXT
  5
D9
  8
0
  6
CONTINUOUS
 62
     7
 10
325.8260642912
 20
38.8860690348
 30
0.0
 40
2.5
  1
Benennung:
 41
0.7
 11
325.8260642912
 21
38.00291888
 31
0.0
 73
     1
  0
TEXT
  5
DA
  8
0
  6
CONTINUOUS
 62
     7
 10
326.3720674831
 20
17.4450861174
 30
0.0
 40
2.5
  1
ZEICHNUNGSNR.   Z 10313
 41
0.6391304348
 11
326.3720674831
 21
16.5619359626
 31
0.0
 73
     1
  0
TEXT
  5
DB
  8
0
  6
CONTINUOUS
 62
     7
 10
326.4245832263
 20
11.7244404863
 30
0.0
 40
2.5
  1
TEILENUMMER   
 41
0.625
 11
326.4245832263
 21
10.8412903315
 31
0.0
 73
     1
  0
TEXT
  5
DC
  8
0
  6
CONTINUOUS
 62
     7
 10
263.2346620132
 20
5.8293213552
 30
0.0
 40
2.0
  1
Datum
 41
0.7
 11
263.2346620132
 21
5.1228012314
 31
0.0
 73
     1
  0
TEXT
  5
DD
  8
0
  6
CONTINUOUS
 62
     7
 10
274.1320000749
 20
10.2573817641
 30
0.0
 40
2.0
  1
-
 41
0.7
 11
274.1320000749
 21
9.5508616403
 31
0.0
 73
     1
  0
INSERT
  5
E5
  8
0
  6
CONTINUOUS
 62
     7
  2
SW_NOTE_0_1
 10
290.4226877706
 20
16.7269093507
 30
0.0
  0
INSERT
  5
EF
  8
0
  6
CONTINUOUS
 62
     7
  2
SW_NOTE_0_2
 10
230.3638616607
 20
56.9426173561
 30
0.0
  0
LINE
  5
F0
  8
0
  6
CONTINUOUS
 62
     7
 10
114.9657648546
 20
146.6968968107
 30
0.0
 11
114.9657648546
 21
147.7468968107
 31
0.0
  0
LINE
  5
F1
  8
0
  6
CONTINUOUS
 62
     7
 10
114.9657648546
 20
226.2468968107
 30
0.0
 11
114.9657648546
 21
227.2968968107
 31
0.0
  0
LINE
  5
F2
  8
0
  6
CONTINUOUS
 62
     7
 10
105.9657648546
 20
227.2968968107
 30
0.0
 11
105.9657648546
 21
226.2468968107
 31
0.0
  0
LINE
  5
F3
  8
0
  6
CONTINUOUS
 62
     7
 10
105.9657648546
 20
147.7468968107
 30
0.0
 11
105.9657648546
 21
146.6968968107
 31
0.0
  0
LINE
  5
F4
  8
0
  6
CONTINUOUS
 62
     7
 10
100.5157648546
 20
146.6968968107
 30
0.0
 11
100.5157648546
 21
106.8468968107
 31
0.0
  0
LINE
  5
F5
  8
0
  6
CONTINUOUS
 62
     7
 10
120.4157648546
 20
106.8468968107
 30
0.0
 11
120.4157648546
 21
146.6968968107
 31
0.0
  0
LINE
  5
F6
  8
0
  6
CONTINUOUS
 62
     7
 10
100.5157648546
 20
267.1468968107
 30
0.0
 11
100.5157648546
 21
227.2968968107
 31
0.0
  0
LINE
  5
F7
  8
0
  6
CONTINUOUS
 62
     7
 10
120.4157648546
 20
227.2968968107
 30
0.0
 11
120.4157648546
 21
267.1468968107
 31
0.0
  0
LINE
  5
F8
  8
0
  6
CONTINUOUS
 62
     7
 10
100.5157648546
 20
226.2468968107
 30
0.0
 11
100.5157648546
 21
147.7468968107
 31
0.0
  0
LINE
  5
F9
  8
0
  6
CONTINUOUS
 62
     7
 10
120.4157648546
 20
147.7468968107
 30
0.0
 11
120.4157648546
 21
226.2468968107
 31
0.0
  0
LINE
  5
FA
  8
0
  6
CONTINUOUS
 62
     7
 10
100.5157648546
 20
106.8468968107
 30
0.0
 11
120.4157648546
 21
106.8468968107
 31
0.0
  0
LINE
  5
FB
  8
0
  6
CONTINUOUS
 62
     7
 10
120.4157648546
 20
146.6968968107
 30
0.0
 11
100.5157648546
 21
146.6968968107
 31
0.0
  0
LINE
  5
FC
  8
0
  6
CONTINUOUS
 62
     7
 10
120.4157648546
 20
267.1468968107
 30
0.0
 11
100.5157648546
 21
267.1468968107
 31
0.0
  0
LINE
  5
FD
  8
0
  6
CONTINUOUS
 62
     7
 10
100.5157648546
 20
227.2968968107
 30
0.0
 11
120.4157648546
 21
227.2968968107
 31
0.0
  0
ARC
  5
FE
  8
0
  6
CONTINUOUS
 62
     7
 10
143.4657648546
 20
118.8468968107
 30
0.0
 40
12.0
 50
270.0
 51
0.0
  0
LINE
  5
FF
  8
0
  6
CONTINUOUS
 62
     7
 10
120.4157648546
 20
106.8468968107
 30
0.0
 11
143.4657648546
 21
106.8468968107
 31
0.0
  0
LINE
  5
100
  8
0
  6
CONTINUOUS
 62
     7
 10
120.4157648546
 20
146.6968968107
 30
0.0
 11
120.9637105905
 21
146.6968968107
 31
0.0
  0
ARC
  5
101
  8
0
  6
CONTINUOUS
 62
     7
 10
120.9637105905
 20
148.1968968107
 30
0.0
 40
1.500000000000028
 50
270.0
 51
0.0
  0
LINE
  5
102
  8
0
  6
CONTINUOUS
 62
     7
 10
122.4637105905
 20
148.1968968107
 30
0.0
 11
122.4637105905
 21
225.7968968107
 31
0.0
  0
ARC
  5
103
  8
0
  6
CONTINUOUS
 62
     7
 10
120.9637105905
 20
225.7968968107
 30
0.0
 40
1.5
 50
0.0
 51
90.0
  0
LINE
  5
104
  8
0
  6
CONTINUOUS
 62
     7
 10
120.9637105905
 20
227.2968968107
 30
0.0
 11
120.4157648546
 21
227.2968968107
 31
0.0
  0
LINE
  5
105
  8
0
  6
CONTINUOUS
 62
     7
 10
120.4157648546
 20
267.1468968107
 30
0.0
 11
143.4657648546
 21
267.1468968107
 31
0.0
  0
ARC
  5
106
  8
0
  6
CONTINUOUS
 62
     7
 10
143.4657648546
 20
255.1468968107
 30
0.0
 40
12.0
 50
0.0
 51
90.0
  0
LINE
  5
107
  8
0
  6
CONTINUOUS
 62
     7
 10
155.4657648546
 20
255.1468968107
 30
0.0
 11
155.4657648546
 21
118.8468968107
 31
0.0
  0
CIRCLE
  5
108
  8
0
  6
CONTINUOUS
 62
     7
 10
135.4657648546
 20
256.9968968107
 30
0.0
 40
5.249999999999972
  0
CIRCLE
  5
109
  8
0
  6
CONTINUOUS
 62
     7
 10
145.4657648546
 20
221.9968968107
 30
0.0
 40
5.249999999999972
  0
CIRCLE
  5
10A
  8
0
  6
CONTINUOUS
 62
     7
 10
139.4657648546
 20
186.9968968107
 30
0.0
 40
5.249999999999972
  0
CIRCLE
  5
10B
  8
0
  6
CONTINUOUS
 62
     7
 10
145.4657648546
 20
151.9968968107
 30
0.0
 40
5.249999999999972
  0
CIRCLE
  5
10C
  8
0
  6
CONTINUOUS
 62
     7
 10
135.4657648546
 20
116.9968968107
 30
0.0
 40
5.249999999999972
  0
CIRCLE
  5
10D
  8
0
  6
CONTINUOUS
 62
     7
 10
135.4657648546
 20
116.9968968107
 30
0.0
 40
2.999999999999986
  0
CIRCLE
  5
10E
  8
0
  6
CONTINUOUS
 62
     7
 10
145.4657648546
 20
151.9968968107
 30
0.0
 40
3.0
  0
CIRCLE
  5
10F
  8
0
  6
CONTINUOUS
 62
     7
 10
139.4657648546
 20
186.9968968107
 30
0.0
 40
2.999999999999972
  0
CIRCLE
  5
110
  8
0
  6
CONTINUOUS
 62
     7
 10
145.4657648546
 20
221.9968968107
 30
0.0
 40
3.0
  0
CIRCLE
  5
111
  8
0
  6
CONTINUOUS
 62
     7
 10
135.4657648546
 20
256.9968968107
 30
0.0
 40
3.000000000000028
  0
LINE
  5
112
  8
0
  6
CONTINUOUS
 62
     7
 10
100.5157648546
 20
226.2468968107
 30
0.0
 11
120.4157648546
 21
226.2468968107
 31
0.0
  0
LINE
  5
113
  8
0
  6
CONTINUOUS
 62
     7
 10
100.5157648546
 20
147.7468968107
 30
0.0
 11
120.4157648546
 21
147.7468968107
 31
0.0
  0
LINE
  5
114
  8
0
  6
CONTINUOUS
 62
     7
 10
100.5157648546
 20
147.7468968107
 30
0.0
 11
98.9083506234
 21
147.7468968107
 31
0.0
  0
LINE
  5
115
  8
0
  6
CONTINUOUS
 62
     7
 10
100.5157648546
 20
226.2468968107
 30
0.0
 11
98.9083506234
 21
226.2468968107
 31
0.0
  0
ARC
  5
116
  8
0
  6
CONTINUOUS
 62
     7
 10
71.9657648546
 20
118.9968968107
 30
0.0
 40
2.0
 50
180.0
 51
270.0
  0
LINE
  5
117
  8
0
  6
CONTINUOUS
 62
     7
 10
69.9657648546
 20
118.9968968107
 30
0.0
 11
69.9657648546
 21
134.9282204977
 31
0.0
  0
LINE
  5
118
  8
0
  6
CONTINUOUS
 62
     7
 10
76.4657648546
 20
135.4968968107
 30
0.0
 11
69.9657648546
 21
134.9282204977
 31
0.0
  0
ARC
  5
119
  8
0
  6
CONTINUOUS
 62
     7
 10
82.4657648546
 20
135.4968968107
 30
0.0
 40
6.0
 50
180.0
 51
0.0
  0
LINE
  5
11A
  8
0
  6
CONTINUOUS
 62
     7
 10
88.4657648546
 20
142.4968968107
 30
0.0
 11
88.4657648546
 21
135.4968968107
 31
0.0
  0
ARC
  5
11B
  8
0
  6
CONTINUOUS
 62
     7
 10
82.4657648546
 20
142.4968968107
 30
0.0
 40
6.0
 50
0.0
 51
180.0
  0
LINE
  5
11C
  8
0
  6
CONTINUOUS
 62
     7
 10
69.9657648546
 20
143.0655731236
 30
0.0
 11
76.4657648546
 21
142.4968968107
 31
0.0
  0
LINE
  5
11D
  8
0
  6
CONTINUOUS
 62
     7
 10
69.9657648546
 20
143.0655731236
 30
0.0
 11
69.9657648546
 21
166.9282204977
 31
0.0
  0
LINE
  5
11E
  8
0
  6
CONTINUOUS
 62
     7
 10
76.4657648546
 20
167.4968968107
 30
0.0
 11
69.9657648546
 21
166.9282204977
 31
0.0
  0
ARC
  5
11F
  8
0
  6
CONTINUOUS
 62
     7
 10
82.4657648546
 20
167.4968968107
 30
0.0
 40
6.0
 50
180.0
 51
0.0
  0
LINE
  5
120
  8
0
  6
CONTINUOUS
 62
     7
 10
88.4657648546
 20
174.4968968107
 30
0.0
 11
88.4657648546
 21
167.4968968107
 31
0.0
  0
ARC
  5
121
  8
0
  6
CONTINUOUS
 62
     7
 10
82.4657648546
 20
174.4968968107
 30
0.0
 40
6.0
 50
0.0
 51
180.0
  0
LINE
  5
122
  8
0
  6
CONTINUOUS
 62
     7
 10
69.9657648546
 20
175.0655731236
 30
0.0
 11
76.4657648546
 21
174.4968968107
 31
0.0
  0
LINE
  5
123
  8
0
  6
CONTINUOUS
 62
     7
 10
69.9657648546
 20
175.0655731236
 30
0.0
 11
69.9657648546
 21
198.9282204977
 31
0.0
  0
LINE
  5
124
  8
0
  6
CONTINUOUS
 62
     7
 10
76.4657648546
 20
199.4968968107
 30
0.0
 11
69.9657648546
 21
198.9282204977
 31
0.0
  0
ARC
  5
125
  8
0
  6
CONTINUOUS
 62
     7
 10
82.4657648546
 20
199.4968968107
 30
0.0
 40
6.0
 50
180.0
 51
0.0
  0
LINE
  5
126
  8
0
  6
CONTINUOUS
 62
     7
 10
88.4657648546
 20
206.4968968107
 30
0.0
 11
88.4657648546
 21
199.4968968107
 31
0.0
  0
ARC
  5
127
  8
0
  6
CONTINUOUS
 62
     7
 10
82.4657648546
 20
206.4968968107
 30
0.0
 40
6.0
 50
0.0
 51
180.0
  0
LINE
  5
128
  8
0
  6
CONTINUOUS
 62
     7
 10
69.9657648546
 20
207.0655731236
 30
0.0
 11
76.4657648546
 21
206.4968968107
 31
0.0
  0
LINE
  5
129
  8
0
  6
CONTINUOUS
 62
     7
 10
69.9657648546
 20
207.0655731236
 30
0.0
 11
69.9657648546
 21
230.9282204977
 31
0.0
  0
LINE
  5
12A
  8
0
  6
CONTINUOUS
 62
     7
 10
76.4657648546
 20
231.4968968107
 30
0.0
 11
69.9657648546
 21
230.9282204977
 31
0.0
  0
ARC
  5
12B
  8
0
  6
CONTINUOUS
 62
     7
 10
82.4657648546
 20
231.4968968107
 30
0.0
 40
6.0
 50
180.0
 51
0.0
  0
LINE
  5
12C
  8
0
  6
CONTINUOUS
 62
     7
 10
88.4657648546
 20
238.4968968107
 30
0.0
 11
88.4657648546
 21
231.4968968107
 31
0.0
  0
ARC
  5
12D
  8
0
  6
CONTINUOUS
 62
     7
 10
82.4657648546
 20
238.4968968107
 30
0.0
 40
6.0
 50
0.0
 51
180.0
  0
LINE
  5
12E
  8
0
  6
CONTINUOUS
 62
     7
 10
69.9657648546
 20
239.0655731236
 30
0.0
 11
76.4657648546
 21
238.4968968107
 31
0.0
  0
LINE
  5
12F
  8
0
  6
CONTINUOUS
 62
     7
 10
69.9657648546
 20
239.0655731236
 30
0.0
 11
69.9657648546
 21
254.9968968107
 31
0.0
  0
ARC
  5
130
  8
0
  6
CONTINUOUS
 62
     7
 10
71.9657648546
 20
254.9968968107
 30
0.0
 40
2.000000000000028
 50
90.0
 51
180.0
  0
LINE
  5
131
  8
0
  6
CONTINUOUS
 62
     7
 10
93.9657648546
 20
256.9968968107
 30
0.0
 11
71.9657648546
 21
256.9968968107
 31
0.0
  0
ARC
  5
132
  8
0
  6
CONTINUOUS
 62
     7
 10
93.9657648546
 20
254.9968968107
 30
0.0
 40
2.000000000000028
 50
0.0
 51
90.0
  0
LINE
  5
133
  8
0
  6
CONTINUOUS
 62
     7
 10
95.9657648546
 20
228.2468968107
 30
0.0
 11
95.9657648546
 21
254.9968968107
 31
0.0
  0
ARC
  5
134
  8
0
  6
CONTINUOUS
 62
     7
 10
97.9657648546
 20
228.2468968107
 30
0.0
 40
2.000000000000028
 50
180.0
 51
270.0
  0
LINE
  5
135
  8
0
  6
CONTINUOUS
 62
     7
 10
98.4022466147
 20
226.2468968107
 30
0.0
 11
97.9657648546
 21
226.2468968107
 31
0.0
  0
LINE
  5
136
  8
0
  6
CONTINUOUS
 62
     7
 10
98.4022466147
 20
147.7468968107
 30
0.0
 11
97.9657648546
 21
147.7468968107
 31
0.0
  0
ARC
  5
137
  8
0
  6
CONTINUOUS
 62
     7
 10
97.9657648546
 20
145.7468968107
 30
0.0
 40
2.0
 50
90.0
 51
180.0
  0
LINE
  5
138
  8
0
  6
CONTINUOUS
 62
     7
 10
95.9657648546
 20
118.9968968107
 30
0.0
 11
95.9657648546
 21
145.7468968107
 31
0.0
  0
ARC
  5
139
  8
0
  6
CONTINUOUS
 62
     7
 10
93.9657648546
 20
118.9968968107
 30
0.0
 40
2.0
 50
270.0
 51
0.0
  0
LINE
  5
13A
  8
0
  6
CONTINUOUS
 62
     7
 10
71.9657648546
 20
116.9968968107
 30
0.0
 11
93.9657648546
 21
116.9968968107
 31
0.0
  0
LINE
  5
13B
  8
0
  6
CONTINUOUS
 62
     7
 10
98.9083506234
 20
226.2468968107
 30
0.0
 11
98.4022466147
 21
226.2468968107
 31
0.0
  0
LINE
  5
13C
  8
0
  6
CONTINUOUS
 62
     7
 10
98.9083506234
 20
147.7468968107
 30
0.0
 11
98.4022466147
 21
147.7468968107
 31
0.0
  0
DIMENSION
  5
13D
  8
0
  6
CONTINUOUS
 62
     7
  2
_D
 10
155.4657648546
 20
134.1106054659
 30
0.0
 11
145.4657648546
 21
134.1106054659
 31
0.0
 70
   160
  1
<>
  3
SLDDIMSTYLE0
 13
135.4657648546
 23
124.7468968107
 33
0.0
 14
155.4657648546
 24
118.8468968107
 34
0.0
 50
0.0
  0
DIMENSION
  5
147
  8
0
  6
CONTINUOUS
 62
     7
  2
_D_1
 10
155.4657648546
 20
167.1373333403
 30
0.0
 11
150.4657648546
 21
167.1373333403
 31
0.0
 70
   160
  1
<>
  3
SLDDIMSTYLE0
 13
145.4657648546
 23
159.7468968107
 33
0.0
 14
155.4657648546
 24
118.8468968107
 34
0.0
 50
0.0
  0
DIMENSION
  5
152
  8
0
  6
CONTINUOUS
 62
     7
  2
_D_2
 10
155.4657648546
 20
200.8727892807
 30
0.0
 11
147.4657648546
 21
200.8727892807
 31
0.0
 70
   160
  1
<>
  3
SLDDIMSTYLE0
 13
139.4657648546
 23
194.7468968107
 33
0.0
 14
155.4657648546
 24
255.1468968107
 34
0.0
 50
0.0
  0
DIMENSION
  5
15D
  8
0
  6
CONTINUOUS
 62
     7
  2
_D_3
 10
149.1780754558
 20
218.2845862094
 30
0.0
 11
133.0839003786
 21
234.3787812867
 31
0.0
 70
   163
  1
<>X90%%d
  3
SLDDIMSTYLE1
 15
141.7534542534
 25
225.7092074119
 35
0.0
 40
0.0
  0
DIMENSION
  5
168
  8
0
  6
CONTINUOUS
 62
     7
  2
_D_4
 10
133.9657648546
 20
259.594973022
 30
0.0
 11
142.2222160385
 21
245.2944074018
 31
0.0
 70
   163
  1
<>
  3
SLDDIMSTYLE1
 15
136.9657648546
 25
254.3988205993
 35
0.0
 40
0.0
  0
DIMENSION
  5
170
  8
0
  6
CONTINUOUS
 62
     7
  2
_D_5
 10
176.522624734
 20
106.8468968107
 30
0.0
 11
176.522624734
 21
186.9968968107
 31
0.0
 70
   160
  1
<>
  3
SLDDIMSTYLE2
 13
143.4657648546
 23
267.1468968107
 33
0.0
 14
143.4657648546
 24
106.8468968107
 34
0.0
 50
90.0
  0
DIMENSION
  5
17B
  8
0
  6
CONTINUOUS
 62
     7
  2
_D_6
 10
166.7391183765
 20
151.9968968107
 30
0.0
 11
166.7391183765
 21
134.4968968107
 31
0.0
 70
   160
  1
<>
  3
SLDDIMSTYLE2
 13
135.4657648546
 23
116.9968968107
 33
0.0
 14
145.4657648546
 24
151.9968968107
 34
0.0
 50
90.0
  0
DIMENSION
  5
185
  8
0
  6
CONTINUOUS
 62
     7
  2
_D_7
 10
166.7391183765
 20
186.9968968107
 30
0.0
 11
166.7391183765
 21
169.4968968107
 31
0.0
 70
   160
  1
<>
  3
SLDDIMSTYLE2
 13
145.4657648546
 23
151.9968968107
 33
0.0
 14
139.4657648546
 24
186.9968968107
 34
0.0
 50
90.0
  0
DIMENSION
  5
18F
  8
0
  6
CONTINUOUS
 62
     7
  2
_D_8
 10
166.7391183765
 20
221.9968968107
 30
0.0
 11
166.7391183765
 21
204.4968968107
 31
0.0
 70
   160
  1
<>
  3
SLDDIMSTYLE2
 13
139.4657648546
 23
186.9968968107
 33
0.0
 14
145.4657648546
 24
221.9968968107
 34
0.0
 50
90.0
  0
DIMENSION
  5
199
  8
0
  6
CONTINUOUS
 62
     7
  2
_D_9
 10
166.7391183765
 20
256.9968968107
 30
0.0
 11
166.7391183765
 21
239.4968968107
 31
0.0
 70
   160
  1
<>
  3
SLDDIMSTYLE2
 13
145.4657648546
 23
221.9968968107
 33
0.0
 14
135.4657648546
 24
256.9968968107
 34
0.0
 50
90.0
  0
DIMENSION
  5
1A3
  8
0
  6
CONTINUOUS
 62
     7
  2
_D_10
 10
55.1216651961
 20
170.9968968107
 30
0.0
 11
55.1216651961
 21
154.9968968107
 31
0.0
 70
   160
  1
<>
  3
SLDDIMSTYLE2
 13
67.9657648546
 23
138.9968968107
 33
0.0
 14
67.9657648546
 24
170.9968968107
 34
0.0
 50
90.0
  0
DIMENSION
  5
1AD
  8
0
  6
CONTINUOUS
 62
     7
  2
_D_11
 10
55.1216651961
 20
202.9968968107
 30
0.0
 11
55.1216651961
 21
186.9968968107
 31
0.0
 70
   160
  1
<>
  3
SLDDIMSTYLE2
 13
67.9657648546
 23
170.9968968107
 33
0.0
 14
67.9657648546
 24
202.9968968107
 34
0.0
 50
90.0
  0
DIMENSION
  5
1B7
  8
0
  6
CONTINUOUS
 62
     7
  2
_D_12
 10
55.1216651961
 20
234.9968968107
 30
0.0
 11
55.1216651961
 21
218.9968968107
 31
0.0
 70
   160
  1
<>
  3
SLDDIMSTYLE2
 13
67.9657648546
 23
202.9968968107
 33
0.0
 14
67.9657648546
 24
234.9968968107
 34
0.0
 50
90.0
  0
DIMENSION
  5
1C1
  8
0
  6
CONTINUOUS
 62
     7
  2
_D_13
 10
45.9657648546
 20
116.9968968107
 30
0.0
 11
45.9657648546
 21
186.9968968107
 31
0.0
 70
   160
  1
<>
  3
SLDDIMSTYLE2
 13
71.9657648546
 23
256.9968968107
 33
0.0
 14
71.9657648546
 24
116.9968968107
 34
0.0
 50
90.0
  0
DIMENSION
  5
1CB
  8
0
  6
CONTINUOUS
 62
     7
  2
_D_14
 10
95.9657648546
 20
100.8678134976
 30
0.0
 11
82.9657648546
 21
100.8678134976
 31
0.0
 70
   160
  1
<>
  3
SLDDIMSTYLE2
 13
69.9657648546
 23
118.9968968107
 33
0.0
 14
95.9657648546
 24
118.9968968107
 34
0.0
 50
0.0
  0
DIMENSION
  5
1D5
  8
0
  6
CONTINUOUS
 62
     7
  2
_D_15
 10
94.9668874722
 20
174.4968968107
 30
0.0
 11
94.9668874722
 21
170.9968968107
 31
0.0
 70
   160
  1
<>
  3
SLDDIMSTYLE0
 13
90.9657648546
 23
167.4968968107
 33
0.0
 14
90.9657648546
 24
174.4968968107
 34
0.0
 50
90.0
  0
DIMENSION
  5
1E1
  8
0
  6
CONTINUOUS
 62
     7
  2
_D_16
 10
82.4657648546
 20
167.4968968107
 30
0.0
 11
89.9144422181
 21
156.906633355
 31
0.0
 70
   164
  1
<>
  3
SLDDIMSTYLE3
 15
85.9175637856
 25
162.5892411443
 35
0.0
 40
0.0
  0
DIMENSION
  5
1EA
  8
0
  6
CONTINUOUS
 62
     7
  2
_D_17
 10
69.9657648546
 20
271.1655273676
 30
0.0
 11
76.2157648546
 21
271.1655273676
 31
0.0
 70
   160
  1
<>
  3
SLDDIMSTYLE0
 13
82.4657648546
 23
246.9968968107
 33
0.0
 14
69.9657648546
 24
254.9968968107
 34
0.0
 50
0.0
  0
DIMENSION
  5
1F6
  8
0
  6
CONTINUOUS
 62
     7
  2
_D_18
 10
90.9657648546
 20
231.4968968107
 30
0.0
 11
66.4187283383
 21
227.5719104792
 31
0.0
 70
   162
  1
<>
  3
SLDDIMSTYLE4
 13
76.4657648546
 23
231.4968968107
 33
0.0
 14
69.9657648546
 24
230.9282204977
 34
0.0
 15
73.9657648546
 25
231.4968968107
 35
0.0
 16
65.6895368525
 26
231.0263965351
 36
0.0
  0
DIMENSION
  5
203
  8
0
  6
CONTINUOUS
 62
     7
  2
_D_19
 10
62.4693626711
 20
199.4968968107
 30
0.0
 11
62.4693626711
 21
211.6082619454
 31
0.0
 70
   160
  1
<>
  3
SLDDIMSTYLE0
 13
76.4657648546
 23
206.4968968107
 33
0.0
 14
76.4657648546
 24
199.4968968107
 34
0.0
 50
90.0
  0
INSERT
  5
21A
  8
0
  6
CONTINUOUS
 62
     7
  2
SW_CENTERMARKSYMBOL_0
 10
135.4657648546
 20
116.9968968107
 30
0.0
  0
INSERT
  5
226
  8
0
  6
CONTINUOUS
 62
     7
  2
SW_CENTERMARKSYMBOL_1
 10
145.4657648546
 20
151.9968968107
 30
0.0
  0
INSERT
  5
232
  8
0
  6
CONTINUOUS
 62
     7
  2
SW_CENTERMARKSYMBOL_2
 10
139.4657648546
 20
186.9968968107
 30
0.0
  0
INSERT
  5
23E
  8
0
  6
CONTINUOUS
 62
     7
  2
SW_CENTERMARKSYMBOL_3
 10
145.4657648546
 20
221.9968968107
 30
0.0
  0
INSERT
  5
24A
  8
0
  6
CONTINUOUS
 62
     7
  2
SW_CENTERMARKSYMBOL_4
 10
135.4657648546
 20
256.9968968107
 30
0.0
  0
INSERT
  5
256
  8
0
  6
CONTINUOUS
 62
     7
  2
SW_CENTERMARKSYMBOL_5
 10
82.4657648546
 20
135.4968968107
 30
0.0
  0
INSERT
  5
262
  8
0
  6
CONTINUOUS
 62
     7
  2
SW_CENTERMARKSYMBOL_6
 10
82.4657648546
 20
142.4968968107
 30
0.0
  0
INSERT
  5
26E
  8
0
  6
CONTINUOUS
 62
     7
  2
SW_CENTERMARKSYMBOL_7
 10
82.4657648546
 20
167.4968968107
 30
0.0
  0
INSERT
  5
27A
  8
0
  6
CONTINUOUS
 62
     7
  2
SW_CENTERMARKSYMBOL_8
 10
82.4657648546
 20
174.4968968107
 30
0.0
  0
INSERT
  5
286
  8
0
  6
CONTINUOUS
 62
     7
  2
SW_CENTERMARKSYMBOL_9
 10
82.4657648546
 20
199.4968968107
 30
0.0
  0
INSERT
  5
292
  8
0
  6
CONTINUOUS
 62
     7
  2
SW_CENTERMARKSYMBOL_10
 10
82.4657648546
 20
206.4968968107
 30
0.0
  0
INSERT
  5
29E
  8
0
  6
CONTINUOUS
 62
     7
  2
SW_CENTERMARKSYMBOL_11
 10
82.4657648546
 20
231.4968968107
 30
0.0
  0
INSERT
  5
2AA
  8
0
  6
CONTINUOUS
 62
     7
  2
SW_CENTERMARKSYMBOL_12
 10
82.4657648546
 20
238.4968968107
 30
0.0
  0
LINE
  5
2AB
  8
0
  6
CENTERX2
 62
     7
 10
110.4782648546
 20
271.1239090959
 30
0.0
 11
110.4782648546
 21
105.566674962
 31
0.0
  0
LINE
  5
2AC
  8
0
  6
CENTERX2
 62
     7
 10
91.0765938423
 20
138.9968968107
 30
0.0
 11
67.9657648546
 21
138.9968968107
 31
0.0
  0
LINE
  5
2AD
  8
0
  6
CENTERX2
 62
     7
 10
67.9657648546
 20
170.9968968107
 30
0.0
 11
90.9094984877
 21
170.9968968107
 31
0.0
  0
LINE
  5
2AE
  8
0
  6
CENTERX2
 62
     7
 10
67.9657648546
 20
202.9968968107
 30
0.0
 11
90.9094984877
 21
202.9968968107
 31
0.0
  0
LINE
  5
2AF
  8
0
  6
CENTERX2
 62
     7
 10
67.9657648546
 20
234.9968968107
 30
0.0
 11
90.9094984877
 21
234.9968968107
 31
0.0
  0
LINE
  5
2B0
  8
0
  6
CONTINUOUS
 62
     7
 10
105.730851231
 20
59.5706205146
 30
0.0
 11
105.8942627299
 21
59.3922833243
 31
0.0
  0
ARC
  5
2B1
  8
0
  6
CONTINUOUS
 62
     7
 10
106.2629059575
 20
59.7300734526
 30
0.0
 40
0.5000000000000108
 50
222.4992266875
 51
301.6923038126
  0
POLYLINE
  5
2B2
  8
0
  6
CONTINUOUS
 62
     7
 66
     1
 10
0.0
 20
0.0
 30
0.0
 70
   128
  0
VERTEX
  5
524
  8
0
  6
CONTINUOUS
 62
     7
 10
106.5255846385
 20
59.3046326101
 30
0.0
  0
VERTEX
  5
525
  8
0
  6
CONTINUOUS
 62
     7
 10
107.5609178833
 20
59.8376323306
 30
0.0
  0
VERTEX
  5
526
  8
0
  6
CONTINUOUS
 62
     7
 10
107.6466337828
 20
59.8730199718
 30
0.0
  0
SEQEND
  5
693
  8
0
  6
CONTINUOUS
 62
     7
  0
ARC
  5
2B3
  8
0
  6
CONTINUOUS
 62
     7
 10
104.0510465922
 20
57.7033326827
 30
0.0
 40
0.5000000000000285
 50
323.3061495624
 51
42.4992266875
  0
LINE
  5
2B4
  8
0
  6
CONTINUOUS
 62
     7
 10
104.4196898198
 20
58.041122811
 30
0.0
 11
104.2562783208
 21
58.2194600013
 31
0.0
  0
ARC
  5
2B5
  8
0
  6
CONTINUOUS
 62
     7
 10
104.9935647759
 20
58.895040258
 30
0.0
 40
0.9999999999999901
 50
102.046178305
 51
222.4992266875
  0
POLYLINE
  5
2B6
  8
0
  6
CONTINUOUS
 62
     7
 66
     1
 10
0.0
 20
0.0
 30
0.0
 70
   128
  0
VERTEX
  5
527
  8
0
  6
CONTINUOUS
 62
     7
 10
105.2022647503
 20
59.8730199718
 30
0.0
  0
VERTEX
  5
528
  8
0
  6
CONTINUOUS
 62
     7
 10
105.4161952699
 20
59.8013423409
 30
0.0
  0
VERTEX
  5
529
  8
0
  6
CONTINUOUS
 62
     7
 10
105.730851231
 20
59.5706205146
 30
0.0
  0
SEQEND
  5
694
  8
0
  6
CONTINUOUS
 62
     7
  0
ARC
  5
2B7
  8
0
  6
CONTINUOUS
 62
     7
 10
110.4657648546
 20
52.9230199718
 30
0.0
 40
9.950000000002122
 50
139.5908727719
 51
149.392842351
  0
LINE
  5
2B8
  8
0
  6
CONTINUOUS
 62
     7
 10
104.2981409313
 20
58.1737737406
 30
0.0
 11
102.8894860847
 21
59.3730199718
 31
0.0
  0
POLYLINE
  5
2B9
  8
0
  6
CONTINUOUS
 62
     7
 66
     1
 10
0.0
 20
0.0
 30
0.0
 70
   128
  0
VERTEX
  5
52A
  8
0
  6
CONTINUOUS
 62
     7
 10
104.4840497764
 20
56.4616051019
 30
0.0
  0
VERTEX
  5
52B
  8
0
  6
CONTINUOUS
 62
     7
 10
104.7642019554
 20
56.8972721664
 30
0.0
  0
VERTEX
  5
52C
  8
0
  6
CONTINUOUS
 62
     7
 10
104.8720227758
 20
57.0472186577
 30
0.0
  0
SEQEND
  5
695
  8
0
  6
CONTINUOUS
 62
     7
  0
LINE
  5
2BA
  8
0
  6
CONTINUOUS
 62
     7
 10
104.4840497764
 20
56.4616051019
 30
0.0
 11
101.9020144908
 21
57.9890519206
 31
0.0
  0
ARC
  5
2BB
  8
0
  6
CONTINUOUS
 62
     7
 10
110.4657648546
 20
52.9230199718
 30
0.0
 40
9.949999999999996
 50
149.392842351
 51
90.0
  0
ARC
  5
2BC
  8
0
  6
CONTINUOUS
 62
     7
 10
110.4657648546
 20
52.9230199718
 30
0.0
 40
6.950000000000003
 50
149.392842351
 51
90.0
  0
LINE
  5
2BD
  8
0
  6
CONTINUOUS
 62
     7
 10
110.4657648546
 20
62.8730199718
 30
0.0
 11
77.4657648546
 21
62.8730199718
 31
0.0
  0
LINE
  5
2BE
  8
0
  6
CONTINUOUS
 62
     7
 10
110.4657648546
 20
59.8730199718
 30
0.0
 11
77.4657648546
 21
59.8730199718
 31
0.0
  0
LINE
  5
2BF
  8
0
  6
CONTINUOUS
 62
     7
 10
65.4657648546
 20
59.8730199718
 30
0.0
 11
65.4657648546
 21
62.8730199718
 31
0.0
  0
LINE
  5
2C0
  8
0
  6
CONTINUOUS
 62
     7
 10
65.4657648546
 20
62.8730199718
 30
0.0
 11
77.4657648546
 21
62.8730199718
 31
0.0
  0
LINE
  5
2C1
  8
0
  6
CONTINUOUS
 62
     7
 10
77.4657648546
 20
59.8730199718
 30
0.0
 11
65.4657648546
 21
59.8730199718
 31
0.0
  0
LINE
  5
2C2
  8
0
  6
CONTINUOUS
 62
     7
 10
93.9657648546
 20
47.4230199718
 30
0.0
 11
95.9657648546
 21
47.4230199718
 31
0.0
  0
LINE
  5
2C3
  8
0
  6
CONTINUOUS
 62
     7
 10
95.9657648546
 20
47.4230199718
 30
0.0
 11
95.9657648546
 21
44.4230199718
 31
0.0
  0
LINE
  5
2C4
  8
0
  6
CONTINUOUS
 62
     7
 10
95.9657648546
 20
44.4230199718
 30
0.0
 11
93.9657648546
 21
44.4230199718
 31
0.0
  0
LINE
  5
2C5
  8
0
  6
CONTINUOUS
 62
     7
 10
71.9657648546
 20
47.4230199718
 30
0.0
 11
93.9657648546
 21
47.4230199718
 31
0.0
  0
LINE
  5
2C6
  8
0
  6
CONTINUOUS
 62
     7
 10
71.9657648546
 20
44.4230199718
 30
0.0
 11
93.9657648546
 21
44.4230199718
 31
0.0
  0
LINE
  5
2C7
  8
0
  6
CONTINUOUS
 62
     7
 10
69.9657648546
 20
44.4230199718
 30
0.0
 11
69.9657648546
 21
47.4230199718
 31
0.0
  0
LINE
  5
2C8
  8
0
  6
CONTINUOUS
 62
     7
 10
71.9657648546
 20
44.4230199718
 30
0.0
 11
69.9657648546
 21
44.4230199718
 31
0.0
  0
LINE
  5
2C9
  8
0
  6
CONTINUOUS
 62
     7
 10
69.9657648546
 20
47.4230199718
 30
0.0
 11
71.9657648546
 21
47.4230199718
 31
0.0
  0
LINE
  5
2CA
  8
0
  6
CONTINUOUS
 62
     7
 10
97.9657648546
 20
44.4230199718
 30
0.0
 11
95.9657648546
 21
44.4230199718
 31
0.0
  0
LINE
  5
2CB
  8
0
  6
CONTINUOUS
 62
     7
 10
95.9657648546
 20
47.4230199718
 30
0.0
 11
97.9657648546
 21
47.4230199718
 31
0.0
  0
LINE
  5
2CC
  8
0
  6
CONTINUOUS
 62
     7
 10
102.5232404201
 20
46.9297899906
 30
0.0
 11
98.9083506234
 21
47.390873136
 31
0.0
  0
LINE
  5
2CD
  8
0
  6
CONTINUOUS
 62
     7
 10
109.2068311329
 20
43.0529852259
 30
0.0
 11
98.5287726169
 21
44.4149832628
 31
0.0
  0
LINE
  5
2CE
  8
0
  6
CONTINUOUS
 62
     7
 10
98.4022466147
 20
44.4230199718
 30
0.0
 11
97.9657648546
 21
44.4230199718
 31
0.0
  0
LINE
  5
2CF
  8
0
  6
CONTINUOUS
 62
     7
 10
98.4022466147
 20
47.4230199718
 30
0.0
 11
97.9657648546
 21
47.4230199718
 31
0.0
  0
ARC
  5
2D0
  8
0
  6
CONTINUOUS
 62
     7
 10
98.4022466147
 20
43.4230199718
 30
0.0
 40
1.000000000000008
 50
82.7311109749
 51
90.0
  0
ARC
  5
2D1
  8
0
  6
CONTINUOUS
 62
     7
 10
98.4022466147
 20
43.4230199718
 30
0.0
 40
4.000000000000007
 50
82.7311109749
 51
90.0
  0
ARC
  5
2D2
  8
0
  6
CONTINUOUS
 62
     7
 10
110.4657648546
 20
52.9230199718
 30
0.0
 40
9.949999999999996
 50
135.6938211721
 51
149.3887155165
  0
POLYLINE
  5
2D3
  8
0
  6
CONTINUOUS
 62
     7
 66
     1
 10
0.0
 20
0.0
 30
0.0
 70
   128
  0
VERTEX
  5
52D
  8
0
  6
CONTINUOUS
 62
     7
 10
104.0548166511
 20
59.2396443181
 30
0.0
  0
VERTEX
  5
52E
  8
0
  6
CONTINUOUS
 62
     7
 10
103.99593203
 20
59.1793178564
 30
0.0
  0
VERTEX
  5
52F
  8
0
  6
CONTINUOUS
 62
     7
 10
103.6142313477
 20
58.7588137141
 30
0.0
  0
SEQEND
  5
696
  8
0
  6
CONTINUOUS
 62
     7
  0
DIMENSION
  5
2D4
  8
0
  6
CONTINUOUS
 62
     7
  2
_D_20
 10
101.848812087
 20
57.8980199718
 30
0.0
 11
131.2284122296
 21
40.9357156943
 31
0.0
 70
   163
  1
<>
  3
SLDDIMSTYLE5
 15
119.0827176223
 25
47.9480199718
 35
0.0
 40
0.0
  0
DIMENSION
  5
2E1
  8
0
  6
CONTINUOUS
 62
     7
  2
_D_21
 10
65.4657648546
 20
71.051515736
 30
0.0
 11
87.9657648546
 21
71.051515736
 31
0.0
 70
   160
  1
<>
  3
SLDDIMSTYLE2
 13
110.4657648546
 23
65.3730199718
 33
0.0
 14
65.4657648546
 24
62.8730199718
 34
0.0
  0
DIMENSION
  5
2EB
  8
0
  6
CONTINUOUS
 62
     7
  2
_D_22
 10
69.9657648546
 20
38.637490478
 30
0.0
 11
90.2157648546
 21
38.637490478
 31
0.0
 70
   160
  1
<>
  3
SLDDIMSTYLE2
 13
110.4657648546
 23
40.4730199718
 33
0.0
 14
69.9657648546
 24
44.4230199718
 34
0.0
  0
DIMENSION
  5
2F5
  8
0
  6
CONTINUOUS
 62
     7
  2
_D_23
 10
58.2171573285
 20
47.4230199718
 30
0.0
 11
58.2171573285
 21
38.637490478
 31
0.0
 70
   160
  1
<>
  3
SLDDIMSTYLE0
 13
69.9657648546
 23
44.4230199718
 33
0.0
 14
69.9657648546
 24
47.4230199718
 34
0.0
 50
90.0
  0
DIMENSION
  5
301
  8
0
  6
CONTINUOUS
 62
     7
  2
_D_24
 10
48.4657648546
 20
62.8730199718
 30
0.0
 11
48.4657648546
 21
53.6480199718
 31
0.0
 70
   160
  1
<>
  3
SLDDIMSTYLE6
 13
69.9657648546
 23
44.4230199718
 33
0.0
 14
65.4657648546
 24
62.8730199718
 34
0.0
 50
90.0
  0
INSERT
  5
319
  8
0
  6
CONTINUOUS
 62
     7
  2
SW_CENTERMARKSYMBOL_13
 10
110.4657648546
 20
52.9230199718
 30
0.0
  0
LINE
  5
31A
  8
0
  6
CENTERX2
 62
     7
 10
82.4657648546
 20
49.4230199718
 30
0.0
 11
82.4657648546
 21
42.4230199718
 31
0.0
  0
LINE
  5
31B
  8
0
  6
CENTERX2
 62
     7
 10
85.4657648546
 20
64.8730199718
 30
0.0
 11
85.4657648546
 21
62.1230199718
 31
0.0
  0
LINE
  5
31C
  8
0
  6
CENTERX2
 62
     7
 10
75.4657648546
 20
64.8730199718
 30
0.0
 11
75.4657648546
 21
62.1230199718
 31
0.0
  0
LINE
  5
31D
  8
0
  6
CENTERX2
 62
     7
 10
81.4657648546
 20
64.8730199718
 30
0.0
 11
81.4657648546
 21
62.1230199718
 31
0.0
  0
LINE
  5
31E
  8
0
  6
CENTERX2
 62
     7
 10
85.4657648546
 20
57.8730199718
 30
0.0
 11
85.4657648546
 21
62.1230199718
 31
0.0
  0
LINE
  5
31F
  8
0
  6
CENTERX2
 62
     7
 10
75.4657648546
 20
57.8730199718
 30
0.0
 11
75.4657648546
 21
62.1230199718
 31
0.0
  0
LINE
  5
320
  8
0
  6
CENTERX2
 62
     7
 10
81.4657648546
 20
57.8730199718
 30
0.0
 11
81.4657648546
 21
62.1230199718
 31
0.0
  0
LINE
  5
321
  8
0
  6
CONTINUOUS
 62
     7
 10
265.1717020059
 20
207.6968968107
 30
0.0
 11
262.1717020059
 21
210.6968968107
 31
0.0
  0
LINE
  5
322
  8
0
  6
CONTINUOUS
 62
     7
 10
260.6815739454
 20
207.6968968107
 30
0.0
 11
257.6815739454
 21
210.6968968107
 31
0.0
  0
LINE
  5
323
  8
0
  6
CONTINUOUS
 62
     7
 10
256.1914458849
 20
207.6968968107
 30
0.0
 11
252.820175502
 21
211.0681671935
 31
0.0
  0
LINE
  5
324
  8
0
  6
CONTINUOUS
 62
     7
 10
251.1400512147
 20
208.2581634203
 30
0.0
 11
247.6735955413
 21
211.7246190937
 31
0.0
  0
LINE
  5
325
  8
0
  6
CONTINUOUS
 62
     7
 10
252.5004407288
 20
206.8977739062
 30
0.0
 11
251.8805139463
 21
207.5177006886
 31
0.0
  0
LINE
  5
326
  8
0
  6
CONTINUOUS
 62
     7
 10
245.993471254
 20
208.9146153205
 30
0.0
 11
242.8044206777
 21
212.1036658968
 31
0.0
  0
LINE
  5
327
  8
0
  6
CONTINUOUS
 62
     7
 10
253.6377027288
 20
201.2703838456
 30
0.0
 11
250.2185601388
 21
204.6895264356
 31
0.0
  0
LINE
  5
328
  8
0
  6
CONTINUOUS
 62
     7
 10
241.6043918467
 20
208.8135666672
 30
0.0
 11
239.3080941419
 21
211.109864372
 31
0.0
  0
LINE
  5
329
  8
0
  6
CONTINUOUS
 62
     7
 10
252.6439012041
 20
197.7740573098
 30
0.0
 11
250.3476034992
 21
200.0703550147
 31
0.0
  0
LINE
  5
32A
  8
0
  6
CONTINUOUS
 62
     7
 10
238.8165415135
 20
207.1112889399
 30
0.0
 11
236.6952211699
 21
209.2326092835
 31
0.0
  0
LINE
  5
32B
  8
0
  6
CONTINUOUS
 62
     7
 10
250.7666461155
 20
195.1611843379
 30
0.0
 11
248.645325772
 21
197.2825046814
 31
0.0
  0
LINE
  5
32C
  8
0
  6
CONTINUOUS
 62
     7
 10
237.1142637862
 20
204.3234386066
 30
0.0
 11
234.8179660814
 21
206.6197363115
 31
0.0
  0
LINE
  5
32D
  8
0
  6
CONTINUOUS
 62
     7
 10
248.1537731435
 20
193.2839292493
 30
0.0
 11
245.8574754387
 21
195.5802269542
 31
0.0
  0
LINE
  5
32E
  8
0
  6
CONTINUOUS
 62
     7
 10
237.2433071466
 20
199.7042671857
 30
0.0
 11
233.8241645566
 21
203.1234097757
 31
0.0
  0
LINE
  5
32F
  8
0
  6
CONTINUOUS
 62
     7
 10
244.6574466078
 20
192.2901277245
 30
0.0
 11
241.2383040177
 21
195.7092703146
 31
0.0
  0
LINE
  5
330
  8
0
  6
CONTINUOUS
 62
     7
 10
239.0300565472
 20
193.4273897246
 30
0.0
 11
234.9614265566
 21
197.4960197151
 31
0.0
  0
LINE
  5
331
  8
0
  6
CONTINUOUS
 62
     7
 10
288.7309336427
 20
193.1179212949
 30
0.0
 11
286.601958127
 21
195.2468968107
 31
0.0
  0
LINE
  5
332
  8
0
  6
CONTINUOUS
 62
     7
 10
285.1118300665
 20
192.2468968107
 30
0.0
 11
282.1118300665
 21
195.2468968107
 31
0.0
  0
LINE
  5
333
  8
0
  6
CONTINUOUS
 62
     7
 10
280.6217020059
 20
192.2468968107
 30
0.0
 11
277.6217020059
 21
195.2468968107
 31
0.0
  0
LINE
  5
334
  8
0
  6
CONTINUOUS
 62
     7
 10
276.1315739454
 20
192.2468968107
 30
0.0
 11
273.1315739454
 21
195.2468968107
 31
0.0
  0
LINE
  5
335
  8
0
  6
CONTINUOUS
 62
     7
 10
271.6414458849
 20
192.2468968107
 30
0.0
 11
268.6414458849
 21
195.2468968107
 31
0.0
  0
LINE
  5
336
  8
0
  6
CONTINUOUS
 62
     7
 10
267.1513178243
 20
192.2468968107
 30
0.0
 11
264.1513178243
 21
195.2468968107
 31
0.0
  0
LINE
  5
337
  8
0
  6
CONTINUOUS
 62
     7
 10
262.6611897638
 20
192.2468968107
 30
0.0
 11
259.6611897638
 21
195.2468968107
 31
0.0
  0
LINE
  5
338
  8
0
  6
CONTINUOUS
 62
     7
 10
258.1710617033
 20
192.2468968107
 30
0.0
 11
255.7288793786
 21
194.6890791353
 31
0.0
  0
LINE
  5
339
  8
0
  6
CONTINUOUS
 62
     7
 10
246.9129141581
 20
199.0149162953
 30
0.0
 11
240.5489531274
 21
205.378877326
 31
0.0
  0
LINE
  5
33A
  8
0
  6
CONTINUOUS
 62
     7
 10
243.740794785
 20
197.6969076154
 30
0.0
 11
239.2309444474
 21
202.206757953
 31
0.0
  0
LINE
  5
33B
  8
0
  6
CONTINUOUS
 62
     7
 10
294.5309336427
 20
145.2468968107
 30
0.0
 11
294.5309336427
 21
195.2468968107
 31
0.0
  0
LINE
  5
33C
  8
0
  6
CONTINUOUS
 62
     7
 10
291.3559336427
 20
145.2468968107
 30
0.0
 11
291.3559336427
 21
195.2468968107
 31
0.0
  0
LINE
  5
33D
  8
0
  6
CONTINUOUS
 62
     7
 10
288.1809336427
 20
145.2468968107
 30
0.0
 11
288.1809336427
 21
192.2468968107
 31
0.0
  0
LINE
  5
33E
  8
0
  6
CONTINUOUS
 62
     7
 10
285.0059336427
 20
145.2468968107
 30
0.0
 11
285.0059336427
 21
192.2468968107
 31
0.0
  0
LINE
  5
33F
  8
0
  6
CONTINUOUS
 62
     7
 10
281.8309336427
 20
145.2468968107
 30
0.0
 11
281.8309336427
 21
192.2468968107
 31
0.0
  0
LINE
  5
340
  8
0
  6
CONTINUOUS
 62
     7
 10
278.6559336427
 20
145.2468968107
 30
0.0
 11
278.6559336427
 21
192.2468968107
 31
0.0
  0
LINE
  5
341
  8
0
  6
CONTINUOUS
 62
     7
 10
275.4809336427
 20
145.2468968107
 30
0.0
 11
275.4809336427
 21
192.2468968107
 31
0.0
  0
LINE
  5
342
  8
0
  6
CONTINUOUS
 62
     7
 10
272.3059336427
 20
145.2468968107
 30
0.0
 11
272.3059336427
 21
192.2468968107
 31
0.0
  0
LINE
  5
343
  8
0
  6
CONTINUOUS
 62
     7
 10
269.1309336427
 20
145.2468968107
 30
0.0
 11
269.1309336427
 21
192.2468968107
 31
0.0
  0
LINE
  5
344
  8
0
  6
CONTINUOUS
 62
     7
 10
265.9559336427
 20
145.2468968107
 30
0.0
 11
265.9559336427
 21
192.2468968107
 31
0.0
  0
LINE
  5
345
  8
0
  6
CONTINUOUS
 62
     7
 10
262.7809336427
 20
145.2468968107
 30
0.0
 11
262.7809336427
 21
192.2468968107
 31
0.0
  0
LINE
  5
346
  8
0
  6
CONTINUOUS
 62
     7
 10
259.6059336427
 20
145.2468968107
 30
0.0
 11
259.6059336427
 21
192.2468968107
 31
0.0
  0
LINE
  5
347
  8
0
  6
CONTINUOUS
 62
     7
 10
256.7309336427
 20
189.7968968533
 30
0.0
 11
258.018433634
 21
191.0843968446
 31
0.0
  0
LINE
  5
348
  8
0
  6
CONTINUOUS
 62
     7
 10
267.543433636
 20
187.9093968679
 30
0.0
 11
270.7184336486
 21
191.0843968805
 31
0.0
  0
LINE
  5
349
  8
0
  6
CONTINUOUS
 62
     7
 10
261.1934336108
 20
181.5593968426
 30
0.0
 11
264.3684336234
 21
184.7343968553
 31
0.0
  0
LINE
  5
34A
  8
0
  6
CONTINUOUS
 62
     7
 10
256.7309336427
 20
177.0968968746
 30
0.0
 11
258.0184335981
 21
178.38439683
 31
0.0
  0
LINE
  5
34B
  8
0
  6
CONTINUOUS
 62
     7
 10
280.2434336506
 20
187.9093969038
 30
0.0
 11
283.4184336633
 21
191.0843969164
 31
0.0
  0
LINE
  5
34C
  8
0
  6
CONTINUOUS
 62
     7
 10
273.8934336254
 20
181.5593968785
 30
0.0
 11
277.068433638
 21
184.7343968912
 31
0.0
  0
LINE
  5
34D
  8
0
  6
CONTINUOUS
 62
     7
 10
267.5434336001
 20
175.2093968533
 30
0.0
 11
270.7184336127
 21
178.3843968659
 31
0.0
  0
LINE
  5
34E
  8
0
  6
CONTINUOUS
 62
     7
 10
261.1934335748
 20
168.859396828
 30
0.0
 11
264.3684335875
 21
172.0343968406
 31
0.0
  0
LINE
  5
34F
  8
0
  6
CONTINUOUS
 62
     7
 10
256.7309336427
 20
164.3968968959
 30
0.0
 11
258.0184335622
 21
165.6843968154
 31
0.0
  0
LINE
  5
350
  8
0
  6
CONTINUOUS
 62
     7
 10
292.9434336652
 20
187.9093969397
 30
0.0
 11
296.1184336779
 21
191.0843969524
 31
0.0
  0
LINE
  5
351
  8
0
  6
CONTINUOUS
 62
     7
 10
286.59343364
 20
181.5593969145
 30
0.0
 11
289.7684336526
 21
184.7343969271
 31
0.0
  0
LINE
  5
352
  8
0
  6
CONTINUOUS
 62
     7
 10
280.2434336147
 20
175.2093968892
 30
0.0
 11
283.4184336273
 21
178.3843969018
 31
0.0
  0
LINE
  5
353
  8
0
  6
CONTINUOUS
 62
     7
 10
273.8934335894
 20
168.8593968639
 30
0.0
 11
277.0684336021
 21
172.0343968766
 31
0.0
  0
LINE
  5
354
  8
0
  6
CONTINUOUS
 62
     7
 10
267.5434335642
 20
162.5093968387
 30
0.0
 11
270.7184335768
 21
165.6843968513
 31
0.0
  0
LINE
  5
355
  8
0
  6
CONTINUOUS
 62
     7
 10
261.1934335389
 20
156.1593968134
 30
0.0
 11
264.3684335515
 21
159.334396826
 31
0.0
  0
LINE
  5
356
  8
0
  6
CONTINUOUS
 62
     7
 10
256.7309336427
 20
151.6968969172
 30
0.0
 11
258.0184335263
 21
152.9843968008
 31
0.0
  0
LINE
  5
357
  8
0
  6
CONTINUOUS
 62
     7
 10
292.9434336293
 20
175.2093969251
 30
0.0
 11
296.1184336419
 21
178.3843969378
 31
0.0
  0
LINE
  5
358
  8
0
  6
CONTINUOUS
 62
     7
 10
286.5934336041
 20
168.8593968999
 30
0.0
 11
289.7684336167
 21
172.0343969125
 31
0.0
  0
LINE
  5
359
  8
0
  6
CONTINUOUS
 62
     7
 10
280.2434335788
 20
162.5093968746
 30
0.0
 11
283.4184335914
 21
165.6843968872
 31
0.0
  0
LINE
  5
35A
  8
0
  6
CONTINUOUS
 62
     7
 10
273.8934335535
 20
156.1593968493
 30
0.0
 11
277.0684335662
 21
159.334396862
 31
0.0
  0
LINE
  5
35B
  8
0
  6
CONTINUOUS
 62
     7
 10
267.5434335283
 20
149.8093968241
 30
0.0
 11
270.7184335409
 21
152.9843968367
 31
0.0
  0
LINE
  5
35C
  8
0
  6
CONTINUOUS
 62
     7
 10
262.9809335149
 20
145.2468968107
 30
0.0
 11
264.3684335156
 21
146.6343968114
 31
0.0
  0
LINE
  5
35D
  8
0
  6
CONTINUOUS
 62
     7
 10
292.9434335934
 20
162.5093969105
 30
0.0
 11
296.118433606
 21
165.6843969231
 31
0.0
  0
LINE
  5
35E
  8
0
  6
CONTINUOUS
 62
     7
 10
286.5934335681
 20
156.1593968852
 30
0.0
 11
289.7684335808
 21
159.3343968979
 31
0.0
  0
LINE
  5
35F
  8
0
  6
CONTINUOUS
 62
     7
 10
280.2434335429
 20
149.80939686
 30
0.0
 11
283.4184335555
 21
152.9843968726
 31
0.0
  0
LINE
  5
360
  8
0
  6
CONTINUOUS
 62
     7
 10
275.6809334935
 20
145.2468968107
 30
0.0
 11
277.0684335302
 21
146.6343968473
 31
0.0
  0
LINE
  5
361
  8
0
  6
CONTINUOUS
 62
     7
 10
292.9434335575
 20
149.8093968959
 30
0.0
 11
296.1184335701
 21
152.9843969085
 31
0.0
  0
LINE
  5
362
  8
0
  6
CONTINUOUS
 62
     7
 10
288.3809334722
 20
145.2468968107
 30
0.0
 11
289.7684335448
 21
146.6343968833
 31
0.0
  0
LINE
  5
363
  8
0
  6
CONTINUOUS
 62
     7
 10
256.7309336427
 20
189.0031468533
 30
0.0
 11
258.018433634
 21
190.2906468446
 31
0.0
  0
LINE
  5
364
  8
0
  6
CONTINUOUS
 62
     7
 10
267.543433636
 20
187.1156468679
 30
0.0
 11
270.7184336486
 21
190.2906468805
 31
0.0
  0
LINE
  5
365
  8
0
  6
CONTINUOUS
 62
     7
 10
261.1934336108
 20
180.7656468426
 30
0.0
 11
264.3684336234
 21
183.9406468553
 31
0.0
  0
LINE
  5
366
  8
0
  6
CONTINUOUS
 62
     7
 10
256.7309336427
 20
176.3031468746
 30
0.0
 11
258.0184335981
 21
177.59064683
 31
0.0
  0
LINE
  5
367
  8
0
  6
CONTINUOUS
 62
     7
 10
280.2434336506
 20
187.1156469038
 30
0.0
 11
283.4184336633
 21
190.2906469164
 31
0.0
  0
LINE
  5
368
  8
0
  6
CONTINUOUS
 62
     7
 10
273.8934336254
 20
180.7656468785
 30
0.0
 11
277.068433638
 21
183.9406468912
 31
0.0
  0
LINE
  5
369
  8
0
  6
CONTINUOUS
 62
     7
 10
267.5434336001
 20
174.4156468533
 30
0.0
 11
270.7184336127
 21
177.5906468659
 31
0.0
  0
LINE
  5
36A
  8
0
  6
CONTINUOUS
 62
     7
 10
261.1934335748
 20
168.065646828
 30
0.0
 11
264.3684335875
 21
171.2406468406
 31
0.0
  0
LINE
  5
36B
  8
0
  6
CONTINUOUS
 62
     7
 10
256.7309336427
 20
163.6031468959
 30
0.0
 11
258.0184335622
 21
164.8906468154
 31
0.0
  0
LINE
  5
36C
  8
0
  6
CONTINUOUS
 62
     7
 10
292.9434336652
 20
187.1156469397
 30
0.0
 11
296.1184336779
 21
190.2906469524
 31
0.0
  0
LINE
  5
36D
  8
0
  6
CONTINUOUS
 62
     7
 10
286.59343364
 20
180.7656469145
 30
0.0
 11
289.7684336526
 21
183.9406469271
 31
0.0
  0
LINE
  5
36E
  8
0
  6
CONTINUOUS
 62
     7
 10
280.2434336147
 20
174.4156468892
 30
0.0
 11
283.4184336273
 21
177.5906469018
 31
0.0
  0
LINE
  5
36F
  8
0
  6
CONTINUOUS
 62
     7
 10
273.8934335894
 20
168.0656468639
 30
0.0
 11
277.0684336021
 21
171.2406468766
 31
0.0
  0
LINE
  5
370
  8
0
  6
CONTINUOUS
 62
     7
 10
267.5434335642
 20
161.7156468387
 30
0.0
 11
270.7184335768
 21
164.8906468513
 31
0.0
  0
LINE
  5
371
  8
0
  6
CONTINUOUS
 62
     7
 10
261.1934335389
 20
155.3656468134
 30
0.0
 11
264.3684335515
 21
158.540646826
 31
0.0
  0
LINE
  5
372
  8
0
  6
CONTINUOUS
 62
     7
 10
256.7309336427
 20
150.9031469172
 30
0.0
 11
258.0184335263
 21
152.1906468008
 31
0.0
  0
LINE
  5
373
  8
0
  6
CONTINUOUS
 62
     7
 10
292.9434336293
 20
174.4156469251
 30
0.0
 11
296.1184336419
 21
177.5906469378
 31
0.0
  0
LINE
  5
374
  8
0
  6
CONTINUOUS
 62
     7
 10
286.5934336041
 20
168.0656468999
 30
0.0
 11
289.7684336167
 21
171.2406469125
 31
0.0
  0
LINE
  5
375
  8
0
  6
CONTINUOUS
 62
     7
 10
280.2434335788
 20
161.7156468746
 30
0.0
 11
283.4184335914
 21
164.8906468872
 31
0.0
  0
LINE
  5
376
  8
0
  6
CONTINUOUS
 62
     7
 10
273.8934335535
 20
155.3656468493
 30
0.0
 11
277.0684335662
 21
158.540646862
 31
0.0
  0
LINE
  5
377
  8
0
  6
CONTINUOUS
 62
     7
 10
267.5434335283
 20
149.0156468241
 30
0.0
 11
270.7184335409
 21
152.1906468367
 31
0.0
  0
LINE
  5
378
  8
0
  6
CONTINUOUS
 62
     7
 10
263.7746835149
 20
145.2468968107
 30
0.0
 11
264.3684335156
 21
145.8406468114
 31
0.0
  0
LINE
  5
379
  8
0
  6
CONTINUOUS
 62
     7
 10
292.9434335934
 20
161.7156469105
 30
0.0
 11
296.118433606
 21
164.8906469231
 31
0.0
  0
LINE
  5
37A
  8
0
  6
CONTINUOUS
 62
     7
 10
286.5934335681
 20
155.3656468852
 30
0.0
 11
289.7684335808
 21
158.5406468979
 31
0.0
  0
LINE
  5
37B
  8
0
  6
CONTINUOUS
 62
     7
 10
280.2434335429
 20
149.01564686
 30
0.0
 11
283.4184335555
 21
152.1906468726
 31
0.0
  0
LINE
  5
37C
  8
0
  6
CONTINUOUS
 62
     7
 10
276.4746834935
 20
145.2468968107
 30
0.0
 11
277.0684335302
 21
145.8406468473
 31
0.0
  0
LINE
  5
37D
  8
0
  6
CONTINUOUS
 62
     7
 10
292.9434335575
 20
149.0156468959
 30
0.0
 11
296.1184335701
 21
152.1906469085
 31
0.0
  0
LINE
  5
37E
  8
0
  6
CONTINUOUS
 62
     7
 10
289.1746834722
 20
145.2468968107
 30
0.0
 11
289.7684335448
 21
145.8406468833
 31
0.0
  0
LINE
  5
37F
  8
0
  6
CONTINUOUS
 62
     7
 10
256.7309336427
 20
188.2093968533
 30
0.0
 11
258.018433634
 21
189.4968968446
 31
0.0
  0
LINE
  5
380
  8
0
  6
CONTINUOUS
 62
     7
 10
267.543433636
 20
186.3218968679
 30
0.0
 11
270.7184336486
 21
189.4968968805
 31
0.0
  0
LINE
  5
381
  8
0
  6
CONTINUOUS
 62
     7
 10
261.1934336108
 20
179.9718968426
 30
0.0
 11
264.3684336234
 21
183.1468968553
 31
0.0
  0
LINE
  5
382
  8
0
  6
CONTINUOUS
 62
     7
 10
256.7309336427
 20
175.5093968746
 30
0.0
 11
258.0184335981
 21
176.79689683
 31
0.0
  0
LINE
  5
383
  8
0
  6
CONTINUOUS
 62
     7
 10
280.2434336506
 20
186.3218969038
 30
0.0
 11
283.4184336633
 21
189.4968969164
 31
0.0
  0
LINE
  5
384
  8
0
  6
CONTINUOUS
 62
     7
 10
273.8934336254
 20
179.9718968785
 30
0.0
 11
277.068433638
 21
183.1468968912
 31
0.0
  0
LINE
  5
385
  8
0
  6
CONTINUOUS
 62
     7
 10
267.5434336001
 20
173.6218968533
 30
0.0
 11
270.7184336127
 21
176.7968968659
 31
0.0
  0
LINE
  5
386
  8
0
  6
CONTINUOUS
 62
     7
 10
261.1934335748
 20
167.271896828
 30
0.0
 11
264.3684335875
 21
170.4468968406
 31
0.0
  0
LINE
  5
387
  8
0
  6
CONTINUOUS
 62
     7
 10
256.7309336427
 20
162.8093968959
 30
0.0
 11
258.0184335622
 21
164.0968968154
 31
0.0
  0
LINE
  5
388
  8
0
  6
CONTINUOUS
 62
     7
 10
288.7309336427
 20
194.8093968959
 30
0.0
 11
289.1684335575
 21
195.2468968107
 31
0.0
  0
LINE
  5
389
  8
0
  6
CONTINUOUS
 62
     7
 10
292.9434336652
 20
186.3218969397
 30
0.0
 11
296.1184336779
 21
189.4968969524
 31
0.0
  0
LINE
  5
38A
  8
0
  6
CONTINUOUS
 62
     7
 10
286.59343364
 20
179.9718969145
 30
0.0
 11
289.7684336526
 21
183.1468969271
 31
0.0
  0
LINE
  5
38B
  8
0
  6
CONTINUOUS
 62
     7
 10
280.2434336147
 20
173.6218968892
 30
0.0
 11
283.4184336273
 21
176.7968969018
 31
0.0
  0
LINE
  5
38C
  8
0
  6
CONTINUOUS
 62
     7
 10
273.8934335894
 20
167.2718968639
 30
0.0
 11
277.0684336021
 21
170.4468968766
 31
0.0
  0
LINE
  5
38D
  8
0
  6
CONTINUOUS
 62
     7
 10
267.5434335642
 20
160.9218968387
 30
0.0
 11
270.7184335768
 21
164.0968968513
 31
0.0
  0
LINE
  5
38E
  8
0
  6
CONTINUOUS
 62
     7
 10
261.1934335389
 20
154.5718968134
 30
0.0
 11
264.3684335515
 21
157.746896826
 31
0.0
  0
LINE
  5
38F
  8
0
  6
CONTINUOUS
 62
     7
 10
256.7309336427
 20
150.1093969172
 30
0.0
 11
258.0184335263
 21
151.3968968008
 31
0.0
  0
LINE
  5
390
  8
0
  6
CONTINUOUS
 62
     7
 10
292.9434336293
 20
173.6218969251
 30
0.0
 11
296.1184336419
 21
176.7968969378
 31
0.0
  0
LINE
  5
391
  8
0
  6
CONTINUOUS
 62
     7
 10
286.5934336041
 20
167.2718968999
 30
0.0
 11
289.7684336167
 21
170.4468969125
 31
0.0
  0
LINE
  5
392
  8
0
  6
CONTINUOUS
 62
     7
 10
280.2434335788
 20
160.9218968746
 30
0.0
 11
283.4184335914
 21
164.0968968872
 31
0.0
  0
LINE
  5
393
  8
0
  6
CONTINUOUS
 62
     7
 10
273.8934335535
 20
154.5718968493
 30
0.0
 11
277.0684335662
 21
157.746896862
 31
0.0
  0
LINE
  5
394
  8
0
  6
CONTINUOUS
 62
     7
 10
267.5434335283
 20
148.2218968241
 30
0.0
 11
270.7184335409
 21
151.3968968367
 31
0.0
  0
LINE
  5
395
  8
0
  6
CONTINUOUS
 62
     7
 10
292.9434335934
 20
160.9218969105
 30
0.0
 11
296.118433606
 21
164.0968969231
 31
0.0
  0
LINE
  5
396
  8
0
  6
CONTINUOUS
 62
     7
 10
286.5934335681
 20
154.5718968852
 30
0.0
 11
289.7684335808
 21
157.7468968979
 31
0.0
  0
LINE
  5
397
  8
0
  6
CONTINUOUS
 62
     7
 10
280.2434335429
 20
148.22189686
 30
0.0
 11
283.4184335555
 21
151.3968968726
 31
0.0
  0
LINE
  5
398
  8
0
  6
CONTINUOUS
 62
     7
 10
292.9434335575
 20
148.2218968959
 30
0.0
 11
296.1184335701
 21
151.3968969085
 31
0.0
  0
LINE
  5
399
  8
0
  6
CONTINUOUS
 62
     7
 10
274.2309336427
 20
216.598177416
 30
0.0
 11
270.1322142481
 21
220.6968968107
 31
0.0
  0
LINE
  5
39A
  8
0
  6
CONTINUOUS
 62
     7
 10
274.2309336427
 20
212.1080493555
 30
0.0
 11
269.2309336427
 21
217.1080493555
 31
0.0
  0
LINE
  5
39B
  8
0
  6
CONTINUOUS
 62
     7
 10
280.7309336427
 20
205.6080493555
 30
0.0
 11
278.6420861875
 21
207.6968968107
 31
0.0
  0
LINE
  5
39C
  8
0
  6
CONTINUOUS
 62
     7
 10
274.2309336427
 20
207.6179212949
 30
0.0
 11
269.2309336427
 21
212.6179212949
 31
0.0
  0
LINE
  5
39D
  8
0
  6
CONTINUOUS
 62
     7
 10
277.151958127
 20
204.6968968107
 30
0.0
 11
274.7309336427
 21
207.1179212949
 31
0.0
  0
LINE
  5
39E
  8
0
  6
CONTINUOUS
 62
     7
 10
276.5102528345
 20
200.8484740427
 30
0.0
 11
269.2309336427
 21
208.1277932344
 31
0.0
  0
LINE
  5
39F
  8
0
  6
CONTINUOUS
 62
     7
 10
272.1717020059
 20
200.6968968107
 30
0.0
 11
265.1717020059
 21
207.6968968107
 31
0.0
  0
LINE
  5
3A0
  8
0
  6
CONTINUOUS
 62
     7
 10
263.6815739454
 20
204.6968968107
 30
0.0
 11
262.7309336427
 21
205.6475371133
 31
0.0
  0
LINE
  5
3A1
  8
0
  6
CONTINUOUS
 62
     7
 10
267.6815739454
 20
200.6968968107
 30
0.0
 11
266.4809336427
 21
201.8975371133
 31
0.0
  0
LINE
  5
3A2
  8
0
  6
CONTINUOUS
 62
     7
 10
301.0624703691
 20
198.7468968107
 30
0.0
 11
299.5624703691
 21
200.2468968107
 31
0.0
  0
LINE
  5
3A3
  8
0
  6
CONTINUOUS
 62
     7
 10
296.5723423086
 20
198.7468968107
 30
0.0
 11
295.0723423086
 21
200.2468968107
 31
0.0
  0
LINE
  5
3A4
  8
0
  6
CONTINUOUS
 62
     7
 10
292.0822142481
 20
198.7468968107
 30
0.0
 11
290.5822142481
 21
200.2468968107
 31
0.0
  0
LINE
  5
3A5
  8
0
  6
CONTINUOUS
 62
     7
 10
287.5920861875
 20
198.7468968107
 30
0.0
 11
286.0920861875
 21
200.2468968107
 31
0.0
  0
LINE
  5
3A6
  8
0
  6
CONTINUOUS
 62
     7
 10
283.101958127
 20
198.7468968107
 30
0.0
 11
281.601958127
 21
200.2468968107
 31
0.0
  0
LINE
  5
3A7
  8
0
  6
CONTINUOUS
 62
     7
 10
278.6118300665
 20
198.7468968107
 30
0.0
 11
277.1118300665
 21
200.2468968107
 31
0.0
  0
LINE
  5
3A8
  8
0
  6
CONTINUOUS
 62
     7
 10
274.1217020059
 20
198.7468968107
 30
0.0
 11
272.6217020059
 21
200.2468968107
 31
0.0
  0
LINE
  5
3A9
  8
0
  6
CONTINUOUS
 62
     7
 10
269.6315739454
 20
198.7468968107
 30
0.0
 11
268.1315739454
 21
200.2468968107
 31
0.0
  0
LINE
  5
3AA
  8
0
  6
CONTINUOUS
 62
     7
 10
258.2309336427
 20
205.6574090528
 30
0.0
 11
258.1414458849
 21
205.7468968107
 31
0.0
  0
LINE
  5
3AB
  8
0
  6
CONTINUOUS
 62
     7
 10
265.1414458849
 20
198.7468968107
 30
0.0
 11
263.6414458849
 21
200.2468968107
 31
0.0
  0
LINE
  5
3AC
  8
0
  6
CONTINUOUS
 62
     7
 10
258.2343901194
 20
201.1638245155
 30
0.0
 11
256.7309336427
 21
202.6672809923
 31
0.0
  0
LINE
  5
3AD
  8
0
  6
CONTINUOUS
 62
     7
 10
260.6513178243
 20
198.7468968107
 30
0.0
 11
259.1478613476
 21
200.2503532874
 31
0.0
  0
LINE
  5
3AE
  8
0
  6
CONTINUOUS
 62
     7
 10
266.7309336427
 20
228.5883054765
 30
0.0
 11
266.5723423086
 21
228.7468968107
 31
0.0
  0
LINE
  5
3AF
  8
0
  6
CONTINUOUS
 62
     7
 10
263.5822142481
 20
227.2468968107
 30
0.0
 11
262.0822142481
 21
228.7468968107
 31
0.0
  0
LINE
  5
3B0
  8
0
  6
CONTINUOUS
 62
     7
 10
259.1006141372
 20
227.2383688609
 30
0.0
 11
257.9469825535
 21
228.3920004447
 31
0.0
  0
LINE
  5
3B1
  8
0
  6
CONTINUOUS
 62
     7
 10
258.2309336427
 20
223.6179212949
 30
0.0
 11
256.7309336427
 21
225.1179212949
 31
0.0
  0
LINE
  5
3B2
  8
0
  6
CONTINUOUS
 62
     7
 10
258.2309336427
 20
219.1277932344
 30
0.0
 11
256.7309336427
 21
220.6277932344
 31
0.0
  0
LINE
  5
3B3
  8
0
  6
CONTINUOUS
 62
     7
 10
257.6217020059
 20
215.2468968107
 30
0.0
 11
256.7309336427
 21
216.1376651739
 31
0.0
  0
LINE
  5
3B4
  8
0
  6
CONTINUOUS
 62
     7
 10
280.7309336427
 20
214.5883054765
 30
0.0
 11
279.6223423086
 21
215.6968968107
 31
0.0
  0
LINE
  5
3B5
  8
0
  6
CONTINUOUS
 62
     7
 10
280.1322142481
 20
210.6968968107
 30
0.0
 11
275.1322142481
 21
215.6968968107
 31
0.0
  0
LINE
  5
3B6
  8
0
  6
CONTINUOUS
 62
     7
 10
275.6420861875
 20
210.6968968107
 30
0.0
 11
275.2309336427
 21
211.1080493555
 31
0.0
  0
LINE
  5
3B7
  8
0
  6
CONTINUOUS
 62
     7
 10
268.7309336427
 20
213.1179212949
 30
0.0
 11
266.151958127
 21
215.6968968107
 31
0.0
  0
LINE
  5
3B8
  8
0
  6
CONTINUOUS
 62
     7
 10
266.6618300665
 20
210.6968968107
 30
0.0
 11
262.7309336427
 21
214.6277932344
 31
0.0
  0
LINE
  5
3B9
  8
0
  6
CONTINUOUS
 62
     7
 10
268.0920861875
 20
218.2468968107
 30
0.0
 11
265.0920861875
 21
221.2468968107
 31
0.0
  0
LINE
  5
3BA
  8
0
  6
CONTINUOUS
 62
     7
 10
263.601958127
 20
218.2468968107
 30
0.0
 11
262.7309336427
 21
219.1179212949
 31
0.0
  0
LINE
  5
3BB
  8
0
  6
CONTINUOUS
 62
     7
 10
280.7309336427
 20
219.0784335371
 30
0.0
 11
278.5624703691
 21
221.2468968107
 31
0.0
  0
LINE
  5
3BC
  8
0
  6
CONTINUOUS
 62
     7
 10
277.0723423086
 20
218.2468968107
 30
0.0
 11
275.2309336427
 21
220.0883054765
 31
0.0
  0
LINE
  5
3BD
  8
0
  6
CONTINUOUS
 62
     7
 10
277.7309336427
 20
215.6968968107
 30
0.0
 11
277.7309336427
 21
218.2468968107
 31
0.0
  0
LINE
  5
3BE
  8
0
  6
CONTINUOUS
 62
     7
 10
265.7309336427
 20
218.2468968107
 30
0.0
 11
265.7309336427
 21
215.6968968107
 31
0.0
  0
LINE
  5
3BF
  8
0
  6
CONTINUOUS
 62
     7
 10
277.7309336427
 20
200.2468968107
 30
0.0
 11
277.7309336427
 21
204.6968968107
 31
0.0
  0
LINE
  5
3C0
  8
0
  6
CONTINUOUS
 62
     7
 10
265.7309336427
 20
204.6968968107
 30
0.0
 11
265.7309336427
 21
200.2468968107
 31
0.0
  0
LINE
  5
3C1
  8
0
  6
CONTINUOUS
 62
     7
 10
275.2309336427
 20
221.2468968107
 30
0.0
 11
275.2309336427
 21
218.2468968107
 31
0.0
  0
LINE
  5
3C2
  8
0
  6
CONTINUOUS
 62
     7
 10
275.2309336427
 20
221.2468968107
 30
0.0
 11
280.7309336427
 21
221.2468968107
 31
0.0
  0
LINE
  5
3C3
  8
0
  6
CONTINUOUS
 62
     7
 10
280.7309336427
 20
218.2468968107
 30
0.0
 11
280.7309336427
 21
221.2468968107
 31
0.0
  0
LINE
  5
3C4
  8
0
  6
CONTINUOUS
 62
     7
 10
275.2309336427
 20
218.2468968107
 30
0.0
 11
280.7309336427
 21
218.2468968107
 31
0.0
  0
LINE
  5
3C5
  8
0
  6
CONTINUOUS
 62
     7
 10
268.2309336427
 20
218.2468968107
 30
0.0
 11
269.2309336427
 21
218.2468968107
 31
0.0
  0
LINE
  5
3C6
  8
0
  6
CONTINUOUS
 62
     7
 10
274.2309336427
 20
218.2468968107
 30
0.0
 11
275.2309336427
 21
218.2468968107
 31
0.0
  0
LINE
  5
3C7
  8
0
  6
CONTINUOUS
 62
     7
 10
268.2309336427
 20
218.2468968107
 30
0.0
 11
268.2309336427
 21
221.2468968107
 31
0.0
  0
LINE
  5
3C8
  8
0
  6
CONTINUOUS
 62
     7
 10
275.2309336427
 20
221.2468968107
 30
0.0
 11
268.2309336427
 21
221.2468968107
 31
0.0
  0
LINE
  5
3C9
  8
0
  6
CONTINUOUS
 62
     7
 10
262.7309336427
 20
221.2468968107
 30
0.0
 11
262.7309336427
 21
218.2468968107
 31
0.0
  0
LINE
  5
3CA
  8
0
  6
CONTINUOUS
 62
     7
 10
262.7309336427
 20
221.2468968107
 30
0.0
 11
268.2309336427
 21
221.2468968107
 31
0.0
  0
LINE
  5
3CB
  8
0
  6
CONTINUOUS
 62
     7
 10
262.7309336427
 20
218.2468968107
 30
0.0
 11
268.2309336427
 21
218.2468968107
 31
0.0
  0
LINE
  5
3CC
  8
0
  6
CONTINUOUS
 62
     7
 10
256.7309336427
 20
215.2468968107
 30
0.0
 11
258.2309336427
 21
215.2468968107
 31
0.0
  0
ARC
  5
3CD
  8
0
  6
CONTINUOUS
 62
     7
 10
259.2309336427
 20
226.2468968107
 30
0.0
 40
2.499999999999972
 50
90.0
 51
180.0
  0
LINE
  5
3CE
  8
0
  6
CONTINUOUS
 62
     7
 10
266.7309336427
 20
228.7468968107
 30
0.0
 11
259.2309336427
 21
228.7468968107
 31
0.0
  0
LINE
  5
3CF
  8
0
  6
CONTINUOUS
 62
     7
 10
266.7309336427
 20
227.2468968107
 30
0.0
 11
266.7309336427
 21
228.7468968107
 31
0.0
  0
LINE
  5
3D0
  8
0
  6
CONTINUOUS
 62
     7
 10
259.2309336427
 20
227.2468968107
 30
0.0
 11
266.7309336427
 21
227.2468968107
 31
0.0
  0
ARC
  5
3D1
  8
0
  6
CONTINUOUS
 62
     7
 10
259.2309336427
 20
226.2468968107
 30
0.0
 40
0.9999999999999147
 50
90.0
 51
180.0
  0
LINE
  5
3D2
  8
0
  6
CONTINUOUS
 62
     7
 10
258.2309336427
 20
215.2468968107
 30
0.0
 11
258.2309336427
 21
226.2468968107
 31
0.0
  0
LINE
  5
3D3
  8
0
  6
CONTINUOUS
 62
     7
 10
256.7309336427
 20
226.2468968107
 30
0.0
 11
256.7309336427
 21
215.2468968107
 31
0.0
  0
ARC
  5
3D4
  8
0
  6
CONTINUOUS
 62
     7
 10
259.2309336427
 20
201.2468968107
 30
0.0
 40
0.9999999999999432
 50
180.0
 51
270.0
  0
LINE
  5
3D5
  8
0
  6
CONTINUOUS
 62
     7
 10
301.7309336427
 20
200.2468968107
 30
0.0
 11
259.2309336427
 21
200.2468968107
 31
0.0
  0
LINE
  5
3D6
  8
0
  6
CONTINUOUS
 62
     7
 10
301.7309336427
 20
200.2468968107
 30
0.0
 11
301.7309336427
 21
198.7468968107
 31
0.0
  0
LINE
  5
3D7
  8
0
  6
CONTINUOUS
 62
     7
 10
259.2309336427
 20
198.7468968107
 30
0.0
 11
301.7309336427
 21
198.7468968107
 31
0.0
  0
ARC
  5
3D8
  8
0
  6
CONTINUOUS
 62
     7
 10
259.2309336427
 20
201.2468968107
 30
0.0
 40
2.500000000000057
 50
180.0
 51
270.0
  0
LINE
  5
3D9
  8
0
  6
CONTINUOUS
 62
     7
 10
258.2309336427
 20
205.7468968107
 30
0.0
 11
256.7309336427
 21
205.7468968107
 31
0.0
  0
LINE
  5
3DA
  8
0
  6
CONTINUOUS
 62
     7
 10
258.2309336427
 20
201.2468968107
 30
0.0
 11
258.2309336427
 21
205.7468968107
 31
0.0
  0
LINE
  5
3DB
  8
0
  6
CONTINUOUS
 62
     7
 10
256.7309336427
 20
205.7468968107
 30
0.0
 11
256.7309336427
 21
201.2468968107
 31
0.0
  0
LINE
  5
3DC
  8
0
  6
CONTINUOUS
 62
     7
 10
280.7309336427
 20
215.6968968107
 30
0.0
 11
280.7309336427
 21
210.6968968107
 31
0.0
  0
LINE
  5
3DD
  8
0
  6
CONTINUOUS
 62
     7
 10
275.2309336427
 20
210.6968968107
 30
0.0
 11
280.7309336427
 21
210.6968968107
 31
0.0
  0
LINE
  5
3DE
  8
0
  6
CONTINUOUS
 62
     7
 10
275.2309336427
 20
210.6968968107
 30
0.0
 11
275.2309336427
 21
212.6968968107
 31
0.0
  0
LINE
  5
3DF
  8
0
  6
CONTINUOUS
 62
     7
 10
274.7309336427
 20
212.6968968107
 30
0.0
 11
275.2309336427
 21
212.6968968107
 31
0.0
  0
LINE
  5
3E0
  8
0
  6
CONTINUOUS
 62
     7
 10
274.7309336427
 20
215.6968968107
 30
0.0
 11
274.7309336427
 21
212.6968968107
 31
0.0
  0
LINE
  5
3E1
  8
0
  6
CONTINUOUS
 62
     7
 10
274.7309336427
 20
215.6968968107
 30
0.0
 11
280.7309336427
 21
215.6968968107
 31
0.0
  0
LINE
  5
3E2
  8
0
  6
CONTINUOUS
 62
     7
 10
262.7309336427
 20
210.6968968107
 30
0.0
 11
262.7309336427
 21
215.6968968107
 31
0.0
  0
LINE
  5
3E3
  8
0
  6
CONTINUOUS
 62
     7
 10
262.7309336427
 20
215.6968968107
 30
0.0
 11
268.7309336427
 21
215.6968968107
 31
0.0
  0
LINE
  5
3E4
  8
0
  6
CONTINUOUS
 62
     7
 10
268.7309336427
 20
212.6968968107
 30
0.0
 11
268.7309336427
 21
215.6968968107
 31
0.0
  0
LINE
  5
3E5
  8
0
  6
CONTINUOUS
 62
     7
 10
268.2309336427
 20
212.6968968107
 30
0.0
 11
268.7309336427
 21
212.6968968107
 31
0.0
  0
LINE
  5
3E6
  8
0
  6
CONTINUOUS
 62
     7
 10
268.2309336427
 20
212.6968968107
 30
0.0
 11
268.2309336427
 21
210.6968968107
 31
0.0
  0
LINE
  5
3E7
  8
0
  6
CONTINUOUS
 62
     7
 10
262.7309336427
 20
210.6968968107
 30
0.0
 11
268.2309336427
 21
210.6968968107
 31
0.0
  0
LINE
  5
3E8
  8
0
  6
CONTINUOUS
 62
     7
 10
274.7309336427
 20
215.6968968107
 30
0.0
 11
274.2309336427
 21
215.6968968107
 31
0.0
  0
LINE
  5
3E9
  8
0
  6
CONTINUOUS
 62
     7
 10
269.2309336427
 20
215.6968968107
 30
0.0
 11
268.7309336427
 21
215.6968968107
 31
0.0
  0
LINE
  5
3EA
  8
0
  6
CONTINUOUS
 62
     7
 10
268.7309336427
 20
212.6968968107
 30
0.0
 11
269.2309336427
 21
212.6968968107
 31
0.0
  0
LINE
  5
3EB
  8
0
  6
CONTINUOUS
 62
     7
 10
274.2309336427
 20
212.6968968107
 30
0.0
 11
274.7309336427
 21
212.6968968107
 31
0.0
  0
LINE
  5
3EC
  8
0
  6
CONTINUOUS
 62
     7
 10
268.2309336427
 20
210.6968968107
 30
0.0
 11
269.2309336427
 21
210.6968968107
 31
0.0
  0
LINE
  5
3ED
  8
0
  6
CONTINUOUS
 62
     7
 10
274.2309336427
 20
210.6968968107
 30
0.0
 11
275.2309336427
 21
210.6968968107
 31
0.0
  0
LINE
  5
3EE
  8
0
  6
CONTINUOUS
 62
     7
 10
258.2309336427
 20
205.7468968107
 30
0.0
 11
258.2309336427
 21
207.6968968107
 31
0.0
  0
LINE
  5
3EF
  8
0
  6
CONTINUOUS
 62
     7
 10
258.2309336427
 20
210.6968968107
 30
0.0
 11
258.2309336427
 21
215.2468968107
 31
0.0
  0
LINE
  5
3F0
  8
0
  6
CONTINUOUS
 62
     7
 10
256.7309336427
 20
215.2468968107
 30
0.0
 11
256.7309336427
 21
210.6968968107
 31
0.0
  0
LINE
  5
3F1
  8
0
  6
CONTINUOUS
 62
     7
 10
256.7309336427
 20
207.6968968107
 30
0.0
 11
256.7309336427
 21
205.7468968107
 31
0.0
  0
LINE
  5
3F2
  8
0
  6
CONTINUOUS
 62
     7
 10
269.2309336427
 20
204.6968968107
 30
0.0
 11
269.2309336427
 21
220.6968968107
 31
0.0
  0
LINE
  5
3F3
  8
0
  6
CONTINUOUS
 62
     7
 10
274.2309336427
 20
220.6968968107
 30
0.0
 11
269.2309336427
 21
220.6968968107
 31
0.0
  0
LINE
  5
3F4
  8
0
  6
CONTINUOUS
 62
     7
 10
274.2309336427
 20
220.6968968107
 30
0.0
 11
274.2309336427
 21
204.6968968107
 31
0.0
  0
LINE
  5
3F5
  8
0
  6
CONTINUOUS
 62
     7
 10
274.7309336427
 20
204.6968968107
 30
0.0
 11
274.2309336427
 21
204.6968968107
 31
0.0
  0
LINE
  5
3F6
  8
0
  6
CONTINUOUS
 62
     7
 10
274.7309336427
 20
207.6968968107
 30
0.0
 11
274.7309336427
 21
204.6968968107
 31
0.0
  0
LINE
  5
3F7
  8
0
  6
CONTINUOUS
 62
     7
 10
274.7309336427
 20
207.6968968107
 30
0.0
 11
280.7309336427
 21
207.6968968107
 31
0.0
  0
LINE
  5
3F8
  8
0
  6
CONTINUOUS
 62
     7
 10
280.7309336427
 20
204.6968968107
 30
0.0
 11
280.7309336427
 21
207.6968968107
 31
0.0
  0
LINE
  5
3F9
  8
0
  6
CONTINUOUS
 62
     7
 10
276.9809336427
 20
204.6968968107
 30
0.0
 11
280.7309336427
 21
204.6968968107
 31
0.0
  0
LINE
  5
3FA
  8
0
  6
CONTINUOUS
 62
     7
 10
276.9809336427
 20
201.6968968107
 30
0.0
 11
276.9809336427
 21
204.6968968107
 31
0.0
  0
ARC
  5
3FB
  8
0
  6
CONTINUOUS
 62
     7
 10
275.9809336427
 20
201.6968968107
 30
0.0
 40
1.0
 50
270.0
 51
0.0
  0
LINE
  5
3FC
  8
0
  6
CONTINUOUS
 62
     7
 10
275.9809336427
 20
200.6968968107
 30
0.0
 11
267.4809336427
 21
200.6968968107
 31
0.0
  0
ARC
  5
3FD
  8
0
  6
CONTINUOUS
 62
     7
 10
267.4809336427
 20
201.6968968107
 30
0.0
 40
1.0
 50
180.0
 51
270.0
  0
LINE
  5
3FE
  8
0
  6
CONTINUOUS
 62
     7
 10
266.4809336427
 20
204.6968968107
 30
0.0
 11
266.4809336427
 21
201.6968968107
 31
0.0
  0
LINE
  5
3FF
  8
0
  6
CONTINUOUS
 62
     7
 10
262.7309336427
 20
204.6968968107
 30
0.0
 11
266.4809336427
 21
204.6968968107
 31
0.0
  0
LINE
  5
400
  8
0
  6
CONTINUOUS
 62
     7
 10
262.7309336427
 20
207.6968968107
 30
0.0
 11
262.7309336427
 21
204.6968968107
 31
0.0
  0
LINE
  5
401
  8
0
  6
CONTINUOUS
 62
     7
 10
262.7309336427
 20
207.6968968107
 30
0.0
 11
268.7309336427
 21
207.6968968107
 31
0.0
  0
LINE
  5
402
  8
0
  6
CONTINUOUS
 62
     7
 10
268.7309336427
 20
204.6968968107
 30
0.0
 11
268.7309336427
 21
207.6968968107
 31
0.0
  0
LINE
  5
403
  8
0
  6
CONTINUOUS
 62
     7
 10
269.2309336427
 20
204.6968968107
 30
0.0
 11
268.7309336427
 21
204.6968968107
 31
0.0
  0
LINE
  5
404
  8
0
  6
CONTINUOUS
 62
     7
 10
274.7309336427
 20
207.6968968107
 30
0.0
 11
274.2309336427
 21
207.6968968107
 31
0.0
  0
LINE
  5
405
  8
0
  6
CONTINUOUS
 62
     7
 10
269.2309336427
 20
207.6968968107
 30
0.0
 11
268.7309336427
 21
207.6968968107
 31
0.0
  0
LINE
  5
406
  8
0
  6
CONTINUOUS
 62
     7
 10
256.7309336427
 20
145.2468968107
 30
0.0
 11
296.7309336427
 21
145.2468968107
 31
0.0
  0
LINE
  5
407
  8
0
  6
CONTINUOUS
 62
     7
 10
256.7309336427
 20
145.2468968107
 30
0.0
 11
256.7309336427
 21
192.2468968107
 31
0.0
  0
LINE
  5
408
  8
0
  6
CONTINUOUS
 62
     7
 10
256.7309336427
 20
192.2468968107
 30
0.0
 11
288.7309336427
 21
192.2468968107
 31
0.0
  0
LINE
  5
409
  8
0
  6
CONTINUOUS
 62
     7
 10
288.7309336427
 20
195.2468968107
 30
0.0
 11
288.7309336427
 21
192.2468968107
 31
0.0
  0
LINE
  5
40A
  8
0
  6
CONTINUOUS
 62
     7
 10
296.7309336427
 20
195.2468968107
 30
0.0
 11
288.7309336427
 21
195.2468968107
 31
0.0
  0
LINE
  5
40B
  8
0
  6
CONTINUOUS
 62
     7
 10
296.7309336427
 20
145.2468968107
 30
0.0
 11
296.7309336427
 21
195.2468968107
 31
0.0
  0
CIRCLE
  5
40C
  8
0
  6
CONTINUOUS
 62
     7
 10
243.7309336427
 20
202.1968968107
 30
0.0
 40
4.499999999999978
  0
LINE
  5
40D
  8
0
  6
CONTINUOUS
 62
     7
 10
288.7309336427
 20
192.2468968107
 30
0.0
 11
255.7288793786
 21
192.2468968107
 31
0.0
  0
LINE
  5
40E
  8
0
  6
CONTINUOUS
 62
     7
 10
288.7309336427
 20
195.2468968107
 30
0.0
 11
255.7288793786
 21
195.2468968107
 31
0.0
  0
LINE
  5
40F
  8
0
  6
CONTINUOUS
 62
     7
 10
255.7288793786
 20
195.2468968107
 30
0.0
 11
255.7288793786
 21
192.2468968107
 31
0.0
  0
LINE
  5
410
  8
0
  6
CONTINUOUS
 62
     7
 10
254.2288793786
 20
195.2468968107
 30
0.0
 11
255.7288793786
 21
195.2468968107
 31
0.0
  0
LINE
  5
411
  8
0
  6
CONTINUOUS
 62
     7
 10
255.7288793786
 20
192.2468968107
 30
0.0
 11
254.2288793786
 21
192.2468968107
 31
0.0
  0
ARC
  5
412
  8
0
  6
CONTINUOUS
 62
     7
 10
243.7309336427
 20
202.1968968107
 30
0.0
 40
6.949999999999782
 50
33.140238203
 51
82.7311109749
  0
POLYLINE
  5
413
  8
0
  6
CONTINUOUS
 62
     7
 66
     1
 10
0.0
 20
0.0
 30
0.0
 70
   128
  0
VERTEX
  5
530
  8
0
  6
CONTINUOUS
 62
     7
 10
251.6734580772
 20
208.1901267918
 30
0.0
  0
VERTEX
  5
531
  8
0
  6
CONTINUOUS
 62
     7
 10
251.8434888598
 20
207.9578817828
 30
0.0
  0
VERTEX
  5
532
  8
0
  6
CONTINUOUS
 62
     7
 10
252.0624167793
 20
207.6364637737
 30
0.0
  0
SEQEND
  5
697
  8
0
  6
CONTINUOUS
 62
     7
  0
LINE
  5
414
  8
0
  6
CONTINUOUS
 62
     7
 10
254.2288793786
 20
195.2468968107
 30
0.0
 11
250.8513268903
 21
195.2468968107
 31
0.0
  0
LINE
  5
415
  8
0
  6
CONTINUOUS
 62
     7
 10
254.2288793786
 20
192.2468968107
 30
0.0
 11
243.7309336427
 21
192.2468968107
 31
0.0
  0
ARC
  5
416
  8
0
  6
CONTINUOUS
 62
     7
 10
255.7944518826
 20
211.6968968107
 30
0.0
 40
1.000000000000036
 50
262.7311109749
 51
270.0
  0
LINE
  5
417
  8
0
  6
CONTINUOUS
 62
     7
 10
255.7944518826
 20
210.6968968107
 30
0.0
 11
265.7309336427
 21
210.6968968107
 31
0.0
  0
LINE
  5
418
  8
0
  6
CONTINUOUS
 62
     7
 10
265.7309336427
 20
210.6968968107
 30
0.0
 11
265.7309336427
 21
207.6968968107
 31
0.0
  0
LINE
  5
419
  8
0
  6
CONTINUOUS
 62
     7
 10
255.7944518826
 20
207.6968968107
 30
0.0
 11
265.7309336427
 21
207.6968968107
 31
0.0
  0
ARC
  5
41A
  8
0
  6
CONTINUOUS
 62
     7
 10
255.7944518826
 20
211.6968968107
 30
0.0
 40
4.000000000000021
 50
262.7311109749
 51
270.0
  0
LINE
  5
41B
  8
0
  6
CONTINUOUS
 62
     7
 10
244.6102893579
 20
209.0910416834
 30
0.0
 11
255.2883478739
 21
207.7290436465
 31
0.0
  0
ARC
  5
41C
  8
0
  6
CONTINUOUS
 62
     7
 10
243.7309336427
 20
202.1968968107
 30
0.0
 40
6.950000000000022
 50
82.7311109749
 51
33.140238203
  0
LINE
  5
41D
  8
0
  6
CONTINUOUS
 62
     7
 10
249.5504118135
 20
205.9963933326
 30
0.0
 11
252.0624167793
 21
207.6364637737
 31
0.0
  0
ARC
  5
41E
  8
0
  6
CONTINUOUS
 62
     7
 10
243.7309336427
 20
202.1968968107
 30
0.0
 40
9.950000000000014
 50
82.7311109749
 51
33.140238203
  0
LINE
  5
41F
  8
0
  6
CONTINUOUS
 62
     7
 10
244.9898673644
 20
212.0669315565
 30
0.0
 11
255.6679258804
 21
210.7049335196
 31
0.0
  0
LINE
  5
420
  8
0
  6
CONTINUOUS
 62
     7
 10
277.7309336427
 20
210.6968968107
 30
0.0
 11
277.7309336427
 21
207.6968968107
 31
0.0
  0
LINE
  5
421
  8
0
  6
CONTINUOUS
 62
     7
 10
284.2309336427
 20
210.6968968107
 30
0.0
 11
284.2309336427
 21
207.6968968107
 31
0.0
  0
LINE
  5
422
  8
0
  6
CONTINUOUS
 62
     7
 10
284.2309336427
 20
207.6968968107
 30
0.0
 11
280.7309336427
 21
207.6968968107
 31
0.0
  0
LINE
  5
423
  8
0
  6
CONTINUOUS
 62
     7
 10
284.2309336427
 20
210.6968968107
 30
0.0
 11
280.7309336427
 21
210.6968968107
 31
0.0
  0
CIRCLE
  5
424
  8
0
  6
CONTINUOUS
 62
     7
 10
243.7309336427
 20
202.1968968107
 30
0.0
 40
6.732050807568853
  0
CIRCLE
  5
425
  8
0
  6
CONTINUOUS
 62
     7
 10
243.7309336427
 20
202.1968968107
 30
0.0
 40
4.524999999999995
  0
CIRCLE
  5
426
  8
0
  6
CONTINUOUS
 62
     7
 10
243.7309336427
 20
202.1968968107
 30
0.0
 40
6.500000000000003
  0
CIRCLE
  5
427
  8
0
  6
CONTINUOUS
 62
     7
 10
243.7309336427
 20
202.1968968107
 30
0.0
 40
6.300000000000022
  0
CIRCLE
  5
428
  8
0
  6
CONTINUOUS
 62
     7
 10
243.7309336427
 20
202.1968968107
 30
0.0
 40
5.200000000000015
  0
CIRCLE
  5
429
  8
0
  6
CONTINUOUS
 62
     7
 10
243.7309336427
 20
202.1968968107
 30
0.0
 40
5.000000000000021
  0
LINE
  5
42A
  8
0
  6
CONTINUOUS
 62
     7
 10
274.7309336427
 20
204.6968968107
 30
0.0
 11
276.9809336427
 21
204.6968968107
 31
0.0
  0
LINE
  5
42B
  8
0
  6
CONTINUOUS
 62
     7
 10
268.7309336427
 20
204.6968968107
 30
0.0
 11
266.4809336427
 21
204.6968968107
 31
0.0
  0
DIMENSION
  5
42C
  8
0
  6
CONTINUOUS
 62
     7
  2
_D_25
 10
307.2672657225
 20
198.7468968107
 30
0.0
 11
307.2672657225
 21
204.4172073192
 31
0.0
 70
   160
  1
<>
  3
SLDDIMSTYLE0
 13
288.7309336427
 23
195.2468968107
 33
0.0
 14
301.7309336427
 24
198.7468968107
 34
0.0
 50
90.0
  0
DIMENSION
  5
438
  8
0
  6
CONTINUOUS
 62
     7
  2
_D_26
 10
315.146853082
 20
210.6968968107
 30
0.0
 11
315.146853082
 21
201.4718968107
 31
0.0
 70
   160
  1
<>
  3
SLDDIMSTYLE6
 13
288.7309336427
 23
192.2468968107
 33
0.0
 14
284.2309336427
 24
210.6968968107
 34
0.0
 50
90.0
  0
DIMENSION
  5
444
  8
0
  6
CONTINUOUS
 62
     7
  2
_D_27
 10
256.7309336427
 20
240.1481710444
 30
0.0
 11
250.2309336427
 21
240.1481710444
 31
0.0
 70
   160
  1
<>
  3
SLDDIMSTYLE0
 13
243.7309336427
 23
202.1968968107
 33
0.0
 14
256.7309336427
 24
226.2468968107
 34
0.0
 50
0.0
  0
DIMENSION
  5
450
  8
0
  6
CONTINUOUS
 62
     7
  2
_D_28
 10
243.7309336427
 20
247.4854744096
 30
0.0
 11
263.9809336427
 21
247.4854744096
 31
0.0
 70
   160
  1
<>
  3
SLDDIMSTYLE2
 13
284.2309336427
 23
210.6968968107
 33
0.0
 14
243.7309336427
 24
202.1968968107
 34
0.0
  0
DIMENSION
  5
45A
  8
0
  6
CONTINUOUS
 62
     7
  2
_D_29
 10
288.7309336427
 20
135.2468968107
 30
0.0
 11
272.7309336427
 21
135.2468968107
 31
0.0
 70
   160
  1
<>
  3
SLDDIMSTYLE2
 13
256.7309336427
 23
145.2468968107
 33
0.0
 14
288.7309336427
 24
192.2468968107
 34
0.0
  0
DIMENSION
  5
464
  8
0
  6
CONTINUOUS
 62
     7
  2
_D_30
 10
243.7309336427
 20
128.2468968107
 30
0.0
 11
266.2309336427
 21
128.2468968107
 31
0.0
 70
   160
  1
<>
  3
SLDDIMSTYLE2
 13
288.7309336427
 23
192.2468968107
 33
0.0
 14
243.7309336427
 24
202.1968968107
 34
0.0
  0
DIMENSION
  5
46E
  8
0
  6
CONTINUOUS
 62
     7
  2
_D_31
 10
249.4847323314
 20
210.3145504525
 30
0.0
 11
231.9261367326
 21
185.542286274
 31
0.0
 70
   163
  1
<>
  3
SLDDIMSTYLE7
 15
237.977134954
 25
194.0792431688
 35
0.0
 40
0.0
  0
INSERT
  5
482
  8
0
  6
CONTINUOUS
 62
     7
  2
SW_CENTERMARKSYMBOL_14
 10
243.7309336427
 20
202.1968968107
 30
0.0
  0
LINE
  5
483
  8
0
  6
CENTERX2
 62
     7
 10
271.7309336427
 20
198.0096318219
 30
0.0
 11
271.7309336427
 21
222.7038021955
 31
0.0
  0
LINE
  5
484
  8
0
  6
CENTERX2
 62
     7
 10
268.7309336427
 20
190.2468968107
 30
0.0
 11
268.7309336427
 21
192.9968968107
 31
0.0
  0
LINE
  5
485
  8
0
  6
CENTERX2
 62
     7
 10
278.7309336427
 20
190.2468968107
 30
0.0
 11
278.7309336427
 21
192.9968968107
 31
0.0
  0
LINE
  5
486
  8
0
  6
CENTERX2
 62
     7
 10
272.7309336427
 20
190.2468968107
 30
0.0
 11
272.7309336427
 21
192.9968968107
 31
0.0
  0
LINE
  5
487
  8
0
  6
CENTERX2
 62
     7
 10
268.7309336427
 20
197.2468968107
 30
0.0
 11
268.7309336427
 21
192.9968968107
 31
0.0
  0
LINE
  5
488
  8
0
  6
CENTERX2
 62
     7
 10
278.7309336427
 20
197.2468968107
 30
0.0
 11
278.7309336427
 21
192.9968968107
 31
0.0
  0
LINE
  5
489
  8
0
  6
CENTERX2
 62
     7
 10
272.7309336427
 20
197.2468968107
 30
0.0
 11
272.7309336427
 21
192.9968968107
 31
0.0
  0
LINE
  5
48A
  8
0
  6
CONTINUOUS
 62
     7
 10
372.739047586
 20
85.5113423763
 30
0.0
 11
372.8683536326
 21
86.0053127911
 31
0.0
  0
LINE
  5
48B
  8
0
  6
CONTINUOUS
 62
     7
 10
382.8080368199
 20
123.976541183
 30
0.0
 11
382.9290241197
 21
124.4387326133
 31
0.0
  0
LINE
  5
48C
  8
0
  6
CONTINUOUS
 62
     7
 10
378.5757040911
 20
125.5782960072
 30
0.0
 11
378.4547167914
 21
125.1161045769
 31
0.0
  0
LINE
  5
48D
  8
0
  6
CONTINUOUS
 62
     7
 10
368.515033604
 20
87.144876185
 30
0.0
 11
368.3857275575
 21
86.6509057702
 31
0.0
  0
LINE
  5
48E
  8
0
  6
CONTINUOUS
 62
     7
 10
365.7199949458
 20
87.2280678959
 30
0.0
 11
360.6760072529
 21
67.9592033774
 31
0.0
  0
LINE
  5
48F
  8
0
  6
CONTINUOUS
 62
     7
 10
370.3016815383
 20
65.4395020953
 30
0.0
 11
375.3456692312
 21
84.7083666138
 31
0.0
  0
LINE
  5
490
  8
0
  6
CONTINUOUS
 62
     7
 10
380.9658749361
 20
145.4698428333
 30
0.0
 11
375.9218872431
 21
126.2009783147
 31
0.0
  0
LINE
  5
491
  8
0
  6
CONTINUOUS
 62
     7
 10
385.5475615286
 20
123.6812770327
 30
0.0
 11
390.5915492215
 21
142.9501415512
 31
0.0
  0
LINE
  5
492
  8
0
  6
CONTINUOUS
 62
     7
 10
403.1777108534
 20
139.5265010491
 30
0.0
 11
402.944386191
 21
139.6277857307
 31
0.0
  0
LINE
  5
493
  8
0
  6
CONTINUOUS
 62
     7
 10
375.7889841797
 20
125.6932667026
 30
0.0
 11
365.8528980092
 21
87.735779508
 31
0.0
  0
LINE
  5
494
  8
0
  6
CONTINUOUS
 62
     7
 10
375.4785722946
 20
85.216078226
 30
0.0
 11
385.4146584651
 21
123.1735654205
 31
0.0
  0
LINE
  5
495
  8
0
  6
CONTINUOUS
 62
     7
 10
366.5504218341
 20
87.4829640293
 30
0.0
 11
366.8974994537
 21
87.4010818307
 31
0.0
  0
LINE
  5
496
  8
0
  6
CONTINUOUS
 62
     7
 10
377.4226820999
 20
140.9898472573
 30
0.0
 11
377.1893574375
 21
141.0911319389
 31
0.0
  0
LINE
  5
497
  8
0
  6
CONTINUOUS
 62
     7
 10
348.6756144242
 20
76.1950887815
 30
0.0
 11
348.9089390865
 21
76.0938040999
 31
0.0
  0
LINE
  5
498
  8
0
  6
CONTINUOUS
 62
     7
 10
367.6511878287
 20
66.2060807091
 30
0.0
 11
367.4132621527
 21
66.2638756314
 31
0.0
  0
POLYLINE
  5
499
  8
0
  6
CONTINUOUS
 62
     7
 66
     1
 10
0.0
 20
0.0
 30
0.0
 70
   128
  0
VERTEX
  5
533
  8
0
  6
CONTINUOUS
 62
     7
 10
366.2627045257
 20
66.3634252091
 30
0.0
  0
VERTEX
  5
534
  8
0
  6
CONTINUOUS
 62
     7
 10
365.5446040123
 20
66.5495117306
 30
0.0
  0
VERTEX
  5
535
  8
0
  6
CONTINUOUS
 62
     7
 10
364.8252528839
 20
66.7389589894
 30
0.0
  0
VERTEX
  5
536
  8
0
  6
CONTINUOUS
 62
     7
 10
364.120785243
 20
66.9275179319
 30
0.0
  0
VERTEX
  5
537
  8
0
  6
CONTINUOUS
 62
     7
 10
363.4470013752
 20
67.1109594282
 30
0.0
  0
VERTEX
  5
538
  8
0
  6
CONTINUOUS
 62
     7
 10
362.819013369
 20
67.2851691261
 30
0.0
  0
VERTEX
  5
539
  8
0
  6
CONTINUOUS
 62
     7
 10
362.2509061722
 20
67.4462397305
 30
0.0
  0
VERTEX
  5
53A
  8
0
  6
CONTINUOUS
 62
     7
 10
361.7554216842
 20
67.5905586389
 30
0.0
  0
VERTEX
  5
53B
  8
0
  6
CONTINUOUS
 62
     7
 10
361.3436729724
 20
67.7148889674
 30
0.0
  0
VERTEX
  5
53C
  8
0
  6
CONTINUOUS
 62
     7
 10
361.0248950206
 20
67.8164421499
 30
0.0
  0
VERTEX
  5
53D
  8
0
  6
CONTINUOUS
 62
     7
 10
360.8062376003
 20
67.8929404815
 30
0.0
  0
VERTEX
  5
53E
  8
0
  6
CONTINUOUS
 62
     7
 10
360.6926049106
 20
67.9426682049
 30
0.0
  0
VERTEX
  5
53F
  8
0
  6
CONTINUOUS
 62
     7
 10
360.6865455839
 20
67.9645099927
 30
0.0
  0
VERTEX
  5
540
  8
0
  6
CONTINUOUS
 62
     7
 10
360.7881955228
 20
67.957975962
 30
0.0
  0
VERTEX
  5
541
  8
0
  6
CONTINUOUS
 62
     7
 10
360.9952748525
 20
67.9232126626
 30
0.0
  0
VERTEX
  5
542
  8
0
  6
CONTINUOUS
 62
     7
 10
361.3031390553
 20
67.8609997898
 30
0.0
  0
VERTEX
  5
543
  8
0
  6
CONTINUOUS
 62
     7
 10
361.7048831406
 20
67.7727326967
 30
0.0
  0
VERTEX
  5
544
  8
0
  6
CONTINUOUS
 62
     7
 10
362.1914965154
 20
67.6603910985
 30
0.0
  0
VERTEX
  5
545
  8
0
  6
CONTINUOUS
 62
     7
 10
362.7520650798
 20
67.5264946699
 30
0.0
  0
VERTEX
  5
546
  8
0
  6
CONTINUOUS
 62
     7
 10
363.3740160158
 20
67.3740465323
 30
0.0
  0
VERTEX
  5
547
  8
0
  6
CONTINUOUS
 62
     7
 10
364.0433997794
 20
67.2064658975
 30
0.0
  0
VERTEX
  5
548
  8
0
  6
CONTINUOUS
 62
     7
 10
364.7452029706
 20
67.0275113794
 30
0.0
  0
VERTEX
  5
549
  8
0
  6
CONTINUOUS
 62
     7
 10
365.4636850639
 20
66.8411966932
 30
0.0
  0
VERTEX
  5
54A
  8
0
  6
CONTINUOUS
 62
     7
 10
366.182731448
 20
66.651700633
 30
0.0
  0
VERTEX
  5
54B
  8
0
  6
CONTINUOUS
 62
     7
 10
366.8862148553
 20
66.463273347
 30
0.0
  0
VERTEX
  5
54C
  8
0
  6
CONTINUOUS
 62
     7
 10
367.5583570754
 20
66.2801410122
 30
0.0
  0
VERTEX
  5
54D
  8
0
  6
CONTINUOUS
 62
     7
 10
368.1840828396
 20
66.1064110467
 30
0.0
  0
VERTEX
  5
54E
  8
0
  6
CONTINUOUS
 62
     7
 10
368.7493579394
 20
65.9459799859
 30
0.0
  0
VERTEX
  5
54F
  8
0
  6
CONTINUOUS
 62
     7
 10
369.2415039956
 20
65.802446088
 30
0.0
  0
VERTEX
  5
550
  8
0
  6
CONTINUOUS
 62
     7
 10
369.6494828173
 20
65.6790286302
 30
0.0
  0
VERTEX
  5
551
  8
0
  6
CONTINUOUS
 62
     7
 10
369.9641439746
 20
65.5784957044
 30
0.0
  0
VERTEX
  5
552
  8
0
  6
CONTINUOUS
 62
     7
 10
370.1784300303
 20
65.5031021321
 30
0.0
  0
VERTEX
  5
553
  8
0
  6
CONTINUOUS
 62
     7
 10
370.287534829
 20
65.4545388923
 30
0.0
  0
VERTEX
  5
554
  8
0
  6
CONTINUOUS
 62
     7
 10
370.2890112932
 20
65.433895195
 30
0.0
  0
VERTEX
  5
555
  8
0
  6
CONTINUOUS
 62
     7
 10
370.1828263079
 20
65.441634051
 30
0.0
  0
VERTEX
  5
556
  8
0
  6
CONTINUOUS
 62
     7
 10
369.9713614628
 20
65.477581888
 30
0.0
  0
SEQEND
  5
698
  8
0
  6
CONTINUOUS
 62
     7
  0
ARC
  5
49A
  8
0
  6
CONTINUOUS
 62
     7
 10
352.6319336897
 20
17.5838343012
 30
0.0
 40
70.86336585595366
 50
71.3051045443
 51
79.3566888143
  0
LINE
  5
49B
  8
0
  6
CONTINUOUS
 62
     7
 10
368.6198487792
 20
65.8459550081
 30
0.0
 11
369.9713614628
 21
65.477581888
 31
0.0
  0
POLYLINE
  5
49C
  8
0
  6
CONTINUOUS
 62
     7
 66
     1
 10
0.0
 20
0.0
 30
0.0
 70
   128
  0
VERTEX
  5
557
  8
0
  6
CONTINUOUS
 62
     7
 10
366.0293798633
 20
66.4647098907
 30
0.0
  0
VERTEX
  5
558
  8
0
  6
CONTINUOUS
 62
     7
 10
365.4235328811
 20
66.6219730419
 30
0.0
  0
VERTEX
  5
559
  8
0
  6
CONTINUOUS
 62
     7
 10
364.8198177763
 20
66.7817619962
 30
0.0
  0
VERTEX
  5
55A
  8
0
  6
CONTINUOUS
 62
     7
 10
364.2379408233
 20
66.938860974
 30
0.0
  0
VERTEX
  5
55B
  8
0
  6
CONTINUOUS
 62
     7
 10
363.6968954624
 20
67.0881420009
 30
0.0
  0
VERTEX
  5
55C
  8
0
  6
CONTINUOUS
 62
     7
 10
363.2143423222
 20
67.2247322937
 30
0.0
  0
VERTEX
  5
55D
  8
0
  6
CONTINUOUS
 62
     7
 10
362.8060327471
 20
67.344173316
 30
0.0
  0
VERTEX
  5
55E
  8
0
  6
CONTINUOUS
 62
     7
 10
362.4852946471
 20
67.4425663122
 30
0.0
  0
VERTEX
  5
55F
  8
0
  6
CONTINUOUS
 62
     7
 10
362.2625974519
 20
67.51669957
 30
0.0
  0
VERTEX
  5
560
  8
0
  6
CONTINUOUS
 62
     7
 10
362.1452103718
 20
67.5641532553
 30
0.0
  0
VERTEX
  5
561
  8
0
  6
CONTINUOUS
 62
     7
 10
362.1369651181
 20
67.5833784002
 30
0.0
  0
VERTEX
  5
562
  8
0
  6
CONTINUOUS
 62
     7
 10
362.2381308298
 20
67.5737474637
 30
0.0
  0
VERTEX
  5
563
  8
0
  6
CONTINUOUS
 62
     7
 10
362.4454052882
 20
67.5355748157
 30
0.0
  0
VERTEX
  5
564
  8
0
  6
CONTINUOUS
 62
     7
 10
362.7520227071
 20
67.4701064756
 30
0.0
  0
VERTEX
  5
565
  8
0
  6
CONTINUOUS
 62
     7
 10
363.1479745793
 20
67.3794794398
 30
0.0
  0
VERTEX
  5
566
  8
0
  6
CONTINUOUS
 62
     7
 10
363.6203363712
 20
67.2666519269
 30
0.0
  0
VERTEX
  5
567
  8
0
  6
CONTINUOUS
 62
     7
 10
364.1536894011
 20
67.1353068162
 30
0.0
  0
VERTEX
  5
568
  8
0
  6
CONTINUOUS
 62
     7
 10
364.7306241309
 20
66.9897314328
 30
0.0
  0
VERTEX
  5
569
  8
0
  6
CONTINUOUS
 62
     7
 10
365.3323084427
 20
66.8346776012
 30
0.0
  0
VERTEX
  5
56A
  8
0
  6
CONTINUOUS
 62
     7
 10
365.9391023507
 20
66.675206539
 30
0.0
  0
VERTEX
  5
56B
  8
0
  6
CONTINUOUS
 62
     7
 10
366.5311990834
 20
66.5165236492
 30
0.0
  0
VERTEX
  5
56C
  8
0
  6
CONTINUOUS
 62
     7
 10
367.0892716096
 20
66.3638086076
 30
0.0
  0
VERTEX
  5
56D
  8
0
  6
CONTINUOUS
 62
     7
 10
367.5951035054
 20
66.2220462896
 30
0.0
  0
VERTEX
  5
56E
  8
0
  6
CONTINUOUS
 62
     7
 10
368.0321835688
 20
66.0958640551
 30
0.0
  0
VERTEX
  5
56F
  8
0
  6
CONTINUOUS
 62
     7
 10
368.3862447729
 20
65.989380704
 30
0.0
  0
VERTEX
  5
570
  8
0
  6
CONTINUOUS
 62
     7
 10
368.6457299657
 20
65.9060720317
 30
0.0
  0
VERTEX
  5
571
  8
0
  6
CONTINUOUS
 62
     7
 10
368.8021691151
 20
65.848657373
 30
0.0
  0
VERTEX
  5
572
  8
0
  6
CONTINUOUS
 62
     7
 10
368.8504557846
 20
65.8190108387
 30
0.0
  0
VERTEX
  5
573
  8
0
  6
CONTINUOUS
 62
     7
 10
368.7890138163
 20
65.8181001415
 30
0.0
  0
VERTEX
  5
574
  8
0
  6
CONTINUOUS
 62
     7
 10
368.6198487792
 20
65.8459550081
 30
0.0
  0
SEQEND
  5
699
  8
0
  6
CONTINUOUS
 62
     7
  0
LINE
  5
49D
  8
0
  6
CONTINUOUS
 62
     7
 10
366.0293798633
 20
66.4647098907
 30
0.0
 11
366.2627045257
 21
66.3634252091
 31
0.0
  0
ARC
  5
49E
  8
0
  6
CONTINUOUS
 62
     7
 10
367.87781368
 20
75.8256092385
 30
0.0
 40
70.86336585596673
 50
71.3051045443
 51
79.3566888143
  0
POLYLINE
  5
49F
  8
0
  6
CONTINUOUS
 62
     7
 66
     1
 10
0.0
 20
0.0
 30
0.0
 70
   128
  0
VERTEX
  5
575
  8
0
  6
CONTINUOUS
 62
     7
 10
378.5285088883
 20
125.3980025523
 30
0.0
  0
VERTEX
  5
576
  8
0
  6
CONTINUOUS
 62
     7
 10
378.0648933593
 20
125.5269440635
 30
0.0
  0
VERTEX
  5
577
  8
0
  6
CONTINUOUS
 62
     7
 10
377.4967861625
 20
125.6880146678
 30
0.0
  0
VERTEX
  5
578
  8
0
  6
CONTINUOUS
 62
     7
 10
377.0013016745
 20
125.8323335763
 30
0.0
  0
VERTEX
  5
579
  8
0
  6
CONTINUOUS
 62
     7
 10
376.5895529627
 20
125.9566639048
 30
0.0
  0
VERTEX
  5
57A
  8
0
  6
CONTINUOUS
 62
     7
 10
376.2707750109
 20
126.0582170872
 30
0.0
  0
VERTEX
  5
57B
  8
0
  6
CONTINUOUS
 62
     7
 10
376.0521175905
 20
126.1347154188
 30
0.0
  0
VERTEX
  5
57C
  8
0
  6
CONTINUOUS
 62
     7
 10
375.9384849009
 20
126.1844431423
 30
0.0
  0
VERTEX
  5
57D
  8
0
  6
CONTINUOUS
 62
     7
 10
375.9324255741
 20
126.20628493
 30
0.0
  0
VERTEX
  5
57E
  8
0
  6
CONTINUOUS
 62
     7
 10
376.034075513
 20
126.1997508993
 30
0.0
  0
VERTEX
  5
57F
  8
0
  6
CONTINUOUS
 62
     7
 10
376.2411548428
 20
126.1649876
 30
0.0
  0
VERTEX
  5
580
  8
0
  6
CONTINUOUS
 62
     7
 10
376.5490190455
 20
126.1027747272
 30
0.0
  0
VERTEX
  5
581
  8
0
  6
CONTINUOUS
 62
     7
 10
376.9507631309
 20
126.0145076341
 30
0.0
  0
VERTEX
  5
582
  8
0
  6
CONTINUOUS
 62
     7
 10
377.4373765057
 20
125.9021660359
 30
0.0
  0
VERTEX
  5
583
  8
0
  6
CONTINUOUS
 62
     7
 10
377.99794507
 20
125.7682696073
 30
0.0
  0
VERTEX
  5
584
  8
0
  6
CONTINUOUS
 62
     7
 10
378.619896006
 20
125.6158214697
 30
0.0
  0
VERTEX
  5
585
  8
0
  6
CONTINUOUS
 62
     7
 10
379.2892797697
 20
125.4482408348
 30
0.0
  0
VERTEX
  5
586
  8
0
  6
CONTINUOUS
 62
     7
 10
379.9910829608
 20
125.2692863167
 30
0.0
  0
VERTEX
  5
587
  8
0
  6
CONTINUOUS
 62
     7
 10
380.7095650541
 20
125.0829716305
 30
0.0
  0
VERTEX
  5
588
  8
0
  6
CONTINUOUS
 62
     7
 10
381.4286114382
 20
124.8934755704
 30
0.0
  0
VERTEX
  5
589
  8
0
  6
CONTINUOUS
 62
     7
 10
382.1320948455
 20
124.7050482844
 30
0.0
  0
VERTEX
  5
58A
  8
0
  6
CONTINUOUS
 62
     7
 10
382.8042370656
 20
124.5219159496
 30
0.0
  0
VERTEX
  5
58B
  8
0
  6
CONTINUOUS
 62
     7
 10
383.4299628298
 20
124.3481859841
 30
0.0
  0
VERTEX
  5
58C
  8
0
  6
CONTINUOUS
 62
     7
 10
383.9952379297
 20
124.1877549232
 30
0.0
  0
VERTEX
  5
58D
  8
0
  6
CONTINUOUS
 62
     7
 10
384.4873839858
 20
124.0442210254
 30
0.0
  0
VERTEX
  5
58E
  8
0
  6
CONTINUOUS
 62
     7
 10
384.8953628076
 20
123.9208035676
 30
0.0
  0
VERTEX
  5
58F
  8
0
  6
CONTINUOUS
 62
     7
 10
385.2100239649
 20
123.8202706417
 30
0.0
  0
VERTEX
  5
590
  8
0
  6
CONTINUOUS
 62
     7
 10
385.4243100205
 20
123.7448770694
 30
0.0
  0
VERTEX
  5
591
  8
0
  6
CONTINUOUS
 62
     7
 10
385.5334148192
 20
123.6963138297
 30
0.0
  0
VERTEX
  5
592
  8
0
  6
CONTINUOUS
 62
     7
 10
385.5348912835
 20
123.6756701323
 30
0.0
  0
VERTEX
  5
593
  8
0
  6
CONTINUOUS
 62
     7
 10
385.4287062981
 20
123.6834089884
 30
0.0
  0
VERTEX
  5
594
  8
0
  6
CONTINUOUS
 62
     7
 10
385.2172414531
 20
123.7193568254
 30
0.0
  0
VERTEX
  5
595
  8
0
  6
CONTINUOUS
 62
     7
 10
385.2172414531
 20
123.7193568254
 30
0.0
  0
SEQEND
  5
69A
  8
0
  6
CONTINUOUS
 62
     7
  0
LINE
  5
4A0
  8
0
  6
CONTINUOUS
 62
     7
 10
383.8657287695
 20
124.0877299455
 30
0.0
 11
385.2172414531
 21
123.7193568254
 31
0.0
  0
POLYLINE
  5
4A1
  8
0
  6
CONTINUOUS
 62
     7
 66
     1
 10
0.0
 20
0.0
 30
0.0
 70
   128
  0
VERTEX
  5
596
  8
0
  6
CONTINUOUS
 62
     7
 10
378.540424652
 20
125.4435227341
 30
0.0
  0
VERTEX
  5
597
  8
0
  6
CONTINUOUS
 62
     7
 10
378.4602223124
 20
125.4665072311
 30
0.0
  0
VERTEX
  5
598
  8
0
  6
CONTINUOUS
 62
     7
 10
378.0519127374
 20
125.5859482533
 30
0.0
  0
VERTEX
  5
599
  8
0
  6
CONTINUOUS
 62
     7
 10
377.7311746373
 20
125.6843412496
 30
0.0
  0
VERTEX
  5
59A
  8
0
  6
CONTINUOUS
 62
     7
 10
377.5084774421
 20
125.7584745074
 30
0.0
  0
VERTEX
  5
59B
  8
0
  6
CONTINUOUS
 62
     7
 10
377.391090362
 20
125.8059281927
 30
0.0
  0
VERTEX
  5
59C
  8
0
  6
CONTINUOUS
 62
     7
 10
377.3828451084
 20
125.8251533376
 30
0.0
  0
VERTEX
  5
59D
  8
0
  6
CONTINUOUS
 62
     7
 10
377.4840108201
 20
125.8155224011
 30
0.0
  0
VERTEX
  5
59E
  8
0
  6
CONTINUOUS
 62
     7
 10
377.6912852784
 20
125.7773497531
 30
0.0
  0
VERTEX
  5
59F
  8
0
  6
CONTINUOUS
 62
     7
 10
377.9979026973
 20
125.711881413
 30
0.0
  0
VERTEX
  5
5A0
  8
0
  6
CONTINUOUS
 62
     7
 10
378.3938545696
 20
125.6212543772
 30
0.0
  0
VERTEX
  5
5A1
  8
0
  6
CONTINUOUS
 62
     7
 10
378.8662163615
 20
125.5084268642
 30
0.0
  0
VERTEX
  5
5A2
  8
0
  6
CONTINUOUS
 62
     7
 10
379.3995693913
 20
125.3770817536
 30
0.0
  0
VERTEX
  5
5A3
  8
0
  6
CONTINUOUS
 62
     7
 10
379.9765041211
 20
125.2315063701
 30
0.0
  0
VERTEX
  5
5A4
  8
0
  6
CONTINUOUS
 62
     7
 10
380.5781884329
 20
125.0764525386
 30
0.0
  0
VERTEX
  5
5A5
  8
0
  6
CONTINUOUS
 62
     7
 10
381.184982341
 20
124.9169814764
 30
0.0
  0
VERTEX
  5
5A6
  8
0
  6
CONTINUOUS
 62
     7
 10
381.7770790736
 20
124.7582985865
 30
0.0
  0
VERTEX
  5
5A7
  8
0
  6
CONTINUOUS
 62
     7
 10
382.3351515998
 20
124.605583545
 30
0.0
  0
VERTEX
  5
5A8
  8
0
  6
CONTINUOUS
 62
     7
 10
382.8409834957
 20
124.463821227
 30
0.0
  0
VERTEX
  5
5A9
  8
0
  6
CONTINUOUS
 62
     7
 10
383.278063559
 20
124.3376389924
 30
0.0
  0
VERTEX
  5
5AA
  8
0
  6
CONTINUOUS
 62
     7
 10
383.6321247631
 20
124.2311556414
 30
0.0
  0
VERTEX
  5
5AB
  8
0
  6
CONTINUOUS
 62
     7
 10
383.891609956
 20
124.147846969
 30
0.0
  0
VERTEX
  5
5AC
  8
0
  6
CONTINUOUS
 62
     7
 10
384.0480491053
 20
124.0904323103
 30
0.0
  0
VERTEX
  5
5AD
  8
0
  6
CONTINUOUS
 62
     7
 10
384.0963357749
 20
124.0607857761
 30
0.0
  0
VERTEX
  5
5AE
  8
0
  6
CONTINUOUS
 62
     7
 10
384.0348938066
 20
124.0598750789
 30
0.0
  0
VERTEX
  5
5AF
  8
0
  6
CONTINUOUS
 62
     7
 10
383.8657287695
 20
124.0877299455
 30
0.0
  0
VERTEX
  5
5B0
  8
0
  6
CONTINUOUS
 62
     7
 10
383.8657287695
 20
124.0877299455
 30
0.0
  0
SEQEND
  5
69B
  8
0
  6
CONTINUOUS
 62
     7
  0
LINE
  5
4A2
  8
0
  6
CONTINUOUS
 62
     7
 10
368.6198487792
 20
65.8459550081
 30
0.0
 11
368.5926420207
 21
65.8828024695
 31
0.0
  0
ARC
  5
4A3
  8
0
  6
CONTINUOUS
 62
     7
 10
383.227262604
 20
68.231397587
 30
0.0
 40
5.991991537480525
 50
256.0647982871
 51
345.6452156211
  0
LINE
  5
4A4
  8
0
  6
CONTINUOUS
 62
     7
 10
366.0293798633
 20
66.4647098907
 30
0.0
 11
381.784244888
 21
62.4157581161
 31
0.0
  0
LINE
  5
4A5
  8
0
  6
CONTINUOUS
 62
     7
 10
375.327823343
 20
84.6401923789
 30
0.0
 11
376.0852984079
 21
84.4455236208
 31
0.0
  0
ARC
  5
4A6
  8
0
  6
CONTINUOUS
 62
     7
 10
376.2660115872
 20
85.1719161967
 30
0.0
 40
0.7485341859670062
 50
256.0294727523
 51
345.6805411558
  0
LINE
  5
4A7
  8
0
  6
CONTINUOUS
 62
     7
 10
376.9912901555
 20
84.9867826614
 30
0.0
 11
386.8134594145
 21
122.5090884741
 31
0.0
  0
ARC
  5
4A8
  8
0
  6
CONTINUOUS
 62
     7
 10
386.0983329378
 20
122.7021782903
 30
0.0
 40
0.7407358197869708
 50
344.8900016472
 51
75.2288039978
  0
LINE
  5
4A9
  8
0
  6
CONTINUOUS
 62
     7
 10
386.2871907053
 20
123.4184340396
 30
0.0
 11
382.8904531442
 21
124.2913851283
 31
0.0
  0
LINE
  5
4AA
  8
0
  6
CONTINUOUS
 62
     7
 10
390.5737033333
 20
142.8819673162
 30
0.0
 11
402.0741125712
 21
139.9263975719
 31
0.0
  0
ARC
  5
4AB
  8
0
  6
CONTINUOUS
 62
     7
 10
400.5677659492
 20
134.1989648585
 30
0.0
 40
5.922209522797163
 50
344.8542050867
 51
75.2646005583
  0
LINE
  5
4AC
  8
0
  6
CONTINUOUS
 62
     7
 10
406.2842622449
 20
132.6516330474
 30
0.0
 11
389.0321788686
 21
66.7458304408
 31
0.0
  0
POLYLINE
  5
4AD
  8
0
  6
CONTINUOUS
 62
     7
 66
     1
 10
0.0
 20
0.0
 30
0.0
 70
   128
  0
VERTEX
  5
5B1
  8
0
  6
CONTINUOUS
 62
     7
 10
394.4635659406
 20
136.6442341397
 30
0.0
  0
VERTEX
  5
5B2
  8
0
  6
CONTINUOUS
 62
     7
 10
394.6564985166
 20
137.1579537843
 30
0.0
  0
VERTEX
  5
5B3
  8
0
  6
CONTINUOUS
 62
     7
 10
394.950543159
 20
137.6210689075
 30
0.0
  0
VERTEX
  5
5B4
  8
0
  6
CONTINUOUS
 62
     7
 10
395.3328487059
 20
138.0133391559
 30
0.0
  0
VERTEX
  5
5B5
  8
0
  6
CONTINUOUS
 62
     7
 10
395.7867065705
 20
138.3176204374
 30
0.0
  0
VERTEX
  5
5B6
  8
0
  6
CONTINUOUS
 62
     7
 10
396.2922809861
 20
138.5206141999
 30
0.0
  0
VERTEX
  5
5B7
  8
0
  6
CONTINUOUS
 62
     7
 10
396.8274759248
 20
138.613448642
 30
0.0
  0
VERTEX
  5
5B8
  8
0
  6
CONTINUOUS
 62
     7
 10
397.3689007997
 20
138.592066453
 30
0.0
  0
VERTEX
  5
5B9
  8
0
  6
CONTINUOUS
 62
     7
 10
397.8928927456
 20
138.4574021372
 30
0.0
  0
VERTEX
  5
5BA
  8
0
  6
CONTINUOUS
 62
     7
 10
398.3765508002
 20
138.2153411714
 30
0.0
  0
VERTEX
  5
5BB
  8
0
  6
CONTINUOUS
 62
     7
 10
398.7987367855
 20
137.8764627813
 30
0.0
  0
VERTEX
  5
5BC
  8
0
  6
CONTINUOUS
 62
     7
 10
399.1409991482
 20
137.4555775787
 30
0.0
  0
VERTEX
  5
5BD
  8
0
  6
CONTINUOUS
 62
     7
 10
399.3883793806
 20
136.9710802665
 30
0.0
  0
VERTEX
  5
5BE
  8
0
  6
CONTINUOUS
 62
     7
 10
399.5300657796
 20
136.4441457023
 30
0.0
  0
VERTEX
  5
5BF
  8
0
  6
CONTINUOUS
 62
     7
 10
399.5598659696
 20
135.8978034549
 30
0.0
  0
VERTEX
  5
5C0
  8
0
  6
CONTINUOUS
 62
     7
 10
399.4764775393
 20
135.3559313023
 30
0.0
  0
VERTEX
  5
5C1
  8
0
  6
CONTINUOUS
 62
     7
 10
399.2835449633
 20
134.8422116576
 30
0.0
  0
VERTEX
  5
5C2
  8
0
  6
CONTINUOUS
 62
     7
 10
398.9895003209
 20
134.3790965345
 30
0.0
  0
VERTEX
  5
5C3
  8
0
  6
CONTINUOUS
 62
     7
 10
398.607194774
 20
133.9868262861
 30
0.0
  0
VERTEX
  5
5C4
  8
0
  6
CONTINUOUS
 62
     7
 10
398.1533369094
 20
133.6825450046
 30
0.0
  0
VERTEX
  5
5C5
  8
0
  6
CONTINUOUS
 62
     7
 10
397.6477624938
 20
133.479551242
 30
0.0
  0
VERTEX
  5
5C6
  8
0
  6
CONTINUOUS
 62
     7
 10
397.1125675551
 20
133.3867168
 30
0.0
  0
VERTEX
  5
5C7
  8
0
  6
CONTINUOUS
 62
     7
 10
396.5711426802
 20
133.408098989
 30
0.0
  0
VERTEX
  5
5C8
  8
0
  6
CONTINUOUS
 62
     7
 10
396.0471507343
 20
133.5427633048
 30
0.0
  0
VERTEX
  5
5C9
  8
0
  6
CONTINUOUS
 62
     7
 10
395.5634926798
 20
133.7848242706
 30
0.0
  0
VERTEX
  5
5CA
  8
0
  6
CONTINUOUS
 62
     7
 10
395.1413066944
 20
134.1237026607
 30
0.0
  0
VERTEX
  5
5CB
  8
0
  6
CONTINUOUS
 62
     7
 10
394.7990443317
 20
134.5445878633
 30
0.0
  0
VERTEX
  5
5CC
  8
0
  6
CONTINUOUS
 62
     7
 10
394.5516640993
 20
135.0290851754
 30
0.0
  0
VERTEX
  5
5CD
  8
0
  6
CONTINUOUS
 62
     7
 10
394.4099777003
 20
135.5560197397
 30
0.0
  0
VERTEX
  5
5CE
  8
0
  6
CONTINUOUS
 62
     7
 10
394.3801775103
 20
136.102361987
 30
0.0
  0
VERTEX
  5
5CF
  8
0
  6
CONTINUOUS
 62
     7
 10
394.4635659406
 20
136.6442341397
 30
0.0
  0
SEQEND
  5
69C
  8
0
  6
CONTINUOUS
 62
     7
  0
POLYLINE
  5
4AE
  8
0
  6
CONTINUOUS
 62
     7
 66
     1
 10
0.0
 20
0.0
 30
0.0
 70
   128
  0
VERTEX
  5
5D0
  8
0
  6
CONTINUOUS
 62
     7
 10
394.807665349
 20
118.4935586512
 30
0.0
  0
VERTEX
  5
5D1
  8
0
  6
CONTINUOUS
 62
     7
 10
395.000597925
 20
119.0072782959
 30
0.0
  0
VERTEX
  5
5D2
  8
0
  6
CONTINUOUS
 62
     7
 10
395.2946425674
 20
119.470393419
 30
0.0
  0
VERTEX
  5
5D3
  8
0
  6
CONTINUOUS
 62
     7
 10
395.6769481143
 20
119.8626636674
 30
0.0
  0
VERTEX
  5
5D4
  8
0
  6
CONTINUOUS
 62
     7
 10
396.1308059789
 20
120.166944949
 30
0.0
  0
VERTEX
  5
5D5
  8
0
  6
CONTINUOUS
 62
     7
 10
396.6363803945
 20
120.3699387115
 30
0.0
  0
VERTEX
  5
5D6
  8
0
  6
CONTINUOUS
 62
     7
 10
397.1715753332
 20
120.4627731536
 30
0.0
  0
VERTEX
  5
5D7
  8
0
  6
CONTINUOUS
 62
     7
 10
397.7130002081
 20
120.4413909646
 30
0.0
  0
VERTEX
  5
5D8
  8
0
  6
CONTINUOUS
 62
     7
 10
398.236992154
 20
120.3067266488
 30
0.0
  0
VERTEX
  5
5D9
  8
0
  6
CONTINUOUS
 62
     7
 10
398.7206502086
 20
120.0646656829
 30
0.0
  0
VERTEX
  5
5DA
  8
0
  6
CONTINUOUS
 62
     7
 10
399.1428361939
 20
119.7257872928
 30
0.0
  0
VERTEX
  5
5DB
  8
0
  6
CONTINUOUS
 62
     7
 10
399.4850985566
 20
119.3049020902
 30
0.0
  0
VERTEX
  5
5DC
  8
0
  6
CONTINUOUS
 62
     7
 10
399.732478789
 20
118.8204047781
 30
0.0
  0
VERTEX
  5
5DD
  8
0
  6
CONTINUOUS
 62
     7
 10
399.874165188
 20
118.2934702139
 30
0.0
  0
VERTEX
  5
5DE
  8
0
  6
CONTINUOUS
 62
     7
 10
399.903965378
 20
117.7471279665
 30
0.0
  0
VERTEX
  5
5DF
  8
0
  6
CONTINUOUS
 62
     7
 10
399.8205769477
 20
117.2052558139
 30
0.0
  0
VERTEX
  5
5E0
  8
0
  6
CONTINUOUS
 62
     7
 10
399.6276443717
 20
116.6915361692
 30
0.0
  0
VERTEX
  5
5E1
  8
0
  6
CONTINUOUS
 62
     7
 10
399.3335997293
 20
116.2284210461
 30
0.0
  0
VERTEX
  5
5E2
  8
0
  6
CONTINUOUS
 62
     7
 10
398.9512941824
 20
115.8361507977
 30
0.0
  0
VERTEX
  5
5E3
  8
0
  6
CONTINUOUS
 62
     7
 10
398.4974363178
 20
115.5318695161
 30
0.0
  0
VERTEX
  5
5E4
  8
0
  6
CONTINUOUS
 62
     7
 10
397.9918619022
 20
115.3288757536
 30
0.0
  0
VERTEX
  5
5E5
  8
0
  6
CONTINUOUS
 62
     7
 10
397.4566669635
 20
115.2360413115
 30
0.0
  0
VERTEX
  5
5E6
  8
0
  6
CONTINUOUS
 62
     7
 10
396.9152420886
 20
115.2574235005
 30
0.0
  0
VERTEX
  5
5E7
  8
0
  6
CONTINUOUS
 62
     7
 10
396.3912501427
 20
115.3920878164
 30
0.0
  0
VERTEX
  5
5E8
  8
0
  6
CONTINUOUS
 62
     7
 10
395.9075920882
 20
115.6341487822
 30
0.0
  0
VERTEX
  5
5E9
  8
0
  6
CONTINUOUS
 62
     7
 10
395.4854061028
 20
115.9730271723
 30
0.0
  0
VERTEX
  5
5EA
  8
0
  6
CONTINUOUS
 62
     7
 10
395.1431437401
 20
116.3939123749
 30
0.0
  0
VERTEX
  5
5EB
  8
0
  6
CONTINUOUS
 62
     7
 10
394.8957635077
 20
116.878409687
 30
0.0
  0
VERTEX
  5
5EC
  8
0
  6
CONTINUOUS
 62
     7
 10
394.7540771087
 20
117.4053442512
 30
0.0
  0
VERTEX
  5
5ED
  8
0
  6
CONTINUOUS
 62
     7
 10
394.7242769187
 20
117.9516864986
 30
0.0
  0
VERTEX
  5
5EE
  8
0
  6
CONTINUOUS
 62
     7
 10
394.807665349
 20
118.4935586512
 30
0.0
  0
SEQEND
  5
69D
  8
0
  6
CONTINUOUS
 62
     7
  0
POLYLINE
  5
4AF
  8
0
  6
CONTINUOUS
 62
     7
 66
     1
 10
0.0
 20
0.0
 30
0.0
 70
   128
  0
VERTEX
  5
5EF
  8
0
  6
CONTINUOUS
 62
     7
 10
387.5130423212
 20
102.306011296
 30
0.0
  0
VERTEX
  5
5F0
  8
0
  6
CONTINUOUS
 62
     7
 10
387.7059748972
 20
102.8197309406
 30
0.0
  0
VERTEX
  5
5F1
  8
0
  6
CONTINUOUS
 62
     7
 10
388.0000195396
 20
103.2828460637
 30
0.0
  0
VERTEX
  5
5F2
  8
0
  6
CONTINUOUS
 62
     7
 10
388.3823250865
 20
103.6751163122
 30
0.0
  0
VERTEX
  5
5F3
  8
0
  6
CONTINUOUS
 62
     7
 10
388.8361829511
 20
103.9793975937
 30
0.0
  0
VERTEX
  5
5F4
  8
0
  6
CONTINUOUS
 62
     7
 10
389.3417573667
 20
104.1823913562
 30
0.0
  0
VERTEX
  5
5F5
  8
0
  6
CONTINUOUS
 62
     7
 10
389.8769523054
 20
104.2752257983
 30
0.0
  0
VERTEX
  5
5F6
  8
0
  6
CONTINUOUS
 62
     7
 10
390.4183771803
 20
104.2538436093
 30
0.0
  0
VERTEX
  5
5F7
  8
0
  6
CONTINUOUS
 62
     7
 10
390.9423691262
 20
104.1191792935
 30
0.0
  0
VERTEX
  5
5F8
  8
0
  6
CONTINUOUS
 62
     7
 10
391.4260271807
 20
103.8771183277
 30
0.0
  0
VERTEX
  5
5F9
  8
0
  6
CONTINUOUS
 62
     7
 10
391.8482131661
 20
103.5382399376
 30
0.0
  0
VERTEX
  5
5FA
  8
0
  6
CONTINUOUS
 62
     7
 10
392.1904755288
 20
103.1173547349
 30
0.0
  0
VERTEX
  5
5FB
  8
0
  6
CONTINUOUS
 62
     7
 10
392.4378557612
 20
102.6328574228
 30
0.0
  0
VERTEX
  5
5FC
  8
0
  6
CONTINUOUS
 62
     7
 10
392.5795421602
 20
102.1059228586
 30
0.0
  0
VERTEX
  5
5FD
  8
0
  6
CONTINUOUS
 62
     7
 10
392.6093423502
 20
101.5595806112
 30
0.0
  0
VERTEX
  5
5FE
  8
0
  6
CONTINUOUS
 62
     7
 10
392.5259539199
 20
101.0177084586
 30
0.0
  0
VERTEX
  5
5FF
  8
0
  6
CONTINUOUS
 62
     7
 10
392.3330213439
 20
100.5039888139
 30
0.0
  0
VERTEX
  5
600
  8
0
  6
CONTINUOUS
 62
     7
 10
392.0389767015
 20
100.0408736908
 30
0.0
  0
VERTEX
  5
601
  8
0
  6
CONTINUOUS
 62
     7
 10
391.6566711546
 20
99.6486034424
 30
0.0
  0
VERTEX
  5
602
  8
0
  6
CONTINUOUS
 62
     7
 10
391.20281329
 20
99.3443221609
 30
0.0
  0
VERTEX
  5
603
  8
0
  6
CONTINUOUS
 62
     7
 10
390.6972388744
 20
99.1413283983
 30
0.0
  0
VERTEX
  5
604
  8
0
  6
CONTINUOUS
 62
     7
 10
390.1620439357
 20
99.0484939562
 30
0.0
  0
VERTEX
  5
605
  8
0
  6
CONTINUOUS
 62
     7
 10
389.6206190608
 20
99.0698761453
 30
0.0
  0
VERTEX
  5
606
  8
0
  6
CONTINUOUS
 62
     7
 10
389.0966271149
 20
99.2045404611
 30
0.0
  0
VERTEX
  5
607
  8
0
  6
CONTINUOUS
 62
     7
 10
388.6129690604
 20
99.4466014269
 30
0.0
  0
VERTEX
  5
608
  8
0
  6
CONTINUOUS
 62
     7
 10
388.190783075
 20
99.785479817
 30
0.0
  0
VERTEX
  5
609
  8
0
  6
CONTINUOUS
 62
     7
 10
387.8485207123
 20
100.2063650196
 30
0.0
  0
VERTEX
  5
60A
  8
0
  6
CONTINUOUS
 62
     7
 10
387.6011404799
 20
100.6908623317
 30
0.0
  0
VERTEX
  5
60B
  8
0
  6
CONTINUOUS
 62
     7
 10
387.4594540809
 20
101.217796896
 30
0.0
  0
VERTEX
  5
60C
  8
0
  6
CONTINUOUS
 62
     7
 10
387.4296538909
 20
101.7641391433
 30
0.0
  0
VERTEX
  5
60D
  8
0
  6
CONTINUOUS
 62
     7
 10
387.5130423212
 20
102.306011296
 30
0.0
  0
SEQEND
  5
69E
  8
0
  6
CONTINUOUS
 62
     7
  0
POLYLINE
  5
4B0
  8
0
  6
CONTINUOUS
 62
     7
 66
     1
 10
0.0
 20
0.0
 30
0.0
 70
   128
  0
VERTEX
  5
60E
  8
0
  6
CONTINUOUS
 62
     7
 10
385.9474611205
 20
84.6461178408
 30
0.0
  0
VERTEX
  5
60F
  8
0
  6
CONTINUOUS
 62
     7
 10
386.1403936965
 20
85.1598374855
 30
0.0
  0
VERTEX
  5
610
  8
0
  6
CONTINUOUS
 62
     7
 10
386.434438339
 20
85.6229526086
 30
0.0
  0
VERTEX
  5
611
  8
0
  6
CONTINUOUS
 62
     7
 10
386.8167438859
 20
86.015222857
 30
0.0
  0
VERTEX
  5
612
  8
0
  6
CONTINUOUS
 62
     7
 10
387.2706017504
 20
86.3195041386
 30
0.0
  0
VERTEX
  5
613
  8
0
  6
CONTINUOUS
 62
     7
 10
387.776176166
 20
86.5224979011
 30
0.0
  0
VERTEX
  5
614
  8
0
  6
CONTINUOUS
 62
     7
 10
388.3113711048
 20
86.6153323432
 30
0.0
  0
VERTEX
  5
615
  8
0
  6
CONTINUOUS
 62
     7
 10
388.8527959796
 20
86.5939501542
 30
0.0
  0
VERTEX
  5
616
  8
0
  6
CONTINUOUS
 62
     7
 10
389.3767879256
 20
86.4592858383
 30
0.0
  0
VERTEX
  5
617
  8
0
  6
CONTINUOUS
 62
     7
 10
389.8604459801
 20
86.2172248725
 30
0.0
  0
VERTEX
  5
618
  8
0
  6
CONTINUOUS
 62
     7
 10
390.2826319654
 20
85.8783464824
 30
0.0
  0
VERTEX
  5
619
  8
0
  6
CONTINUOUS
 62
     7
 10
390.6248943281
 20
85.4574612798
 30
0.0
  0
VERTEX
  5
61A
  8
0
  6
CONTINUOUS
 62
     7
 10
390.8722745606
 20
84.9729639677
 30
0.0
  0
VERTEX
  5
61B
  8
0
  6
CONTINUOUS
 62
     7
 10
391.0139609596
 20
84.4460294035
 30
0.0
  0
VERTEX
  5
61C
  8
0
  6
CONTINUOUS
 62
     7
 10
391.0437611496
 20
83.8996871561
 30
0.0
  0
VERTEX
  5
61D
  8
0
  6
CONTINUOUS
 62
     7
 10
390.9603727193
 20
83.3578150034
 30
0.0
  0
VERTEX
  5
61E
  8
0
  6
CONTINUOUS
 62
     7
 10
390.7674401432
 20
82.8440953588
 30
0.0
  0
VERTEX
  5
61F
  8
0
  6
CONTINUOUS
 62
     7
 10
390.4733955008
 20
82.3809802357
 30
0.0
  0
VERTEX
  5
620
  8
0
  6
CONTINUOUS
 62
     7
 10
390.0910899539
 20
81.9887099872
 30
0.0
  0
VERTEX
  5
621
  8
0
  6
CONTINUOUS
 62
     7
 10
389.6372320894
 20
81.6844287057
 30
0.0
  0
VERTEX
  5
622
  8
0
  6
CONTINUOUS
 62
     7
 10
389.1316576737
 20
81.4814349432
 30
0.0
  0
VERTEX
  5
623
  8
0
  6
CONTINUOUS
 62
     7
 10
388.596462735
 20
81.3886005011
 30
0.0
  0
VERTEX
  5
624
  8
0
  6
CONTINUOUS
 62
     7
 10
388.0550378602
 20
81.4099826901
 30
0.0
  0
VERTEX
  5
625
  8
0
  6
CONTINUOUS
 62
     7
 10
387.5310459142
 20
81.5446470059
 30
0.0
  0
VERTEX
  5
626
  8
0
  6
CONTINUOUS
 62
     7
 10
387.0473878597
 20
81.7867079718
 30
0.0
  0
VERTEX
  5
627
  8
0
  6
CONTINUOUS
 62
     7
 10
386.6252018744
 20
82.1255863619
 30
0.0
  0
VERTEX
  5
628
  8
0
  6
CONTINUOUS
 62
     7
 10
386.2829395117
 20
82.5464715645
 30
0.0
  0
VERTEX
  5
629
  8
0
  6
CONTINUOUS
 62
     7
 10
386.0355592792
 20
83.0309688766
 30
0.0
  0
VERTEX
  5
62A
  8
0
  6
CONTINUOUS
 62
     7
 10
385.8938728802
 20
83.5579034408
 30
0.0
  0
VERTEX
  5
62B
  8
0
  6
CONTINUOUS
 62
     7
 10
385.8640726902
 20
84.1042456882
 30
0.0
  0
VERTEX
  5
62C
  8
0
  6
CONTINUOUS
 62
     7
 10
385.9474611205
 20
84.6461178408
 30
0.0
  0
SEQEND
  5
69F
  8
0
  6
CONTINUOUS
 62
     7
  0
POLYLINE
  5
4B1
  8
0
  6
CONTINUOUS
 62
     7
 66
     1
 10
0.0
 20
0.0
 30
0.0
 70
   128
  0
VERTEX
  5
62D
  8
0
  6
CONTINUOUS
 62
     7
 10
376.7431574837
 20
68.9493525188
 30
0.0
  0
VERTEX
  5
62E
  8
0
  6
CONTINUOUS
 62
     7
 10
376.9360900597
 20
69.4630721635
 30
0.0
  0
VERTEX
  5
62F
  8
0
  6
CONTINUOUS
 62
     7
 10
377.2301347021
 20
69.9261872866
 30
0.0
  0
VERTEX
  5
630
  8
0
  6
CONTINUOUS
 62
     7
 10
377.612440249
 20
70.318457535
 30
0.0
  0
VERTEX
  5
631
  8
0
  6
CONTINUOUS
 62
     7
 10
378.0662981136
 20
70.6227388166
 30
0.0
  0
VERTEX
  5
632
  8
0
  6
CONTINUOUS
 62
     7
 10
378.5718725292
 20
70.8257325791
 30
0.0
  0
VERTEX
  5
633
  8
0
  6
CONTINUOUS
 62
     7
 10
379.1070674679
 20
70.9185670212
 30
0.0
  0
VERTEX
  5
634
  8
0
  6
CONTINUOUS
 62
     7
 10
379.6484923428
 20
70.8971848322
 30
0.0
  0
VERTEX
  5
635
  8
0
  6
CONTINUOUS
 62
     7
 10
380.1724842887
 20
70.7625205163
 30
0.0
  0
VERTEX
  5
636
  8
0
  6
CONTINUOUS
 62
     7
 10
380.6561423432
 20
70.5204595505
 30
0.0
  0
VERTEX
  5
637
  8
0
  6
CONTINUOUS
 62
     7
 10
381.0783283286
 20
70.1815811604
 30
0.0
  0
VERTEX
  5
638
  8
0
  6
CONTINUOUS
 62
     7
 10
381.4205906913
 20
69.7606959578
 30
0.0
  0
VERTEX
  5
639
  8
0
  6
CONTINUOUS
 62
     7
 10
381.6679709237
 20
69.2761986457
 30
0.0
  0
VERTEX
  5
63A
  8
0
  6
CONTINUOUS
 62
     7
 10
381.8096573227
 20
68.7492640815
 30
0.0
  0
VERTEX
  5
63B
  8
0
  6
CONTINUOUS
 62
     7
 10
381.8394575127
 20
68.2029218341
 30
0.0
  0
VERTEX
  5
63C
  8
0
  6
CONTINUOUS
 62
     7
 10
381.7560690824
 20
67.6610496814
 30
0.0
  0
VERTEX
  5
63D
  8
0
  6
CONTINUOUS
 62
     7
 10
381.5631365064
 20
67.1473300368
 30
0.0
  0
VERTEX
  5
63E
  8
0
  6
CONTINUOUS
 62
     7
 10
381.269091864
 20
66.6842149137
 30
0.0
  0
VERTEX
  5
63F
  8
0
  6
CONTINUOUS
 62
     7
 10
380.886786317
 20
66.2919446653
 30
0.0
  0
VERTEX
  5
640
  8
0
  6
CONTINUOUS
 62
     7
 10
380.4329284525
 20
65.9876633837
 30
0.0
  0
VERTEX
  5
641
  8
0
  6
CONTINUOUS
 62
     7
 10
379.9273540369
 20
65.7846696212
 30
0.0
  0
VERTEX
  5
642
  8
0
  6
CONTINUOUS
 62
     7
 10
379.3921590982
 20
65.6918351791
 30
0.0
  0
VERTEX
  5
643
  8
0
  6
CONTINUOUS
 62
     7
 10
378.8507342233
 20
65.7132173681
 30
0.0
  0
VERTEX
  5
644
  8
0
  6
CONTINUOUS
 62
     7
 10
378.3267422774
 20
65.8478816839
 30
0.0
  0
VERTEX
  5
645
  8
0
  6
CONTINUOUS
 62
     7
 10
377.8430842228
 20
66.0899426498
 30
0.0
  0
VERTEX
  5
646
  8
0
  6
CONTINUOUS
 62
     7
 10
377.4208982375
 20
66.4288210399
 30
0.0
  0
VERTEX
  5
647
  8
0
  6
CONTINUOUS
 62
     7
 10
377.0786358748
 20
66.8497062425
 30
0.0
  0
VERTEX
  5
648
  8
0
  6
CONTINUOUS
 62
     7
 10
376.8312556423
 20
67.3342035546
 30
0.0
  0
VERTEX
  5
649
  8
0
  6
CONTINUOUS
 62
     7
 10
376.6895692434
 20
67.8611381188
 30
0.0
  0
VERTEX
  5
64A
  8
0
  6
CONTINUOUS
 62
     7
 10
376.6597690534
 20
68.4074803662
 30
0.0
  0
VERTEX
  5
64B
  8
0
  6
CONTINUOUS
 62
     7
 10
376.7431574837
 20
68.9493525188
 30
0.0
  0
SEQEND
  5
6A0
  8
0
  6
CONTINUOUS
 62
     7
  0
LINE
  5
4B2
  8
0
  6
CONTINUOUS
 62
     7
 10
382.0175695503
 20
62.3144734345
 30
0.0
 11
381.784244888
 21
62.4157581161
 31
0.0
  0
LINE
  5
4B3
  8
0
  6
CONTINUOUS
 62
     7
 10
389.0321788686
 20
66.7458304408
 30
0.0
 11
389.265503531
 21
66.6445457593
 31
0.0
  0
ARC
  5
4B4
  8
0
  6
CONTINUOUS
 62
     7
 10
383.4662883194
 20
68.120570142
 30
0.0
 40
5.984107706963303
 50
255.9898153543
 51
345.7201985539
  0
LINE
  5
4B5
  8
0
  6
CONTINUOUS
 62
     7
 10
406.5175869072
 20
132.5503483658
 30
0.0
 11
406.2842622449
 21
132.6516330474
 31
0.0
  0
LINE
  5
4B6
  8
0
  6
CONTINUOUS
 62
     7
 10
406.5175869072
 20
132.5503483658
 30
0.0
 11
389.265503531
 21
66.6445457593
 31
0.0
  0
CIRCLE
  5
4B7
  8
0
  6
CONTINUOUS
 62
     7
 10
388.6221112327
 20
83.9112112447
 30
0.0
 40
1.483452392116621
  0
LINE
  5
4B8
  8
0
  6
CONTINUOUS
 62
     7
 10
366.2627045257
 20
66.3634252091
 30
0.0
 11
382.0175695503
 21
62.3144734345
 31
0.0
  0
CIRCLE
  5
4B9
  8
0
  6
CONTINUOUS
 62
     7
 10
379.4178075958
 20
68.2144459227
 30
0.0
 40
1.483452392116704
  0
CIRCLE
  5
4BA
  8
0
  6
CONTINUOUS
 62
     7
 10
397.4823154612
 20
117.7586520551
 30
0.0
 40
1.483452392116581
  0
CIRCLE
  5
4BB
  8
0
  6
CONTINUOUS
 62
     7
 10
390.1876924334
 20
101.5711046999
 30
0.0
 40
1.48345239211647
  0
ARC
  5
4BC
  8
0
  6
CONTINUOUS
 62
     7
 10
400.7806061361
 20
134.0913029503
 30
0.0
 40
5.940327381488047
 50
344.9652005627
 51
66.2009113928
  0
ARC
  5
4BD
  8
0
  6
CONTINUOUS
 62
     7
 10
388.7031267865
 20
83.8937860792
 30
0.0
 40
1.500456986642467
 50
68.4103725928
 51
244.6589401878
  0
ARC
  5
4BE
  8
0
  6
CONTINUOUS
 62
     7
 10
379.4988231496
 20
68.1970207572
 30
0.0
 40
1.500456986646916
 50
68.4103726105
 51
244.6589401752
  0
CIRCLE
  5
4BF
  8
0
  6
CONTINUOUS
 62
     7
 10
397.1382160528
 20
135.9093275436
 30
0.0
 40
1.483452392116661
  0
ARC
  5
4C0
  8
0
  6
CONTINUOUS
 62
     7
 10
397.5633310149
 20
117.7412268896
 30
0.0
 40
1.500456986641728
 50
68.4103725937
 51
244.658940194
  0
ARC
  5
4C1
  8
0
  6
CONTINUOUS
 62
     7
 10
390.2687079871
 20
101.5536795343
 30
0.0
 40
1.500456986640645
 50
68.4103725909
 51
244.6589401984
  0
ARC
  5
4C2
  8
0
  6
CONTINUOUS
 62
     7
 10
397.2192316065
 20
135.8919023781
 30
0.0
 40
1.500456986624679
 50
68.4103725311
 51
244.6589402472
  0
LINE
  5
4C3
  8
0
  6
CONTINUOUS
 62
     7
 10
386.5079009316
 20
123.3203912292
 30
0.0
 11
382.8803184072
 21
124.2526687623
 31
0.0
  0
ARC
  5
4C4
  8
0
  6
CONTINUOUS
 62
     7
 10
362.9723878968
 20
57.086074058
 30
0.0
 40
69.7940686795975
 50
71.2433223493
 51
79.4184710093
  0
POLYLINE
  5
4C5
  8
0
  6
CONTINUOUS
 62
     7
 66
     1
 10
0.0
 20
0.0
 30
0.0
 70
   128
  0
VERTEX
  5
64C
  8
0
  6
CONTINUOUS
 62
     7
 10
366.5314776029
 20
87.4880930887
 30
0.0
  0
VERTEX
  5
64D
  8
0
  6
CONTINUOUS
 62
     7
 10
366.2035105555
 20
87.5924470299
 30
0.0
  0
VERTEX
  5
64E
  8
0
  6
CONTINUOUS
 62
     7
 10
365.9803279348
 20
87.6705822739
 30
0.0
  0
VERTEX
  5
64F
  8
0
  6
CONTINUOUS
 62
     7
 10
365.8671706385
 20
87.7206640056
 30
0.0
  0
VERTEX
  5
650
  8
0
  6
CONTINUOUS
 62
     7
 10
365.8666958888
 20
87.7415161782
 30
0.0
  0
VERTEX
  5
651
  8
0
  6
CONTINUOUS
 62
     7
 10
365.9789148342
 20
87.7326491294
 30
0.0
  0
VERTEX
  5
652
  8
0
  6
CONTINUOUS
 62
     7
 10
366.2011922871
 20
87.6942710802
 30
0.0
  0
VERTEX
  5
653
  8
0
  6
CONTINUOUS
 62
     7
 10
366.5283086056
 20
87.627283245
 30
0.0
  0
VERTEX
  5
654
  8
0
  6
CONTINUOUS
 62
     7
 10
366.9525822632
 20
87.5332586694
 30
0.0
  0
VERTEX
  5
655
  8
0
  6
CONTINUOUS
 62
     7
 10
367.4640502312
 20
87.4144052903
 30
0.0
  0
VERTEX
  5
656
  8
0
  6
CONTINUOUS
 62
     7
 10
368.0507019358
 20
87.2735140888
 30
0.0
  0
VERTEX
  5
657
  8
0
  6
CONTINUOUS
 62
     7
 10
368.6987612972
 20
87.1138935497
 30
0.0
  0
VERTEX
  5
658
  8
0
  6
CONTINUOUS
 62
     7
 10
369.3930102268
 20
86.9392919711
 30
0.0
  0
VERTEX
  5
659
  8
0
  6
CONTINUOUS
 62
     7
 10
370.1171459872
 20
86.7538094437
 30
0.0
  0
VERTEX
  5
65A
  8
0
  6
CONTINUOUS
 62
     7
 10
370.8541640218
 20
86.5618015708
 30
0.0
  0
VERTEX
  5
65B
  8
0
  6
CONTINUOUS
 62
     7
 10
371.5867572655
 20
86.3677771877
 30
0.0
  0
VERTEX
  5
65C
  8
0
  6
CONTINUOUS
 62
     7
 10
372.2977225584
 20
86.176292482
 30
0.0
  0
VERTEX
  5
65D
  8
0
  6
CONTINUOUS
 62
     7
 10
372.9703646202
 20
85.9918440038
 30
0.0
  0
VERTEX
  5
65E
  8
0
  6
CONTINUOUS
 62
     7
 10
373.5888880977
 20
85.8187630741
 30
0.0
  0
VERTEX
  5
65F
  8
0
  6
CONTINUOUS
 62
     7
 10
374.1387684806
 20
85.6611140752
 30
0.0
  0
VERTEX
  5
660
  8
0
  6
CONTINUOUS
 62
     7
 10
374.6070931734
 20
85.5225990079
 30
0.0
  0
VERTEX
  5
661
  8
0
  6
CONTINUOUS
 62
     7
 10
374.9828647167
 20
85.4064705599
 30
0.0
  0
VERTEX
  5
662
  8
0
  6
CONTINUOUS
 62
     7
 10
375.2572590351
 20
85.3154557234
 30
0.0
  0
VERTEX
  5
663
  8
0
  6
CONTINUOUS
 62
     7
 10
375.4238326495
 20
85.2516917594
 30
0.0
  0
VERTEX
  5
664
  8
0
  6
CONTINUOUS
 62
     7
 10
375.4786739861
 20
85.2166760084
 30
0.0
  0
VERTEX
  5
665
  8
0
  6
CONTINUOUS
 62
     7
 10
375.4204952303
 20
85.2112307297
 30
0.0
  0
VERTEX
  5
666
  8
0
  6
CONTINUOUS
 62
     7
 10
375.2506625678
 20
85.2354837923
 30
0.0
  0
VERTEX
  5
667
  8
0
  6
CONTINUOUS
 62
     7
 10
374.9731641032
 20
85.2888656724
 30
0.0
  0
VERTEX
  5
668
  8
0
  6
CONTINUOUS
 62
     7
 10
374.5945162089
 20
85.3701228273
 30
0.0
  0
VERTEX
  5
669
  8
0
  6
CONTINUOUS
 62
     7
 10
374.1236105042
 20
85.4773471313
 30
0.0
  0
VERTEX
  5
66A
  8
0
  6
CONTINUOUS
 62
     7
 10
373.5715050576
 20
85.608020684
 30
0.0
  0
VERTEX
  5
66B
  8
0
  6
CONTINUOUS
 62
     7
 10
372.9511647144
 20
85.7590749369
 30
0.0
  0
VERTEX
  5
66C
  8
0
  6
CONTINUOUS
 62
     7
 10
372.812839683
 20
85.7932403517
 30
0.0
  0
SEQEND
  5
6A1
  8
0
  6
CONTINUOUS
 62
     7
  0
LINE
  5
4C6
  8
0
  6
CONTINUOUS
 62
     7
 10
366.5314776029
 20
87.4880930887
 30
0.0
 11
366.8787017333
 21
87.4061763253
 31
0.0
  0
POLYLINE
  5
4C7
  8
0
  6
CONTINUOUS
 62
     7
 66
     1
 10
0.0
 20
0.0
 30
0.0
 70
   128
  0
VERTEX
  5
66D
  8
0
  6
CONTINUOUS
 62
     7
 10
372.8164366998
 20
85.806981549
 30
0.0
  0
VERTEX
  5
66E
  8
0
  6
CONTINUOUS
 62
     7
 10
372.83460086
 20
85.8025219426
 30
0.0
  0
VERTEX
  5
66F
  8
0
  6
CONTINUOUS
 62
     7
 10
373.4160415924
 20
85.6616750205
 30
0.0
  0
VERTEX
  5
670
  8
0
  6
CONTINUOUS
 62
     7
 10
373.925195477
 20
85.5422292933
 30
0.0
  0
VERTEX
  5
671
  8
0
  6
CONTINUOUS
 62
     7
 10
374.3486803214
 20
85.4473241765
 30
0.0
  0
VERTEX
  5
672
  8
0
  6
CONTINUOUS
 62
     7
 10
374.67536559
 20
85.3794540801
 30
0.0
  0
VERTEX
  5
673
  8
0
  6
CONTINUOUS
 62
     7
 10
374.896664949
 20
85.3404028474
 30
0.0
  0
VERTEX
  5
674
  8
0
  6
CONTINUOUS
 62
     7
 10
375.0067619438
 20
85.3311968695
 30
0.0
  0
VERTEX
  5
675
  8
0
  6
CONTINUOUS
 62
     7
 10
375.0027628733
 20
85.3520781089
 30
0.0
  0
VERTEX
  5
676
  8
0
  6
CONTINUOUS
 62
     7
 10
374.8847728457
 20
85.4024977401
 30
0.0
  0
VERTEX
  5
677
  8
0
  6
CONTINUOUS
 62
     7
 10
374.6558930165
 20
85.4811305737
 30
0.0
  0
VERTEX
  5
678
  8
0
  6
CONTINUOUS
 62
     7
 10
374.3221390792
 20
85.5859098875
 30
0.0
  0
VERTEX
  5
679
  8
0
  6
CONTINUOUS
 62
     7
 10
373.8922831547
 20
85.7140817462
 30
0.0
  0
VERTEX
  5
67A
  8
0
  6
CONTINUOUS
 62
     7
 10
373.3776232312
 20
85.8622773833
 30
0.0
  0
VERTEX
  5
67B
  8
0
  6
CONTINUOUS
 62
     7
 10
372.7916862172
 20
86.0266017436
 30
0.0
  0
VERTEX
  5
67C
  8
0
  6
CONTINUOUS
 62
     7
 10
372.1498724111
 20
86.2027358576
 30
0.0
  0
VERTEX
  5
67D
  8
0
  6
CONTINUOUS
 62
     7
 10
371.469050732
 20
86.3860503575
 30
0.0
  0
VERTEX
  5
67E
  8
0
  6
CONTINUOUS
 62
     7
 10
370.7671153507
 20
86.5717271519
 30
0.0
  0
VERTEX
  5
67F
  8
0
  6
CONTINUOUS
 62
     7
 10
370.0625153736
 20
86.7548860612
 30
0.0
  0
VERTEX
  5
680
  8
0
  6
CONTINUOUS
 62
     7
 10
369.3737699411
 20
86.9307130833
 30
0.0
  0
VERTEX
  5
681
  8
0
  6
CONTINUOUS
 62
     7
 10
368.7189814857
 20
87.094586922
 30
0.0
  0
VERTEX
  5
682
  8
0
  6
CONTINUOUS
 62
     7
 10
368.1153599418
 20
87.2422004487
 30
0.0
  0
VERTEX
  5
683
  8
0
  6
CONTINUOUS
 62
     7
 10
367.5787704137
 20
87.369673908
 30
0.0
  0
VERTEX
  5
684
  8
0
  6
CONTINUOUS
 62
     7
 10
367.1233161901
 20
87.4736568896
 30
0.0
  0
VERTEX
  5
685
  8
0
  6
CONTINUOUS
 62
     7
 10
366.7609680644
 20
87.5514163884
 30
0.0
  0
VERTEX
  5
686
  8
0
  6
CONTINUOUS
 62
     7
 10
366.5012497039
 20
87.6009086361
 30
0.0
  0
VERTEX
  5
687
  8
0
  6
CONTINUOUS
 62
     7
 10
366.3509873377
 20
87.6208328181
 30
0.0
  0
VERTEX
  5
688
  8
0
  6
CONTINUOUS
 62
     7
 10
366.3141303413
 20
87.6106652632
 30
0.0
  0
VERTEX
  5
689
  8
0
  6
CONTINUOUS
 62
     7
 10
366.3916474344
 20
87.5706732073
 30
0.0
  0
VERTEX
  5
68A
  8
0
  6
CONTINUOUS
 62
     7
 10
366.58150122
 20
87.5019077695
 30
0.0
  0
VERTEX
  5
68B
  8
0
  6
CONTINUOUS
 62
     7
 10
366.8787017333
 20
87.4061763253
 30
0.0
  0
VERTEX
  5
68C
  8
0
  6
CONTINUOUS
 62
     7
 10
366.8787017333
 20
87.4061763253
 30
0.0
  0
SEQEND
  5
6A2
  8
0
  6
CONTINUOUS
 62
     7
  0
LINE
  5
4C8
  8
0
  6
CONTINUOUS
 62
     7
 10
368.0178034741
 20
87.0714467889
 30
0.0
 11
368.0656376648
 21
87.2541812829
 31
0.0
  0
POLYLINE
  5
4C9
  8
0
  6
CONTINUOUS
 62
     7
 66
     1
 10
0.0
 20
0.0
 30
0.0
 70
   128
  0
VERTEX
  5
68D
  8
0
  6
CONTINUOUS
 62
     7
 10
366.8787017333
 20
87.4061763253
 30
0.0
  0
VERTEX
  5
68E
  8
0
  6
CONTINUOUS
 62
     7
 10
367.0603512142
 20
87.4070683305
 30
0.0
  0
VERTEX
  5
68F
  8
0
  6
CONTINUOUS
 62
     7
 10
367.1694514647
 20
87.462068884
 30
0.0
  0
SEQEND
  5
6A3
  8
0
  6
CONTINUOUS
 62
     7
  0
POLYLINE
  5
4CA
  8
0
  6
CONTINUOUS
 62
     7
 66
     1
 10
0.0
 20
0.0
 30
0.0
 70
   128
  0
VERTEX
  5
690
  8
0
  6
CONTINUOUS
 62
     7
 10
368.0178034741
 20
87.0714467889
 30
0.0
  0
VERTEX
  5
691
  8
0
  6
CONTINUOUS
 62
     7
 10
368.324612996
 20
86.9851559941
 30
0.0
  0
VERTEX
  5
692
  8
0
  6
CONTINUOUS
 62
     7
 10
368.4631166713
 20
86.9465449429
 30
0.0
  0
SEQEND
  5
6A4
  8
0
  6
CONTINUOUS
 62
     7
  0
LINE
  5
4CB
  8
0
  6
CONTINUOUS
 62
     7
 10
368.0178034741
 20
87.0714467889
 30
0.0
 11
365.5782547874
 21
87.7071977707
 31
0.0
  0
LINE
  5
4CC
  8
0
  6
CONTINUOUS
 62
     7
 10
365.5782547874
 20
87.7071977707
 30
0.0
 11
375.5143409579
 21
125.6646849653
 31
0.0
  0
LINE
  5
4CD
  8
0
  6
CONTINUOUS
 62
     7
 10
375.7644411748
 20
125.5995083778
 30
0.0
 11
375.5143409579
 21
125.6646849653
 31
0.0
  0
LINE
  5
4CE
  8
0
  6
CONTINUOUS
 62
     7
 10
368.4552859352
 20
86.9166302402
 30
0.0
 11
365.6284860976
 21
87.6532996011
 31
0.0
  0
LINE
  5
4CF
  8
0
  6
CONTINUOUS
 62
     7
 10
365.5782547874
 20
87.7071977707
 30
0.0
 11
365.6284860976
 21
87.6532996011
 31
0.0
  0
ARC
  5
4D0
  8
0
  6
CONTINUOUS
 62
     7
 10
349.0724703841
 20
77.100327807
 30
0.0
 40
0.9876477597162031
 50
164.8900016472
 51
255.2288039978
  0
LINE
  5
4D1
  8
0
  6
CONTINUOUS
 62
     7
 10
348.1189684152
 20
77.3577808954
 30
0.0
 11
350.1354652938
 21
85.061131403
 31
0.0
  0
LINE
  5
4D2
  8
0
  6
CONTINUOUS
 62
     7
 10
353.3106761159
 20
84.5385854252
 30
0.0
 11
350.1354652938
 21
85.061131403
 31
0.0
  0
ARC
  5
4D3
  8
0
  6
CONTINUOUS
 62
     7
 10
356.1669701212
 20
83.7704006751
 30
0.0
 40
2.957790265509361
 50
164.9468029105
 51
346.2273374367
  0
LINE
  5
4D4
  8
0
  6
CONTINUOUS
 62
     7
 10
359.9257383659
 20
86.4509834064
 30
0.0
 11
359.0397179431
 21
83.0662393253
 31
0.0
  0
ARC
  5
4D5
  8
0
  6
CONTINUOUS
 62
     7
 10
357.0694443607
 20
87.2191681564
 30
0.0
 40
2.957790265509281
 50
344.9468029105
 51
166.2273374367
  0
LINE
  5
4D6
  8
0
  6
CONTINUOUS
 62
     7
 10
351.1654453815
 20
88.9958251366
 30
0.0
 11
354.1966965388
 21
87.9233295062
 31
0.0
  0
LINE
  5
4D7
  8
0
  6
CONTINUOUS
 62
     7
 10
351.1654453815
 20
88.9958251366
 30
0.0
 11
354.1858443696
 21
100.534247202
 31
0.0
  0
LINE
  5
4D8
  8
0
  6
CONTINUOUS
 62
     7
 10
357.3610551918
 20
100.0117012242
 30
0.0
 11
354.1858443696
 21
100.534247202
 31
0.0
  0
ARC
  5
4D9
  8
0
  6
CONTINUOUS
 62
     7
 10
360.2173491971
 20
99.2435164742
 30
0.0
 40
2.957790265509288
 50
164.9468029105
 51
346.2273374367
  0
LINE
  5
4DA
  8
0
  6
CONTINUOUS
 62
     7
 10
363.9761174418
 20
101.9240992054
 30
0.0
 11
363.090097019
 21
98.5393551244
 31
0.0
  0
ARC
  5
4DB
  8
0
  6
CONTINUOUS
 62
     7
 10
361.1198234365
 20
102.6922839555
 30
0.0
 40
2.957790265509336
 50
344.9468029105
 51
166.2273374367
  0
LINE
  5
4DC
  8
0
  6
CONTINUOUS
 62
     7
 10
355.2158244574
 20
104.4689409357
 30
0.0
 11
358.2470756147
 21
103.3964453053
 31
0.0
  0
LINE
  5
4DD
  8
0
  6
CONTINUOUS
 62
     7
 10
355.2158244574
 20
104.4689409357
 30
0.0
 11
358.2362234455
 21
116.0073630011
 31
0.0
  0
LINE
  5
4DE
  8
0
  6
CONTINUOUS
 62
     7
 10
361.4114342677
 20
115.4848170233
 30
0.0
 11
358.2362234455
 21
116.0073630011
 31
0.0
  0
ARC
  5
4DF
  8
0
  6
CONTINUOUS
 62
     7
 10
364.2677282729
 20
114.7166322732
 30
0.0
 40
2.957790265509361
 50
164.9468029105
 51
346.2273374367
  0
LINE
  5
4E0
  8
0
  6
CONTINUOUS
 62
     7
 10
368.0264965177
 20
117.3972150045
 30
0.0
 11
367.1404760948
 21
114.0124709234
 31
0.0
  0
ARC
  5
4E1
  8
0
  6
CONTINUOUS
 62
     7
 10
365.1702025124
 20
118.1653997545
 30
0.0
 40
2.957790265509298
 50
344.9468029105
 51
166.2273374367
  0
LINE
  5
4E2
  8
0
  6
CONTINUOUS
 62
     7
 10
359.2662035333
 20
119.9420567347
 30
0.0
 11
362.2974546905
 21
118.8695611043
 31
0.0
  0
LINE
  5
4E3
  8
0
  6
CONTINUOUS
 62
     7
 10
359.2662035333
 20
119.9420567347
 30
0.0
 11
362.2866025214
 21
131.4804788001
 31
0.0
  0
LINE
  5
4E4
  8
0
  6
CONTINUOUS
 62
     7
 10
365.4618133435
 20
130.9579328223
 30
0.0
 11
362.2866025214
 21
131.4804788001
 31
0.0
  0
ARC
  5
4E5
  8
0
  6
CONTINUOUS
 62
     7
 10
368.3181073488
 20
130.1897480723
 30
0.0
 40
2.957790265509336
 50
164.9468029105
 51
346.2273374367
  0
LINE
  5
4E6
  8
0
  6
CONTINUOUS
 62
     7
 10
372.0768755936
 20
132.8703308035
 30
0.0
 11
371.1908551707
 21
129.4855867225
 31
0.0
  0
ARC
  5
4E7
  8
0
  6
CONTINUOUS
 62
     7
 10
369.2205815883
 20
133.6385155536
 30
0.0
 40
2.957790265509274
 50
344.9468029105
 51
166.2273374367
  0
LINE
  5
4E8
  8
0
  6
CONTINUOUS
 62
     7
 10
363.3165826091
 20
135.4151725338
 30
0.0
 11
366.3478337664
 21
134.3426769034
 31
0.0
  0
LINE
  5
4E9
  8
0
  6
CONTINUOUS
 62
     7
 10
363.3165826091
 20
135.4151725338
 30
0.0
 11
365.3330794877
 21
143.1185230414
 31
0.0
  0
ARC
  5
4EA
  8
0
  6
CONTINUOUS
 62
     7
 10
366.3001175788
 20
142.8716783276
 30
0.0
 40
0.9980455812892396
 50
76.0294727523
 51
165.6805411558
  0
LINE
  5
4EB
  8
0
  6
CONTINUOUS
 62
     7
 10
377.0443118342
 20
141.1409005791
 30
0.0
 11
366.5410684844
 21
143.8402017622
 31
0.0
  0
ARC
  5
4EC
  8
0
  6
CONTINUOUS
 62
     7
 10
376.7925014777
 20
140.1858929134
 30
0.0
 40
0.9876477597161519
 50
344.8900016472
 51
75.2288039978
  0
LINE
  5
4ED
  8
0
  6
CONTINUOUS
 62
     7
 10
374.3601396878
 20
126.9938820867
 30
0.0
 11
377.7460034465
 21
139.928439825
 31
0.0
  0
ARC
  5
4EE
  8
0
  6
CONTINUOUS
 62
     7
 10
375.3136416566
 20
126.7364289984
 30
0.0
 40
0.9876477597161082
 50
164.8900016472
 51
255.2288039978
  0
LINE
  5
4EF
  8
0
  6
CONTINUOUS
 62
     7
 10
375.2702164884
 20
125.7278669812
 30
0.0
 11
375.0618313001
 21
125.7814213327
 31
0.0
  0
LINE
  5
4F0
  8
0
  6
CONTINUOUS
 62
     7
 10
365.334130318
 20
87.7703797867
 30
0.0
 11
375.2702164884
 21
125.7278669812
 31
0.0
  0
LINE
  5
4F1
  8
0
  6
CONTINUOUS
 62
     7
 10
365.334130318
 20
87.7703797867
 30
0.0
 11
365.1257451296
 21
87.8239341381
 31
0.0
  0
ARC
  5
4F2
  8
0
  6
CONTINUOUS
 62
     7
 10
364.8847942239
 20
86.8554107035
 30
0.0
 40
0.9980455812893323
 50
76.0294727523
 51
165.6805411558
  0
LINE
  5
4F3
  8
0
  6
CONTINUOUS
 62
     7
 10
360.5318923741
 20
74.167697679
 30
0.0
 11
363.9177561328
 21
87.1022554173
 31
0.0
  0
ARC
  5
4F4
  8
0
  6
CONTINUOUS
 62
     7
 10
359.564854283
 20
74.4145423928
 30
0.0
 40
0.9980455812893227
 50
256.0294727523
 51
345.6805411558
  0
LINE
  5
4F5
  8
0
  6
CONTINUOUS
 62
     7
 10
348.8206600275
 20
76.1453201413
 30
0.0
 11
359.3239033773
 21
73.4460189582
 31
0.0
  0
LINE
  5
4F6
  8
0
  6
CONTINUOUS
 62
     7
 10
359.5572280396
 20
73.3447342767
 30
0.0
 11
359.3239033773
 21
73.4460189582
 31
0.0
  0
LINE
  5
4F7
  8
0
  6
CONTINUOUS
 62
     7
 10
360.5318923741
 20
74.167697679
 30
0.0
 11
360.7652170364
 21
74.0664129975
 31
0.0
  0
ARC
  5
4F8
  8
0
  6
CONTINUOUS
 62
     7
 10
359.7981789453
 20
74.3132577113
 30
0.0
 40
0.9980455812892634
 50
256.0294727523
 51
345.6805411558
  0
LINE
  5
4F9
  8
0
  6
CONTINUOUS
 62
     7
 10
364.1510807951
 20
87.0009707357
 30
0.0
 11
363.9177561328
 21
87.1022554173
 31
0.0
  0
LINE
  5
4FA
  8
0
  6
CONTINUOUS
 62
     7
 10
360.7652170364
 20
74.0664129975
 30
0.0
 11
364.1510807951
 21
87.0009707357
 31
0.0
  0
ARC
  5
4FB
  8
0
  6
CONTINUOUS
 62
     7
 10
360.9188178812
 20
69.5817542915
 30
0.0
 40
18.6751633081709
 50
75.3929242423
 51
75.5863385035
  0
LINE
  5
4FC
  8
0
  6
CONTINUOUS
 62
     7
 10
365.5674549803
 20
87.6690951051
 30
0.0
 11
365.334130318
 21
87.7703797867
 31
0.0
  0
ARC
  5
4FD
  8
0
  6
CONTINUOUS
 62
     7
 10
346.7395819167
 20
15.4210165133
 30
0.0
 40
74.70065325221289
 50
75.3929242423
 51
75.5863385035
  0
ARC
  5
4FE
  8
0
  6
CONTINUOUS
 62
     7
 10
356.6756680846
 20
53.3785036975
 30
0.0
 40
74.70065326289091
 50
75.3929242423
 51
75.5863385035
  0
LINE
  5
4FF
  8
0
  6
CONTINUOUS
 62
     7
 10
348.8206600275
 20
76.1453201413
 30
0.0
 11
349.0539846899
 21
76.0440354597
 31
0.0
  0
LINE
  5
500
  8
0
  6
CONTINUOUS
 62
     7
 10
349.0539846899
 20
76.0440354597
 30
0.0
 11
359.5572280396
 21
73.3447342767
 31
0.0
  0
LINE
  5
501
  8
0
  6
CONTINUOUS
 62
     7
 10
365.5674549803
 20
87.6690951051
 30
0.0
 11
365.3590697919
 21
87.7226494565
 31
0.0
  0
LINE
  5
502
  8
0
  6
CONTINUOUS
 62
     7
 10
365.1257451296
 20
87.8239341381
 30
0.0
 11
365.3590697919
 21
87.7226494565
 31
0.0
  0
ARC
  5
503
  8
0
  6
CONTINUOUS
 62
     7
 10
365.1181188862
 20
86.7541260219
 30
0.0
 40
0.9980455812892771
 50
76.0294727523
 51
165.6805411558
  0
LINE
  5
504
  8
0
  6
CONTINUOUS
 62
     7
 10
353.5440007783
 20
84.4373007436
 30
0.0
 11
353.3106761159
 21
84.5385854252
 31
0.0
  0
ARC
  5
505
  8
0
  6
CONTINUOUS
 62
     7
 10
356.4187126926
 20
83.6690438274
 30
0.0
 40
2.975598642225762
 50
165.0375668426
 51
243.6585724649
  0
ARC
  5
506
  8
0
  6
CONTINUOUS
 62
     7
 10
357.3247341039
 20
87.0892869784
 30
0.0
 40
2.98601688725423
 50
69.4816098312
 51
165.7947380364
  0
LINE
  5
507
  8
0
  6
CONTINUOUS
 62
     7
 10
354.4300212011
 20
87.8220448247
 30
0.0
 11
354.1966965388
 21
87.9233295062
 31
0.0
  0
LINE
  5
508
  8
0
  6
CONTINUOUS
 62
     7
 10
357.5943798541
 20
99.9104165427
 30
0.0
 11
357.3610551918
 21
100.0117012242
 31
0.0
  0
ARC
  5
509
  8
0
  6
CONTINUOUS
 62
     7
 10
360.4690917685
 20
99.1421596265
 30
0.0
 40
2.975598642225721
 50
165.0375668426
 51
243.6585724648
  0
LINE
  5
50A
  8
0
  6
CONTINUOUS
 62
     7
 10
374.3601396878
 20
126.9938820867
 30
0.0
 11
374.5934643501
 21
126.8925974052
 31
0.0
  0
ARC
  5
50B
  8
0
  6
CONTINUOUS
 62
     7
 10
375.5503512396
 20
126.6355392903
 30
0.0
 40
0.9908135009520972
 50
164.9630762368
 51
238.7793479368
  0
LINE
  5
50C
  8
0
  6
CONTINUOUS
 62
     7
 10
358.480400277
 20
103.2951606237
 30
0.0
 11
358.2470756147
 21
103.3964453053
 31
0.0
  0
ARC
  5
50D
  8
0
  6
CONTINUOUS
 62
     7
 10
361.3751131798
 20
102.5624027775
 30
0.0
 40
2.986016887253856
 50
69.4816098308
 51
165.7947380364
  0
LINE
  5
50E
  8
0
  6
CONTINUOUS
 62
     7
 10
377.9793281089
 20
139.8271551434
 30
0.0
 11
377.7460034465
 21
139.928439825
 31
0.0
  0
LINE
  5
50F
  8
0
  6
CONTINUOUS
 62
     7
 10
374.5934643501
 20
126.8925974052
 30
0.0
 11
377.9793281089
 21
139.8271551434
 31
0.0
  0
LINE
  5
510
  8
0
  6
CONTINUOUS
 62
     7
 10
361.64475893
 20
115.3835323417
 30
0.0
 11
361.4114342677
 21
115.4848170233
 31
0.0
  0
ARC
  5
511
  8
0
  6
CONTINUOUS
 62
     7
 10
364.5194708443
 20
114.6152754255
 30
0.0
 40
2.975598642225546
 50
165.0375668426
 51
243.6585724649
  0
LINE
  5
512
  8
0
  6
CONTINUOUS
 62
     7
 10
362.5307793529
 20
118.7682764228
 30
0.0
 11
362.2974546905
 21
118.8695611043
 31
0.0
  0
ARC
  5
513
  8
0
  6
CONTINUOUS
 62
     7
 10
365.4254922557
 20
118.0355185765
 30
0.0
 40
2.986016887253864
 50
69.4816098308
 51
165.7947380364
  0
ARC
  5
514
  8
0
  6
CONTINUOUS
 62
     7
 10
377.0240516191
 20
140.0844055508
 30
0.0
 40
0.9893083159599214
 50
344.9281238059
 51
66.2379881497
  0
LINE
  5
515
  8
0
  6
CONTINUOUS
 62
     7
 10
351.3987700439
 20
88.8945404551
 30
0.0
 11
351.1654453815
 21
88.9958251366
 31
0.0
  0
LINE
  5
516
  8
0
  6
CONTINUOUS
 62
     7
 10
351.3987700439
 20
88.8945404551
 30
0.0
 11
354.4300212011
 21
87.8220448247
 31
0.0
  0
LINE
  5
517
  8
0
  6
CONTINUOUS
 62
     7
 10
349.0539846899
 20
76.0440354597
 30
0.0
 11
348.9089390865
 21
76.0938040999
 31
0.0
  0
LINE
  5
518
  8
0
  6
CONTINUOUS
 62
     7
 10
365.6951380059
 20
130.8566481408
 30
0.0
 11
365.4618133435
 21
130.9579328223
 31
0.0
  0
ARC
  5
519
  8
0
  6
CONTINUOUS
 62
     7
 10
368.5698499202
 20
130.0883912246
 30
0.0
 40
2.975598642225767
 50
165.0375668426
 51
243.6585724648
  0
LINE
  5
51A
  8
0
  6
CONTINUOUS
 62
     7
 10
366.5811584287
 20
134.2413922218
 30
0.0
 11
366.3478337664
 21
134.3426769034
 31
0.0
  0
ARC
  5
51B
  8
0
  6
CONTINUOUS
 62
     7
 10
369.4758713315
 20
133.5086343756
 30
0.0
 40
2.98601688725197
 50
69.4816098278
 51
165.7947380364
  0
LINE
  5
51C
  8
0
  6
CONTINUOUS
 62
     7
 10
355.4491491197
 20
104.3676562541
 30
0.0
 11
355.2158244574
 21
104.4689409357
 31
0.0
  0
LINE
  5
51D
  8
0
  6
CONTINUOUS
 62
     7
 10
355.4491491197
 20
104.3676562541
 30
0.0
 11
358.480400277
 21
103.2951606237
 31
0.0
  0
LINE
  5
51E
  8
0
  6
CONTINUOUS
 62
     7
 10
359.4995281956
 20
119.8407720532
 30
0.0
 11
359.2662035333
 21
119.9420567347
 31
0.0
  0
LINE
  5
51F
  8
0
  6
CONTINUOUS
 62
     7
 10
359.4995281956
 20
119.8407720532
 30
0.0
 11
362.5307793529
 21
118.7682764228
 31
0.0
  0
LINE
  5
520
  8
0
  6
CONTINUOUS
 62
     7
 10
363.5499072715
 20
135.3138878522
 30
0.0
 11
363.3165826091
 21
135.4151725338
 31
0.0
  0
LINE
  5
521
  8
0
  6
CONTINUOUS
 62
     7
 10
363.5499072715
 20
135.3138878522
 30
0.0
 11
366.5811584287
 21
134.2413922218
 31
0.0
  0
LINE
  5
522
  8
0
  6
CONTINUOUS
 62
     8
 10
366.0673521672
 20
66.6097703513
 30
0.0
 11
366.0293798633
 21
66.4647098907
 31
0.0
  0
LINE
  5
523
  8
0
  6
CONTINUOUS
 62
     8
 10
386.4975297911
 20
123.3271272437
 30
0.0
 11
386.2871907053
 21
123.4184340396
 31
0.0
  0
ENDSEC
  0
EOF
