  0
SECTION
  2
HEADER
  9
$ACADVER
  1
AC1018
  9
$ACADMAINTVER
 70
     0
  9
$DWGCODEPAGE
  3
ANSI_1252
  9
$LASTSAVEDBY
  1
Administrator
  9
$CUSTOMPROPERTYTAG
  1
AmdtFileType
  9
$CUSTOMPROPERTY
  1
84
  9
$INSBASE
 10
0.0
 20
0.0
 30
0.0
  9
$EXTMIN
 10
-0.0000000000000568
 20
0.0
 30
0.0
  9
$EXTMAX
 10
420.0
 20
297.0
 30
0.0
  9
$LIMMIN
 10
0.0
 20
0.0
  9
$LIMMAX
 10
420.0000000000001
 20
297.0
  9
$ORTHOMODE
 70
     0
  9
$REGENMODE
 70
     1
  9
$FILLMODE
 70
     1
  9
$QTEXTMODE
 70
     0
  9
$MIRRTEXT
 70
     1
  9
$LTSCALE
 40
1.0
  9
$ATTMODE
 70
     1
  9
$TEXTSIZE
 40
2.5
  9
$TRACEWID
 40
1.0
  9
$TEXTSTYLE
  7
STANDARD
  9
$CLAYER
  8
AM_0
  9
$CELTYPE
  6
ByLayer
  9
$CECOLOR
 62
   256
  9
$CELTSCALE
 40
1.0
  9
$DISPSILH
 70
     0
  9
$DIMSCALE
 40
1.0
  9
$DIMASZ
 40
2.5
  9
$DIMEXO
 40
1.0
  9
$DIMDLI
 40
10.0
  9
$DIMRND
 40
0.0
  9
$DIMDLE
 40
0.0
  9
$DIMEXE
 40
1.0
  9
$DIMTP
 40
0.1
  9
$DIMTM
 40
0.1
  9
$DIMTXT
 40
3.5
  9
$DIMCEN
 40
0.0
  9
$DIMTSZ
 40
0.0
  9
$DIMTOL
 70
     0
  9
$DIMLIM
 70
     0
  9
$DIMTIH
 70
     0
  9
$DIMTOH
 70
     0
  9
$DIMSE1
 70
     0
  9
$DIMSE2
 70
     0
  9
$DIMTAD
 70
     1
  9
$DIMZIN
 70
     8
  9
$DIMBLK
  1

  9
$DIMASO
 70
     1
  9
$DIMSHO
 70
     1
  9
$DIMPOST
  1

  9
$DIMAPOST
  1
"
  9
$DIMALT
 70
     0
  9
$DIMALTD
 70
     2
  9
$DIMALTF
 40
0.0393701
  9
$DIMLFAC
 40
1.0
  9
$DIMTOFL
 70
     1
  9
$DIMTVP
 40
0.0
  9
$DIMTIX
 70
     0
  9
$DIMSOXD
 70
     0
  9
$DIMSAH
 70
     0
  9
$DIMBLK1
  1

  9
$DIMBLK2
  1

  9
$DIMSTYLE
  2
AM_DIN
  9
$DIMCLRD
 70
   256
  9
$DIMCLRE
 70
   256
  9
$DIMCLRT
 70
     2
  9
$DIMTFAC
 40
0.71
  9
$DIMGAP
 40
1.5
  9
$DIMJUST
 70
     0
  9
$DIMSD1
 70
     0
  9
$DIMSD2
 70
     0
  9
$DIMTOLJ
 70
     0
  9
$DIMTZIN
 70
     8
  9
$DIMALTZ
 70
     0
  9
$DIMALTTZ
 70
     0
  9
$DIMUPT
 70
     0
  9
$DIMDEC
 70
     2
  9
$DIMTDEC
 70
     3
  9
$DIMALTU
 70
     2
  9
$DIMALTTD
 70
     4
  9
$DIMTXSTY
  7
STANDARD
  9
$DIMAUNIT
 70
     0
  9
$DIMADEC
 70
     0
  9
$DIMALTRND
 40
0.0
  9
$DIMAZIN
 70
     2
  9
$DIMDSEP
 70
    46
  9
$DIMATFIT
 70
     3
  9
$DIMFRAC
 70
     0
  9
$DIMLDRBLK
  1

  9
$DIMLUNIT
 70
     2
  9
$DIMLWD
 70
    -1
  9
$DIMLWE
 70
    -1
  9
$DIMTMOVE
 70
     0
  9
$LUNITS
 70
     2
  9
$LUPREC
 70
     2
  9
$SKETCHINC
 40
1.0
  9
$FILLETRAD
 40
2.5
  9
$AUNITS
 70
     0
  9
$AUPREC
 70
     0
  9
$MENU
  1
.
  9
$ELEVATION
 40
0.0
  9
$PELEVATION
 40
0.0
  9
$THICKNESS
 40
0.0
  9
$LIMCHECK
 70
     0
  9
$CHAMFERA
 40
2.5
  9
$CHAMFERB
 40
2.5
  9
$CHAMFERC
 40
20.0
  9
$CHAMFERD
 40
0.0
  9
$SKPOLY
 70
     0
  9
$TDCREATE
 40
2453984.653215602
  9
$TDUCREATE
 40
2453984.569882269
  9
$TDUPDATE
 40
2458961.414346239
  9
$TDUUPDATE
 40
2458961.331012905
  9
$TDINDWG
 40
0.0472336111
  9
$TDUSRTIMER
 40
0.0472336111
  9
$USRTIMER
 70
     1
  9
$ANGBASE
 50
0.0
  9
$ANGDIR
 70
     0
  9
$PDMODE
 70
     0
  9
$PDSIZE
 40
0.0
  9
$PLINEWID
 40
0.0
  9
$SPLFRAME
 70
     0
  9
$SPLINETYPE
 70
     6
  9
$SPLINESEGS
 70
     8
  9
$HANDSEED
  5
18FE
  9
$SURFTAB1
 70
     6
  9
$SURFTAB2
 70
     6
  9
$SURFTYPE
 70
     6
  9
$SURFU
 70
     6
  9
$SURFV
 70
     6
  9
$UCSBASE
  2

  9
$UCSNAME
  2

  9
$UCSORG
 10
0.0
 20
0.0
 30
0.0
  9
$UCSXDIR
 10
1.0
 20
0.0
 30
0.0
  9
$UCSYDIR
 10
0.0
 20
1.0
 30
0.0
  9
$UCSORTHOREF
  2

  9
$UCSORTHOVIEW
 70
     0
  9
$UCSORGTOP
 10
0.0
 20
0.0
 30
0.0
  9
$UCSORGBOTTOM
 10
0.0
 20
0.0
 30
0.0
  9
$UCSORGLEFT
 10
0.0
 20
0.0
 30
0.0
  9
$UCSORGRIGHT
 10
0.0
 20
0.0
 30
0.0
  9
$UCSORGFRONT
 10
0.0
 20
0.0
 30
0.0
  9
$UCSORGBACK
 10
0.0
 20
0.0
 30
0.0
  9
$PUCSBASE
  2

  9
$PUCSNAME
  2

  9
$PUCSORG
 10
0.0
 20
0.0
 30
0.0
  9
$PUCSXDIR
 10
1.0
 20
0.0
 30
0.0
  9
$PUCSYDIR
 10
0.0
 20
1.0
 30
0.0
  9
$PUCSORTHOREF
  2

  9
$PUCSORTHOVIEW
 70
     0
  9
$PUCSORGTOP
 10
0.0
 20
0.0
 30
0.0
  9
$PUCSORGBOTTOM
 10
0.0
 20
0.0
 30
0.0
  9
$PUCSORGLEFT
 10
0.0
 20
0.0
 30
0.0
  9
$PUCSORGRIGHT
 10
0.0
 20
0.0
 30
0.0
  9
$PUCSORGFRONT
 10
0.0
 20
0.0
 30
0.0
  9
$PUCSORGBACK
 10
0.0
 20
0.0
 30
0.0
  9
$USERI1
 70
     0
  9
$USERI2
 70
     0
  9
$USERI3
 70
     0
  9
$USERI4
 70
     0
  9
$USERI5
 70
     0
  9
$USERR1
 40
0.0
  9
$USERR2
 40
0.0
  9
$USERR3
 40
0.0
  9
$USERR4
 40
0.0
  9
$USERR5
 40
0.0
  9
$WORLDVIEW
 70
     1
  9
$SHADEDGE
 70
     3
  9
$SHADEDIF
 70
    70
  9
$TILEMODE
 70
     1
  9
$MAXACTVP
 70
    64
  9
$PINSBASE
 10
0.0
 20
0.0
 30
0.0
  9
$PLIMCHECK
 70
     0
  9
$PEXTMIN
 10
1.000000000000000E+20
 20
1.000000000000000E+20
 30
1.000000000000000E+20
  9
$PEXTMAX
 10
-1.000000000000000E+20
 20
-1.000000000000000E+20
 30
-1.000000000000000E+20
  9
$PLIMMIN
 10
-7.5
 20
-20.0
  9
$PLIMMAX
 10
412.5
 20
277.0
  9
$UNITMODE
 70
     0
  9
$VISRETAIN
 70
     1
  9
$PLINEGEN
 70
     0
  9
$PSLTSCALE
 70
     1
  9
$TREEDEPTH
 70
  3020
  9
$CMLSTYLE
  2
Standard
  9
$CMLJUST
 70
     0
  9
$CMLSCALE
 40
20.0
  9
$PROXYGRAPHICS
 70
     1
  9
$MEASUREMENT
 70
     1
  9
$CELWEIGHT
370
    -1
  9
$ENDCAPS
280
     0
  9
$JOINSTYLE
280
     0
  9
$LWDISPLAY
290
     0
  9
$INSUNITS
 70
     4
  9
$HYPERLINKBASE
  1

  9
$STYLESHEET
  1
HP550C_Originallinien.ctb
  9
$XEDIT
290
     1
  9
$CEPSNTYPE
380
     0
  9
$PSTYLEMODE
290
     1
  9
$FINGERPRINTGUID
  2
{F28933C8-AA7C-11D4-9E68-005004F76733}
  9
$VERSIONGUID
  2
{DB4403D3-AA18-4D19-9BFE-C5B686972C32}
  9
$EXTNAMES
290
     1
  9
$PSVPSCALE
 40
0.0
  9
$OLESTARTUP
290
     0
  9
$SORTENTS
280
   127
  9
$INDEXCTL
280
     1
  9
$HIDETEXT
280
     0
  9
$XCLIPFRAME
290
     0
  9
$HALOGAP
280
     0
  9
$OBSCOLOR
 70
   257
  9
$OBSLTYPE
280
     0
  9
$INTERSECTIONDISPLAY
280
     0
  9
$INTERSECTIONCOLOR
 70
   257
  9
$DIMASSOC
280
     1
  9
$PROJECTNAME
  1

  0
ENDSEC
  0
SECTION
  2
CLASSES
  0
CLASS
  1
ACDBDICTIONARYWDFLT
  2
AcDbDictionaryWithDefault
  3
ObjectDBX Classes
 90
        0
 91
        1
280
     0
281
     0
  0
CLASS
  1
AMGSETTINGSOBJ
  2
AmgSettingsObj
  3
"AcadM|Product Description: AutoCAD Mechanical 2000|Company: Autodesk"
 90
        0
 91
        4
280
     0
281
     0
  0
CLASS
  1
ACME_DOCUMENT
  2
AcMeDbDoc
  3
AcMeServices
 90
        0
 91
        2
280
     0
281
     0
  0
CLASS
  1
ACMESCOPE
  2
AcMeScope
  3
AcMeServices
 90
        0
 91
        1
280
     0
281
     0
  0
CLASS
  1
ACMECOMMANDHISTORY
  2
AcMeCommandHistory
  3
AcMeServices
 90
        0
 91
        1
280
     0
281
     0
  0
CLASS
  1
DICTIONARYVAR
  2
AcDbDictionaryVar
  3
ObjectDBX Classes
 90
        0
 91
        2
280
     0
281
     0
  0
CLASS
  1
ACIMSYSVARMAN
  2
AcImSysVarManager
  3
AcMeServices
 90
        0
 91
        5
280
     0
281
     0
  0
CLASS
  1
ACIMREALSYSVAR
  2
AcImRealSysVar
  3
AcMeServices
 90
        0
 91
        3
280
     0
281
     0
  0
CLASS
  1
ACIMINTSYSVAR
  2
AcImIntSysVar
  3
AcMeServices
 90
        0
 91
       26
280
     0
281
     0
  0
CLASS
  1
ACMEDRAWINGMAN
  2
AcMeDrawingMan
  3
AcMeServices
 90
        0
 91
        1
280
     0
281
     0
  0
CLASS
  1
ACMEVIEW
  2
AcMeView
  3
AcMeServices
 90
        0
 91
        1
280
     0
281
     0
  0
CLASS
  1
ACDBENTITYCACHE
  2
AcMeEntityCache
  3
AcMeServices
 90
        0
 91
        1
280
     0
281
     0
  0
CLASS
  1
GSMANAGER
  2
AcMeGSManager
  3
AcMeServices
 90
        0
 91
        1
280
     0
281
     0
  0
CLASS
  1
AMDTINTERNALREACTOR
  2
AmdtInternalReactor
  3
AcMeServices
 90
        0
 91
        2
280
     0
281
     0
  0
CLASS
  1
ACMESTATEMGR
  2
AcMeStateMgr
  3
AcMeServices
 90
        0
 91
        1
280
     0
281
     0
  0
CLASS
  1
ACGREFMASTER
  2
AcGrefMaster
  3
AcAttribServices
 90
        0
 91
        1
280
     0
281
     0
  0
CLASS
  1
ACME_DATABASE
  2
AcMeDbDatabase
  3
AcMeServices
 90
        0
 91
        1
280
     0
281
     0
  0
CLASS
  1
ACRFINSADJUSTERMGR
  2
AcRfInsAdjusterMgr
  3
AcMeServices
 90
        0
 91
        1
280
     0
281
     0
  0
CLASS
  1
ACGREFACADMASTER
  2
AcGrefacadMaster
  3
AcGrefServices
 90
        0
 91
        1
280
     0
281
     0
  0
CLASS
  1
AMIMASTER
  2
AmiMaster
  3
AmiServices
 90
        0
 91
        1
280
     0
281
     0
  0
CLASS
  1
ACIMSTRSYSVAR
  2
AcImStrSysVar
  3
AcMeServices
 90
        0
 91
        5
280
     0
281
     0
  0
CLASS
  1
ACMSTANDARDDIN
  2
AcmStandardDIN
  3
"Amdt_StdImp|Product Description: AutoCAD Mechanical 2004|Company: Autodesk"
 90
        0
 91
        1
280
     0
281
     0
  0
CLASS
  1
AMGOBJPROPCFG
  2
AmgObjPropCfg
  3
"AmgLay|Product Description: AutoCAD Mechanical 2000|Company: Autodesk"
 90
        1
 91
        1
280
     0
281
     0
  0
CLASS
  1
AMDTEDGESTANDARDDIN
  2
AmdtEdgeStdDIN
  3
"Amdt_StdImp|Product Description: AutoCAD Mechanical 2004|Company: Autodesk"
 90
        0
 91
        1
280
     0
281
     0
  0
CLASS
  1
ACMSURFSTANDARDDIN
  2
AcmSurfTextStdDIN
  3
"Amdt_StdImp|Product Description: AutoCAD Mechanical 2004|Company: Autodesk"
 90
        0
 91
        1
280
     0
281
     0
  0
CLASS
  1
ACMFCFSTANDARDDIN
  2
AcmFCFStdDIN
  3
"Amdt_StdImp|Product Description: AutoCAD Mechanical 2004|Company: Autodesk"
 90
        0
 91
        1
280
     0
281
     0
  0
CLASS
  1
ACMWELDSTANDARDDIN
  2
AcmWeldingStdDIN
  3
"Amdt_StdImp|Product Description: AutoCAD Mechanical 2004|Company: Autodesk"
 90
        0
 91
        1
280
     0
281
     0
  0
CLASS
  1
ACMIDSTANDARDDIN
  2
AcmIdStdDIN
  3
"Amdt_StdImp|Product Description: AutoCAD Mechanical 2004|Company: Autodesk"
 90
        0
 91
        1
280
     0
281
     0
  0
CLASS
  1
ACMDATUMSTANDARDDIN
  2
AcmDatumStdDIN
  3
"Amdt_StdImp|Product Description: AutoCAD Mechanical 2004|Company: Autodesk"
 90
        0
 91
        1
280
     0
281
     0
  0
CLASS
  1
ACMBOMSTANDARDDIN
  2
AcmBOMStdDIN
  3
"Amdt_StdImp|Product Description: AutoCAD Mechanical 2004|Company: Autodesk"
 90
        0
 91
        1
280
     0
281
     0
  0
CLASS
  1
ACMDETAILSTANDARDDIN
  2
AmdtDetailSymStdDIN
  3
"Amdt_StdImp|Product Description: AutoCAD Mechanical 2004|Company: Autodesk"
 90
        0
 91
        1
280
     0
281
     0
  0
CLASS
  1
ACMSECTIONSTANDARDDIN
  2
AmdtSectionSymStdDIN
  3
"Amdt_StdImp|Product Description: AutoCAD Mechanical 2004|Company: Autodesk"
 90
        0
 91
        1
280
     0
281
     0
  0
CLASS
  1
ACMCENTERLINESTANDARDDIN
  2
AmdtCenterLineStdDIN
  3
"Amdt_StdImp|Product Description: AutoCAD Mechanical 2004|Company: Autodesk"
 90
        0
 91
        1
280
     0
281
     0
  0
CLASS
  1
ACMTHREADLINESTANDARDDIN
  2
AmdtThreadLineStdDIN
  3
"Amdt_StdImp|Product Description: AutoCAD Mechanical 2004|Company: Autodesk"
 90
        0
 91
        1
280
     0
281
     0
  0
CLASS
  1
ACAMGLAYSTD
  2
AcAmgLayStd
  3
"AcAmgLayStd|Product Description: AutoCAD Mechanical 2000|Company: Autodesk"
 90
        0
 91
        2
280
     0
281
     0
  0
CLASS
  1
ACAMGDIMSTD
  2
AcAmgDimStd
  3
"AcAmgDimStd|Product Description: AutoCAD Mechanical 2000|Company: Autodesk"
 90
        0
 91
        2
280
     0
281
     0
  0
CLASS
  1
ACAMGTITLESTD
  2
AcAmgTitleStd
  3
"TITLEAPP"
 90
        0
 91
        2
280
     0
281
     0
  0
CLASS
  1
ACMDATADICTIONARY
  2
AcmDataDictionary
  3
"AcmSymBB|Product Description: AutoCAD Mechanical 2004|Company: Autodesk"
 90
        0
 91
        1
280
     0
281
     0
  0
CLASS
  1
ACMDATAENTRYBLOCK
  2
AcmDataEntryBlock
  3
"AcmSymBB|Product Description: AutoCAD Mechanical 2004|Company: Autodesk"
 90
        0
 91
        1
280
     0
281
     0
  0
CLASS
  1
ACAMGFILTERDAT
  2
AcAmgFilterDat
  3
"AcadM|Product Description: AutoCAD Mechanical 2000|Company: Autodesk"
 90
        0
 91
        6
280
     0
281
     0
  0
CLASS
  1
LAYER_INDEX
  2
AcDbLayerIndex
  3
ObjectDBX Classes
 90
        0
 91
        1
280
     0
281
     0
  0
CLASS
  1
IDBUFFER
  2
AcDbIdBuffer
  3
ObjectDBX Classes
 90
        0
 91
       23
280
     0
281
     0
  0
CLASS
  1
ACMNOTESTANDARDDIN
  2
AmdtNoteStdDIN
  3
"Amdt_StdImp|Product Description: AutoCAD Mechanical 2004|Company: Autodesk"
 90
        0
 91
        1
280
     0
281
     0
  0
CLASS
  1
ACAMGHOLECHARTSTDDIN
  2
AcAmgHoleChartStdDIN
  3
ACMSYMBB_MODULE_NAME
 90
        0
 91
        1
280
     0
281
     0
  0
CLASS
  1
AM_DRAWING_MGR
  2
AcDmDwgMgr
  3
AcMechDwgViewMgmt
 90
        0
 91
        1
280
     0
281
     0
  0
CLASS
  1
AM_DWG_DOCUMENT
  2
AcDmDwgDocument
  3
AcMechDwgViewMgmt
 90
        0
 91
        1
280
     0
281
     0
  0
CLASS
  1
AM_DWG_SHEET
  2
AcDmSheet
  3
AcMechDwgViewMgmt
 90
        0
 91
        2
280
     0
281
     0
  0
CLASS
  1
AM_VIEWDIMPARMAP
  2
AcDmViewDimParMap
  3
AcMechDwgViewMgmt
 90
        0
 91
        2
280
     0
281
     0
  0
CLASS
  1
AM_DWGMGR_NAME
  2
AcDmDwgMgrName
  3
AcMechDwgViewMgmt
 90
        0
 91
        1
280
     0
281
     0
  0
CLASS
  1
AMDTMENUSTATEMGR
  2
AmdtMenuStateMgr
  3
McadcomServices
 90
        0
 91
        1
280
     0
281
     0
  0
CLASS
  1
AMDTMCOMMENUSTATE
  2
AmdtMcomMenuState
  3
McadcomServices
 90
        0
 91
        1
280
     0
281
     0
  0
CLASS
  1
MAPIAMMOUDLE
  2
MApiAmModule
  3
MApiAmServices
 90
        0
 91
        1
280
     0
281
     0
  0
CLASS
  1
AMDTADMENUSTATE
  2
AmdtAdMenuState
  3
DesignerServices
 90
        0
 91
        1
280
     0
281
     0
  0
CLASS
  1
ADAPPL
  2
AcAdAppl
  3
DesignerServices
 90
        0
 91
        1
280
     0
281
     0
  0
CLASS
  1
DEPMGR
  2
AcAdDepMgr
  3
DesignerServices
 90
        0
 91
        1
280
     0
281
     0
  0
CLASS
  1
PARAMMGR
  2
AcAdParamMgr
  3
DesignerServices
 90
        0
 91
        1
280
     0
281
     0
  0
CLASS
  1
PARAMSCOPE
  2
AcAdParamScope
  3
DesignerServices
 90
        0
 91
        1
280
     0
281
     0
  0
CLASS
  1
NAMEDAPPL
  2
AcAdNamedAppl
  3
DesignerServices
 90
        0
 91
        1
280
     0
281
     0
  0
CLASS
  1
AMDTDMMENUSTATE
  2
AmdtDmMenuState
  3
AcMechDwgViewMgmt
 90
        0
 91
        1
280
     0
281
     0
  0
CLASS
  1
AMDTAMMENUSTATE
  2
AmdtAmMenuState
  3
DesignerAssemblies
 90
        0
 91
        1
280
     0
281
     0
  0
CLASS
  1
ACAMPROJECT
  2
AcAmProject
  3
DesignerAssemblies
 90
        0
 91
        1
280
     0
281
     0
  0
CLASS
  1
ACAMGRCOMPDEF
  2
AcAmGrCompDef
  3
DesignerAssemblies
 90
        0
 91
        1
280
     0
281
     0
  0
CLASS
  1
ACCMCONTEXT
  2
AcCmContext
  3
DesignerAssemblies
 90
        0
 91
        1
280
     0
281
     0
  0
CLASS
  1
ACAMCOMPDEF
  2
AcAmCompDef
  3
DesignerAssemblies
 90
        0
 91
        1
280
     0
281
     0
  0
CLASS
  1
ACAMCOMPDEFMGR
  2
AcAmCompDefMgr
  3
DesignerAssemblies
 90
        0
 91
        1
280
     0
281
     0
  0
CLASS
  1
AMCONTEXTMGR
  2
AcAmContextMgr
  3
DesignerAssemblies
 90
        0
 91
        1
280
     0
281
     0
  0
CLASS
  1
ACAMCONTEXTMODELER
  2
AcAmContextModeler
  3
DesignerAssemblies
 90
        0
 91
        1
280
     0
281
     0
  0
CLASS
  1
CATALOGSTATE
  2
AcAmCatalogState
  3
DesignerAssemblies
 90
        0
 91
        1
280
     0
281
     0
  0
CLASS
  1
ACAMGRCOMPDEFSET
  2
AcAmGrCompDefSet
  3
DesignerAssemblies
 90
        0
 91
        1
280
     0
281
     0
  0
CLASS
  1
AMDTBROWSERDBTAB
  2
AmdtBrowserDbTab
  3
McadcomServices
 90
        0
 91
        1
280
     0
281
     0
  0
CLASS
  1
CBROWSERAPPOBJECT
  2
CBrowserAppObject
  3
McadcomServices
 90
        0
 91
        3
280
     0
281
     0
  0
CLASS
  1
DM_PLACEHOLDER
  2
AcDmSelsetPlaceholder
  3
AcMechDwgViewMgmt
 90
        0
 91
        1
280
     0
281
     0
  0
CLASS
  1
AMDTNOTETEMPLATEDB
  2
AmdtNoteTemplateDB
  3
AMDT_STDIMP_MODULE_NAME
 90
        0
 91
        4
280
     0
281
     0
  0
CLASS
  1
ACMSTANDARDANSI
  2
AcmStandardANSI
  3
"Amdt_StdImp|Product Description: AutoCAD Mechanical 2004|Company: Autodesk"
 90
        0
 91
        1
280
     0
281
     0
  0
CLASS
  1
ACMSURFSTANDARDANSI
  2
AcmSurfTextStdANSI
  3
"Amdt_StdImp|Product Description: AutoCAD Mechanical 2004|Company: Autodesk"
 90
        0
 91
        1
280
     0
281
     0
  0
CLASS
  1
ACMFCFSTANDARDANSI
  2
AcmFCFStdANSI
  3
"Amdt_StdImp|Product Description: AutoCAD Mechanical 2004|Company: Autodesk"
 90
        0
 91
        1
280
     0
281
     0
  0
CLASS
  1
ACMWELDSTANDARDANSI
  2
AcmWeldingStdANSI
  3
"Amdt_StdImp|Product Description: AutoCAD Mechanical 2004|Company: Autodesk"
 90
        0
 91
        1
280
     0
281
     0
  0
CLASS
  1
ACMIDSTANDARDANSI
  2
AcmIdStdANSI
  3
"Amdt_StdImp|Product Description: AutoCAD Mechanical 2004|Company: Autodesk"
 90
        0
 91
        1
280
     0
281
     0
  0
CLASS
  1
ACMDATUMSTANDARDANSI
  2
AcmDatumStdANSI
  3
"Amdt_StdImp|Product Description: AutoCAD Mechanical 2004|Company: Autodesk"
 90
        0
 91
        1
280
     0
281
     0
  0
CLASS
  1
ACMBOMSTANDARDANSI
  2
AcmBOMStdANSI
  3
"Amdt_StdImp|Product Description: AutoCAD Mechanical 2004|Company: Autodesk"
 90
        0
 91
        1
280
     0
281
     0
  0
CLASS
  1
ACMDETAILSTANDARDANSI
  2
AmdtDetailSymStdANSI
  3
"Amdt_StdImp|Product Description: AutoCAD Mechanical 2004|Company: Autodesk"
 90
        0
 91
        1
280
     0
281
     0
  0
CLASS
  1
ACMSECTIONSTANDARDANSI
  2
AmdtSectionSymStdANSI
  3
"Amdt_StdImp|Product Description: AutoCAD Mechanical 2004|Company: Autodesk"
 90
        0
 91
        1
280
     0
281
     0
  0
CLASS
  1
ACMCENTERLINESTANDARDANSI
  2
AmdtCenterLineStdANSI
  3
"Amdt_StdImp|Product Description: AutoCAD Mechanical 2004|Company: Autodesk"
 90
        0
 91
        1
280
     0
281
     0
  0
CLASS
  1
ACMTHREADLINESTANDARDANSI
  2
AmdtThreadLineStdANSI
  3
"Amdt_StdImp|Product Description: AutoCAD Mechanical 2004|Company: Autodesk"
 90
        0
 91
        1
280
     0
281
     0
  0
CLASS
  1
ACMNOTESTANDARDANSI
  2
AmdtNoteStdANSI
  3
"Amdt_StdImp|Product Description: AutoCAD Mechanical 2004|Company: Autodesk"
 90
        0
 91
        1
280
     0
281
     0
  0
CLASS
  1
ACAMGHOLECHARTSTDANSI
  2
AcAmgHoleChartStdANSI
  3
ACMSYMBB_MODULE_NAME
 90
        0
 91
        1
280
     0
281
     0
  0
ENDSEC
  0
SECTION
  2
TABLES
  0
TABLE
  2
VPORT
  5
8
330
0
100
AcDbSymbolTable
 70
    18
  0
VPORT
  5
18FD
330
8
100
AcDbSymbolTableRecord
100
AcDbViewportTableRecord
  2
*Active
 70
     0
 10
0.0
 20
0.0
 11
1.0
 21
1.0
 12
241.7361740102331
 22
141.1617230417209
 13
0.0
 23
0.0
 14
2.5
 24
2.5
 15
10.0
 25
10.0
 16
0.0
 26
0.0
 36
1.0
 17
0.0
 27
0.0
 37
0.0
 40
329.7655639224652
 41
2.079219288174511
 42
50.0
 43
0.0
 44
0.0
 50
0.0
 51
0.0
 71
    16
 72
  3500
 73
     1
 74
     3
 75
     0
 76
     0
 77
     0
 78
     0
281
     0
 65
     1
110
0.0
120
0.0
130
0.0
111
1.0
121
0.0
131
0.0
112
0.0
122
1.0
132
0.0
 79
     0
146
0.0
  0
ENDTAB
  0
TABLE
  2
LTYPE
  5
5
330
0
100
AcDbSymbolTable
 70
    31
  0
LTYPE
  5
14
330
5
100
AcDbSymbolTableRecord
100
AcDbLinetypeTableRecord
  2
ByBlock
 70
     0
  3

 72
    65
 73
     0
 40
0.0
  0
LTYPE
  5
15
330
5
100
AcDbSymbolTableRecord
100
AcDbLinetypeTableRecord
  2
ByLayer
 70
     0
  3

 72
    65
 73
     0
 40
0.0
  0
LTYPE
  5
16
330
5
100
AcDbSymbolTableRecord
100
AcDbLinetypeTableRecord
  2
Continuous
 70
     0
  3
Solid line
 72
    65
 73
     0
 40
0.0
  0
LTYPE
  5
4D
330
5
100
AcDbSymbolTableRecord
100
AcDbLinetypeTableRecord
  2
AM_ISO02W050
 70
     0
  3
__ __ __ __ __ __ __ __ __ __ __ __ __ __ __
 72
    65
 73
     2
 40
7.5
 49
6.0
 74
     0
 49
-1.5
 74
     0
  0
LTYPE
  5
4E
330
5
100
AcDbSymbolTableRecord
100
AcDbLinetypeTableRecord
  2
AM_ISO08W050
 70
     0
  3
____ . ____ . ____ . ____ . ____ . ____ . ____
 72
    65
 73
     4
 40
18.0
 49
12.0
 74
     0
 49
-1.5
 74
     0
 49
3.0
 74
     0
 49
-1.5
 74
     0
  0
LTYPE
  5
4F
330
5
100
AcDbSymbolTableRecord
100
AcDbLinetypeTableRecord
  2
AM_ISO09W050
 70
     0
  3
_____ . . _____ . . _____ . . ____ .. ____
 72
    65
 73
     6
 40
22.5
 49
12.0
 74
     0
 49
-1.5
 74
     0
 49
3.0
 74
     0
 49
-1.5
 74
     0
 49
3.0
 74
     0
 49
-1.5
 74
     0
  0
LTYPE
  5
50
330
5
100
AcDbSymbolTableRecord
100
AcDbLinetypeTableRecord
  2
Amconstr
 70
     0
  3
_______________________
 72
    65
 73
     2
 40
9999.0
 49
9999.0
 74
     0
 49
0.0
 74
     0
  0
LTYPE
  5
51
330
5
100
AcDbSymbolTableRecord
100
AcDbLinetypeTableRecord
  2
AM_ISO08W050x2
 70
     0
  3
__ . __ . __ . __ . __ . __
 72
    65
 73
     4
 40
9.0
 49
6.0
 74
     0
 49
-0.75
 74
     0
 49
1.5
 74
     0
 49
-0.75
 74
     0
  0
LTYPE
  5
52
330
5
100
AcDbSymbolTableRecord
100
AcDbLinetypeTableRecord
  2
AM_ISO02W050x2
 70
     0
  3
 _ _ _ _ _ _ _ _ _ _ _ _
 72
    65
 73
     2
 40
3.75
 49
3.0
 74
     0
 49
-0.75
 74
     0
  0
LTYPE
  5
55
330
5
100
AcDbSymbolTableRecord
100
AcDbLinetypeTableRecord
  2
Amzigzag
 70
     0
  3
/\/-/\/-/\/-/\/-/\/-/\/
 72
    65
 73
     2
 40
11.0001
 49
0.0001
 74
     4
 75
   135
340
54
 46
0.04
 50
0.0
 44
0.0
 45
0.0
 49
-11.0
 74
     0
  0
LTYPE
  5
56
330
5
100
AcDbSymbolTableRecord
100
AcDbLinetypeTableRecord
  2
AM_DIN_F_W050
 70
     0
  3
__ __ __ __ __ __ __ __ __ __ __ __ __ __ __
 72
    65
 73
     2
 40
6.25
 49
4.75
 74
     0
 49
-1.5
 74
     0
  0
LTYPE
  5
57
330
5
100
AcDbSymbolTableRecord
100
AcDbLinetypeTableRecord
  2
AM_DIN_G_W050
 70
     0
  3
____ . ____ . ____ . ____ . ____ . ____ . ____
 72
    65
 73
     4
 40
13.75
 49
9.75
 74
     0
 49
-1.5
 74
     0
 49
1.0
 74
     0
 49
-1.5
 74
     0
  0
LTYPE
  5
58
330
5
100
AcDbSymbolTableRecord
100
AcDbLinetypeTableRecord
  2
AM_DIN_K_W050
 70
     0
  3
_____ . . _____ . . _____ . . ____ .. ____
 72
    65
 73
     6
 40
16.25
 49
9.75
 74
     0
 49
-1.5
 74
     0
 49
1.0
 74
     0
 49
-1.5
 74
     0
 49
1.0
 74
     0
 49
-1.5
 74
     0
  0
LTYPE
  5
59
330
5
100
AcDbSymbolTableRecord
100
AcDbLinetypeTableRecord
  2
AM_DIN_G_W050x2
 70
     0
  3
__ . __ . __ . __ . __ . __
 72
    65
 73
     4
 40
6.875
 49
4.75
 74
     0
 49
-0.875
 74
     0
 49
0.375
 74
     0
 49
-0.875
 74
     0
  0
LTYPE
  5
5A
330
5
100
AcDbSymbolTableRecord
100
AcDbLinetypeTableRecord
  2
AM_DIN_F_W050x2
 70
     0
  3
 _ _ _ _ _ _ _ _ _ _ _ _
 72
    65
 73
     2
 40
3.125
 49
2.25
 74
     0
 49
-0.875
 74
     0
  0
LTYPE
  5
68
330
5
100
AcDbSymbolTableRecord
100
AcDbLinetypeTableRecord
  2
ACDINWELD
 70
     0
  3
_ _ _ _ _
 72
    65
 73
     2
 40
2.0
 49
2.0
 74
     0
 49
-1.0
 74
     0
  0
LTYPE
  5
69
330
5
100
AcDbSymbolTableRecord
100
AcDbLinetypeTableRecord
  2
ACDINTGB
 70
     0
  3
__ . . __ . .
 72
    65
 73
     6
 40
9.0
 49
4.0
 74
     0
 49
-1.0
 74
     0
 49
1.0
 74
     0
 49
-1.0
 74
     0
 49
1.0
 74
     0
 49
-1.0
 74
     0
  0
LTYPE
  5
6A
330
5
100
AcDbSymbolTableRecord
100
AcDbLinetypeTableRecord
  2
ACDINTGL
 70
     0
  3
_ _ _ _ _
 72
    65
 73
     2
 40
3.0
 49
2.0
 74
     0
 49
-1.0
 74
     0
  0
LTYPE
  5
6C
330
5
100
AcDbSymbolTableRecord
100
AcDbLinetypeTableRecord
  2
CENTER
 70
     0
  3
__ . __
 72
    65
 73
     4
 40
7.0
 49
4.0
 74
     0
 49
-1.0
 74
     0
 49
1.0
 74
     0
 49
-1.0
 74
     0
  0
LTYPE
  5
11E
330
5
100
AcDbSymbolTableRecord
100
AcDbLinetypeTableRecord
  2
HIDDEN
 70
     0
  3
Verdeckt
 72
    65
 73
     2
 40
9.525
 49
6.349999999999999
 74
     0
 49
-3.174999999999999
 74
     0
  0
LTYPE
  5
11F
330
5
100
AcDbSymbolTableRecord
100
AcDbLinetypeTableRecord
  2
PHANTOM2
 70
     0
  3
Phantom (.5x) ___ _ _ ___ _ _ ___ _ _ ___ _ _
 72
    65
 73
     6
 40
31.75
 49
15.875
 74
     0
 49
-3.174999999999999
 74
     0
 49
3.174999999999999
 74
     0
 49
-3.174999999999999
 74
     0
 49
3.174999999999999
 74
     0
 49
-3.174999999999999
 74
     0
  0
LTYPE
  5
2AD
330
5
100
AcDbSymbolTableRecord
100
AcDbLinetypeTableRecord
  2
HIDDEN2
 70
     0
  3
Hidden (.5x) _ _ _ _ _ _ _ _ _ _ _ _ _ _ _ _ _
 72
    65
 73
     2
 40
0.1875
 49
0.125
 74
     0
 49
-0.0625
 74
     0
  0
LTYPE
  5
2AE
330
5
100
AcDbSymbolTableRecord
100
AcDbLinetypeTableRecord
  2
CENTER2
 70
     0
  3
Center (.5x) ___ _ ___ _ ___ _ ___ _ ___ _ ___
 72
    65
 73
     4
 40
1.125
 49
0.75
 74
     0
 49
-0.125
 74
     0
 49
0.125
 74
     0
 49
-0.125
 74
     0
  0
LTYPE
  5
2AF
330
5
100
AcDbSymbolTableRecord
100
AcDbLinetypeTableRecord
  2
Amzigzag2
 70
     0
  3
/\/-/\/-/\/-/\/-/\/-/\/
 72
    65
 73
     2
 40
0.4401
 49
0.0001
 74
     4
 75
   135
340
54
 46
0.0016
 50
0.0
 44
0.0
 45
0.0
 49
-0.4400000000000001
 74
     0
  0
LTYPE
  5
2B0
330
5
100
AcDbSymbolTableRecord
100
AcDbLinetypeTableRecord
  2
ACANSTGB
 70
     0
  3
__ . . __ . .
 72
    65
 73
     6
 40
0.35433070866
 49
0.15748031496
 74
     0
 49
-0.03937007874
 74
     0
 49
0.03937007874
 74
     0
 49
-0.03937007874
 74
     0
 49
0.03937007874
 74
     0
 49
-0.03937007874
 74
     0
  0
LTYPE
  5
2B1
330
5
100
AcDbSymbolTableRecord
100
AcDbLinetypeTableRecord
  2
ACANSTGL
 70
     0
  3
_ _ _ _ _
 72
    65
 73
     2
 40
0.11811023622
 49
0.07874015748
 74
     0
 49
-0.03937007874
 74
     0
  0
LTYPE
  5
59E
330
5
100
AcDbSymbolTableRecord
100
AcDbLinetypeTableRecord
  2
GEN7
 70
     0
  3
____ . ____ . ____ . ____ . ____ . ____ . ____
 72
    65
 73
     4
 40
13.75
 49
9.75
 74
     0
 49
-1.5
 74
     0
 49
1.0
 74
     0
 49
-1.5
 74
     0
  0
LTYPE
  5
59F
330
5
100
AcDbSymbolTableRecord
100
AcDbLinetypeTableRecord
  2
GEN4A
 70
     0
  3
_____ . . _____ . . _____ . . ____ .. ____
 72
    65
 73
     6
 40
16.25
 49
9.75
 74
     0
 49
-1.5
 74
     0
 49
1.0
 74
     0
 49
-1.5
 74
     0
 49
1.0
 74
     0
 49
-1.5
 74
     0
  0
LTYPE
  5
5A0
330
5
100
AcDbSymbolTableRecord
100
AcDbLinetypeTableRecord
  2
GEN7A
 70
     0
  3
__ . __ . __
 72
    65
 73
     4
 40
6.875
 49
4.75
 74
     0
 49
-0.875
 74
     0
 49
0.375
 74
     0
 49
-0.875
 74
     0
  0
LTYPE
  5
CAE
330
5
100
AcDbSymbolTableRecord
100
AcDbLinetypeTableRecord
  2
AUSGEZOGEN
 70
     0
  3
Ausgezogene Linie
 72
    65
 73
     0
 40
0.0
  0
LTYPE
  5
CAF
330
5
100
AcDbSymbolTableRecord
100
AcDbLinetypeTableRecord
  2
GEN3
 70
     0
  3
-- -- -- -- -- -- -- -- -- -- -- -- -- -- --
 72
    65
 73
     2
 40
6.25
 49
4.75
 74
     0
 49
-1.5
 74
     0
  0
LTYPE
  5
CB0
330
5
100
AcDbSymbolTableRecord
100
AcDbLinetypeTableRecord
  2
gen3a
 70
     0
  3
 - - - - -
 72
    65
 73
     2
 40
3.125
 49
2.25
 74
     0
 49
-0.875
 74
     0
  0
LTYPE
  5
CB1
330
5
100
AcDbSymbolTableRecord
100
AcDbLinetypeTableRecord
  2
genzigzag
 70
     0
  3
/\/-/\/-/\/-/\/-/\/-/\/
 72
    65
 73
     2
 40
12.0001
 49
0.0001
 74
     4
 75
   135
340
CB3
 46
2.0
 50
0.0
 44
0.0
 45
0.0
 49
-12.0
 74
     0
  0
ENDTAB
  0
TABLE
  2
LAYER
  5
2
102
{ACAD_XDICTIONARY
360
5B1
102
}
330
0
100
AcDbSymbolTable
 70
    23
  0
LAYER
  5
10
330
2
100
AcDbSymbolTableRecord
100
AcDbLayerTableRecord
  2
0
 70
     0
 62
     7
  6
Continuous
370
    -3
390
F
  0
LAYER
  5
8B
330
2
100
AcDbSymbolTableRecord
100
AcDbLayerTableRecord
  2
AM_0
 70
     0
 62
     7
  6
Continuous
370
    50
390
F
  0
LAYER
  5
AC
330
2
100
AcDbSymbolTableRecord
100
AcDbLayerTableRecord
  2
AM_VIEWS
 70
     0
 62
     1
  6
Continuous
290
     0
370
    25
390
F
  0
LAYER
  5
1A1
330
2
100
AcDbSymbolTableRecord
100
AcDbLayerTableRecord
  2
AM_5
 70
     0
 62
     3
  6
Continuous
370
    25
390
F
  0
LAYER
  5
1B1
330
2
100
AcDbSymbolTableRecord
100
AcDbLayerTableRecord
  2
Defpoints
 70
     0
 62
     7
  6
Continuous
290
     0
370
    -3
390
F
  0
LAYER
  5
213
330
2
100
AcDbSymbolTableRecord
100
AcDbLayerTableRecord
  2
BSW-BBL
 70
     0
 62
     7
  6
AM_DIN_K_W050
370
    50
390
F
  0
LAYER
  5
238
330
2
100
AcDbSymbolTableRecord
100
AcDbLayerTableRecord
  2
BSW-SB
 70
     0
 62
     3
  6
AM_DIN_K_W050
370
    25
390
F
  0
LAYER
  5
2B2
330
2
100
AcDbSymbolTableRecord
100
AcDbLayerTableRecord
  2
AM_BOR
 70
     0
 62
     7
  6
Continuous
370
    50
390
F
  0
LAYER
  5
324
330
2
100
AcDbSymbolTableRecord
100
AcDbLayerTableRecord
  2
AM_6
 70
     0
 62
     2
  6
Continuous
370
    35
390
F
  0
LAYER
  5
325
330
2
100
AcDbSymbolTableRecord
100
AcDbLayerTableRecord
  2
RAHM2
 70
     0
 62
     1
  6
Continuous
370
    -3
390
F
  0
LAYER
  5
5A1
330
2
100
AcDbSymbolTableRecord
100
AcDbLayerTableRecord
  2
4
 70
     0
 62
     3
  6
Continuous
370
    -3
390
F
  0
LAYER
  5
5A2
330
2
100
AcDbSymbolTableRecord
100
AcDbLayerTableRecord
  2
7
 70
     0
 62
     4
  6
GEN7
370
    -3
390
F
  0
LAYER
  5
5A3
330
2
100
AcDbSymbolTableRecord
100
AcDbLayerTableRecord
  2
8
 70
     0
 62
     1
  6
Continuous
370
    -3
390
F
  0
LAYER
  5
5A4
330
2
100
AcDbSymbolTableRecord
100
AcDbLayerTableRecord
  2
5A
 70
     0
 62
     7
  6
GEN4A
370
    -3
390
F
  0
LAYER
  5
5A5
330
2
100
AcDbSymbolTableRecord
100
AcDbLayerTableRecord
  2
6
 70
     0
 62
     2
  6
Continuous
370
    -3
390
F
  0
LAYER
  5
5A6
330
2
100
AcDbSymbolTableRecord
100
AcDbLayerTableRecord
  2
5
 70
     0
 62
     3
  6
Continuous
370
    -3
390
F
  0
LAYER
  5
5A7
330
2
100
AcDbSymbolTableRecord
100
AcDbLayerTableRecord
  2
7A
 70
     0
 62
     4
  6
GEN7A
370
    -3
390
F
  0
LAYER
  5
5A8
330
2
100
AcDbSymbolTableRecord
100
AcDbLayerTableRecord
  2
2A
 70
     0
 62
     7
  6
GEN7
370
    -3
390
F
  0
LAYER
  5
5A9
330
2
100
AcDbSymbolTableRecord
100
AcDbLayerTableRecord
  2
AM_3
 70
     0
 62
     6
  6
AM_DIN_F_W050
370
    25
390
F
  0
LAYER
  5
5AA
330
2
100
AcDbSymbolTableRecord
100
AcDbLayerTableRecord
  2
AM_7
 70
     0
 62
     4
  6
AM_DIN_G_W050
370
    25
390
F
  0
LAYER
  5
5AB
330
2
100
AcDbSymbolTableRecord
100
AcDbLayerTableRecord
  2
AM_3N
 70
     0
 62
     6
  6
AM_DIN_F_W050
370
    25
390
F
  0
LAYER
  5
5AC
330
2
100
AcDbSymbolTableRecord
100
AcDbLayerTableRecord
  2
AM_0N
 70
     0
 62
     7
  6
Continuous
370
    50
390
F
  0
LAYER
  5
CB2
330
2
100
AcDbSymbolTableRecord
100
AcDbLayerTableRecord
  2
3
 70
     0
 62
     6
  6
GEN3
370
    -3
390
F
  0
ENDTAB
  0
TABLE
  2
STYLE
  5
3
330
0
100
AcDbSymbolTable
 70
    10
  0
STYLE
  5
11
330
3
100
AcDbSymbolTableRecord
100
AcDbTextStyleTableRecord
  2
STANDARD
 70
     0
 40
0.0
 41
1.0
 50
0.0
 71
     0
 42
2.5
  3
ISOCP.SHX
  4

  0
STYLE
  5
54
330
3
100
AcDbSymbolTableRecord
100
AcDbTextStyleTableRecord
  2

 70
     1
 40
0.0
 41
1.0
 50
0.0
 71
     0
 42
2.5
  3
ltypeshp.shx
  4

  0
STYLE
  5
5B
330
3
100
AcDbSymbolTableRecord
100
AcDbTextStyleTableRecord
  2
ACDINTS
 70
     0
 40
1.0
 41
1.0
 50
0.0
 71
     0
 42
2.5
  3
isocp.shx
  4

  0
STYLE
  5
67
330
3
100
AcDbSymbolTableRecord
100
AcDbTextStyleTableRecord
  2
ACDINGDT
 70
     0
 40
0.0
 41
1.0
 50
0.0
 71
     0
 42
2.5
  3
amgdt.shx
  4

  0
STYLE
  5
7E
330
3
100
AcDbSymbolTableRecord
100
AcDbTextStyleTableRecord
  2
USER1
 70
     0
 40
0.0
 41
1.0
 50
0.0
 71
     0
 42
2.5
  3
TXT.SHX
  4

  0
STYLE
  5
7F
330
3
100
AcDbSymbolTableRecord
100
AcDbTextStyleTableRecord
  2
USER2
 70
     0
 40
0.0
 41
1.0
 50
0.0
 71
     0
 42
2.5
  3
SIMPLEX.SHX
  4

  0
STYLE
  5
80
330
3
100
AcDbSymbolTableRecord
100
AcDbTextStyleTableRecord
  2
USER3
 70
     0
 40
0.0
 41
1.0
 50
0.0
 71
     0
 42
2.5
  3
ITALIC.SHX
  4

  0
STYLE
  5
2B3
330
3
100
AcDbSymbolTableRecord
100
AcDbTextStyleTableRecord
  2
ACANSTS
 70
     0
 40
1.0
 41
1.0
 50
0.0
 71
     0
 42
0.2
  3
romans.shx
  4

  0
STYLE
  5
2B4
330
3
100
AcDbSymbolTableRecord
100
AcDbTextStyleTableRecord
  2
ACANSGDT
 70
     0
 40
0.0
 41
1.0
 50
0.0
 71
     0
 42
0.2
  3
amgdtans.shx
  4

  0
STYLE
  5
CB3
330
3
100
AcDbSymbolTableRecord
100
AcDbTextStyleTableRecord
  2

 70
     1
 40
0.0
 41
1.0
 50
0.0
 71
     0
 42
5.0
  3
genltshp.shx
  4

  0
ENDTAB
  0
TABLE
  2
VIEW
  5
6
330
0
100
AcDbSymbolTable
 70
     6
  0
VIEW
  5
3F7
330
6
100
AcDbSymbolTableRecord
100
AcDbViewTableRecord
  2
AM_VIEW1
 70
     0
 40
148.5
 10
113.3140127388535
 20
222.75
 41
226.628025477707
 11
0.0
 21
0.0
 31
1.0
 12
0.0
 22
0.0
 32
0.0
 42
50.0
 43
0.0
 44
0.0
 50
0.0
 71
    16
281
     0
 72
     0
  0
VIEW
  5
3F8
330
6
100
AcDbSymbolTableRecord
100
AcDbViewTableRecord
  2
AM_VIEW2
 70
     0
 40
148.5
 10
306.6859872611466
 20
222.75
 41
226.628025477707
 11
0.0
 21
0.0
 31
1.0
 12
0.0
 22
0.0
 32
0.0
 42
50.0
 43
0.0
 44
0.0
 50
0.0
 71
    16
281
     0
 72
     0
  0
VIEW
  5
3F9
330
6
100
AcDbSymbolTableRecord
100
AcDbViewTableRecord
  2
AM_VIEW3
 70
     0
 40
148.5
 10
113.3140127388535
 20
74.25
 41
226.628025477707
 11
0.0
 21
0.0
 31
1.0
 12
0.0
 22
0.0
 32
0.0
 42
50.0
 43
0.0
 44
0.0
 50
0.0
 71
    16
281
     0
 72
     0
  0
VIEW
  5
3FA
330
6
100
AcDbSymbolTableRecord
100
AcDbViewTableRecord
  2
AM_VIEW4
 70
     0
 40
148.5
 10
306.6859872611466
 20
74.25
 41
226.628025477707
 11
0.0
 21
0.0
 31
1.0
 12
0.0
 22
0.0
 32
0.0
 42
50.0
 43
0.0
 44
0.0
 50
0.0
 71
    16
281
     0
 72
     0
  0
VIEW
  5
3FB
330
6
100
AcDbSymbolTableRecord
100
AcDbViewTableRecord
  2
AM_VIEW5
 70
     0
 40
148.5
 10
210.0
 20
148.5
 41
226.628025477707
 11
0.0
 21
0.0
 31
1.0
 12
0.0
 22
0.0
 32
0.0
 42
50.0
 43
0.0
 44
0.0
 50
0.0
 71
    16
281
     0
 72
     0
  0
VIEW
  5
3FC
330
6
100
AcDbSymbolTableRecord
100
AcDbViewTableRecord
  2
AM_VIEW6
 70
     0
 40
296.99703
 10
210.0
 20
148.5
 41
453.2515183949045
 11
0.0
 21
0.0
 31
1.0
 12
0.0
 22
0.0
 32
0.0
 42
50.0
 43
0.0
 44
0.0
 50
0.0
 71
    16
281
     0
 72
     0
  0
ENDTAB
  0
TABLE
  2
UCS
  5
7
330
0
100
AcDbSymbolTable
 70
     0
  0
ENDTAB
  0
TABLE
  2
APPID
  5
9
330
0
100
AcDbSymbolTable
 70
    51
  0
APPID
  5
12
330
9
100
AcDbSymbolTableRecord
100
AcDbRegAppTableRecord
  2
ACAD
 70
     0
  0
APPID
  5
30
330
9
100
AcDbSymbolTableRecord
100
AcDbRegAppTableRecord
  2
MCAD_NO_VIS
 70
     0
  0
APPID
  5
31
330
9
100
AcDbSymbolTableRecord
100
AcDbRegAppTableRecord
  2
ACAD_TEMP_GRAPHIC
 70
     0
  0
APPID
  5
44
330
9
100
AcDbSymbolTableRecord
100
AcDbRegAppTableRecord
  2
ACATTRIBSERVICES
 70
     0
  0
APPID
  5
134
330
9
100
AcDbSymbolTableRecord
100
AcDbRegAppTableRecord
  2
AD_DRAW
 70
     0
  0
APPID
  5
152
330
9
100
AcDbSymbolTableRecord
100
AcDbRegAppTableRecord
  2
DESIGNERASSEMBLIES
 70
     0
  0
APPID
  5
156
330
9
100
AcDbSymbolTableRecord
100
AcDbRegAppTableRecord
  2
ACADM_DIM_EDIT
 70
     0
  0
APPID
  5
157
330
9
100
AcDbSymbolTableRecord
100
AcDbRegAppTableRecord
  2
AMDT_DM_ADJ
 70
     0
  0
APPID
  5
1C7
330
9
100
AcDbSymbolTableRecord
100
AcDbRegAppTableRecord
  2
GENIUS_GENDTOL_13
 70
     0
  0
APPID
  5
215
330
9
100
AcDbSymbolTableRecord
100
AcDbRegAppTableRecord
  2
GENIUS_GENOBJ-N-CEN_13
 70
     0
  0
APPID
  5
216
330
9
100
AcDbSymbolTableRecord
100
AcDbRegAppTableRecord
  2
GENIUS_GENODEF_13
 70
     0
  0
APPID
  5
217
330
9
100
AcDbSymbolTableRecord
100
AcDbRegAppTableRecord
  2
GENIUS_GENBLLY_14
 70
     0
  0
APPID
  5
218
330
9
100
AcDbSymbolTableRecord
100
AcDbRegAppTableRecord
  2
GENIUS_GENCFG_13
 70
     0
  0
APPID
  5
219
330
9
100
AcDbSymbolTableRecord
100
AcDbRegAppTableRecord
  2
GENIUS_GENCFG0_13
 70
     0
  0
APPID
  5
21A
330
9
100
AcDbSymbolTableRecord
100
AcDbRegAppTableRecord
  2
GENIUS_GENCFG1_13
 70
     0
  0
APPID
  5
21B
330
9
100
AcDbSymbolTableRecord
100
AcDbRegAppTableRecord
  2
GENIUS_GENCFG2_13
 70
     0
  0
APPID
  5
21C
330
9
100
AcDbSymbolTableRecord
100
AcDbRegAppTableRecord
  2
GENIUS_GENCFG3_13
 70
     0
  0
APPID
  5
21D
330
9
100
AcDbSymbolTableRecord
100
AcDbRegAppTableRecord
  2
GENIUS_GENCFG4_13
 70
     0
  0
APPID
  5
21E
330
9
100
AcDbSymbolTableRecord
100
AcDbRegAppTableRecord
  2
GENIUS_GEVCFG0_13
 70
     0
  0
APPID
  5
21F
330
9
100
AcDbSymbolTableRecord
100
AcDbRegAppTableRecord
  2
GENIUS_GENCFG5_13
 70
     0
  0
APPID
  5
220
330
9
100
AcDbSymbolTableRecord
100
AcDbRegAppTableRecord
  2
GENIUS_VERSION2
 70
     0
  0
APPID
  5
221
330
9
100
AcDbSymbolTableRecord
100
AcDbRegAppTableRecord
  2
GENIUS_GENOLIS_13
 70
     0
  0
APPID
  5
222
330
9
100
AcDbSymbolTableRecord
100
AcDbRegAppTableRecord
  2
GENIUS_GENOENT_13
 70
     0
  0
APPID
  5
223
330
9
100
AcDbSymbolTableRecord
100
AcDbRegAppTableRecord
  2
GENIUS_GENOBJ-N-TIT_13
 70
     0
  0
APPID
  5
224
330
9
100
AcDbSymbolTableRecord
100
AcDbRegAppTableRecord
  2
GENIUS_GENTITLE_13
 70
     0
  0
APPID
  5
225
330
9
100
AcDbSymbolTableRecord
100
AcDbRegAppTableRecord
  2
GENIUS_GENOREF_13
 70
     0
  0
APPID
  5
226
330
9
100
AcDbSymbolTableRecord
100
AcDbRegAppTableRecord
  2
GENIUS_GENSCREG_15
 70
     0
  0
APPID
  5
227
330
9
100
AcDbSymbolTableRecord
100
AcDbRegAppTableRecord
  2
GENIUS_GENOBJ-N-SDF_13
 70
     0
  0
APPID
  5
228
330
9
100
AcDbSymbolTableRecord
100
AcDbRegAppTableRecord
  2
GENIUS_GENOBJ-N-CRS_13
 70
     0
  0
APPID
  5
229
330
9
100
AcDbSymbolTableRecord
100
AcDbRegAppTableRecord
  2
GENIUS_GENOBJ-N-DIMBR_13
 70
     0
  0
APPID
  5
22A
330
9
100
AcDbSymbolTableRecord
100
AcDbRegAppTableRecord
  2
GENIUS_DIMBR_14
 70
     0
  0
APPID
  5
22B
330
9
100
AcDbSymbolTableRecord
100
AcDbRegAppTableRecord
  2
GENIUS_DIMBRX_14
 70
     0
  0
APPID
  5
22C
330
9
100
AcDbSymbolTableRecord
100
AcDbRegAppTableRecord
  2
GENIUS_GENOBJ-N-DIMBRX_13
 70
     0
  0
APPID
  5
22D
330
9
100
AcDbSymbolTableRecord
100
AcDbRegAppTableRecord
  2
GENIUS_GENOBJ-N-FIL_13
 70
     0
  0
APPID
  5
22E
330
9
100
AcDbSymbolTableRecord
100
AcDbRegAppTableRecord
  2
GENIUS_GENOBJ-N-HTC_13
 70
     0
  0
APPID
  5
22F
330
9
100
AcDbSymbolTableRecord
100
AcDbRegAppTableRecord
  2
GENIUS_GENHATCH_13
 70
     0
  0
APPID
  5
230
330
9
100
AcDbSymbolTableRecord
100
AcDbRegAppTableRecord
  2
GENIUS_GENREC_14
 70
     0
  0
APPID
  5
231
330
9
100
AcDbSymbolTableRecord
100
AcDbRegAppTableRecord
  2
GENIUS_GENOBJ-N-REC_13
 70
     0
  0
APPID
  5
239
330
9
100
AcDbSymbolTableRecord
100
AcDbRegAppTableRecord
  2
GENIUS_GENDIMSH_14
 70
     0
  0
APPID
  5
23A
330
9
100
AcDbSymbolTableRecord
100
AcDbRegAppTableRecord
  2
GENIUS_GENOBJ-N-ZOO_13
 70
     0
  0
APPID
  5
23B
330
9
100
AcDbSymbolTableRecord
100
AcDbRegAppTableRecord
  2
GENIUS_GENZOO_16
 70
     0
  0
APPID
  5
23C
330
9
100
AcDbSymbolTableRecord
100
AcDbRegAppTableRecord
  2
GENIUS_GENOBJ-N-DIMLI_13
 70
     0
  0
APPID
  5
23D
330
9
100
AcDbSymbolTableRecord
100
AcDbRegAppTableRecord
  2
GENIUS_GENOBJ-N-DIM_13
 70
     0
  0
APPID
  5
23E
330
9
100
AcDbSymbolTableRecord
100
AcDbRegAppTableRecord
  2
GENIUS_GENOBJ-N-RSSYM_13
 70
     0
  0
APPID
  5
23F
330
9
100
AcDbSymbolTableRecord
100
AcDbRegAppTableRecord
  2
GENIUS_GENSYMENT_13
 70
     0
  0
APPID
  5
240
330
9
100
AcDbSymbolTableRecord
100
AcDbRegAppTableRecord
  2
GENIUS_GENSCSYM_13
 70
     0
  0
APPID
  5
241
330
9
100
AcDbSymbolTableRecord
100
AcDbRegAppTableRecord
  2
GENIUS_GENDIM_13
 70
     0
  0
APPID
  5
326
330
9
100
AcDbSymbolTableRecord
100
AcDbRegAppTableRecord
  2
GENIUS_GENTRA_14
 70
     0
  0
APPID
  5
5B0
330
9
100
AcDbSymbolTableRecord
100
AcDbRegAppTableRecord
  2
GENIUS_GENOBJ-N-SEC_13
 70
     0
  0
APPID
  5
CB4
330
9
100
AcDbSymbolTableRecord
100
AcDbRegAppTableRecord
  2
GENIUS_GEFWELD_13
 70
     0
  0
APPID
  5
CB5
330
9
100
AcDbSymbolTableRecord
100
AcDbRegAppTableRecord
  2
GENIUS_GENOBJ-F-WELS_13
 70
     0
  0
ENDTAB
  0
TABLE
  2
DIMSTYLE
  5
A
330
0
100
AcDbSymbolTable
 70
    17
100
AcDbDimStyleTable
 71
     2
340
6F
340
79
  0
DIMSTYLE
105
6F
330
A
100
AcDbSymbolTableRecord
100
AcDbDimStyleTableRecord
  2
AM_DIN
 70
     0
  4
"
 41
2.5
 42
1.0
 43
10.0
 44
1.0
 47
0.1
 48
0.1
 73
     0
 74
     0
 77
     1
 78
     8
 79
     2
140
3.5
141
0.0
143
0.0393701
146
0.71
147
1.5
172
     1
176
   256
177
   256
178
     2
271
     2
272
     3
274
     4
283
     0
284
     8
340
11
371
    -1
372
    -1
  0
DIMSTYLE
105
70
330
A
100
AcDbSymbolTableRecord
100
AcDbDimStyleTableRecord
  2
AM_DIN$3
 70
     0
  4
"
 41
2.5
 42
1.0
 43
10.0
 44
1.0
 47
0.1
 48
0.1
 73
     0
 77
     1
 78
     8
 79
     2
140
3.5
141
0.0
143
0.0393701
146
0.71
147
1.5
176
   256
177
   256
178
     2
271
     2
272
     3
274
     4
283
     0
284
     8
288
     1
289
     0
340
11
371
    -1
372
    -1
  0
DIMSTYLE
105
71
330
A
100
AcDbSymbolTableRecord
100
AcDbDimStyleTableRecord
  2
AM_DIN$4
 70
     0
  4
"
 41
2.5
 42
1.0
 43
10.0
 44
1.0
 47
0.1
 48
0.1
 73
     0
 77
     1
 78
     8
 79
     2
140
3.5
141
0.0
143
0.0393701
146
0.71
147
1.5
176
   256
177
   256
178
     2
271
     2
272
     3
274
     4
283
     0
284
     8
288
     1
289
     0
340
11
371
    -1
372
    -1
  0
DIMSTYLE
105
72
330
A
100
AcDbSymbolTableRecord
100
AcDbDimStyleTableRecord
  2
AM_DIN$6
 70
     0
  4
"
 41
2.5
 42
1.0
 43
10.0
 44
1.0
 47
0.1
 48
0.1
 73
     0
 74
     0
 78
     8
 79
     2
140
3.5
141
0.0
143
0.0393701
146
0.71
147
1.5
172
     1
176
   256
177
   256
178
     2
271
     2
272
     3
274
     4
283
     0
284
     8
340
11
371
    -1
372
    -1
  0
DIMSTYLE
105
73
330
A
100
AcDbSymbolTableRecord
100
AcDbDimStyleTableRecord
  2
AM_DIN$7
 70
     0
  4
"
 41
2.5
 42
1.0
 43
10.0
 44
1.0
 47
0.1
 48
0.1
 73
     0
 74
     0
 77
     1
 78
     8
 79
     2
140
5.0
141
0.0
143
0.0393701
146
0.71
147
1.5
172
     1
176
   256
177
   256
178
     2
271
     2
272
     3
274
     4
283
     0
284
     8
340
11
371
    -1
372
    -1
  0
DIMSTYLE
105
74
330
A
100
AcDbSymbolTableRecord
100
AcDbDimStyleTableRecord
  2
AM_DIN$SF
 70
     0
  4
"
 41
2.5
 42
1.0
 43
10.0
 44
1.0
 47
0.1
 48
0.1
 73
     0
 74
     0
 75
     1
 76
     1
 77
     1
 78
     8
 79
     2
140
3.5
141
0.0
143
0.0393701
146
0.71
147
1.5
172
     1
176
   256
177
   256
178
     2
271
     2
272
     3
274
     4
283
     0
284
     8
340
11
371
    -1
372
    -1
  0
DIMSTYLE
105
79
330
A
100
AcDbSymbolTableRecord
100
AcDbDimStyleTableRecord
  2
AM_DIN$SH
 70
     0
  4
"
 41
2.5
 42
1.0
 43
10.0
 44
1.0
 47
0.1
 48
0.1
 73
     0
 74
     0
 75
     1
 76
     1
 77
     1
 78
     8
 79
     2
140
3.5
141
0.0
143
0.0393701
144
2.0
146
0.71
147
1.5
172
     1
173
     1
176
   256
177
   256
178
     2
271
     2
272
     3
274
     4
283
     0
284
     8
340
11
343
75
371
    -1
372
    -1
  0
DIMSTYLE
105
214
330
A
100
AcDbSymbolTableRecord
100
AcDbDimStyleTableRecord
  2
Standard
 70
     0
340
11
  0
DIMSTYLE
105
2B5
330
A
100
AcDbSymbolTableRecord
100
AcDbDimStyleTableRecord
  2
AM_ANSI
 70
     0
  4
mm
 41
0.1
 42
0.05
 43
0.5
 44
0.1
 47
0.1
 48
0.1
 78
     7
 79
     2
140
0.12
141
0.0
146
0.71
147
0.06
176
   256
177
   256
178
     2
274
     4
284
     7
340
11
371
    -1
372
    -1
  0
DIMSTYLE
105
2B6
330
A
100
AcDbSymbolTableRecord
100
AcDbDimStyleTableRecord
  2
AM_ANSI$3
 70
     0
  4
mm
 41
0.1
 42
0.05
 43
0.5
 44
0.1
 47
0.1
 48
0.1
 78
     7
 79
     2
140
0.12
141
0.0
146
0.71
147
0.06
176
   256
177
   256
178
     2
274
     4
284
     7
288
     1
289
     0
340
11
371
    -1
372
    -1
  0
DIMSTYLE
105
2B7
330
A
100
AcDbSymbolTableRecord
100
AcDbDimStyleTableRecord
  2
AM_ANSI$4
 70
     0
  4
mm
 41
0.1
 42
0.05
 43
0.5
 44
0.1
 47
0.1
 48
0.1
 78
     7
 79
     2
140
0.12
141
0.0
146
0.71
147
0.06
176
   256
177
   256
178
     2
274
     4
284
     7
288
     1
289
     0
340
11
371
    -1
372
    -1
  0
DIMSTYLE
105
2B8
330
A
100
AcDbSymbolTableRecord
100
AcDbDimStyleTableRecord
  2
AM_ANSI$7
 70
     0
  4
mm
 41
0.1
 42
0.05
 43
0.5
 44
0.1
 47
0.1
 48
0.1
 78
     7
 79
     2
140
0.24
141
0.0
146
0.71
147
0.06
176
   256
177
   256
178
     2
274
     4
284
     7
340
11
371
    -1
372
    -1
  0
DIMSTYLE
105
2B9
330
A
100
AcDbSymbolTableRecord
100
AcDbDimStyleTableRecord
  2
AM_ANSI$SF
 70
     0
  4
mm
 41
0.1
 42
0.05
 43
0.5
 44
0.1
 47
0.1
 48
0.1
 75
     1
 76
     1
 78
     7
 79
     2
140
0.12
141
0.0
146
0.71
147
0.06
176
   256
177
   256
178
     2
274
     4
284
     7
340
11
371
    -1
372
    -1
  0
DIMSTYLE
105
2BA
330
A
100
AcDbSymbolTableRecord
100
AcDbDimStyleTableRecord
  2
AM_ANSI$SH
 70
     0
  4
mm
 41
0.1
 42
0.05
 43
0.5
 44
0.1
 47
0.1
 48
0.1
 75
     1
 76
     1
 78
     7
 79
     2
140
0.12
141
0.0
146
0.71
147
0.06
173
     1
176
   256
177
   256
178
     2
274
     4
284
     7
340
11
343
75
371
    -1
372
    -1
  0
DIMSTYLE
105
5AD
102
{ACAD_REACTORS
330
D7F
330
D80
330
D81
330
D82
330
D93
330
DB6
330
DB8
330
DB9
330
DBA
330
DBB
330
DBC
330
DBD
330
DBE
330
DBF
330
DC0
330
DC1
330
DC2
330
DE8
330
DE9
330
DEA
330
DEB
330
DF6
330
DF7
330
DF8
330
DFE
330
E21
102
}
330
A
100
AcDbSymbolTableRecord
100
AcDbDimStyleTableRecord
  2
GEN-ISO
 70
     0
  4
"
 41
2.5
 42
1.0
 43
7.0
 44
1.0
 47
0.1
 48
0.1
 73
     0
 74
     0
 77
     1
 78
     8
140
3.5
141
0.0
143
0.0393701
146
0.71
147
0.6
172
     1
176
   256
177
   256
178
     2
271
     2
272
     3
274
     4
283
     0
340
11
  0
DIMSTYLE
105
5AE
102
{ACAD_REACTORS
330
DB7
102
}
330
A
100
AcDbSymbolTableRecord
100
AcDbDimStyleTableRecord
  2
GEN-ISO$4
 70
     0
  4
"
 41
2.5
 42
1.0
 43
7.0
 44
1.0
 47
0.1
 48
0.1
 73
     0
 77
     1
 78
     8
140
3.5
141
0.0
143
0.0393701
146
0.71
147
0.6
176
   256
177
   256
178
     2
271
     2
272
     3
274
     4
283
     0
288
     1
289
     0
340
11
  0
DIMSTYLE
105
5AF
102
{ACAD_REACTORS
330
DF9
102
}
330
A
100
AcDbSymbolTableRecord
100
AcDbDimStyleTableRecord
  2
GEN-ISO$3
 70
     0
  4
"
 41
2.5
 42
1.0
 43
7.0
 44
1.0
 47
0.1
 48
0.1
 73
     0
 77
     1
 78
     8
140
3.5
141
0.0
143
0.0393701
146
0.71
147
0.6
176
   256
177
   256
178
     2
271
     2
272
     3
274
     4
283
     0
288
     1
289
     0
340
11
  0
ENDTAB
  0
TABLE
  2
BLOCK_RECORD
  5
1
330
0
100
AcDbSymbolTable
 70
    35
  0
BLOCK_RECORD
  5
1F
102
{ACAD_XDICTIONARY
360
90
102
}
330
1
100
AcDbSymbolTableRecord
100
AcDbBlockTableRecord
  2
*Model_Space
340
22
  0
BLOCK_RECORD
  5
1B
330
1
100
AcDbSymbolTableRecord
100
AcDbBlockTableRecord
  2
*Paper_Space
340
1E
  0
BLOCK_RECORD
  5
23
330
1
100
AcDbSymbolTableRecord
100
AcDbBlockTableRecord
  2
*Paper_Space0
340
26
  0
BLOCK_RECORD
  5
75
330
1
100
AcDbSymbolTableRecord
100
AcDbBlockTableRecord
  2
GENAXEH
340
0
  0
BLOCK_RECORD
  5
2BB
102
{ACAD_XDICTIONARY
360
302
102
}
330
1
100
AcDbSymbolTableRecord
100
AcDbBlockTableRecord
  2
DIN_A3
340
0
102
{BLKREFS
331
31F
102
}
  0
BLOCK_RECORD
  5
327
102
{ACAD_XDICTIONARY
360
3BF
102
}
330
1
100
AcDbSymbolTableRecord
100
AcDbBlockTableRecord
  2
DIN_TITLE
340
0
102
{BLKREFS
331
3C2
102
}
  0
BLOCK_RECORD
  5
B41
330
1
100
AcDbSymbolTableRecord
100
AcDbBlockTableRecord
  2
DIN_LINKS
340
0
102
{BLKREFS
331
E3B
102
}
  0
BLOCK_RECORD
  5
C66
330
1
100
AcDbSymbolTableRecord
100
AcDbBlockTableRecord
  2
*U6
340
0
102
{BLKREFS
331
DB5
102
}
  0
BLOCK_RECORD
  5
E43
330
1
100
AcDbSymbolTableRecord
100
AcDbBlockTableRecord
  2
*D7
340
0
  0
BLOCK_RECORD
  5
E51
330
1
100
AcDbSymbolTableRecord
100
AcDbBlockTableRecord
  2
*D8
340
0
  0
BLOCK_RECORD
  5
E5D
330
1
100
AcDbSymbolTableRecord
100
AcDbBlockTableRecord
  2
*D9
340
0
  0
BLOCK_RECORD
  5
E6B
330
1
100
AcDbSymbolTableRecord
100
AcDbBlockTableRecord
  2
*D10
340
0
  0
BLOCK_RECORD
  5
E77
330
1
100
AcDbSymbolTableRecord
100
AcDbBlockTableRecord
  2
*D11
340
0
  0
BLOCK_RECORD
  5
E83
330
1
100
AcDbSymbolTableRecord
100
AcDbBlockTableRecord
  2
*D12
340
0
  0
BLOCK_RECORD
  5
E8F
330
1
100
AcDbSymbolTableRecord
100
AcDbBlockTableRecord
  2
*D13
340
0
  0
BLOCK_RECORD
  5
E98
330
1
100
AcDbSymbolTableRecord
100
AcDbBlockTableRecord
  2
*D14
340
0
  0
BLOCK_RECORD
  5
EA6
330
1
100
AcDbSymbolTableRecord
100
AcDbBlockTableRecord
  2
*D15
340
0
  0
BLOCK_RECORD
  5
EB2
330
1
100
AcDbSymbolTableRecord
100
AcDbBlockTableRecord
  2
*D16
340
0
  0
BLOCK_RECORD
  5
EBE
330
1
100
AcDbSymbolTableRecord
100
AcDbBlockTableRecord
  2
*D17
340
0
  0
BLOCK_RECORD
  5
ECA
330
1
100
AcDbSymbolTableRecord
100
AcDbBlockTableRecord
  2
*D18
340
0
  0
BLOCK_RECORD
  5
ED6
330
1
100
AcDbSymbolTableRecord
100
AcDbBlockTableRecord
  2
*D19
340
0
  0
BLOCK_RECORD
  5
EE2
330
1
100
AcDbSymbolTableRecord
100
AcDbBlockTableRecord
  2
*D20
340
0
  0
BLOCK_RECORD
  5
EEE
330
1
100
AcDbSymbolTableRecord
100
AcDbBlockTableRecord
  2
*D21
340
0
  0
BLOCK_RECORD
  5
EFA
330
1
100
AcDbSymbolTableRecord
100
AcDbBlockTableRecord
  2
*D22
340
0
  0
BLOCK_RECORD
  5
F06
330
1
100
AcDbSymbolTableRecord
100
AcDbBlockTableRecord
  2
*D23
340
0
  0
BLOCK_RECORD
  5
F13
330
1
100
AcDbSymbolTableRecord
100
AcDbBlockTableRecord
  2
*D24
340
0
  0
BLOCK_RECORD
  5
F21
330
1
100
AcDbSymbolTableRecord
100
AcDbBlockTableRecord
  2
*D25
340
0
  0
BLOCK_RECORD
  5
F2F
330
1
100
AcDbSymbolTableRecord
100
AcDbBlockTableRecord
  2
*D26
340
0
  0
BLOCK_RECORD
  5
F3B
330
1
100
AcDbSymbolTableRecord
100
AcDbBlockTableRecord
  2
*D27
340
0
  0
BLOCK_RECORD
  5
F47
330
1
100
AcDbSymbolTableRecord
100
AcDbBlockTableRecord
  2
*D28
340
0
  0
BLOCK_RECORD
  5
F53
330
1
100
AcDbSymbolTableRecord
100
AcDbBlockTableRecord
  2
*D29
340
0
  0
BLOCK_RECORD
  5
F5F
330
1
100
AcDbSymbolTableRecord
100
AcDbBlockTableRecord
  2
*D30
340
0
  0
BLOCK_RECORD
  5
F6B
330
1
100
AcDbSymbolTableRecord
100
AcDbBlockTableRecord
  2
*D31
340
0
  0
BLOCK_RECORD
  5
F77
330
1
100
AcDbSymbolTableRecord
100
AcDbBlockTableRecord
  2
*D32
340
0
  0
BLOCK_RECORD
  5
F83
330
1
100
AcDbSymbolTableRecord
100
AcDbBlockTableRecord
  2
*D33
340
0
  0
BLOCK_RECORD
  5
F90
330
1
100
AcDbSymbolTableRecord
100
AcDbBlockTableRecord
  2
*D34
340
0
  0
ENDTAB
  0
ENDSEC
  0
SECTION
  2
BLOCKS
  0
BLOCK
  5
20
330
1F
100
AcDbEntity
  8
0
100
AcDbBlockBegin
  2
*Model_Space
 70
     0
 10
0.0
 20
0.0
 30
0.0
  3
*Model_Space
  1

  0
ENDBLK
  5
21
330
1F
100
AcDbEntity
  8
0
100
AcDbBlockEnd
  0
BLOCK
  5
1C
330
1B
100
AcDbEntity
 67
     1
  8
0
100
AcDbBlockBegin
  2
*Paper_Space
 70
     0
 10
0.0
 20
0.0
 30
0.0
  3
*Paper_Space
  1

  0
ENDBLK
  5
1D
330
1B
100
AcDbEntity
 67
     1
  8
0
100
AcDbBlockEnd
  0
BLOCK
  5
24
330
23
100
AcDbEntity
  8
0
100
AcDbBlockBegin
  2
*Paper_Space0
 70
     0
 10
0.0
 20
0.0
 30
0.0
  3
*Paper_Space0
  1

  0
VIEWPORT
  5
B0
330
23
100
AcDbEntity
  8
AM_VIEWS
100
AcDbViewport
 10
202.5
 20
128.5
 30
0.0
 40
625.5501767810025
 41
314.226
 69
     0
 12
202.5
 22
128.5
 13
0.0
 23
0.0
 14
10.0
 24
10.0
 15
10.0
 25
10.0
 16
0.0
 26
0.0
 36
1.0
 17
0.0
 27
0.0
 37
0.0
 42
50.0
 43
0.0
 44
0.0
 45
314.226
 50
0.0
 51
0.0
 72
   100
 90
    32800
  1

281
     0
 71
     1
 74
     0
110
0.0
120
0.0
130
0.0
111
1.0
121
0.0
131
0.0
112
0.0
122
1.0
132
0.0
 79
     0
146
0.0
170
     0
  0
ENDBLK
  5
25
330
23
100
AcDbEntity
  8
0
100
AcDbBlockEnd
  0
BLOCK
  5
77
330
75
100
AcDbEntity
  8
0
100
AcDbBlockBegin
  2
GENAXEH
 70
     0
 10
0.0
 20
0.0
 30
0.0
  3
GENAXEH
  1

  0
LINE
  5
76
330
75
100
AcDbEntity
  8
0
100
AcDbLine
 10
-1.0
 20
0.0
 30
0.0
 11
1.0
 21
0.0
 31
0.0
  0
ENDBLK
  5
78
330
75
100
AcDbEntity
  8
0
100
AcDbBlockEnd
  0
BLOCK
  5
303
330
2BB
100
AcDbEntity
  8
0
100
AcDbBlockBegin
  2
DIN_A3
 70
     0
 10
0.0
 20
0.0
 30
0.0
  3
DIN_A3
  1

  0
LINE
  5
2BC
330
2BB
100
AcDbEntity
  8
AM_BOR
 62
     1
370
    25
100
AcDbLine
 10
420.0
 20
297.0
 30
0.0
 11
419.9999999999999
 21
0.0
 31
0.0
  0
LINE
  5
2BD
330
2BB
100
AcDbEntity
  8
AM_BOR
 62
     1
370
    25
100
AcDbLine
 10
230.0
 20
5.00000000000005
 30
0.0
 11
230.0
 21
0.0000000000000233
 31
0.0
  0
LINE
  5
2BE
330
2BB
100
AcDbEntity
  8
AM_BOR
 62
     1
370
    25
100
AcDbLine
 10
409.9999999999999
 20
10.0
 30
0.0
 11
9.999999999999943
 21
10.00000000000005
 31
0.0
  0
TEXT
  5
2BF
330
2BB
100
AcDbEntity
  8
AM_BOR
 62
     1
370
    25
100
AcDbText
 10
411.0
 20
262.0
 30
0.0
 40
4.0
  1
A
  7
ACDINTS
100
AcDbText
  0
TEXT
  5
2C0
330
2BB
100
AcDbEntity
  8
AM_BOR
 62
     1
370
    25
100
AcDbText
 10
411.0
 20
216.0
 30
0.0
 40
4.0
  1
B
  7
ACDINTS
100
AcDbText
  0
TEXT
  5
2C1
330
2BB
100
AcDbEntity
  8
AM_BOR
 62
     1
370
    25
100
AcDbText
 10
411.0
 20
170.0
 30
0.0
 40
4.0
  1
C
  7
ACDINTS
100
AcDbText
  0
TEXT
  5
2C2
330
2BB
100
AcDbEntity
  8
AM_BOR
 62
     1
370
    25
100
AcDbText
 10
411.0
 20
123.0
 30
0.0
 40
4.0
  1
D
  7
ACDINTS
100
AcDbText
  0
TEXT
  5
2C3
330
2BB
100
AcDbEntity
  8
AM_BOR
 62
     1
370
    25
100
AcDbText
 10
411.0
 20
77.0
 30
0.0
 40
4.0
  1
E
  7
ACDINTS
100
AcDbText
  0
TEXT
  5
2C4
330
2BB
100
AcDbEntity
  8
AM_BOR
 62
     1
370
    25
100
AcDbText
 10
411.0
 20
31.0
 30
0.0
 40
4.0
  1
F
  7
ACDINTS
100
AcDbText
  0
LINE
  5
2C5
330
2BB
100
AcDbEntity
  8
AM_BOR
 62
     1
370
    25
100
AcDbLine
 10
415.0
 20
240.83
 30
0.0
 11
410.0
 21
240.83
 31
0.0
  0
LINE
  5
2C6
330
2BB
100
AcDbEntity
  8
AM_BOR
 62
     1
370
    25
100
AcDbLine
 10
415.0
 20
194.664
 30
0.0
 11
410.0
 21
194.664
 31
0.0
  0
LINE
  5
2C7
330
2BB
100
AcDbEntity
  8
AM_BOR
 62
     1
370
    25
100
AcDbLine
 10
415.0
 20
102.332
 30
0.0
 11
410.0
 21
102.332
 31
0.0
  0
LINE
  5
2C8
330
2BB
100
AcDbEntity
  8
AM_BOR
 62
     1
370
    25
100
AcDbLine
 10
415.0
 20
56.166
 30
0.0
 11
410.0
 21
56.166
 31
0.0
  0
LINE
  5
2C9
330
2BB
100
AcDbEntity
  8
AM_BOR
 62
     1
370
    25
100
AcDbLine
 10
60.0
 20
291.9999999999999
 30
0.0
 11
60.0
 21
287.0
 31
0.0
  0
LINE
  5
2CA
330
2BB
100
AcDbEntity
  8
AM_BOR
 62
     1
370
    25
100
AcDbLine
 10
110.0
 20
291.9999999999999
 30
0.0
 11
110.0
 21
287.0
 31
0.0
  0
LINE
  5
2CB
330
2BB
100
AcDbEntity
  8
AM_BOR
 62
     1
370
    25
100
AcDbLine
 10
160.0
 20
291.9999999999999
 30
0.0
 11
160.0
 21
287.0
 31
0.0
  0
LINE
  5
2CC
330
2BB
100
AcDbEntity
  8
AM_BOR
 62
     1
370
    25
100
AcDbLine
 10
260.0
 20
291.9999999999999
 30
0.0
 11
260.0
 21
287.0
 31
0.0
  0
LINE
  5
2CD
330
2BB
100
AcDbEntity
  8
AM_BOR
 62
     1
370
    25
100
AcDbLine
 10
310.0
 20
291.9999999999999
 30
0.0
 11
310.0
 21
287.0
 31
0.0
  0
LINE
  5
2CE
330
2BB
100
AcDbEntity
  8
AM_BOR
 62
     1
370
    25
100
AcDbLine
 10
360.0
 20
291.9999999999999
 30
0.0
 11
360.0
 21
287.0
 31
0.0
  0
TEXT
  5
2CF
330
2BB
100
AcDbEntity
  8
AM_BOR
 62
     1
370
    25
100
AcDbText
 10
384.0
 20
287.5
 30
0.0
 40
4.0
  1
8
  7
ACDINTS
100
AcDbText
  0
TEXT
  5
2D0
330
2BB
100
AcDbEntity
  8
AM_BOR
 62
     1
370
    25
100
AcDbText
 10
334.0
 20
287.5
 30
0.0
 40
4.0
  1
7
  7
ACDINTS
100
AcDbText
  0
TEXT
  5
2D1
330
2BB
100
AcDbEntity
  8
AM_BOR
 62
     1
370
    25
100
AcDbText
 10
284.0
 20
287.5
 30
0.0
 40
4.0
  1
6
  7
ACDINTS
100
AcDbText
  0
TEXT
  5
2D2
330
2BB
100
AcDbEntity
  8
AM_BOR
 62
     1
370
    25
100
AcDbText
 10
233.5
 20
287.5
 30
0.0
 40
4.0
  1
5
  7
ACDINTS
100
AcDbText
  0
TEXT
  5
2D3
330
2BB
100
AcDbEntity
  8
AM_BOR
 62
     1
370
    25
100
AcDbText
 10
183.5
 20
287.5
 30
0.0
 40
4.0
  1
4
  7
ACDINTS
100
AcDbText
  0
TEXT
  5
2D4
330
2BB
100
AcDbEntity
  8
AM_BOR
 62
     1
370
    25
100
AcDbText
 10
133.5
 20
287.5
 30
0.0
 40
4.0
  1
3
  7
ACDINTS
100
AcDbText
  0
TEXT
  5
2D5
330
2BB
100
AcDbEntity
  8
AM_BOR
 62
     1
370
    25
100
AcDbText
 10
83.49999999999999
 20
287.5
 30
0.0
 40
4.0
  1
2
  7
ACDINTS
100
AcDbText
  0
TEXT
  5
2D6
330
2BB
100
AcDbEntity
  8
AM_BOR
 62
     1
370
    25
100
AcDbText
 10
33.5
 20
287.5
 30
0.0
 40
4.0
  1
1
  7
ACDINTS
100
AcDbText
  0
TEXT
  5
2D7
330
2BB
100
AcDbEntity
  8
AM_BOR
 62
     1
370
    25
100
AcDbText
 10
33.5
 20
5.5
 30
0.0
 40
4.0
  1
1
  7
ACDINTS
100
AcDbText
  0
TEXT
  5
2D8
330
2BB
100
AcDbEntity
  8
AM_BOR
 62
     1
370
    25
100
AcDbText
 10
83.49999999999999
 20
5.5
 30
0.0
 40
4.0
  1
2
  7
ACDINTS
100
AcDbText
  0
TEXT
  5
2D9
330
2BB
100
AcDbEntity
  8
AM_BOR
 62
     1
370
    25
100
AcDbText
 10
133.5
 20
5.5
 30
0.0
 40
4.0
  1
3
  7
ACDINTS
100
AcDbText
  0
TEXT
  5
2DA
330
2BB
100
AcDbEntity
  8
AM_BOR
 62
     1
370
    25
100
AcDbText
 10
183.5
 20
5.5
 30
0.0
 40
4.0
  1
4
  7
ACDINTS
100
AcDbText
  0
TEXT
  5
2DB
330
2BB
100
AcDbEntity
  8
AM_BOR
 62
     1
370
    25
100
AcDbText
 10
6.0
 20
262.0
 30
0.0
 40
4.0
  1
A
  7
ACDINTS
100
AcDbText
  0
TEXT
  5
2DC
330
2BB
100
AcDbEntity
  8
AM_BOR
 62
     1
370
    25
100
AcDbText
 10
6.0
 20
216.0
 30
0.0
 40
4.0
  1
B
  7
ACDINTS
100
AcDbText
  0
TEXT
  5
2DD
330
2BB
100
AcDbEntity
  8
AM_BOR
 62
     1
370
    25
100
AcDbText
 10
6.0
 20
170.0
 30
0.0
 40
4.0
  1
C
  7
ACDINTS
100
AcDbText
  0
TEXT
  5
2DE
330
2BB
100
AcDbEntity
  8
AM_BOR
 62
     1
370
    25
100
AcDbText
 10
6.0
 20
123.0
 30
0.0
 40
4.0
  1
D
  7
ACDINTS
100
AcDbText
  0
TEXT
  5
2DF
330
2BB
100
AcDbEntity
  8
AM_BOR
 62
     1
370
    25
100
AcDbText
 10
6.0
 20
77.0
 30
0.0
 40
4.0
  1
E
  7
ACDINTS
100
AcDbText
  0
TEXT
  5
2E0
330
2BB
100
AcDbEntity
  8
AM_BOR
 62
     1
370
    25
100
AcDbText
 10
6.0
 20
31.0
 30
0.0
 40
4.0
  1
F
  7
ACDINTS
100
AcDbText
  0
LINE
  5
2E1
330
2BB
100
AcDbEntity
  8
AM_BOR
 62
     1
370
    25
100
AcDbLine
 10
160.0
 20
10.0
 30
0.0
 11
160.0
 21
5.0
 31
0.0
  0
LINE
  5
2E2
330
2BB
100
AcDbEntity
  8
AM_BOR
 62
     1
370
    25
100
AcDbLine
 10
110.0
 20
10.0
 30
0.0
 11
110.0
 21
5.0
 31
0.0
  0
LINE
  5
2E3
330
2BB
100
AcDbEntity
  8
AM_BOR
 62
     1
370
    25
100
AcDbLine
 10
60.0
 20
10.0
 30
0.0
 11
60.0
 21
5.0
 31
0.0
  0
LINE
  5
2E4
330
2BB
100
AcDbEntity
  8
AM_BOR
 62
     1
370
    25
100
AcDbLine
 10
10.0
 20
240.83
 30
0.0
 11
5.0
 21
240.83
 31
0.0
  0
LINE
  5
2E5
330
2BB
100
AcDbEntity
  8
AM_BOR
 62
     1
370
    25
100
AcDbLine
 10
10.0
 20
194.664
 30
0.0
 11
5.0
 21
194.664
 31
0.0
  0
LINE
  5
2E6
330
2BB
100
AcDbEntity
  8
AM_BOR
 62
     1
370
    25
100
AcDbLine
 10
10.0
 20
102.332
 30
0.0
 11
5.0
 21
102.332
 31
0.0
  0
LINE
  5
2E7
330
2BB
100
AcDbEntity
  8
AM_BOR
 62
     1
370
    25
100
AcDbLine
 10
10.0
 20
56.166
 30
0.0
 11
5.0
 21
56.166
 31
0.0
  0
LINE
  5
2E8
330
2BB
100
AcDbEntity
  8
AM_BOR
 62
     1
370
    25
100
AcDbLine
 10
410.0
 20
287.0
 30
0.0
 11
409.9999999999999
 21
10.0
 31
0.0
  0
LINE
  5
2E9
330
2BB
100
AcDbEntity
  8
AM_BOR
 62
     1
370
    25
100
AcDbLine
 10
10.00000000000001
 20
287.0
 30
0.0
 11
410.0
 21
287.0
 31
0.0
  0
LINE
  5
2EA
330
2BB
100
AcDbEntity
  8
AM_BOR
 62
     1
370
    25
100
AcDbLine
 10
10.0
 20
10.0
 30
0.0
 11
10.00000000000001
 21
287.0
 31
0.0
  0
LINE
  5
2EB
330
2BB
100
AcDbEntity
  8
0
100
AcDbLine
 10
414.9999999999999
 20
5.0
 30
0.0
 11
4.999999999999943
 21
5.00000000000005
 31
0.0
  0
LINE
  5
2EC
330
2BB
100
AcDbEntity
  8
0
100
AcDbLine
 10
415.0
 20
292.0
 30
0.0
 11
414.9999999999999
 21
5.0
 31
0.0
  0
LINE
  5
2ED
330
2BB
100
AcDbEntity
  8
0
100
AcDbLine
 10
5.000000000000017
 20
292.0
 30
0.0
 11
415.0
 21
292.0
 31
0.0
  0
LINE
  5
2EE
330
2BB
100
AcDbEntity
  8
AM_BOR
 62
     1
370
    25
100
AcDbLine
 10
0.0000000000000182
 20
297.0
 30
0.0
 11
420.0
 21
297.0
 31
0.0
  0
LINE
  5
2EF
330
2BB
100
AcDbEntity
  8
AM_BOR
 62
     1
370
    25
100
AcDbLine
 10
0.0
 20
0.0
 30
0.0
 11
0.0000000000000182
 21
297.0
 31
0.0
  0
LINE
  5
2F0
330
2BB
100
AcDbEntity
  8
AM_BOR
 62
     1
370
    25
100
AcDbLine
 10
125.0
 20
0.0000000000000514
 30
0.0
 11
125.0
 21
5.000000000000035
 31
0.0
  0
TEXT
  5
2F1
330
2BB
100
AcDbEntity
  8
0
 60
     1
100
AcDbText
 10
420.0
 20
297.0
 30
0.0
 40
2.0
  1
!GENTITLE-MAX
  7
ACDINTS
100
AcDbText
  0
TEXT
  5
2F2
330
2BB
100
AcDbEntity
  8
0
 60
     1
100
AcDbText
 10
410.0
 20
287.0
 30
0.0
 40
2.0
  1
!GENTITLE-RU
  7
ACDINTS
100
AcDbText
  0
TEXT
  5
2F3
330
2BB
100
AcDbEntity
  8
0
 60
     1
100
AcDbText
 10
409.9999999999999
 20
10.0
 30
0.0
 40
2.0
  1
!GENTITLE-INSERT
  7
ACDINTS
100
AcDbText
  0
TEXT
  5
2F4
330
2BB
100
AcDbEntity
  8
0
 60
     1
100
AcDbText
 10
10.0
 20
10.00000000000005
 30
0.0
 40
2.0
  1
!GENTITLE-LL
  7
ACDINTS
100
AcDbText
  0
LINE
  5
2F5
330
2BB
100
AcDbEntity
  8
0
100
AcDbLine
 10
5.0
 20
5.0
 30
0.0
 11
5.000000000000017
 21
292.0
 31
0.0
  0
LINE
  5
2F6
330
2BB
100
AcDbEntity
  8
AM_BOR
 62
     1
370
    25
100
AcDbLine
 10
419.9999999999999
 20
0.0
 30
0.0
 11
-0.0000000000000568
 21
0.0000000000000514
 31
0.0
  0
LINE
  5
2F7
330
2BB
100
AcDbEntity
  8
AM_BOR
 62
     2
370
    35
100
AcDbLine
 10
210.0
 20
5.000000000000024
 30
0.0
 11
209.9999999999999
 21
10.00000000000002
 31
0.0
  0
LINE
  5
2F8
330
2BB
100
AcDbEntity
  8
AM_BOR
 62
     2
370
    35
100
AcDbLine
 10
415.0
 20
148.5
 30
0.0
 11
410.0
 21
148.5
 31
0.0
  0
LINE
  5
2F9
330
2BB
100
AcDbEntity
  8
AM_BOR
 62
     2
370
    35
100
AcDbLine
 10
5.000000000000008
 20
148.5
 30
0.0
 11
10.00000000000001
 21
148.5
 31
0.0
  0
LINE
  5
2FA
330
2BB
100
AcDbEntity
  8
AM_BOR
 62
     2
370
    35
100
AcDbLine
 10
210.0
 20
292.0
 30
0.0
 11
210.0
 21
287.0
 31
0.0
  0
TEXT
  5
2FB
330
2BB
100
AcDbEntity
  8
AM_BOR
 62
     1
370
    25
100
AcDbText
 10
233.4999999999999
 20
5.499999999999943
 30
0.0
 40
4.0
  1
5
  7
ACDINTS
100
AcDbText
  0
TEXT
  5
2FC
330
2BB
100
AcDbEntity
  8
AM_BOR
 62
     1
370
    25
100
AcDbText
 10
283.9999999999999
 20
5.499999999999943
 30
0.0
 40
4.0
  1
6
  7
ACDINTS
100
AcDbText
  0
LINE
  5
2FD
330
2BB
100
AcDbEntity
  8
AM_BOR
 62
     1
370
    25
100
AcDbLine
 10
259.9999999999999
 20
9.999999999999943
 30
0.0
 11
259.9999999999999
 21
4.999999999999943
 31
0.0
  0
TEXT
  5
2FE
330
2BB
100
AcDbEntity
  8
AM_BOR
 62
     1
370
    25
100
AcDbText
 10
333.9999999999999
 20
5.499999999999943
 30
0.0
 40
4.0
  1
7
  7
ACDINTS
100
AcDbText
  0
LINE
  5
2FF
330
2BB
100
AcDbEntity
  8
AM_BOR
 62
     1
370
    25
100
AcDbLine
 10
359.9999999999999
 20
9.999999999999943
 30
0.0
 11
359.9999999999999
 21
4.999999999999943
 31
0.0
  0
LINE
  5
300
330
2BB
100
AcDbEntity
  8
AM_BOR
 62
     1
370
    25
100
AcDbLine
 10
309.9999999999999
 20
9.999999999999943
 30
0.0
 11
309.9999999999999
 21
4.999999999999943
 31
0.0
  0
TEXT
  5
301
330
2BB
100
AcDbEntity
  8
AM_BOR
 62
     1
370
    25
100
AcDbText
 10
383.9999999999999
 20
5.499999999999943
 30
0.0
 40
4.0
  1
8
  7
ACDINTS
100
AcDbText
  0
ENDBLK
  5
304
330
2BB
100
AcDbEntity
  8
0
100
AcDbBlockEnd
  0
BLOCK
  5
3C0
330
327
100
AcDbEntity
  8
0
100
AcDbBlockBegin
  2
DIN_TITLE
 70
     2
 10
0.0
 20
0.0
 30
0.0
  3
DIN_TITLE
  1

  0
TEXT
  5
328
330
327
100
AcDbEntity
  8
AM_BOR
 62
     2
370
    35
100
AcDbText
 10
-83.78328030880828
 20
5.756878441280944
 30
0.0
 40
3.5
  1
TEILENUMMER
100
AcDbText
  0
ATTDEF
  5
329
330
327
100
AcDbEntity
  8
AM_BOR
 62
     2
370
    35
100
AcDbText
 10
-48.35113823161936
 20
5.756878441280948
 30
0.0
 40
3.5
  1
-
 41
0.8
  7
ACDINTS
100
AcDbAttributeDefinition
  3
Teilenummer
  2
GEN-TITLE-TNR{10.86}
 70
     0
  0
TEXT
  5
32A
330
327
100
AcDbEntity
  8
AM_BOR
 62
     2
370
    35
100
AcDbText
 10
-83.78328030880828
 20
11.07644417885149
 30
0.0
 40
3.5
  1
ZEICHNUNGSNR.
100
AcDbText
  0
TEXT
  5
32B
330
327
100
AcDbEntity
  8
AM_BOR
 62
     1
370
    25
100
AcDbText
 10
-8.890271956152652
 20
14.06744868035187
 30
0.0
 40
2.000000000000294
  1
Blatt
  7
ACDINTS
 72
     1
 11
-5.790271956152196
 21
14.06744868035187
 31
0.0
100
AcDbText
1001
GENIUS_GENTRA_14
1002
{
1070
     1
1000
GENTRATX,%s,(GENMSG gendwg 76)
1000
Blatt
1000
DEU
1070
     0
1040
1.0
1070
     0
1002
}
  0
LINE
  5
32C
330
327
100
AcDbEntity
  8
AM_BOR
 62
     1
370
    25
100
AcDbLine
 10
-50.80000000000001
 20
54.99000000000006
 30
0.0
 11
-50.80000000000001
 21
48.66000000000008
 31
0.0
  0
TEXT
  5
32D
330
327
100
AcDbEntity
  8
AM_BOR
 62
     1
370
    25
100
AcDbText
 10
-49.20092087271354
 20
50.6016129032258
 30
0.0
 40
2.000000000000196
  1
Position
 41
0.8
  7
ACDINTS
100
AcDbText
1001
GENIUS_GENTRA_14
1002
{
1070
     1
1000
GENTRATX{6.37},%s,(GENMSG gendwg 74)
1000
Position
1000
DEU
1070
     0
1040
0.8
1070
     0
1002
}
  0
TEXT
  5
32E
330
327
100
AcDbEntity
  8
AM_BOR
 62
     1
370
    25
100
AcDbText
 10
-27.39162270706311
 20
51.00241935483871
 30
0.0
 40
2.000000000000196
  1
Menge
 41
0.8
  7
ACDINTS
100
AcDbText
1001
GENIUS_GENTRA_14
1002
{
1070
     1
1000
GENTRATX{4.85},%s,(GENMSG gendwg 75)
1000
Menge
1000
DEU
1070
     0
1040
0.8
1070
     0
1002
}
  0
TEXT
  5
32F
330
327
100
AcDbEntity
  8
AM_BOR
 62
     1
370
    25
100
AcDbText
 10
-3.184415883363119
 20
5.60997067448676
 30
0.0
 40
2.000000000000294
  1
Bl
  7
ACDINTS
 72
     1
 11
-1.984415883362942
 21
5.60997067448676
 31
0.0
100
AcDbText
1001
GENIUS_GENTRA_14
1002
{
1070
     1
1000
GENTRATX,%s,(GENMSG gendwg 77)
1000
Bl
1000
DEU
1070
     0
1040
1.0
1070
     0
1002
}
  0
LINE
  5
330
330
327
100
AcDbEntity
  8
AM_BOR
 62
     1
370
    25
100
AcDbLine
 10
-10.15999999999997
 20
8.460000000000034
 30
0.0
 11
0.0
 21
8.46000000000002
 31
0.0
  0
LINE
  5
331
330
327
100
AcDbEntity
  8
AM_BOR
 62
     1
370
    25
100
AcDbLine
 10
-10.16000000000002
 20
16.92000000000003
 30
0.0
 11
-10.16000000000002
 21
0.0
 31
0.0
  0
TEXT
  5
332
330
327
100
AcDbEntity
  8
AM_BOR
 62
     1
370
    25
100
AcDbText
 10
-85.140438076728
 20
50.60161290322582
 30
0.0
 40
2.000000000000294
  1
Maßstab
  7
ACDINTS
100
AcDbText
1001
GENIUS_GENTRA_14
1002
{
1070
     1
1000
GENTRATX{6.37},%s,(GENMSG gendwg 73)
1000
Maßstab
1000
DEU
1070
     0
1040
1.0
1070
     0
1002
}
  0
LINE
  5
333
330
327
100
AcDbEntity
  8
AM_BOR
 62
     1
370
    25
100
AcDbLine
 10
-104.14
 20
38.07000000000002
 30
0.0
 11
-104.14
 21
16.92000000000003
 31
0.0
  0
LINE
  5
334
330
327
100
AcDbEntity
  8
AM_BOR
 62
     2
370
    35
100
AcDbLine
 10
-86.35999999999995
 20
54.99000000000006
 30
0.0
 11
-86.35999999999995
 21
0.0
 31
0.0
  0
LINE
  5
335
330
327
100
AcDbEntity
  8
AM_BOR
 62
     2
370
    35
100
AcDbLine
 10
-129.54
 20
54.99000000000006
 30
0.0
 11
-129.54
 21
21.15000000000003
 31
0.0
  0
LINE
  5
336
330
327
100
AcDbEntity
  8
AM_BOR
 62
     1
370
    25
100
AcDbLine
 10
-119.38
 20
38.07000000000002
 30
0.0
 11
-119.38
 21
21.15000000000003
 31
0.0
  0
LINE
  5
337
330
327
100
AcDbEntity
  8
AM_BOR
 62
     1
370
    25
100
AcDbLine
 10
-182.88
 20
12.69000000000002
 30
0.0
 11
-129.54
 21
12.69000000000004
 31
0.0
  0
LINE
  5
338
330
327
100
AcDbEntity
  8
AM_BOR
 62
     1
370
    25
100
AcDbLine
 10
-182.88
 20
16.92000000000001
 30
0.0
 11
-129.54
 21
16.92000000000003
 31
0.0
  0
LINE
  5
339
330
327
100
AcDbEntity
  8
AM_BOR
 62
     1
370
    25
100
AcDbLine
 10
-182.88
 20
21.15000000000003
 30
0.0
 11
-129.54
 21
21.15000000000003
 31
0.0
  0
TEXT
  5
33A
330
327
100
AcDbEntity
  8
AM_BOR
 62
     1
370
    25
100
AcDbText
 10
-174.4163605444355
 20
1.199999999999988
 30
0.0
 40
2.000000000000294
  1
Änderungen
  7
ACDINTS
 72
     1
 11
-167.2801168577268
 21
1.199999999999988
 31
0.0
100
AcDbText
1001
GENIUS_GENTRA_14
1002
{
1070
     1
1000
GENTRATX,%s,(GENMSG gendwg 61)
1000
Änderungen
1000
DEU
1070
     0
1040
1.0
1070
     0
1002
}
  0
LINE
  5
33B
330
327
100
AcDbEntity
  8
AM_BOR
 62
     1
370
    25
100
AcDbLine
 10
-182.88
 20
8.46000000000002
 30
0.0
 11
-129.54
 21
8.460000000000034
 31
0.0
  0
TEXT
  5
33C
330
327
100
AcDbEntity
  8
AM_BOR
 62
     1
370
    25
100
AcDbText
 10
-147.6104524425095
 20
1.199999999999988
 30
0.0
 40
2.000000000000294
  1
Datum
  7
ACDINTS
 72
     1
 11
-143.8742087558013
 21
1.199999999999988
 31
0.0
100
AcDbText
1001
GENIUS_GENTRA_14
1002
{
1070
     1
1000
GENTRATX,%s,(GENMSG gendwg 62)
1000
Datum
1000
DEU
1070
     0
1040
1.0
1070
     0
1002
}
  0
LINE
  5
33D
330
327
100
AcDbEntity
  8
AM_BOR
 62
     1
370
    25
100
AcDbLine
 10
-175.26
 20
38.07000000000002
 30
0.0
 11
-175.26
 21
0.0
 31
0.0
  0
LINE
  5
33E
330
327
100
AcDbEntity
  8
AM_BOR
 62
     1
370
    25
100
AcDbLine
 10
-149.8599999999999
 20
38.07000000000002
 30
0.0
 11
-149.8599999999999
 21
0.0
 31
0.0
  0
LINE
  5
33F
330
327
100
AcDbEntity
  8
AM_BOR
 62
     1
370
    25
100
AcDbLine
 10
-137.16
 20
38.07000000000002
 30
0.0
 11
-137.16
 21
0.0
 31
0.0
  0
LINE
  5
340
330
327
100
AcDbEntity
  8
AM_BOR
 62
     2
370
    35
100
AcDbLine
 10
-129.54
 20
21.15000000000003
 30
0.0
 11
-129.54
 21
0.0
 31
0.0
  0
TEXT
  5
341
330
327
100
AcDbEntity
  8
AM_BOR
 62
     1
370
    25
100
AcDbText
 10
-128.34
 20
26.48000000000002
 30
0.0
 40
2.000000000000294
  1
Gepr.
  7
ACDINTS
100
AcDbText
1001
GENIUS_GENTRA_14
1002
{
1070
     1
1000
GENTRATX{4.19},%s,(GENMSG gendwg 68)
1000
Gepr.
1000
DEU
1070
     0
1040
1.0
1070
     0
1002
}
  0
LINE
  5
342
330
327
100
AcDbEntity
  8
AM_BOR
 62
     1
370
    25
100
AcDbLine
 10
-182.88
 20
25.38000000000002
 30
0.0
 11
-86.35999999999995
 21
25.38000000000002
 31
0.0
  0
TEXT
  5
343
330
327
100
AcDbEntity
  8
AM_BOR
 62
     1
370
    25
100
AcDbText
 10
-125.9373535229315
 20
1.220747800586508
 30
0.0
 40
2.000000000000196
  1
Dateiname
 41
0.8
  7
ACDINTS
100
AcDbText
1001
GENIUS_GENTRA_14
1002
{
1070
     1
1000
GENTRATX{4.95},%s,(GENMSG gendwg 70)
1000
Dateiname
1000
DEU
1070
     0
1040
0.8
1070
     0
1002
}
  0
TEXT
  5
344
330
327
100
AcDbEntity
  8
AM_BOR
 62
     1
370
    25
100
AcDbText
 10
-136.5823351702584
 20
1.199999999998505
 30
0.0
 40
2.000000000000294
  1
Name
  7
ACDINTS
100
AcDbText
1001
GENIUS_GENTRA_14
1002
{
1070
     1
1000
GENTRATX{3.31},%s,(GENMSG gendwg 63)
1000
Name
1000
DEU
1070
     0
1040
1.0
1070
     0
1002
}
  0
TEXT
  5
345
330
327
100
AcDbEntity
  8
AM_BOR
 62
     1
370
    25
100
AcDbText
 10
-128.34
 20
22.25000000000003
 30
0.0
 40
2.000000000000294
  1
Norm
  7
ACDINTS
100
AcDbText
1001
GENIUS_GENTRA_14
1002
{
1070
     1
1000
GENTRATX{4.13},%s,(GENMSG gendwg 69)
1000
Norm
1000
DEU
1070
     0
1040
1.0
1070
     0
1002
}
  0
LINE
  5
346
330
327
100
AcDbEntity
  8
AM_BOR
 62
     1
370
    25
100
AcDbLine
 10
-129.54
 20
21.15000000000003
 30
0.0
 11
-86.35999999999995
 21
21.15000000000003
 31
0.0
  0
LINE
  5
347
330
327
100
AcDbEntity
  8
AM_BOR
 62
     1
370
    25
100
AcDbLine
 10
-182.88
 20
29.61000000000002
 30
0.0
 11
-86.35999999999995
 21
29.61000000000002
 31
0.0
  0
LINE
  5
348
330
327
100
AcDbEntity
  8
AM_BOR
 62
     1
370
    25
100
AcDbLine
 10
-182.88
 20
33.84000000000003
 30
0.0
 11
-86.35999999999995
 21
33.84000000000003
 31
0.0
  0
TEXT
  5
349
330
327
100
AcDbEntity
  8
AM_BOR
 62
     1
370
    25
100
AcDbText
 10
-101.0179677247366
 20
35.04000000000002
 30
0.0
 40
2.000000000000294
  1
Name
  7
ACDINTS
 72
     2
 11
-95.11796772473577
 21
35.04000000000002
 31
0.0
100
AcDbText
1001
GENIUS_GENTRA_14
1002
{
1070
     1
1000
GENTRATX,%s,(GENMSG gendwg 63)
1000
Name
1000
DEU
1070
     0
1040
1.0
1070
     0
1002
}
  0
TEXT
  5
34A
330
327
100
AcDbEntity
  8
AM_BOR
 62
     1
370
    25
100
AcDbText
 10
-128.34
 20
30.71000000000001
 30
0.0
 40
2.000000000000294
  1
Bearb.
  7
ACDINTS
100
AcDbText
1001
GENIUS_GENTRA_14
1002
{
1070
     1
1000
GENTRATX{4.13},%s,(GENMSG gendwg 67)
1000
Bearb.
1000
DEU
1070
     0
1040
1.0
1070
     0
1002
}
  0
TEXT
  5
34B
330
327
100
AcDbEntity
  8
AM_BOR
 62
     1
370
    25
100
AcDbText
 10
-117.0692984212765
 20
35.04000000000002
 30
0.0
 40
2.000000000000294
  1
Datum
 41
0.9836322182488942
  7
ACDINTS
 72
     1
 11
-113.3942087558013
 21
35.04000000000002
 31
0.0
100
AcDbText
1001
GENIUS_GENTRA_14
1002
{
1070
     1
1000
GENTRATX{3.38},%s,(GENMSG gendwg 62)
1000
Datum
1000
DEU
1070
     0
1040
1.0
1070
     0
1002
}
  0
TEXT
  5
34C
330
327
100
AcDbEntity
  8
AM_BOR
 62
     1
370
    25
100
AcDbText
 10
-181.9908006538762
 20
1.200000000000002
 30
0.0
 40
2.000000000000294
  1
Zust.
  7
ACDINTS
 72
     1
 11
-178.8883006538758
 21
1.200000000000002
 31
0.0
100
AcDbText
1001
GENIUS_GENTRA_14
1002
{
1070
     1
1000
GENTRATX,%s,(GENMSG gendwg 60)
1000
Zust.
1000
DEU
1070
     0
1040
1.0
1070
     0
1002
}
  0
LINE
  5
34D
330
327
100
AcDbEntity
  8
AM_BOR
 62
     1
370
    25
100
AcDbLine
 10
-86.35999999999995
 20
48.66000000000008
 30
0.0
 11
0.0
 21
48.66000000000005
 31
0.0
  0
LINE
  5
34E
330
327
100
AcDbEntity
  8
AM_BOR
 62
     2
370
    35
100
AcDbLine
 10
-182.88
 20
38.07000000000002
 30
0.0
 11
0.0
 21
38.07000000000002
 31
0.0
  0
LINE
  5
34F
330
327
100
AcDbEntity
  8
AM_BOR
 62
     2
370
    35
100
AcDbLine
 10
-129.54
 20
16.92000000000003
 30
0.0
 11
0.0
 21
16.92000000000003
 31
0.0
  0
LWPOLYLINE
  5
350
330
327
100
AcDbEntity
  8
0
100
AcDbPolyline
 90
        4
 70
     1
 43
0.0
 10
-182.88
 20
0.0
 10
0.0
 20
0.0
 10
0.0
 20
54.99000000000001
 10
-182.88
 20
54.99000000000004
  0
LINE
  5
351
330
327
100
AcDbEntity
  8
AM_BOR
 62
     1
370
    25
100
AcDbLine
 10
-182.88
 20
4.230000000000018
 30
0.0
 11
0.0
 21
4.230000000000018
 31
0.0
  0
ATTDEF
  5
352
330
327
100
AcDbEntity
  8
AM_BOR
 62
     1
370
    25
100
AcDbText
 10
-5.369955967542637
 20
0.4161834165005303
 30
0.0
 40
3.000000000000294
  1

  7
ACDINTS
 72
     1
 11
-5.369955967542637
 21
0.4161834165005303
 31
0.0
100
AcDbAttributeDefinition
  3
Plot-Datum
  2
GEN-TITLE-PLOT{2.94}
 70
     0
1001
GENIUS_GENTRA_14
1002
{
1070
     3
1000
GENTRAPR,%s,(GENMSG gendwg 91)
1000
Plot-Datum
1000
DEU
1070
     0
1070
     0
1002
}
  0
ATTDEF
  5
353
330
327
100
AcDbEntity
  8
AM_BOR
 62
     2
370
    35
100
AcDbText
 10
-5.940407113846131
 20
9.420007355724406
 30
0.0
 40
3.0
  1
-
 41
0.8
  7
ACDINTS
 72
     1
 11
-5.100407113846131
 21
9.420007355724406
 31
0.0
100
AcDbAttributeDefinition
  3
Blatt
  2
GEN-TITLE-SHEET{2.62}
 70
     0
1001
GENIUS_GENTRA_14
1002
{
1070
     3
1000
GENTRAPR,%s,(GENMSG gendwg 76)
1000
Blatt
1000
DEU
1070
     0
1070
     0
1002
}
  0
ATTDEF
  5
354
330
327
100
AcDbEntity
  8
AM_BOR
 62
     1
370
    25
100
AcDbText
 10
-118.5451003624019
 20
26.17804422461478
 30
0.0
 40
2.500000000000367
  1

  7
ACDINTS
100
AcDbAttributeDefinition
  3
Prüfdatum
  2
GEN-TITLE-CHKD{5.41}
 70
     0
1001
GENIUS_GENTRA_14
1002
{
1070
     3
1000
GENTRAPR,%s,(GENMSG gendwg 78)
1000
Prüfdatum
1000
DEU
1070
     0
1070
     0
1002
}
  0
ATTDEF
  5
355
330
327
100
AcDbEntity
  8
AM_BOR
 62
     1
370
    25
100
AcDbText
 10
-102.0619852594997
 20
26.4915214039151
 30
0.0
 40
2.500000000000367
  1

  7
ACDINTS
100
AcDbAttributeDefinition
  3
Geprüft von
  2
GEN-TITLE-CHKM{5}
 70
     0
1001
GENIUS_GENTRA_14
1002
{
1070
     3
1000
GENTRAPR,%s,(GENMSG gendwg 72)
1000
Geprüft von
1000
DEU
1070
     0
1070
     0
1002
}
  0
ATTDEF
  5
356
330
327
100
AcDbEntity
  8
AM_BOR
 62
     2
370
    35
100
AcDbText
 10
-34.75758354044661
 20
39.78860215053771
 30
0.0
 40
3.0
  1
-
 41
0.8
  7
ACDINTS
100
AcDbAttributeDefinition
  3
Material (2.Zeile)
  2
GEN-TITLE-MAT2{11.09}
 70
     0
1001
GENIUS_GENTRA_14
1002
{
1070
     3
1000
GENTRAPR,%s,(GENMSG gendwg 90)
1000
Material (2.Zeile)
1000
DEU
1070
     0
1070
     0
1002
}
  0
ATTDEF
  5
357
330
327
100
AcDbEntity
  8
AM_BOR
 62
     2
370
    35
100
AcDbText
 10
-34.75758354044661
 20
44.06703812316723
 30
0.0
 40
3.0
  1
-
 41
0.8
  7
ACDINTS
100
AcDbAttributeDefinition
  3
Material
  2
GEN-TITLE-MAT1{11.15}
 70
     0
1001
GENIUS_GENTRA_14
1002
{
1070
     3
1000
GENTRAPR,%s,(GENMSG gendwg 89)
1000
Material
1000
DEU
1070
     0
1070
     0
1002
}
  0
ATTDEF
  5
358
330
327
100
AcDbEntity
  8
AM_BOR
 62
     2
370
    35
100
AcDbText
 10
-84.3653978007298
 20
39.78860215053771
 30
0.0
 40
3.0
  1
-
 41
0.8
  7
ACDINTS
100
AcDbAttributeDefinition
  3
Halbzeug (2.Zeile)
  2
GEN-TITLE-NORM2{14.89}
 70
     0
1001
GENIUS_GENTRA_14
1002
{
1070
     3
1000
GENTRAPR,%s,(GENMSG gendwg 86)
1000
Halbzeug (2.Zeile)
1000
DEU
1070
     0
1070
     0
1002
}
  0
ATTDEF
  5
359
330
327
100
AcDbEntity
  8
AM_BOR
 62
     2
370
    35
100
AcDbText
 10
-84.3653978007298
 20
44.06703812316723
 30
0.0
 40
3.0
  1
-
 41
0.8
  7
ACDINTS
100
AcDbAttributeDefinition
  3
Halbzeug (1.Zeile) 
  2
GEN-TITLE-NORM1{14.84}
 70
     0
1001
GENIUS_GENTRA_14
1002
{
1070
     3
1000
GENTRAPR,%s,(GENMSG gendwg 85)
1000
Halbzeug (1.Zeile) 
1000
DEU
1070
     0
1070
     0
1002
}
  0
ATTDEF
  5
35A
330
327
100
AcDbEntity
  8
AM_BOR
 62
     2
370
    35
100
AcDbText
 10
-48.35113823161936
 20
11.07644417885149
 30
0.0
 40
3.5
  1
-
 41
0.8
  7
ACDINTS
100
AcDbAttributeDefinition
  3
Zeichnungsnummer
  2
GEN-TITLE-NR{10.86}
 70
     0
1001
GENIUS_GENTRA_14
1002
{
1070
     3
1000
GENTRAPR,%s,(GENMSG gendwg 84)
1000
Zeichnungsnummer
1000
DEU
1070
     0
1070
     0
1002
}
  0
ATTDEF
  5
35B
330
327
100
AcDbEntity
  8
AM_BOR
 62
     2
370
    35
100
AcDbText
 10
-80.70716436907151
 20
21.17459677419356
 30
0.0
 40
3.500000000000171
  1

 41
0.8
  7
ACDINTS
100
AcDbAttributeDefinition
  3
Beschreibung 2
  2
GEN-TITLE-DES2{21.21}
 70
     0
1001
GENIUS_GENTRA_14
1002
{
1070
     3
1000
GENTRAPR,%s,(GENMSG gendwg 88)
1000
Beschreibung 2
1000
DEU
1070
     0
1070
     0
1002
}
  0
ATTDEF
  5
35C
330
327
100
AcDbEntity
  8
AM_BOR
100
AcDbText
 10
-81.2071643690715
 20
29.17459677419356
 30
0.0
 40
5.00000000000049
  1

 41
0.8
  7
ACDINTS
100
AcDbAttributeDefinition
  3
Zeichnungsname (mx. 20 Z.)
  2
GEN-TITLE-DES1{15.54}
 70
     0
1001
GENIUS_GENTRA_14
1002
{
1070
     3
1000
GENTRAPR,%s,(GENMSG gendwg 87)
1000
Zeichnungsname (mx. 20 Z.)
1000
DEU
1070
     0
1070
     0
1002
}
  0
ATTDEF
  5
35D
330
327
100
AcDbEntity
  8
AM_BOR
 62
     2
370
    35
100
AcDbText
 10
-16.73297243245099
 20
50.01451612903075
 30
0.0
 40
3.500000000000343
  1
-
 41
0.8
  7
ACDINTS
100
AcDbAttributeDefinition
  3
Menge
  2
GEN-TITLE-QTY{4.38}
 70
     0
1001
GENIUS_GENTRA_14
1002
{
1070
     3
1000
GENTRAPR,%s,(GENMSG gendwg 32)
1000
Menge
1000
DEU
1070
     0
1070
     0
1002
}
  0
ATTDEF
  5
35E
330
327
100
AcDbEntity
  8
AM_BOR
 62
     2
370
    35
100
AcDbText
 10
-35.713449226948
 20
50.01451612903224
 30
0.0
 40
3.500000000000343
  1
-
 41
0.8
  7
ACDINTS
100
AcDbAttributeDefinition
  3
Positionsnummer
  2
GEN-TITLE-POSI{2.20}
 70
     0
1001
GENIUS_GENTRA_14
1002
{
1070
     3
1000
GENTRAPR,%s,(GENMSG gendwg 31)
1000
Positionsnummer
1000
DEU
1070
     0
1070
     0
1002
}
  0
ATTDEF
  5
35F
330
327
100
AcDbEntity
  8
AM_BOR
 62
     1
370
    25
100
AcDbText
 10
-102.5325281430328
 20
30.41000000000003
 30
0.0
 40
2.500000000000367
  1

  7
ACDINTS
100
AcDbAttributeDefinition
  3
Name des Bearbeiters
  2
GEN-TITLE-NAME{5}
 70
     0
1001
GENIUS_GENTRA_14
1002
{
1070
     3
1000
GENTRAPR,%s,(GENMSG gendwg 81)
1000
Name des Bearbeiters
1000
DEU
1070
     0
1070
     0
1002
}
  0
ATTDEF
  5
360
330
327
100
AcDbEntity
  8
AM_BOR
 62
     1
370
    25
100
AcDbText
 10
-118.7019468872817
 20
30.41000000000003
 30
0.0
 40
2.500000000000367
  1

  7
ACDINTS
100
AcDbAttributeDefinition
  3
Bearbeitungsdatum
  2
GEN-TITLE-DAT{5.44}
 70
     0
1001
GENIUS_GENTRA_14
1002
{
1070
     3
1000
GENTRAPR,%s,(GENMSG gendwg 80)
1000
Bearbeitungsdatum
1000
DEU
1070
     0
1070
     0
1002
}
  0
ATTDEF
  5
361
330
327
100
AcDbEntity
  8
AM_BOR
 62
     2
370
    35
100
AcDbText
 10
-70.95960978726719
 20
50.01451612903077
 30
0.0
 40
3.5
  1
-
 41
0.8
  7
ACDINTS
100
AcDbAttributeDefinition
  3
Maßstab
  2
GEN-TITLE-SCA{5.42}
 70
     0
1001
GENIUS_GENTRA_14
1002
{
1070
     3
1000
GENTRAPR,%s,(GENMSG gendwg 83)
1000
Maßstab
1000
DEU
1070
     0
1070
     0
1002
}
  0
ATTDEF
  5
362
330
327
100
AcDbEntity
  8
AM_BOR
 62
     1
370
    25
100
AcDbText
 10
-114.372028302312
 20
0.9492237802654557
 30
0.0
 40
2.5
  1

 41
0.8
  7
ACDINTS
100
AcDbAttributeDefinition
  3
Dateiname
  2
GEN-TITLE-DWG{10.8}
 70
     0
1001
GENIUS_GENTRA_14
1002
{
1070
     3
1000
GENTRAPR,%s,(GENMSG gendwg 82)
1000
Dateiname
1000
DEU
1070
     0
1070
     0
1002
}
  0
SPLINE
  5
363
330
327
100
AcDbEntity
  8
AM_BOR
 62
     1
370
    25
100
AcDbSpline
210
0.0
220
0.0
230
1.0
 70
     8
 71
     3
 72
     9
 73
     5
 74
     3
 42
0.0000000001
 43
0.0000000001
 44
0.0000000001
 12
-0.8394144323767815
 22
-0.5434918681245983
 32
0.0
 13
0.8679994776723841
 23
-0.4965651082793357
 33
0.0
 40
0.0
 40
0.0
 40
0.0
 40
0.0
 40
0.0173252182056825
 40
0.0355606327504633
 40
0.0355606327504633
 40
0.0355606327504633
 40
0.0355606327504633
 10
-108.917020004557
 20
48.6225678787137
 30
0.0
 10
-108.921867683959
 20
48.61942917364427
 30
0.0
 10
-108.9280696277725
 20
48.60714252185584
 30
0.0
 10
-108.9222961146572
 20
48.59388066165977
 30
0.0
 10
-108.9170200045572
 20
48.5908623047938
 30
0.0
 11
-108.917020004557
 21
48.6225678787137
 31
0.0
 11
-108.9250683191791
 21
48.60722552499538
 31
0.0
 11
-108.9170200045572
 21
48.5908623047938
 31
0.0
  0
LWPOLYLINE
  5
364
330
327
100
AcDbEntity
  8
AM_BOR
 62
     1
370
    25
100
AcDbPolyline
 90
        4
 70
     0
 43
0.0
 10
-109.5194259090353
 20
48.32136492647464
 10
-110.2962124700729
 20
48.32136492647464
 10
-110.2962124700729
 20
47.25922820015784
 10
-109.6779537786348
 20
47.25922820015778
  0
SPLINE
  5
365
330
327
100
AcDbEntity
  8
AM_BOR
 62
     1
370
    25
100
AcDbSpline
210
0.0
220
0.0
230
1.0
 70
     8
 71
     3
 72
    25
 73
    21
 74
    19
 42
0.0000000001
 43
0.0000000001
 44
0.0000000001
 40
0.0
 40
0.0
 40
0.0
 40
0.0
 40
0.0501309140548886
 40
0.1002618281097413
 40
0.1795152826473599
 40
0.256966177437227
 40
0.357852695877948
 40
0.4546066587234893
 40
0.5503816355468273
 40
0.6484257081912418
 40
0.7593952169109187
 40
0.8728839004343605
 40
0.9792276282601976
 40
1.03638566450327
 40
1.08713934671034
 40
1.199235478311191
 40
1.313551550797432
 40
1.423953436824364
 40
1.537442120347671
 40
1.593490186148181
 40
1.593490186148181
 40
1.593490186148181
 40
1.593490186148181
 10
-109.5194259090353
 20
48.32136492647458
 30
0.0
 10
-109.5036114800256
 20
48.31598151430538
 30
0.0
 10
-109.4719826220061
 20
48.305214689967
 30
0.0
 10
-109.4145281195789
 20
48.28806736093548
 30
0.0
 10
-109.3532312918471
 20
48.25564066104203
 30
0.0
 10
-109.2815561412995
 20
48.2079180796163
 30
0.0
 10
-109.2171428190592
 20
48.14170500018383
 30
0.0
 10
-109.1601063501928
 20
48.06166645828235
 30
0.0
 10
-109.1204877435293
 20
47.97280894660547
 30
0.0
 10
-109.0938017306297
 20
47.87381322970697
 30
0.0
 10
-109.0963744996302
 20
47.76538583652121
 30
0.0
 10
-109.1169376961176
 20
47.65588399710965
 30
0.0
 10
-109.1612192048079
 20
47.573787312663
 30
0.0
 10
-109.2003727029221
 20
47.51406952784393
 30
0.0
 10
-109.2465880589011
 20
47.45702356902585
 30
0.0
 10
-109.311353373186
 20
47.39061943025314
 30
0.0
 10
-109.4052594638487
 20
47.32707285334346
 30
0.0
 10
-109.5117996387729
 20
47.28787214673128
 30
0.0
 10
-109.6034414075084
 20
47.26932874426781
 30
0.0
 10
-109.6594406784621
 20
47.26173774833184
 30
0.0
 10
-109.6779537786348
 20
47.25922820015773
 30
0.0
 11
-109.5194259090353
 21
48.32136492647458
 31
0.0
 11
-109.4718675481554
 21
48.30551213951457
 31
0.0
 11
-109.4243091872756
 21
48.28965935255467
 31
0.0
 11
-109.3534227425564
 21
48.25421613019511
 31
0.0
 11
-109.2895604981159
 21
48.2103954177549
 31
0.0
 11
-109.2182229567962
 21
48.13905787643516
 31
0.0
 11
-109.1627382024364
 21
48.05979394163534
 31
0.0
 11
-109.1231062350366
 21
47.97260361335559
 31
0.0
 11
-109.0993270545966
 21
47.87748689159593
 31
0.0
 11
-109.0993270545966
 21
47.76651738287625
 31
0.0
 11
-109.1231062350366
 21
47.65554787415657
 31
0.0
 11
-109.1706645959163
 21
47.5604311523968
 31
0.0
 11
-109.2023701698362
 21
47.51287279151699
 31
0.0
 11
-109.2340757437561
 21
47.47324082411711
 31
0.0
 11
-109.3133396785559
 21
47.39397688931739
 31
0.0
 11
-109.4084564003156
 21
47.33056574147758
 31
0.0
 11
-109.5114995155554
 21
47.29093377407763
 31
0.0
 11
-109.6224690242749
 21
47.26715459363776
 31
0.0
 11
-109.6779537786348
 21
47.25922820015773
 31
0.0
  0
LWPOLYLINE
  5
366
330
327
100
AcDbEntity
  8
AM_BOR
 62
     1
370
    25
100
AcDbPolyline
 90
        4
 70
     0
 43
0.0
 10
-109.614542630795
 20
49.73226296591041
 10
-110.2962124700729
 20
49.73226296591041
 10
-110.2962124700729
 20
48.89206525703292
 10
-109.5669842699152
 20
48.89206525703292
  0
SPLINE
  5
367
330
327
100
AcDbEntity
  8
AM_BOR
 62
     1
370
    25
100
AcDbSpline
210
0.0
220
0.0
230
1.0
 70
     8
 71
     3
 72
    21
 73
    17
 74
    15
 42
0.0000000001
 43
0.0000000001
 44
0.0000000001
 40
0.0
 40
0.0
 40
0.0
 40
0.0
 40
0.0808336700536339
 40
0.1662035404853781
 40
0.2370993590359362
 40
0.3163632938357054
 40
0.3888166648952985
 40
0.4902446348579887
 40
0.6132953519524469
 40
0.6925592867521593
 40
0.7810782737600565
 40
0.8450718644118314
 40
0.9528824715703702
 40
1.025877230603296
 40
1.134832335183001
 40
1.250242366302819
 40
1.250242366302819
 40
1.250242366302819
 40
1.250242366302819
 10
-109.614542630795
 20
49.73226296591036
 30
0.0
 10
-109.5877783017064
 20
49.72813417048068
 30
0.0
 10
-109.5327476906962
 20
49.71964488108064
 30
0.0
 10
-109.4604493788893
 20
49.68662869360977
 30
0.0
 10
-109.3885233222165
 20
49.65429281977648
 30
0.0
 10
-109.3306828277571
 20
49.60748509573978
 30
0.0
 10
-109.266616019909
 20
49.55051391830493
 30
0.0
 10
-109.2309192732838
 20
49.45589007469051
 30
0.0
 10
-109.1980955189773
 20
49.35899618496438
 30
0.0
 10
-109.2016658693971
 20
49.26171825442485
 30
0.0
 10
-109.2095738425033
 20
49.18290547667511
 30
0.0
 10
-109.2580404114011
 20
49.10934309096404
 30
0.0
 10
-109.3040881358819
 20
49.04228030812781
 30
0.0
 10
-109.3707747508013
 20
48.97190542973143
 30
0.0
 10
-109.455606879711
 20
48.91652273609773
 30
0.0
 10
-109.5291531706331
 20
48.90037262818776
 30
0.0
 10
-109.5669842699152
 20
48.89206525703286
 30
0.0
 11
-109.614542630795
 21
49.73226296591036
 31
0.0
 11
-109.5352786959952
 21
49.7164101789504
 31
0.0
 11
-109.4560147611955
 21
49.68470460503049
 31
0.0
 11
-109.3926036133556
 21
49.65299903111059
 31
0.0
 11
-109.3291924655158
 21
49.60544067023072
 31
0.0
 11
-109.2779601955198
 21
49.55420840023464
 31
0.0
 11
-109.2340757437561
 21
49.46276558759114
 31
0.0
 11
-109.2023701698362
 21
49.34386968539149
 31
0.0
 11
-109.2023701698362
 21
49.26460575059177
 31
0.0
 11
-109.2182229567962
 21
49.17751786276284
 31
0.0
 11
-109.2499285307161
 21
49.12193066795219
 31
0.0
 11
-109.3133396785559
 21
49.03474033967245
 31
0.0
 11
-109.3641134323066
 21
48.98229741091807
 31
0.0
 11
-109.4560147611955
 21
48.92377083095277
 31
0.0
 11
-109.5669842699152
 21
48.89206525703286
 31
0.0
  0
LWPOLYLINE
  5
368
330
327
100
AcDbEntity
  8
AM_BOR
 62
     1
370
    25
100
AcDbPolyline
 90
        4
 70
     0
 43
0.0
 10
-109.2340757437561
 20
46.59341114783983
 10
-111.29493804855
 20
46.59341114783983
 10
-111.2949380485499
 20
50.39808001822842
 10
-109.0596950871966
 20
50.39808001822842
  0
SPLINE
  5
369
330
327
100
AcDbEntity
  8
AM_BOR
 62
     1
370
    25
100
AcDbSpline
210
0.0
220
0.0
230
1.0
 70
     8
 71
     3
 72
    23
 73
    19
 74
    17
 42
0.0000000001
 43
0.0000000001
 44
0.0000000001
 13
-0.9863899768469947
 23
-0.1644226674634166
 33
0.0
 40
0.0
 40
0.0
 40
0.0
 40
0.0
 40
0.202084175134029
 40
0.389991532741057
 40
0.5485194023405955
 40
0.7559729726054148
 40
0.9274470813346816
 40
1.186604998130206
 40
1.424924642922397
 40
1.649116906124178
 40
1.855203136603578
 40
1.99157396642212
 40
2.215766229623981
 40
2.361921703773269
 40
2.589037429483978
 40
2.742121514785436
 40
2.890198765050957
 40
3.122240465084967
 40
3.122240465084967
 40
3.122240465084967
 40
3.122240465084967
 10
-108.917020004557
 20
48.5908623047938
 30
0.0
 10
-108.8496142803415
 20
48.5820065807619
 30
0.0
 10
-108.7195315478125
 20
48.5649163885861
 30
0.0
 10
-108.5578245740744
 20
48.47244310790753
 30
0.0
 10
-108.4121564129705
 20
48.36031517451169
 30
0.0
 10
-108.275194243112
 20
48.24136800430465
 30
0.0
 10
-108.1629081408731
 20
48.05994079363419
 30
0.0
 10
-108.0601532797635
 20
47.85701222044642
 30
0.0
 10
-108.0555138461891
 20
47.61184775912546
 30
0.0
 10
-108.0814141514904
 20
47.38983657921067
 30
0.0
 10
-108.1545884448288
 20
47.21247663739782
 30
0.0
 10
-108.2659042795735
 20
47.05869818337922
 30
0.0
 10
-108.3905071718025
 20
46.94393908570626
 30
0.0
 10
-108.5375752915981
 20
46.80886613544581
 30
0.0
 10
-108.6952268564303
 20
46.72696790240553
 30
0.0
 10
-108.8591378276452
 20
46.6634007446708
 30
0.0
 10
-109.0303599943974
 20
46.61260552066554
 30
0.0
 10
-109.1577812080481
 20
46.60612878626722
 30
0.0
 10
-109.2340757437561
 20
46.59341114783978
 30
0.0
 11
-108.917020004557
 21
48.5908623047938
 31
0.0
 11
-108.7188601675577
 21
48.55123033739391
 31
0.0
 11
-108.5524059044782
 21
48.46404000911416
 31
0.0
 11
-108.4255836087986
 21
48.36892328735444
 31
0.0
 11
-108.274982132679
 21
48.22624820471485
 31
0.0
 11
-108.1798654109192
 21
48.08357312207538
 31
0.0
 11
-108.0768222956796
 21
47.84578131767601
 31
0.0
 11
-108.0609695087196
 21
47.60798951327671
 31
0.0
 11
-108.0926750826395
 21
47.38605049583735
 31
0.0
 11
-108.1719390174393
 21
47.19581705231791
 31
0.0
 11
-108.251202952239
 21
47.08484754359829
 31
0.0
 11
-108.4097308218386
 21
46.92631967399875
 31
0.0
 11
-108.5207003305583
 21
46.83120295223903
 31
0.0
 11
-108.7188601675577
 21
46.72023344351935
 31
0.0
 11
-108.8615352501973
 21
46.66474868915951
 31
0.0
 11
-109.0042103328368
 21
46.62511672175963
 31
0.0
 11
-109.2340757437561
 21
46.59341114783978
 31
0.0
  0
SPLINE
  5
36A
330
327
100
AcDbEntity
  8
AM_BOR
 62
     1
370
    25
100
AcDbSpline
210
0.0
220
0.0
230
1.0
 70
     8
 71
     3
 72
    21
 73
    17
 74
    15
 42
0.0000000001
 43
0.0000000001
 44
0.0000000001
 13
-0.9752353474684076
 23
-0.2211696567076379
 33
0.0
 40
0.0
 40
0.0
 40
0.0
 40
0.0
 40
0.2241922632017808
 40
0.4449960352554788
 40
0.643155872254811
 40
0.8900219942550906
 40
1.099284786883847
 40
1.264792741766226
 40
1.486731759205523
 40
1.646050296401186
 40
1.802182140931939
 40
1.954608150815614
 40
2.151910080218784
 40
2.296170441554194
 40
2.46274544398279
 40
2.666532388336909
 40
2.666532388336909
 40
2.666532388336909
 40
2.666532388336909
 10
-109.0596950871966
 20
50.39808001822836
 30
0.0
 10
-108.9852472255479
 20
50.39067597037337
 30
0.0
 10
-108.8374767235967
 20
50.37597978107025
 30
0.0
 10
-108.6319008461027
 20
50.30068198155632
 30
0.0
 10
-108.4591686012883
 20
50.1602460455058
 30
0.0
 10
-108.299350335183
 20
50.00515593288598
 30
0.0
 10
-108.2243810932583
 20
49.80972013045828
 30
0.0
 10
-108.1544255531874
 20
49.62064029812108
 30
0.0
 10
-108.1746028585532
 20
49.43674966470902
 30
0.0
 10
-108.1737418237513
 20
49.25400908332064
 30
0.0
 10
-108.2547187027157
 20
49.11673458168818
 30
0.0
 10
-108.3156513616931
 20
48.95779553205535
 30
0.0
 10
-108.4429987920442
 20
48.84552791184681
 30
0.0
 10
-108.5767427286995
 20
48.74389825138509
 30
0.0
 10
-108.7262447634364
 20
48.65375417603911
 30
0.0
 10
-108.8507732607281
 20
48.63759170822181
 30
0.0
 10
-108.917020004557
 20
48.6225678787137
 30
0.0
 11
-109.0596950871966
 21
50.39808001822836
 31
0.0
 11
-108.8377560697573
 21
50.36637444430845
 31
0.0
 11
-108.6316698392779
 21
50.28711050950875
 31
0.0
 11
-108.4731419696784
 21
50.16821460730909
 31
0.0
 11
-108.3066877065989
 21
49.98590755726961
 31
0.0
 11
-108.2194973783192
 21
49.79567411375017
 31
0.0
 11
-108.1719390174393
 21
49.63714624415064
 31
0.0
 11
-108.1719390174393
 21
49.41520722671134
 31
0.0
 11
-108.1877918043993
 21
49.2566793571118
 31
0.0
 11
-108.2512029522391
 21
49.11400427447222
 31
0.0
 11
-108.3193699361669
 21
48.97767030661662
 31
0.0
 11
-108.4572891827185
 21
48.83658050267302
 31
0.0
 11
-108.5726974717868
 21
48.7500242858718
 31
0.0
 11
-108.7188601675577
 21
48.6701262395935
 31
0.0
 11
-108.917020004557
 21
48.6225678787137
 31
0.0
  0
CIRCLE
  5
36B
330
327
100
AcDbEntity
  8
AM_BOR
 62
     1
370
    25
100
AcDbCircle
 10
-107.95
 20
46.53000000000002
 30
0.0
 40
6.499642653580561
  0
CIRCLE
  5
36C
330
327
100
AcDbEntity
  8
AM_BOR
 62
     1
370
    25
100
AcDbCircle
 10
-107.95
 20
46.53000000000002
 30
0.0
 40
5.707003305582912
  0
LINE
  5
36D
330
327
100
AcDbEntity
  8
AM_BOR
 62
     1
370
    25
100
AcDbLine
 10
-107.4902691781613
 20
47.82992853071612
 30
0.0
 11
-106.5391019605642
 21
47.82992853071612
 31
0.0
  0
LINE
  5
36E
330
327
100
AcDbEntity
  8
AM_BOR
 62
     1
370
    25
100
AcDbLine
 10
-105.3422165450877
 20
49.34915394771155
 30
0.0
 11
-104.3831229340106
 21
49.34915394771155
 31
0.0
  0
SPLINE
  5
36F
330
327
100
AcDbEntity
  8
AM_BOR
 62
     1
370
    25
100
AcDbSpline
210
0.0
220
0.0
230
1.0
 70
     8
 71
     3
 72
    34
 73
    30
 74
    28
 42
0.0000000001
 43
0.0000000001
 44
0.0000000001
 40
0.0
 40
0.0
 40
0.0
 40
0.0
 40
0.2232092670216402
 40
0.4596763156848541
 40
0.8070839117797234
 40
1.290268952665145
 40
1.882577953727215
 40
2.406679817735108
 40
2.976167883984326
 40
3.68910280599281
 40
4.155347258028364
 40
4.582858449531742
 40
5.013590661304977
 40
5.387729867883837
 40
5.73305145772689
 40
5.978897467421184
 40
6.978629065371036
 40
7.142035853111848
 40
7.338923382658098
 40
7.562132649679744
 40
7.80058407200188
 40
8.051238642276233
 40
8.272326772170909
 40
8.438969652039697
 40
8.610076970811604
 40
8.81463321553954
 40
8.942442470039555
 40
9.080870981003908
 40
9.186853050337225
 40
9.186853050337225
 40
9.186853050337225
 40
9.186853050337225
 10
-107.4902691781613
 20
47.82992853071607
 30
0.0
 10
-107.4841067575963
 20
47.75572455642262
 30
0.0
 10
-107.4714158921191
 20
47.60290917394534
 30
0.0
 10
-107.4097279607188
 20
47.33961188899811
 30
0.0
 10
-107.2479211013122
 20
47.0173489913908
 30
0.0
 10
-106.875157640482
 20
46.6918041995668
 30
0.0
 10
-106.3390748499217
 20
46.58497939970655
 30
0.0
 10
-105.7791481591229
 20
46.54206343296294
 30
0.0
 10
-105.1777130336218
 20
46.62903919176048
 30
0.0
 10
-104.6354867624962
 20
46.8982858220851
 30
0.0
 10
-104.309004344753
 20
47.34494708156558
 30
0.0
 10
-104.2273601913111
 20
47.79202187899902
 30
0.0
 10
-104.3177258524488
 20
48.20431436864264
 30
0.0
 10
-104.5494721974617
 20
48.52498113451543
 30
0.0
 10
-104.8336587124562
 20
48.68784431084147
 30
0.0
 10
-105.3311112838668
 20
48.87169151209459
 30
0.0
 10
-105.8041113861494
 20
48.93360207863146
 30
0.0
 10
-106.2268848391883
 20
49.09527498227375
 30
0.0
 10
-106.3897111289759
 20
49.2186228574438
 30
0.0
 10
-106.4475523093182
 20
49.44286983289725
 30
0.0
 10
-106.3907731854116
 20
49.69405075333673
 30
0.0
 10
-106.1690660036114
 20
49.81682837257221
 30
0.0
 10
-105.9640194422828
 20
49.87727943873022
 30
0.0
 10
-105.776058850225
 20
49.86182780405475
 30
0.0
 10
-105.5976672744449
 20
49.82792985030201
 30
0.0
 10
-105.4517121228522
 20
49.72819334873935
 30
0.0
 10
-105.3743015709692
 20
49.58843787259471
 30
0.0
 10
-105.3482905911676
 20
49.46579693462131
 30
0.0
 10
-105.3440537410832
 20
49.38443455402254
 30
0.0
 10
-105.3422165450877
 20
49.34915394771149
 30
0.0
 11
-107.4902691781613
 21
47.82992853071607
 31
0.0
 11
-107.4664899977214
 21
47.60798951327671
 31
0.0
 11
-107.4110052433615
 21
47.37812410235738
 31
0.0
 11
-107.2524773737621
 21
47.06899475663834
 31
0.0
 11
-106.8878632736832
 21
46.75193901743926
 31
0.0
 11
-106.3171629431248
 21
46.59341114783978
 31
0.0
 11
-105.7940209734465
 21
46.56170557391987
 31
0.0
 11
-105.2312470363681
 21
46.64889590219962
 31
0.0
 11
-104.6050619514499
 21
46.98973082183862
 31
0.0
 11
-104.3355645731308
 21
47.37019770887751
 31
0.0
 11
-104.256300638331
 21
47.79029656331618
 31
0.0
 11
-104.3514173600908
 21
48.2103954177549
 31
0.0
 11
-104.57335637753
 21
48.51159836999403
 31
0.0
 11
-104.8666329362892
 21
48.69390542003349
 31
0.0
 11
-105.0964983472085
 21
48.78109574831318
 31
0.0
 11
-106.0635183517656
 21
49.03474033967245
 31
0.0
 11
-106.2141198278852
 21
49.09815148751226
 31
0.0
 11
-106.3647213040047
 21
49.22497378319189
 31
0.0
 11
-106.4281324518445
 21
49.43898640715127
 31
0.0
 11
-106.3647213040047
 21
49.66885181807054
 31
0.0
 11
-106.1586350735253
 21
49.81152690071013
 31
0.0
 11
-105.944622449566
 21
49.86701165506996
 31
0.0
 11
-105.7781681864864
 21
49.85908526158999
 31
0.0
 11
-105.6117139234069
 21
49.8194532941901
 31
0.0
 11
-105.4452596603275
 21
49.70055739199045
 31
0.0
 11
-105.3818485124877
 21
49.58958788327077
 31
0.0
 11
-105.3501429385678
 21
49.45483919411122
 31
0.0
 11
-105.3422165450877
 21
49.34915394771149
 31
0.0
  0
SPLINE
  5
370
330
327
100
AcDbEntity
  8
AM_BOR
 62
     1
370
    25
100
AcDbSpline
210
0.0
220
0.0
230
1.0
 70
     8
 71
     3
 72
    29
 73
    25
 74
    23
 42
0.0000000001
 43
0.0000000001
 44
0.0000000001
 40
0.0
 40
0.0
 40
0.0
 40
0.0
 40
0.2726008500976678
 40
0.7265555841913876
 40
1.167308678848031
 40
2.264734959737619
 40
3.230487209739277
 40
3.752005351486983
 40
4.10049634188346
 40
4.385846507162573
 40
4.744991736867261
 40
5.232899726992577
 40
5.630485601258933
 40
6.238445000015242
 40
6.634356372889653
 40
6.875428219191748
 40
7.077978205566446
 40
7.403829146923101
 40
7.706488702243696
 40
7.939610928263316
 40
8.304569491432738
 40
8.605876720272609
 40
8.821497934589688
 40
9.126432380212198
 40
9.126432380212198
 40
9.126432380212198
 40
9.126432380212198
 10
-104.3831229340106
 20
49.34915394771149
 30
0.0
 10
-104.3833796850839
 20
49.44039083354258
 30
0.0
 10
-104.384063996692
 20
49.68356200803104
 30
0.0
 10
-104.5573005233798
 20
50.05631748334287
 30
0.0
 10
-105.1119846009097
 20
50.45835437967179
 30
0.0
 10
-105.9841987788932
 20
50.51032431234228
 30
0.0
 10
-106.8571846524943
 20
50.33564220098881
 30
0.0
 10
-107.3134278722942
 20
49.87895347454134
 30
0.0
 10
-107.4214436677899
 20
49.50142103858246
 30
0.0
 10
-107.4295888154884
 20
49.16569860086298
 30
0.0
 10
-107.2777342549331
 20
48.80632348862153
 30
0.0
 10
-106.9576170556208
 20
48.5189969662731
 30
0.0
 10
-106.4911903373485
 20
48.33702804764244
 30
0.0
 10
-106.036216168077
 20
48.2220974798685
 30
0.0
 10
-105.6386015639674
 20
48.1233961373895
 30
0.0
 10
-105.3663278556987
 20
48.01693915786686
 30
0.0
 10
-105.2347641905999
 20
47.78075819583981
 30
0.0
 10
-105.2535776274645
 20
47.47720441864852
 30
0.0
 10
-105.4799291367424
 20
47.26632664547655
 30
0.0
 10
-105.7717363521127
 20
47.18166034720582
 30
0.0
 10
-106.078780315103
 20
47.19304059820041
 30
0.0
 10
-106.3565290827229
 20
47.31779317309871
 30
0.0
 10
-106.5274225056299
 20
47.54838027508506
 30
0.0
 10
-106.5347875925402
 20
47.72592515058062
 30
0.0
 10
-106.5391019605642
 20
47.82992853071607
 30
0.0
 11
-104.3831229340106
 21
49.34915394771149
 31
0.0
 11
-104.3989757209705
 21
49.62129345719068
 31
0.0
 11
-104.58920916449
 21
50.03346591814948
 31
0.0
 11
-104.9379704776089
 21
50.30296329646869
 31
0.0
 11
-106.0238863843657
 21
50.46149116606818
 31
0.0
 11
-106.951274421523
 21
50.19199378774902
 31
0.0
 11
-107.3079621281219
 21
49.81152690070995
 31
0.0
 11
-107.4110052433615
 21
49.47861837455115
 31
0.0
 11
-107.4110052433615
 21
49.19326820927204
 31
0.0
 11
-107.276256554202
 21
48.86035968311295
 31
0.0
 11
-106.9195688476031
 21
48.52745115695398
 31
0.0
 11
-106.5549547475241
 21
48.36892328735444
 31
0.0
 11
-105.9693127334621
 21
48.20571157851747
 31
0.0
 11
-105.5879347429671
 21
48.09942590903528
 31
0.0
 11
-105.3739221190076
 21
47.98845640031554
 31
0.0
 11
-105.270879003768
 21
47.81407574375611
 31
0.0
 11
-105.2946581842079
 21
47.48909361107705
 31
0.0
 11
-105.5086708081657
 21
47.2750809871187
 31
0.0
 11
-105.7306098256066
 21
47.20374344579794
 31
0.0
 11
-106.0952239256855
 21
47.2195962327579
 31
0.0
 11
-106.3647213040047
 21
47.35434492191751
 31
0.0
 11
-106.4915435996843
 21
47.528725578477
 31
0.0
 11
-106.5391019605642
 21
47.82992853071607
 31
0.0
  0
POLYLINE
  5
371
330
327
100
AcDbEntity
  8
AM_BOR
 62
     1
370
    25
100
AcDb2dPolyline
 66
     1
 10
0.0
 20
0.0
 30
0.0
  0
VERTEX
  5
372
330
371
100
AcDbEntity
  8
AM_BOR
 62
     1
370
    25
100
AcDbVertex
100
AcDb2dVertex
 10
-104.8111481819293
 20
46.08612196512131
 30
0.0
  0
VERTEX
  5
373
330
371
100
AcDbEntity
  8
AM_BOR
 62
     1
370
    25
100
AcDbVertex
100
AcDb2dVertex
 10
-105.6989042516867
 20
46.08612196512131
 30
0.0
  0
VERTEX
  5
374
330
371
100
AcDbEntity
  8
AM_BOR
 62
     1
370
    25
100
AcDbVertex
100
AcDb2dVertex
 10
-106.4756908127244
 20
43.20091473840997
 30
0.0
  0
VERTEX
  5
375
330
371
100
AcDbEntity
  8
AM_BOR
 62
     1
370
    25
100
AcDbVertex
100
AcDb2dVertex
 10
-106.4915435996843
 20
43.18506195144999
 30
0.0
  0
VERTEX
  5
376
330
371
100
AcDbEntity
  8
AM_BOR
 62
     1
370
    25
100
AcDbVertex
100
AcDb2dVertex
 10
-106.5073963866443
 20
43.16920916449006
 30
0.0
  0
VERTEX
  5
377
330
371
100
AcDbEntity
  8
AM_BOR
 62
     1
370
    25
100
AcDbVertex
100
AcDb2dVertex
 10
-106.5232491736042
 20
43.15335637753007
 30
0.0
  0
VERTEX
  5
378
330
371
100
AcDbEntity
  8
AM_BOR
 62
     1
370
    25
100
AcDbVertex
100
AcDb2dVertex
 10
-106.5391019605642
 20
43.15335637753007
 30
0.0
  0
VERTEX
  5
379
330
371
100
AcDbEntity
  8
AM_BOR
 62
     1
370
    25
100
AcDbVertex
100
AcDb2dVertex
 10
-106.5708075344841
 20
43.15335637753007
 30
0.0
  0
VERTEX
  5
37A
330
371
100
AcDbEntity
  8
AM_BOR
 62
     1
370
    25
100
AcDbVertex
100
AcDb2dVertex
 10
-106.5866603214441
 20
43.16920916449006
 30
0.0
  0
VERTEX
  5
37B
330
371
100
AcDbEntity
  8
AM_BOR
 62
     1
370
    25
100
AcDbVertex
100
AcDb2dVertex
 10
-106.602513108404
 20
43.18506195144999
 30
0.0
  0
VERTEX
  5
37C
330
371
100
AcDbEntity
  8
AM_BOR
 62
     1
370
    25
100
AcDbVertex
100
AcDb2dVertex
 10
-106.6183658953639
 20
43.20091473840997
 30
0.0
  0
VERTEX
  5
37D
330
371
100
AcDbEntity
  8
AM_BOR
 62
     1
370
    25
100
AcDbVertex
100
AcDb2dVertex
 10
-107.3792996694417
 20
46.08612196512131
 30
0.0
  0
VERTEX
  5
37E
330
371
100
AcDbEntity
  8
AM_BOR
 62
     1
370
    25
100
AcDbVertex
100
AcDb2dVertex
 10
-108.5048475435983
 20
46.08612196512131
 30
0.0
  0
VERTEX
  5
37F
330
371
100
AcDbEntity
  8
AM_BOR
 62
     1
370
    25
100
AcDbVertex
100
AcDb2dVertex
 10
-109.265781317676
 20
43.20091473840997
 30
0.0
  0
VERTEX
  5
380
330
371
100
AcDbEntity
  8
AM_BOR
 62
     1
370
    25
100
AcDbVertex
100
AcDb2dVertex
 10
-109.281634104636
 20
43.18506195144999
 30
0.0
  0
VERTEX
  5
381
330
371
100
AcDbEntity
  8
AM_BOR
 62
     1
370
    25
100
AcDbVertex
100
AcDb2dVertex
 10
-109.2974868915959
 20
43.16920916449006
 30
0.0
  0
VERTEX
  5
382
330
371
100
AcDbEntity
  8
AM_BOR
 62
     1
370
    25
100
AcDbVertex
100
AcDb2dVertex
 10
-109.3133396785559
 20
43.15335637753007
 30
0.0
  0
VERTEX
  5
383
330
371
100
AcDbEntity
  8
AM_BOR
 62
     1
370
    25
100
AcDbVertex
100
AcDb2dVertex
 10
-109.3450452524758
 20
43.15335637753007
 30
0.0
  0
VERTEX
  5
384
330
371
100
AcDbEntity
  8
AM_BOR
 62
     1
370
    25
100
AcDbVertex
100
AcDb2dVertex
 10
-109.3608980394357
 20
43.15335637753007
 30
0.0
  0
VERTEX
  5
385
330
371
100
AcDbEntity
  8
AM_BOR
 62
     1
370
    25
100
AcDbVertex
100
AcDb2dVertex
 10
-109.3767508263957
 20
43.16920916449006
 30
0.0
  0
VERTEX
  5
386
330
371
100
AcDbEntity
  8
AM_BOR
 62
     1
370
    25
100
AcDbVertex
100
AcDb2dVertex
 10
-109.3926036133556
 20
43.18506195144999
 30
0.0
  0
VERTEX
  5
387
330
371
100
AcDbEntity
  8
AM_BOR
 62
     1
370
    25
100
AcDbVertex
100
AcDb2dVertex
 10
-109.4084564003156
 20
43.20091473840997
 30
0.0
  0
VERTEX
  5
388
330
371
100
AcDbEntity
  8
AM_BOR
 62
     1
370
    25
100
AcDbVertex
100
AcDb2dVertex
 10
-110.1852429613533
 20
46.08612196512131
 30
0.0
  0
VERTEX
  5
389
330
371
100
AcDbEntity
  8
AM_BOR
 62
     1
370
    25
100
AcDbVertex
100
AcDb2dVertex
 10
-111.0729990311106
 20
46.08612196512131
 30
0.0
  0
VERTEX
  5
38A
330
371
100
AcDbEntity
  8
AM_BOR
 62
     1
370
    25
100
AcDbVertex
100
AcDb2dVertex
 10
-109.8998927960742
 20
42.2814530947327
 30
0.0
  0
VERTEX
  5
38B
330
371
100
AcDbEntity
  8
AM_BOR
 62
     1
370
    25
100
AcDbVertex
100
AcDb2dVertex
 10
-108.7901977088774
 20
42.2814530947327
 30
0.0
  0
VERTEX
  5
38C
330
371
100
AcDbEntity
  8
AM_BOR
 62
     1
370
    25
100
AcDbVertex
100
AcDb2dVertex
 10
-108.0134111478398
 20
45.182513108404
 30
0.0
  0
VERTEX
  5
38D
330
371
100
AcDbEntity
  8
AM_BOR
 62
     1
370
    25
100
AcDbVertex
100
AcDb2dVertex
 10
-107.9975583608798
 20
45.19836589536398
 30
0.0
  0
VERTEX
  5
38E
330
371
100
AcDbEntity
  8
AM_BOR
 62
     1
370
    25
100
AcDbVertex
100
AcDb2dVertex
 10
-107.9817055739199
 20
45.21421868232391
 30
0.0
  0
VERTEX
  5
38F
330
371
100
AcDbEntity
  8
AM_BOR
 62
     1
370
    25
100
AcDbVertex
100
AcDb2dVertex
 10
-107.9658527869599
 20
45.21421868232391
 30
0.0
  0
VERTEX
  5
390
330
371
100
AcDbEntity
  8
AM_BOR
 62
     1
370
    25
100
AcDbVertex
100
AcDb2dVertex
 10
-107.95
 20
45.23007146928389
 30
0.0
  0
VERTEX
  5
391
330
371
100
AcDbEntity
  8
AM_BOR
 62
     1
370
    25
100
AcDbVertex
100
AcDb2dVertex
 10
-107.91829442608
 20
45.21421868232391
 30
0.0
  0
VERTEX
  5
392
330
371
100
AcDbEntity
  8
AM_BOR
 62
     1
370
    25
100
AcDbVertex
100
AcDb2dVertex
 10
-107.9024416391201
 20
45.21421868232391
 30
0.0
  0
VERTEX
  5
393
330
371
100
AcDbEntity
  8
AM_BOR
 62
     1
370
    25
100
AcDbVertex
100
AcDb2dVertex
 10
-107.8865888521602
 20
45.19836589536398
 30
0.0
  0
VERTEX
  5
394
330
371
100
AcDbEntity
  8
AM_BOR
 62
     1
370
    25
100
AcDbVertex
100
AcDb2dVertex
 10
-107.8707360652002
 20
45.182513108404
 30
0.0
  0
VERTEX
  5
395
330
371
100
AcDbEntity
  8
AM_BOR
 62
     1
370
    25
100
AcDbVertex
100
AcDb2dVertex
 10
-107.0939495041626
 20
42.2814530947327
 30
0.0
  0
VERTEX
  5
396
330
371
100
AcDbEntity
  8
AM_BOR
 62
     1
370
    25
100
AcDbVertex
100
AcDb2dVertex
 10
-105.9842544169658
 20
42.2814530947327
 30
0.0
  0
VERTEX
  5
397
330
371
100
AcDbEntity
  8
AM_BOR
 62
     1
370
    25
100
AcDbVertex
100
AcDb2dVertex
 10
-104.8111481819293
 20
46.08612196512131
 30
0.0
  0
VERTEX
  5
398
330
371
100
AcDbEntity
  8
AM_BOR
 62
     1
370
    25
100
AcDbVertex
100
AcDb2dVertex
 10
-104.8111481819293
 20
46.08612196512131
 30
0.0
  0
SEQEND
  5
399
330
371
100
AcDbEntity
  8
AM_BOR
 62
     1
370
    25
  0
TEXT
  5
39A
330
327
100
AcDbEntity
  8
AM_BOR
 62
     1
370
    25
100
AcDbText
 10
-117.7641547194027
 20
13.51247978490525
 30
0.0
 40
2.000000000000294
  1
Breuer & Schmitz
  7
ACDINTS
100
AcDbText
  0
TEXT
  5
39B
330
327
100
AcDbEntity
  8
AM_BOR
 62
     1
370
    25
100
AcDbText
 10
-116.2487718154963
 20
10.87383550880824
 30
0.0
 40
2.000000000000294
  1
GmbH & Co. KG
  7
ACDINTS
100
AcDbText
  0
TEXT
  5
39C
330
327
100
AcDbEntity
  8
AM_BOR
 62
     1
370
    25
100
AcDbText
 10
-116.7376043762894
 20
8.235191232711228
 30
0.0
 40
2.000000000000294
  1
Solingen - Wald
  7
ACDINTS
100
AcDbText
  0
TEXT
  5
39D
330
327
100
AcDbEntity
  8
AM_BOR
 62
     1
370
    25
100
AcDbText
 10
-118.1552213727902
 20
5.596546956614217
 30
0.0
 40
2.000000000000294
  1
Baubeschlagfabrik
  7
ACDINTS
100
AcDbText
  0
TEXT
  5
39E
330
327
100
AcDbEntity
  8
AM_BOR
 62
     1
370
    25
100
AcDbText
 10
-83.11724526206262
 20
1.220747800586508
 30
0.0
 40
2.000000000000196
  1
Schutzvermerk nach DIN 34 beachten !
 41
0.8
  7
ACDINTS
100
AcDbText
  0
ATTDEF
  5
39F
330
327
100
AcDbEntity
  8
RAHM2
100
AcDbText
 10
-182.2019468872817
 20
5.030000000000027
 30
0.0
 40
2.500000000000367
  1

100
AcDbAttributeDefinition
  3
Revision (1)
  2
GEN-TITLE-REV1{5.44}
 70
     0
  0
ATTDEF
  5
3A0
330
327
100
AcDbEntity
  8
RAHM2
100
AcDbText
 10
-174.5819468872817
 20
5.030000000000027
 30
0.0
 40
2.500000000000367
  1

 72
     5
 11
-131.6982110610396
 21
5.030000000000027
 31
0.0
100
AcDbAttributeDefinition
  3
Änderung (1)
  2
GEN-TITLE-REVCHANGE1{9.5}
 70
     0
  0
ATTDEF
  5
3A1
330
327
100
AcDbEntity
  8
RAHM2
100
AcDbText
 10
-136.4819468872817
 20
5.030000000000027
 30
0.0
 40
2.500000000000367
  1

100
AcDbAttributeDefinition
  3
Name (1)
  2
GEN-TITLE-REVNAME1{2.7}
 70
     0
  0
ATTDEF
  5
3A2
330
327
100
AcDbEntity
  8
RAHM2
100
AcDbText
 10
-149.1819468872817
 20
5.030000000000027
 30
0.0
 40
2.500000000000367
  1

100
AcDbAttributeDefinition
  3
Datum (1)
  2
GEN-TITLE-REVDATE1{4.65}
 70
     0
  0
ATTDEF
  5
3A3
330
327
100
AcDbEntity
  8
RAHM2
100
AcDbText
 10
-182.2019468872817
 20
9.260000000000038
 30
0.0
 40
2.500000000000367
  1

100
AcDbAttributeDefinition
  3
Revision (2)
  2
GEN-TITLE-REV2{5.44}
 70
     0
  0
ATTDEF
  5
3A4
330
327
100
AcDbEntity
  8
RAHM2
100
AcDbText
 10
-174.5819468872817
 20
9.260000000000038
 30
0.0
 40
2.500000000000367
  1

100
AcDbAttributeDefinition
  3
Änderung (2)
  2
GEN-TITLE-REVCHANGE2{9.5}
 70
     0
  0
ATTDEF
  5
3A5
330
327
100
AcDbEntity
  8
RAHM2
100
AcDbText
 10
-136.4819468872817
 20
9.260000000000038
 30
0.0
 40
2.500000000000367
  1

100
AcDbAttributeDefinition
  3
Name (2)
  2
GEN-TITLE-REVNAME2{2.7}
 70
     0
  0
ATTDEF
  5
3A6
330
327
100
AcDbEntity
  8
RAHM2
100
AcDbText
 10
-149.1819468872817
 20
9.260000000000038
 30
0.0
 40
2.500000000000367
  1

100
AcDbAttributeDefinition
  3
Datum (2)
  2
GEN-TITLE-REVDATE2{4.65}
 70
     0
  0
ATTDEF
  5
3A7
330
327
100
AcDbEntity
  8
RAHM2
100
AcDbText
 10
-182.0298460578768
 20
13.4121667423965
 30
0.0
 40
2.500000000000367
  1

100
AcDbAttributeDefinition
  3
Revision (3)
  2
GEN-TITLE-REV3{5.44}
 70
     0
  0
ATTDEF
  5
3A8
330
327
100
AcDbEntity
  8
RAHM2
100
AcDbText
 10
-174.4098460578767
 20
13.4121667423965
 30
0.0
 40
2.500000000000367
  1

100
AcDbAttributeDefinition
  3
Änderung (3)
  2
GEN-TITLE-REVCHANGE3{9.5}
 70
     0
  0
ATTDEF
  5
3A9
330
327
100
AcDbEntity
  8
RAHM2
100
AcDbText
 10
-136.3098460578767
 20
13.4121667423965
 30
0.0
 40
2.500000000000367
  1

100
AcDbAttributeDefinition
  3
Name (3)
  2
GEN-TITLE-REVNAME3{2.7}
 70
     0
  0
ATTDEF
  5
3AA
330
327
100
AcDbEntity
  8
RAHM2
100
AcDbText
 10
-149.0098460578767
 20
13.4121667423965
 30
0.0
 40
2.500000000000367
  1

100
AcDbAttributeDefinition
  3
Datum (3)
  2
GEN-TITLE-REVDATE3{4.65}
 70
     0
  0
ATTDEF
  5
3AB
330
327
100
AcDbEntity
  8
RAHM2
100
AcDbText
 10
-182.2019468872817
 20
17.72000000000003
 30
0.0
 40
2.500000000000367
  1

100
AcDbAttributeDefinition
  3
Revision (4)
  2
GEN-TITLE-REV4{5.44}
 70
     0
  0
ATTDEF
  5
3AC
330
327
100
AcDbEntity
  8
RAHM2
100
AcDbText
 10
-174.5819468872817
 20
17.72000000000003
 30
0.0
 40
2.500000000000367
  1

100
AcDbAttributeDefinition
  3
Änderung (4)
  2
GEN-TITLE-REVCHANGE4{9.5}
 70
     0
  0
ATTDEF
  5
3AD
330
327
100
AcDbEntity
  8
RAHM2
100
AcDbText
 10
-136.4819468872817
 20
17.72000000000003
 30
0.0
 40
2.500000000000367
  1

100
AcDbAttributeDefinition
  3
Name (4)
  2
GEN-TITLE-REVNAME4{2.7}
 70
     0
  0
ATTDEF
  5
3AE
330
327
100
AcDbEntity
  8
RAHM2
100
AcDbText
 10
-149.1819468872817
 20
17.72000000000003
 30
0.0
 40
2.500000000000367
  1

100
AcDbAttributeDefinition
  3
Datum (4)
  2
GEN-TITLE-REVDATE4{4.65}
 70
     0
  0
ATTDEF
  5
3AF
330
327
100
AcDbEntity
  8
RAHM2
100
AcDbText
 10
-182.2019468872817
 20
21.95000000000005
 30
0.0
 40
2.500000000000367
  1

100
AcDbAttributeDefinition
  3
Revision (5)
  2
GEN-TITLE-REV5{5.44}
 70
     0
  0
ATTDEF
  5
3B0
330
327
100
AcDbEntity
  8
RAHM2
100
AcDbText
 10
-174.5819468872817
 20
21.95000000000005
 30
0.0
 40
2.500000000000367
  1

100
AcDbAttributeDefinition
  3
Änderung (5)
  2
GEN-TITLE-REVCHANGE5{9.5}
 70
     0
  0
ATTDEF
  5
3B1
330
327
100
AcDbEntity
  8
RAHM2
100
AcDbText
 10
-149.1819468872817
 20
21.95000000000005
 30
0.0
 40
2.500000000000367
  1

100
AcDbAttributeDefinition
  3
Datum (5)
  2
GEN-TITLE-REVDATE5{4.65}
 70
     0
  0
ATTDEF
  5
3B2
330
327
100
AcDbEntity
  8
RAHM2
100
AcDbText
 10
-136.4819468872817
 20
21.95000000000005
 30
0.0
 40
2.500000000000367
  1

100
AcDbAttributeDefinition
  3
Name (5)
  2
GEN-TITLE-REVNAME5{2.7}
 70
     0
  0
ATTDEF
  5
3B3
330
327
100
AcDbEntity
  8
RAHM2
100
AcDbText
 10
-182.2019468872817
 20
26.18000000000004
 30
0.0
 40
2.500000000000367
  1

100
AcDbAttributeDefinition
  3
Revision (6)
  2
GEN-TITLE-REV6{5.44}
 70
     0
  0
ATTDEF
  5
3B4
330
327
100
AcDbEntity
  8
RAHM2
100
AcDbText
 10
-174.5819468872817
 20
26.18000000000004
 30
0.0
 40
2.500000000000367
  1

100
AcDbAttributeDefinition
  3
Änderung (6)
  2
GEN-TITLE-REVCHANGE6{9.5}
 70
     0
  0
ATTDEF
  5
3B5
330
327
100
AcDbEntity
  8
RAHM2
100
AcDbText
 10
-149.1819468872817
 20
26.18000000000004
 30
0.0
 40
2.500000000000367
  1

100
AcDbAttributeDefinition
  3
Datum (6)
  2
GEN-TITLE-REVDATE6{4.65}
 70
     0
  0
ATTDEF
  5
3B6
330
327
100
AcDbEntity
  8
RAHM2
100
AcDbText
 10
-136.4819468872817
 20
26.18000000000004
 30
0.0
 40
2.500000000000367
  1

100
AcDbAttributeDefinition
  3
Name (6)
  2
GEN-TITLE-REVNAME6{2.7}
 70
     0
  0
ATTDEF
  5
3B7
330
327
100
AcDbEntity
  8
RAHM2
100
AcDbText
 10
-182.2019468872817
 20
30.41000000000003
 30
0.0
 40
2.500000000000367
  1

100
AcDbAttributeDefinition
  3
Revision (7)
  2
GEN-TITLE-REV7{5.44}
 70
     0
  0
ATTDEF
  5
3B8
330
327
100
AcDbEntity
  8
RAHM2
100
AcDbText
 10
-174.5819468872817
 20
30.41000000000003
 30
0.0
 40
2.500000000000367
  1

100
AcDbAttributeDefinition
  3
Änderung (7)
  2
GEN-TITLE-REVCHANGE7{9.5}
 70
     0
  0
ATTDEF
  5
3B9
330
327
100
AcDbEntity
  8
RAHM2
100
AcDbText
 10
-149.1819468872817
 20
30.41000000000003
 30
0.0
 40
2.500000000000367
  1

100
AcDbAttributeDefinition
  3
Datum (7)
  2
GEN-TITLE-REVDATE7{4.65}
 70
     0
  0
ATTDEF
  5
3BA
330
327
100
AcDbEntity
  8
RAHM2
100
AcDbText
 10
-136.4819468872817
 20
30.41000000000003
 30
0.0
 40
2.500000000000367
  1

100
AcDbAttributeDefinition
  3
Name (7)
  2
GEN-TITLE-REVNAME7{2.7}
 70
     0
  0
ATTDEF
  5
3BB
330
327
100
AcDbEntity
  8
RAHM2
100
AcDbText
 10
-182.2019468872817
 20
34.64000000000004
 30
0.0
 40
2.500000000000367
  1

100
AcDbAttributeDefinition
  3
Revision (8)
  2
GEN-TITLE-REV8{5.44}
 70
     0
  0
ATTDEF
  5
3BC
330
327
100
AcDbEntity
  8
RAHM2
100
AcDbText
 10
-174.5819468872817
 20
34.64000000000004
 30
0.0
 40
2.500000000000367
  1

100
AcDbAttributeDefinition
  3
Änderung (8)
  2
GEN-TITLE-REVCHANGE8{9.5}
 70
     0
  0
ATTDEF
  5
3BD
330
327
100
AcDbEntity
  8
RAHM2
100
AcDbText
 10
-149.1819468872817
 20
34.64000000000004
 30
0.0
 40
2.500000000000367
  1

100
AcDbAttributeDefinition
  3
Datum (8)
  2
GEN-TITLE-REVDATE8{4.65}
 70
     0
  0
ATTDEF
  5
3BE
330
327
100
AcDbEntity
  8
RAHM2
100
AcDbText
 10
-136.4819468872817
 20
34.64000000000004
 30
0.0
 40
2.500000000000367
  1

100
AcDbAttributeDefinition
  3
Name (8}
  2
GEN-TITLE-REVNAME8{2.7}
 70
     0
  0
ENDBLK
  5
3C1
330
327
100
AcDbEntity
  8
0
100
AcDbBlockEnd
  0
BLOCK
  5
B42
330
B41
100
AcDbEntity
  8
0
100
AcDbBlockBegin
  2
DIN_LINKS
 70
     0
 10
0.0
 20
0.0
 30
0.0
  3
DIN_LINKS
  1

  0
TEXT
  5
B43
330
B41
100
AcDbEntity
  8
6
 62
     7
100
AcDbText
 10
-65.2693292271233
 20
3.0
 30
0.0
 40
5.0
  1
gezeichnet: DIN Links
100
AcDbText
  0
ENDBLK
  5
B44
330
B41
100
AcDbEntity
  8
0
100
AcDbBlockEnd
  0
BLOCK
  5
C67
330
C66
100
AcDbEntity
  8
0
100
AcDbBlockBegin
  2
*U6
 70
     1
 10
204.7376251678038
 20
166.234446578179
 30
0.0
  3
*U6
  1

  0
ARC
  5
C68
330
C66
100
AcDbEntity
  8
0
  6
ByBlock
 62
     0
100
AcDbCircle
 10
210.9410207553501
 20
167.7158137496696
 30
0.0
 40
1.876794593264285
100
AcDbArc
 50
306.9429082326876
 51
53.05709176731234
  0
ARC
  5
C69
330
C66
100
AcDbEntity
  8
0
  6
ByBlock
 62
     0
100
AcDbCircle
 10
200.9410207553501
 20
167.7158137496695
 30
0.0
 40
1.876794593264331
100
AcDbArc
 50
306.9429082326887
 51
53.05709176731345
  0
ARC
  5
C6A
330
C66
100
AcDbEntity
  8
0
  6
ByBlock
 62
     0
100
AcDbCircle
 10
208.4410207553501
 20
167.7158137496696
 30
0.0
 40
1.876794593264303
100
AcDbArc
 50
306.9429082326883
 51
53.05709176731162
  0
ARC
  5
C6B
330
C66
100
AcDbEntity
  8
0
  6
ByBlock
 62
     0
100
AcDbCircle
 10
205.9410207553501
 20
167.7158137496696
 30
0.0
 40
1.876794593264269
100
AcDbArc
 50
306.942908232687
 51
53.05709176731314
  0
ARC
  5
C6C
330
C66
100
AcDbEntity
  8
0
  6
ByBlock
 62
     0
100
AcDbCircle
 10
203.4410207553501
 20
167.7158137496696
 30
0.0
 40
1.876794593264285
100
AcDbArc
 50
306.9429082326876
 51
53.05709176731234
  0
ENDBLK
  5
C6D
330
C66
100
AcDbEntity
  8
0
100
AcDbBlockEnd
  0
BLOCK
  5
E4F
330
E43
100
AcDbEntity
  8
0
100
AcDbBlockBegin
  2
*D7
 70
     1
 10
0.0
 20
0.0
 30
0.0
  3
*D7
  1

  0
LINE
  5
18A7
330
E43
100
AcDbEntity
  8
5
370
    -2
100
AcDbLine
 10
85.31073971994841
 20
57.90155723639054
 30
0.0
 11
85.31073971994841
 21
61.74377903578124
 31
0.0
  0
LINE
  5
18A8
330
E43
100
AcDbEntity
  8
5
370
    -2
100
AcDbLine
 10
88.31073971994829
 20
57.90155723639053
 30
0.0
 11
88.31073971994829
 21
61.74377903578124
 31
0.0
  0
LINE
  5
18A9
330
E43
100
AcDbEntity
  8
5
370
    -2
100
AcDbLine
 10
82.81073971994841
 20
60.74377903578124
 30
0.0
 11
80.31073971994841
 21
60.74377903578124
 31
0.0
  0
LINE
  5
18AA
330
E43
100
AcDbEntity
  8
5
370
    -2
100
AcDbLine
 10
90.81073971994829
 20
60.74377903578124
 30
0.0
 11
93.31073971994829
 21
60.74377903578124
 31
0.0
  0
LINE
  5
18AB
330
E43
100
AcDbEntity
  8
5
370
    -2
100
AcDbLine
 10
85.31073971994841
 20
60.74377903578124
 30
0.0
 11
88.31073971994829
 21
60.74377903578124
 31
0.0
  0
SOLID
  5
18AC
330
E43
100
AcDbEntity
  8
5
100
AcDbTrace
 10
82.81073971994841
 20
61.16044570244791
 30
0.0
 11
82.81073971994841
 21
60.32711236911458
 31
0.0
 12
85.31073971994841
 22
60.74377903578124
 32
0.0
 13
85.31073971994841
 23
60.74377903578124
 33
0.0
  0
SOLID
  5
18AD
330
E43
100
AcDbEntity
  8
5
100
AcDbTrace
 10
90.81073971994829
 20
61.16044570244791
 30
0.0
 11
90.81073971994829
 21
60.32711236911458
 31
0.0
 12
88.31073971994829
 22
60.74377903578124
 32
0.0
 13
88.31073971994829
 23
60.74377903578124
 33
0.0
  0
MTEXT
  5
18AE
330
E43
100
AcDbEntity
  8
5
 62
     2
100
AcDbMText
 10
86.81073971994834
 20
63.09377903578124
 30
0.0
 40
3.5
 41
0.0
 71
     5
 72
     1
  1
3
 73
     1
 44
1.0
  0
POINT
  5
18AF
330
E43
100
AcDbEntity
  8
Defpoints
 62
     0
100
AcDbPoint
 10
85.31073971994841
 20
56.90155723639055
 30
0.0
  0
POINT
  5
18B0
330
E43
100
AcDbEntity
  8
Defpoints
 62
     0
100
AcDbPoint
 10
88.31073971994829
 20
56.90155723639053
 30
0.0
  0
POINT
  5
18B1
330
E43
100
AcDbEntity
  8
Defpoints
 62
     0
100
AcDbPoint
 10
88.31073971994829
 20
60.74377903578124
 30
0.0
  0
ENDBLK
  5
E50
330
E43
100
AcDbEntity
  8
0
100
AcDbBlockEnd
  0
BLOCK
  5
E5B
330
E51
100
AcDbEntity
  8
0
100
AcDbBlockBegin
  2
*D8
 70
     1
 10
0.0
 20
0.0
 30
0.0
  3
*D8
  1

  0
LINE
  5
188F
330
E51
100
AcDbEntity
  8
5
370
    -2
100
AcDbLine
 10
85.31073971994841
 20
68.94512122503377
 30
0.0
 11
85.31073971994841
 21
87.94512222503374
 31
0.0
  0
LINE
  5
1890
330
E51
100
AcDbEntity
  8
5
370
    -2
100
AcDbLine
 10
111.3107397199484
 20
77.94512122503374
 30
0.0
 11
111.3107397199484
 21
87.94512222503374
 31
0.0
  0
LINE
  5
1891
330
E51
100
AcDbEntity
  8
5
370
    -2
100
AcDbLine
 10
87.81073971994841
 20
86.94512222503375
 30
0.0
 11
108.8107397199484
 21
86.94512222503375
 31
0.0
  0
SOLID
  5
1892
330
E51
100
AcDbEntity
  8
5
100
AcDbTrace
 10
87.81073971994841
 20
87.36178889170041
 30
0.0
 11
87.81073971994841
 21
86.52845555836707
 31
0.0
 12
85.31073971994841
 22
86.94512222503375
 32
0.0
 13
85.31073971994841
 23
86.94512222503375
 33
0.0
  0
SOLID
  5
1893
330
E51
100
AcDbEntity
  8
5
100
AcDbTrace
 10
108.8107397199484
 20
87.36178889170041
 30
0.0
 11
108.8107397199484
 21
86.52845555836707
 31
0.0
 12
111.3107397199484
 22
86.94512222503375
 32
0.0
 13
111.3107397199484
 23
86.94512222503375
 33
0.0
  0
MTEXT
  5
1894
330
E51
100
AcDbEntity
  8
5
 62
     2
100
AcDbMText
 10
98.3107397199484
 20
89.29546671322272
 30
0.0
 40
3.5
 41
0.0
 71
     5
 72
     1
  1
26
 73
     1
 44
1.0
  0
POINT
  5
1895
330
E51
100
AcDbEntity
  8
Defpoints
 62
     0
100
AcDbPoint
 10
85.31073971994841
 20
67.94512122503377
 30
0.0
  0
POINT
  5
1896
330
E51
100
AcDbEntity
  8
Defpoints
 62
     0
100
AcDbPoint
 10
111.3107397199484
 20
76.94512122503375
 30
0.0
  0
POINT
  5
1897
330
E51
100
AcDbEntity
  8
Defpoints
 62
     0
100
AcDbPoint
 10
111.3107397199484
 20
86.94512222503375
 30
0.0
  0
ENDBLK
  5
E5C
330
E51
100
AcDbEntity
  8
0
100
AcDbBlockEnd
  0
BLOCK
  5
E69
330
E5D
100
AcDbEntity
  8
0
100
AcDbBlockBegin
  2
*D9
 70
     1
 10
0.0
 20
0.0
 30
0.0
  3
*D9
  1

  0
LINE
  5
1899
330
E5D
100
AcDbEntity
  8
5
370
    -2
100
AcDbLine
 10
90.8107397199484
 20
45.94512122503374
 30
0.0
 11
90.8107397199484
 21
78.94512222503377
 31
0.0
  0
LINE
  5
189A
330
E5D
100
AcDbEntity
  8
5
370
    -2
100
AcDbLine
 10
88.3107397199484
 20
68.94512122503377
 30
0.0
 11
88.3107397199484
 21
78.94512222503377
 31
0.0
  0
LINE
  5
189B
330
E5D
100
AcDbEntity
  8
5
370
    -2
100
AcDbLine
 10
93.3107397199484
 20
77.94512222503377
 30
0.0
 11
95.8107397199484
 21
77.94512222503377
 31
0.0
  0
LINE
  5
189C
330
E5D
100
AcDbEntity
  8
5
370
    -2
100
AcDbLine
 10
85.8107397199484
 20
77.94512222503377
 30
0.0
 11
76.97688702036192
 21
77.94512222503377
 31
0.0
  0
LINE
  5
189D
330
E5D
100
AcDbEntity
  8
5
370
    -2
100
AcDbLine
 10
90.8107397199484
 20
77.94512222503377
 30
0.0
 11
88.3107397199484
 21
77.94512222503377
 31
0.0
  0
SOLID
  5
189E
330
E5D
100
AcDbEntity
  8
5
100
AcDbTrace
 10
93.3107397199484
 20
78.36178889170044
 30
0.0
 11
93.3107397199484
 21
77.5284555583671
 31
0.0
 12
90.8107397199484
 22
77.94512222503377
 32
0.0
 13
90.8107397199484
 23
77.94512222503377
 33
0.0
  0
SOLID
  5
189F
330
E5D
100
AcDbEntity
  8
5
100
AcDbTrace
 10
85.8107397199484
 20
78.36178889170044
 30
0.0
 11
85.8107397199484
 21
77.5284555583671
 31
0.0
 12
88.3107397199484
 22
77.94512222503377
 32
0.0
 13
88.3107397199484
 23
77.94512222503377
 33
0.0
  0
MTEXT
  5
18A0
330
E5D
100
AcDbEntity
  8
5
 62
     2
100
AcDbMText
 10
80.14381337015516
 20
80.29546671322275
 30
0.0
 40
3.5
 41
0.0
 71
     5
 72
     1
  1
2.5
 73
     1
 44
1.0
  0
POINT
  5
18A1
330
E5D
100
AcDbEntity
  8
Defpoints
 62
     0
100
AcDbPoint
 10
90.8107397199484
 20
44.94512122503374
 30
0.0
  0
POINT
  5
18A2
330
E5D
100
AcDbEntity
  8
Defpoints
 62
     0
100
AcDbPoint
 10
88.3107397199484
 20
67.94512122503377
 30
0.0
  0
POINT
  5
18A3
330
E5D
100
AcDbEntity
  8
Defpoints
 62
     0
100
AcDbPoint
 10
88.3107397199484
 20
77.94512222503377
 30
0.0
  0
ENDBLK
  5
E6A
330
E5D
100
AcDbEntity
  8
0
100
AcDbBlockEnd
  0
BLOCK
  5
E75
330
E6B
100
AcDbEntity
  8
0
100
AcDbBlockBegin
  2
*D10
 70
     1
 10
0.0
 20
0.0
 30
0.0
  3
*D10
  1

  0
LINE
  5
18B3
330
E6B
100
AcDbEntity
  8
5
370
    -2
100
AcDbLine
 10
77.8107397199484
 20
31.94512122503375
 30
0.0
 11
70.81073871994838
 21
31.94512122503375
 31
0.0
  0
LINE
  5
18B4
330
E6B
100
AcDbEntity
  8
5
370
    -2
100
AcDbLine
 10
84.31073971994839
 20
67.94512122503377
 30
0.0
 11
70.8107387199484
 21
67.94512122503377
 31
0.0
  0
LINE
  5
18B5
330
E6B
100
AcDbEntity
  8
5
370
    -2
100
AcDbLine
 10
71.8107387199484
 20
34.44512122503375
 30
0.0
 11
71.8107387199484
 21
65.44512122503377
 31
0.0
  0
SOLID
  5
18B6
330
E6B
100
AcDbEntity
  8
5
100
AcDbTrace
 10
71.39407205328173
 20
34.44512122503375
 30
0.0
 11
72.22740538661508
 21
34.44512122503375
 31
0.0
 12
71.81073871994839
 22
31.94512122503375
 32
0.0
 13
71.81073871994839
 23
31.94512122503375
 33
0.0
  0
SOLID
  5
18B7
330
E6B
100
AcDbEntity
  8
5
100
AcDbTrace
 10
71.39407205328173
 20
65.44512122503377
 30
0.0
 11
72.22740538661508
 21
65.44512122503377
 31
0.0
 12
71.8107387199484
 22
67.94512122503377
 32
0.0
 13
71.8107387199484
 23
67.94512122503377
 33
0.0
  0
MTEXT
  5
18B8
330
E6B
100
AcDbEntity
  8
5
 62
     2
100
AcDbMText
 10
69.4607387199484
 20
49.94512122503376
 30
0.0
 40
3.5
 41
0.0
 71
     5
 72
     1
  1
36
 11
0.0000000000000001
 21
1.0
 31
0.0
 73
     1
 44
1.0
  0
POINT
  5
18B9
330
E6B
100
AcDbEntity
  8
Defpoints
 62
     0
100
AcDbPoint
 10
78.8107397199484
 20
31.94512122503375
 30
0.0
  0
POINT
  5
18BA
330
E6B
100
AcDbEntity
  8
Defpoints
 62
     0
100
AcDbPoint
 10
85.31073971994841
 20
67.94512122503377
 30
0.0
  0
POINT
  5
18BB
330
E6B
100
AcDbEntity
  8
Defpoints
 62
     0
100
AcDbPoint
 10
71.8107387199484
 20
67.94512122503377
 30
0.0
  0
ENDBLK
  5
E76
330
E6B
100
AcDbEntity
  8
0
100
AcDbBlockEnd
  0
BLOCK
  5
E81
330
E77
100
AcDbEntity
  8
0
100
AcDbBlockBegin
  2
*D11
 70
     1
 10
0.0
 20
0.0
 30
0.0
  3
*D11
  1

  0
LINE
  5
1814
330
E77
100
AcDbEntity
  8
5
370
    -2
100
AcDbLine
 10
124.8107397199482
 20
225.8963009119648
 30
0.0
 11
137.8107397199483
 21
225.8963009119648
 31
0.0
  0
LINE
  5
1815
330
E77
100
AcDbEntity
  8
5
370
    -2
100
AcDbLine
 10
124.8107397199483
 20
259.1963009119647
 30
0.0
 11
137.8107397199483
 21
259.1963009119647
 31
0.0
  0
LINE
  5
1816
330
E77
100
AcDbEntity
  8
5
370
    -2
100
AcDbLine
 10
136.8107397199483
 20
228.3963009119648
 30
0.0
 11
136.8107397199483
 21
256.6963009119647
 31
0.0
  0
SOLID
  5
1817
330
E77
100
AcDbEntity
  8
5
100
AcDbTrace
 10
136.3940730532817
 20
228.3963009119648
 30
0.0
 11
137.227406386615
 21
228.3963009119648
 31
0.0
 12
136.8107397199483
 22
225.8963009119648
 32
0.0
 13
136.8107397199483
 23
225.8963009119648
 33
0.0
  0
SOLID
  5
1818
330
E77
100
AcDbEntity
  8
5
100
AcDbTrace
 10
136.3940730532817
 20
256.6963009119647
 30
0.0
 11
137.227406386615
 21
256.6963009119647
 31
0.0
 12
136.8107397199483
 22
259.1963009119647
 32
0.0
 13
136.8107397199483
 23
259.1963009119647
 33
0.0
  0
MTEXT
  5
1819
330
E77
100
AcDbEntity
  8
5
 62
     2
100
AcDbMText
 10
134.4607397199483
 20
242.5463009119647
 30
0.0
 40
3.5
 41
0.0
 71
     5
 72
     1
  1
33.3{}{\H0.71x;\C3;-0.2}
 11
0.0000000000000001
 21
1.0
 31
0.0
 73
     1
 44
1.0
  0
POINT
  5
181A
330
E77
100
AcDbEntity
  8
Defpoints
 62
     0
100
AcDbPoint
 10
123.8107397199482
 20
225.8963009119648
 30
0.0
  0
POINT
  5
181B
330
E77
100
AcDbEntity
  8
Defpoints
 62
     0
100
AcDbPoint
 10
123.8107397199483
 20
259.1963009119647
 30
0.0
  0
POINT
  5
181C
330
E77
100
AcDbEntity
  8
Defpoints
 62
     0
100
AcDbPoint
 10
136.8107397199483
 20
259.1963009119647
 30
0.0
  0
ENDBLK
  5
E82
330
E77
100
AcDbEntity
  8
0
100
AcDbBlockEnd
  0
BLOCK
  5
E8D
330
E83
100
AcDbEntity
  8
0
100
AcDbBlockBegin
  2
*D12
 70
     1
 10
0.0
 20
0.0
 30
0.0
  3
*D12
  1

  0
LINE
  5
18BD
330
E83
100
AcDbEntity
  8
5
370
    -2
100
AcDbLine
 10
169.5140924022179
 20
65.94512122503374
 30
0.0
 11
169.5140924022179
 21
92.00456178974588
 31
0.0
  0
LINE
  5
18BE
330
E83
100
AcDbEntity
  8
5
370
    -2
100
AcDbLine
 10
187.0140924022179
 20
77.94512122503374
 30
0.0
 11
187.0140924022179
 21
92.00456178974588
 31
0.0
  0
LINE
  5
18BF
330
E83
100
AcDbEntity
  8
5
370
    -2
100
AcDbLine
 10
172.0140924022179
 20
91.00456178974587
 30
0.0
 11
184.5140924022179
 21
91.00456178974587
 31
0.0
  0
SOLID
  5
18C0
330
E83
100
AcDbEntity
  8
5
100
AcDbTrace
 10
172.0140924022179
 20
91.42122845641255
 30
0.0
 11
172.0140924022179
 21
90.58789512307921
 31
0.0
 12
169.5140924022179
 22
91.00456178974587
 32
0.0
 13
169.5140924022179
 23
91.00456178974587
 33
0.0
  0
SOLID
  5
18C1
330
E83
100
AcDbEntity
  8
5
100
AcDbTrace
 10
184.5140924022179
 20
91.42122845641255
 30
0.0
 11
184.5140924022179
 21
90.58789512307921
 31
0.0
 12
187.0140924022179
 22
91.00456178974587
 32
0.0
 13
187.0140924022179
 23
91.00456178974587
 33
0.0
  0
MTEXT
  5
18C2
330
E83
100
AcDbEntity
  8
5
 62
     2
100
AcDbMText
 10
178.2640924022179
 20
93.35456178974586
 30
0.0
 40
3.5
 41
0.0
 71
     5
 72
     1
  1
17.5
 73
     1
 44
1.0
  0
POINT
  5
18C3
330
E83
100
AcDbEntity
  8
Defpoints
 62
     0
100
AcDbPoint
 10
169.5140924022179
 20
64.94512122503374
 30
0.0
  0
POINT
  5
18C4
330
E83
100
AcDbEntity
  8
Defpoints
 62
     0
100
AcDbPoint
 10
187.0140924022179
 20
76.94512122503375
 30
0.0
  0
POINT
  5
18C5
330
E83
100
AcDbEntity
  8
Defpoints
 62
     0
100
AcDbPoint
 10
187.0140924022179
 20
91.00456178974587
 30
0.0
  0
ENDBLK
  5
E8E
330
E83
100
AcDbEntity
  8
0
100
AcDbBlockEnd
  0
BLOCK
  5
E96
330
E8F
100
AcDbEntity
  8
0
100
AcDbBlockBegin
  2
*D13
 70
     1
 10
0.0
 20
0.0
 30
0.0
  3
*D13
  1

  0
LINE
  5
1711
330
E8F
100
AcDbEntity
  8
5
370
    -2
100
AcDbLine
 10
48.46271785615932
 20
103.3118754765113
 30
0.0
 11
39.52014805051424
 21
92.70821518812583
 31
0.0
  0
LINE
  5
1712
330
E8F
100
AcDbEntity
  8
5
370
    -2
100
AcDbLine
 10
39.52014805051424
 20
92.70821518812583
 30
0.0
 11
32.75994135760085
 21
92.70821518812583
 31
0.0
  0
SOLID
  5
1713
330
E8F
100
AcDbEntity
  8
5
100
AcDbTrace
 10
48.14419988387617
 20
103.5804967944363
 30
0.0
 11
48.78123582844248
 21
103.0432541585863
 31
0.0
 12
50.07444576370907
 22
105.2229833102102
 32
0.0
 13
50.07444576370907
 23
105.2229833102102
 33
0.0
  0
MTEXT
  5
1714
330
E8F
100
AcDbEntity
  8
5
 62
     2
100
AcDbMText
 10
35.84004470405758
 20
95.05855967631477
 30
0.0
 40
3.5
 41
0.0
 71
     5
 72
     1
  1
R12
 73
     1
 44
1.0
  0
POINT
  5
1715
330
E8F
100
AcDbEntity
  8
Defpoints
 62
     0
100
AcDbPoint
 10
50.07444576370907
 20
105.2229833102102
 30
0.0
  0
POINT
  5
1716
330
E8F
100
AcDbEntity
  8
Defpoints
 62
     0
100
AcDbPoint
 10
57.81073971994778
 20
114.3963009119651
 30
0.0
  0
ENDBLK
  5
E97
330
E8F
100
AcDbEntity
  8
0
100
AcDbBlockEnd
  0
BLOCK
  5
EA4
330
E98
100
AcDbEntity
  8
0
100
AcDbBlockBegin
  2
*D14
 70
     1
 10
0.0
 20
0.0
 30
0.0
  3
*D14
  1

  0
LINE
  5
1706
330
E98
100
AcDbEntity
  8
5
370
    -2
100
AcDbLine
 10
53.6187019527426
 20
259.7963009119649
 30
0.0
 11
34.81073971994826
 21
259.7963009119649
 31
0.0
  0
LINE
  5
1707
330
E98
100
AcDbEntity
  8
5
370
    -2
100
AcDbLine
 10
57.81592121161755
 20
262.6963009119649
 30
0.0
 11
34.81073971994826
 21
262.6963009119649
 31
0.0
  0
LINE
  5
1708
330
E98
100
AcDbEntity
  8
5
370
    -2
100
AcDbLine
 10
35.81073971994826
 20
257.2963009119649
 30
0.0
 11
35.81073971994826
 21
254.7963009119649
 31
0.0
  0
LINE
  5
1709
330
E98
100
AcDbEntity
  8
5
370
    -2
100
AcDbLine
 10
35.81073971994826
 20
265.196300911965
 30
0.0
 11
35.81073971994827
 21
274.1357560412271
 31
0.0
  0
LINE
  5
170A
330
E98
100
AcDbEntity
  8
5
370
    -2
100
AcDbLine
 10
35.81073971994826
 20
259.7963009119649
 30
0.0
 11
35.81073971994826
 21
262.6963009119649
 31
0.0
  0
SOLID
  5
170B
330
E98
100
AcDbEntity
  8
5
100
AcDbTrace
 10
35.3940730532816
 20
257.2963009119649
 30
0.0
 11
36.22740638661492
 21
257.2963009119649
 31
0.0
 12
35.81073971994826
 22
259.7963009119649
 32
0.0
 13
35.81073971994826
 23
259.7963009119649
 33
0.0
  0
SOLID
  5
170C
330
E98
100
AcDbEntity
  8
5
100
AcDbTrace
 10
35.3940730532816
 20
265.196300911965
 30
0.0
 11
36.22740638661492
 21
265.196300911965
 31
0.0
 12
35.81073971994826
 22
262.6963009119649
 32
0.0
 13
35.81073971994826
 23
262.6963009119649
 33
0.0
  0
MTEXT
  5
170D
330
E98
100
AcDbEntity
  8
5
 62
     2
100
AcDbMText
 10
33.46039523175925
 20
270.916028476596
 30
0.0
 40
3.5
 41
0.0
 71
     5
 72
     1
  1
2.9
 11
0.0000000000000001
 21
1.0
 31
0.0
 73
     1
 44
1.0
  0
POINT
  5
170E
330
E98
100
AcDbEntity
  8
Defpoints
 62
     0
100
AcDbPoint
 10
54.6187019527426
 20
259.7963009119649
 30
0.0
  0
POINT
  5
170F
330
E98
100
AcDbEntity
  8
Defpoints
 62
     0
100
AcDbPoint
 10
58.81592121161755
 20
262.6963009119649
 30
0.0
  0
POINT
  5
1710
330
E98
100
AcDbEntity
  8
Defpoints
 62
     0
100
AcDbPoint
 10
35.81073971994826
 20
262.6963009119649
 30
0.0
  0
ENDBLK
  5
EA5
330
E98
100
AcDbEntity
  8
0
100
AcDbBlockEnd
  0
BLOCK
  5
EB0
330
EA6
100
AcDbEntity
  8
0
100
AcDbBlockBegin
  2
*D15
 70
     1
 10
0.0
 20
0.0
 30
0.0
  3
*D15
  1

  0
LINE
  5
1885
330
EA6
100
AcDbEntity
  8
5
370
    -2
100
AcDbLine
 10
56.81073971994823
 20
102.3963009119648
 30
0.0
 11
27.81073971994822
 21
102.3963009119649
 31
0.0
  0
LINE
  5
1886
330
EA6
100
AcDbEntity
  8
5
370
    -2
100
AcDbLine
 10
56.81073971994824
 20
262.6963009119649
 30
0.0
 11
27.81073971994826
 21
262.6963009119649
 31
0.0
  0
LINE
  5
1887
330
EA6
100
AcDbEntity
  8
5
370
    -2
100
AcDbLine
 10
28.81073971994823
 20
104.8963009119649
 30
0.0
 11
28.81073971994826
 21
260.1963009119649
 31
0.0
  0
SOLID
  5
1888
330
EA6
100
AcDbEntity
  8
5
100
AcDbTrace
 10
28.39407305328156
 20
104.8963009119649
 30
0.0
 11
29.2274063866149
 21
104.8963009119649
 31
0.0
 12
28.81073971994823
 22
102.3963009119649
 32
0.0
 13
28.81073971994823
 23
102.3963009119649
 33
0.0
  0
SOLID
  5
1889
330
EA6
100
AcDbEntity
  8
5
100
AcDbTrace
 10
28.39407305328159
 20
260.1963009119649
 30
0.0
 11
29.22740638661493
 21
260.1963009119649
 31
0.0
 12
28.81073971994826
 22
262.6963009119649
 32
0.0
 13
28.81073971994826
 23
262.6963009119649
 33
0.0
  0
MTEXT
  5
188A
330
EA6
100
AcDbEntity
  8
5
 62
     2
100
AcDbMText
 10
26.46073971994821
 20
182.5463009119649
 30
0.0
 40
3.5
 41
0.0
 71
     5
 72
     1
  1
160.3
 11
0.0000000000000001
 21
1.0
 31
0.0
 73
     1
 44
1.0
  0
POINT
  5
188B
330
EA6
100
AcDbEntity
  8
Defpoints
 62
     0
100
AcDbPoint
 10
57.81073971994823
 20
102.3963009119648
 30
0.0
  0
POINT
  5
188C
330
EA6
100
AcDbEntity
  8
Defpoints
 62
     0
100
AcDbPoint
 10
57.81073971994825
 20
262.6963009119649
 30
0.0
  0
POINT
  5
188D
330
EA6
100
AcDbEntity
  8
Defpoints
 62
     0
100
AcDbPoint
 10
28.81073971994826
 20
262.6963009119649
 30
0.0
  0
ENDBLK
  5
EB1
330
EA6
100
AcDbEntity
  8
0
100
AcDbBlockEnd
  0
BLOCK
  5
EBC
330
EB2
100
AcDbEntity
  8
0
100
AcDbBlockBegin
  2
*D16
 70
     1
 10
0.0
 20
0.0
 30
0.0
  3
*D16
  1

  0
LINE
  5
16F4
330
EB2
100
AcDbEntity
  8
5
370
    -2
100
AcDbLine
 10
46.56073971994823
 20
217.5463009119649
 30
0.0
 11
34.81073971994825
 21
217.5463009119649
 31
0.0
  0
LINE
  5
16F5
330
EB2
100
AcDbEntity
  8
5
370
    -2
100
AcDbLine
 10
56.56073971994825
 20
252.5463009119649
 30
0.0
 11
34.81073971994826
 21
252.5463009119649
 31
0.0
  0
LINE
  5
16F6
330
EB2
100
AcDbEntity
  8
5
370
    -2
100
AcDbLine
 10
35.81073971994825
 20
220.0463009119649
 30
0.0
 11
35.81073971994826
 21
250.0463009119648
 31
0.0
  0
SOLID
  5
16F7
330
EB2
100
AcDbEntity
  8
5
100
AcDbTrace
 10
35.39407305328159
 20
220.0463009119649
 30
0.0
 11
36.22740638661492
 21
220.0463009119649
 31
0.0
 12
35.81073971994825
 22
217.5463009119649
 32
0.0
 13
35.81073971994825
 23
217.5463009119649
 33
0.0
  0
SOLID
  5
16F8
330
EB2
100
AcDbEntity
  8
5
100
AcDbTrace
 10
35.3940730532816
 20
250.0463009119648
 30
0.0
 11
36.22740638661492
 21
250.0463009119648
 31
0.0
 12
35.81073971994826
 22
252.5463009119649
 32
0.0
 13
35.81073971994826
 23
252.5463009119649
 33
0.0
  0
MTEXT
  5
16F9
330
EB2
100
AcDbEntity
  8
5
 62
     2
100
AcDbMText
 10
33.46073971994822
 20
235.0463009119649
 30
0.0
 40
3.5
 41
0.0
 71
     5
 72
     1
  1
35
 11
0.0000000000000001
 21
1.0
 31
0.0
 73
     1
 44
1.0
  0
POINT
  5
16FA
330
EB2
100
AcDbEntity
  8
Defpoints
 62
     0
100
AcDbPoint
 10
47.56073971994823
 20
217.5463009119649
 30
0.0
  0
POINT
  5
16FB
330
EB2
100
AcDbEntity
  8
Defpoints
 62
     0
100
AcDbPoint
 10
57.56073971994824
 20
252.5463009119649
 30
0.0
  0
POINT
  5
16FC
330
EB2
100
AcDbEntity
  8
Defpoints
 62
     0
100
AcDbPoint
 10
35.81073971994826
 20
252.5463009119649
 30
0.0
  0
ENDBLK
  5
EBD
330
EB2
100
AcDbEntity
  8
0
100
AcDbBlockEnd
  0
BLOCK
  5
EC8
330
EBE
100
AcDbEntity
  8
0
100
AcDbBlockBegin
  2
*D17
 70
     1
 10
0.0
 20
0.0
 30
0.0
  3
*D17
  1

  0
LINE
  5
16EB
330
EBE
100
AcDbEntity
  8
5
370
    -2
100
AcDbLine
 10
41.81073971994822
 20
182.5463009119649
 30
0.0
 11
34.81073971994823
 21
182.5463009119649
 31
0.0
  0
LINE
  5
16EC
330
EBE
100
AcDbEntity
  8
5
370
    -2
100
AcDbLine
 10
46.56073971994823
 20
217.5463009119649
 30
0.0
 11
34.81073971994823
 21
217.5463009119649
 31
0.0
  0
LINE
  5
16ED
330
EBE
100
AcDbEntity
  8
5
370
    -2
100
AcDbLine
 10
35.81073971994822
 20
185.0463009119649
 30
0.0
 11
35.81073971994823
 21
215.0463009119649
 31
0.0
  0
SOLID
  5
16EE
330
EBE
100
AcDbEntity
  8
5
100
AcDbTrace
 10
35.39407305328156
 20
185.0463009119649
 30
0.0
 11
36.22740638661489
 21
185.0463009119649
 31
0.0
 12
35.81073971994822
 22
182.5463009119649
 32
0.0
 13
35.81073971994822
 23
182.5463009119649
 33
0.0
  0
SOLID
  5
16EF
330
EBE
100
AcDbEntity
  8
5
100
AcDbTrace
 10
35.39407305328157
 20
215.0463009119649
 30
0.0
 11
36.2274063866149
 21
215.0463009119649
 31
0.0
 12
35.81073971994823
 22
217.5463009119649
 32
0.0
 13
35.81073971994823
 23
217.5463009119649
 33
0.0
  0
MTEXT
  5
16F0
330
EBE
100
AcDbEntity
  8
5
 62
     2
100
AcDbMText
 10
33.46073971994819
 20
200.0463009119649
 30
0.0
 40
3.5
 41
0.0
 71
     5
 72
     1
  1
35
 11
0.0000000000000001
 21
1.0
 31
0.0
 73
     1
 44
1.0
  0
POINT
  5
16F1
330
EBE
100
AcDbEntity
  8
Defpoints
 62
     0
100
AcDbPoint
 10
42.81073971994823
 20
182.5463009119649
 30
0.0
  0
POINT
  5
16F2
330
EBE
100
AcDbEntity
  8
Defpoints
 62
     0
100
AcDbPoint
 10
47.56073971994823
 20
217.5463009119649
 30
0.0
  0
POINT
  5
16F3
330
EBE
100
AcDbEntity
  8
Defpoints
 62
     0
100
AcDbPoint
 10
35.81073971994823
 20
217.5463009119649
 30
0.0
  0
ENDBLK
  5
EC9
330
EBE
100
AcDbEntity
  8
0
100
AcDbBlockEnd
  0
BLOCK
  5
ED4
330
ECA
100
AcDbEntity
  8
0
100
AcDbBlockBegin
  2
*D18
 70
     1
 10
0.0
 20
0.0
 30
0.0
  3
*D18
  1

  0
LINE
  5
16E2
330
ECA
100
AcDbEntity
  8
5
370
    -2
100
AcDbLine
 10
46.56073971994823
 20
147.5463009119649
 30
0.0
 11
34.81073971994823
 21
147.5463009119649
 31
0.0
  0
LINE
  5
16E3
330
ECA
100
AcDbEntity
  8
5
370
    -2
100
AcDbLine
 10
41.81073971994822
 20
182.5463009119649
 30
0.0
 11
34.81073971994823
 21
182.5463009119649
 31
0.0
  0
LINE
  5
16E4
330
ECA
100
AcDbEntity
  8
5
370
    -2
100
AcDbLine
 10
35.81073971994822
 20
150.0463009119649
 30
0.0
 11
35.81073971994823
 21
180.0463009119649
 31
0.0
  0
SOLID
  5
16E5
330
ECA
100
AcDbEntity
  8
5
100
AcDbTrace
 10
35.39407305328156
 20
150.0463009119649
 30
0.0
 11
36.22740638661489
 21
150.0463009119649
 31
0.0
 12
35.81073971994822
 22
147.5463009119649
 32
0.0
 13
35.81073971994822
 23
147.5463009119649
 33
0.0
  0
SOLID
  5
16E6
330
ECA
100
AcDbEntity
  8
5
100
AcDbTrace
 10
35.39407305328157
 20
180.0463009119649
 30
0.0
 11
36.2274063866149
 21
180.0463009119649
 31
0.0
 12
35.81073971994823
 22
182.5463009119649
 32
0.0
 13
35.81073971994823
 23
182.5463009119649
 33
0.0
  0
MTEXT
  5
16E7
330
ECA
100
AcDbEntity
  8
5
 62
     2
100
AcDbMText
 10
33.46073971994819
 20
165.0463009119649
 30
0.0
 40
3.5
 41
0.0
 71
     5
 72
     1
  1
35
 11
0.0000000000000001
 21
1.0
 31
0.0
 73
     1
 44
1.0
  0
POINT
  5
16E8
330
ECA
100
AcDbEntity
  8
Defpoints
 62
     0
100
AcDbPoint
 10
47.56073971994823
 20
147.5463009119649
 30
0.0
  0
POINT
  5
16E9
330
ECA
100
AcDbEntity
  8
Defpoints
 62
     0
100
AcDbPoint
 10
42.81073971994823
 20
182.5463009119649
 30
0.0
  0
POINT
  5
16EA
330
ECA
100
AcDbEntity
  8
Defpoints
 62
     0
100
AcDbPoint
 10
35.81073971994823
 20
182.5463009119649
 30
0.0
  0
ENDBLK
  5
ED5
330
ECA
100
AcDbEntity
  8
0
100
AcDbBlockEnd
  0
BLOCK
  5
EE0
330
ED6
100
AcDbEntity
  8
0
100
AcDbBlockBegin
  2
*D19
 70
     1
 10
0.0
 20
0.0
 30
0.0
  3
*D19
  1

  0
LINE
  5
16D9
330
ED6
100
AcDbEntity
  8
5
370
    -2
100
AcDbLine
 10
56.56073971994823
 20
112.5463009119649
 30
0.0
 11
34.81073971994823
 21
112.5463009119649
 31
0.0
  0
LINE
  5
16DA
330
ED6
100
AcDbEntity
  8
5
370
    -2
100
AcDbLine
 10
46.56073971994823
 20
147.5463009119649
 30
0.0
 11
34.81073971994823
 21
147.5463009119649
 31
0.0
  0
LINE
  5
16DB
330
ED6
100
AcDbEntity
  8
5
370
    -2
100
AcDbLine
 10
35.81073971994822
 20
115.0463009119649
 30
0.0
 11
35.81073971994823
 21
145.0463009119649
 31
0.0
  0
SOLID
  5
16DC
330
ED6
100
AcDbEntity
  8
5
100
AcDbTrace
 10
35.39407305328156
 20
115.0463009119649
 30
0.0
 11
36.22740638661489
 21
115.0463009119649
 31
0.0
 12
35.81073971994822
 22
112.5463009119649
 32
0.0
 13
35.81073971994822
 23
112.5463009119649
 33
0.0
  0
SOLID
  5
16DD
330
ED6
100
AcDbEntity
  8
5
100
AcDbTrace
 10
35.39407305328157
 20
145.0463009119649
 30
0.0
 11
36.2274063866149
 21
145.0463009119649
 31
0.0
 12
35.81073971994823
 22
147.5463009119649
 32
0.0
 13
35.81073971994823
 23
147.5463009119649
 33
0.0
  0
MTEXT
  5
16DE
330
ED6
100
AcDbEntity
  8
5
 62
     2
100
AcDbMText
 10
33.4607397199482
 20
130.0463009119649
 30
0.0
 40
3.5
 41
0.0
 71
     5
 72
     1
  1
35
 11
0.0000000000000001
 21
1.0
 31
0.0
 73
     1
 44
1.0
  0
POINT
  5
16DF
330
ED6
100
AcDbEntity
  8
Defpoints
 62
     0
100
AcDbPoint
 10
57.56073971994823
 20
112.5463009119649
 30
0.0
  0
POINT
  5
16E0
330
ED6
100
AcDbEntity
  8
Defpoints
 62
     0
100
AcDbPoint
 10
47.56073971994823
 20
147.5463009119649
 30
0.0
  0
POINT
  5
16E1
330
ED6
100
AcDbEntity
  8
Defpoints
 62
     0
100
AcDbPoint
 10
35.81073971994823
 20
147.5463009119649
 30
0.0
  0
ENDBLK
  5
EE1
330
ED6
100
AcDbEntity
  8
0
100
AcDbBlockEnd
  0
BLOCK
  5
EEC
330
EE2
100
AcDbEntity
  8
0
100
AcDbBlockBegin
  2
*D20
 70
     1
 10
0.0
 20
0.0
 30
0.0
  3
*D20
  1

  0
LINE
  5
16D0
330
EE2
100
AcDbEntity
  8
5
370
    -2
100
AcDbLine
 10
65.81073971994823
 20
121.7963009119648
 30
0.0
 11
65.81073971994823
 21
125.2446115994073
 31
0.0
  0
LINE
  5
16D1
330
EE2
100
AcDbEntity
  8
5
370
    -2
100
AcDbLine
 10
45.81073971994823
 20
122.5720357859941
 30
0.0
 11
45.81073971994823
 21
125.2446115994073
 31
0.0
  0
LINE
  5
16D2
330
EE2
100
AcDbEntity
  8
5
370
    -2
100
AcDbLine
 10
63.31073971994823
 20
124.2446115994073
 30
0.0
 11
48.31073971994823
 21
124.2446115994073
 31
0.0
  0
SOLID
  5
16D3
330
EE2
100
AcDbEntity
  8
5
100
AcDbTrace
 10
63.31073971994823
 20
124.661278266074
 30
0.0
 11
63.31073971994823
 21
123.8279449327407
 31
0.0
 12
65.81073971994823
 22
124.2446115994073
 32
0.0
 13
65.81073971994823
 23
124.2446115994073
 33
0.0
  0
SOLID
  5
16D4
330
EE2
100
AcDbEntity
  8
5
100
AcDbTrace
 10
48.31073971994823
 20
124.661278266074
 30
0.0
 11
48.31073971994823
 21
123.8279449327407
 31
0.0
 12
45.81073971994823
 22
124.2446115994073
 32
0.0
 13
45.81073971994823
 23
124.2446115994073
 33
0.0
  0
MTEXT
  5
16D5
330
EE2
100
AcDbEntity
  8
5
 62
     2
100
AcDbMText
 10
55.81073971994823
 20
126.5949560875963
 30
0.0
 40
3.5
 41
0.0
 71
     5
 72
     1
  1
20
 73
     1
 44
1.0
  0
POINT
  5
16D6
330
EE2
100
AcDbEntity
  8
Defpoints
 62
     0
100
AcDbPoint
 10
65.81073971994823
 20
120.7963009119648
 30
0.0
  0
POINT
  5
16D7
330
EE2
100
AcDbEntity
  8
Defpoints
 62
     0
100
AcDbPoint
 10
45.81073971994823
 20
121.5720357859941
 30
0.0
  0
POINT
  5
16D8
330
EE2
100
AcDbEntity
  8
Defpoints
 62
     0
100
AcDbPoint
 10
45.81073971994823
 20
124.2446115994073
 30
0.0
  0
ENDBLK
  5
EED
330
EE2
100
AcDbEntity
  8
0
100
AcDbBlockEnd
  0
BLOCK
  5
EF8
330
EEE
100
AcDbEntity
  8
0
100
AcDbBlockBegin
  2
*D21
 70
     1
 10
0.0
 20
0.0
 30
0.0
  3
*D21
  1

  0
LINE
  5
16C7
330
EEE
100
AcDbEntity
  8
5
370
    -2
100
AcDbLine
 10
55.81073971994823
 20
156.7963009119649
 30
0.0
 11
55.81073971994823
 21
159.631754940661
 31
0.0
  0
LINE
  5
16C8
330
EEE
100
AcDbEntity
  8
5
370
    -2
100
AcDbLine
 10
45.81073971994823
 20
158.5627242124058
 30
0.0
 11
45.81073971994823
 21
159.631754940661
 31
0.0
  0
LINE
  5
16C9
330
EEE
100
AcDbEntity
  8
5
370
    -2
100
AcDbLine
 10
53.31073971994823
 20
158.631754940661
 30
0.0
 11
48.31073971994823
 21
158.631754940661
 31
0.0
  0
SOLID
  5
16CA
330
EEE
100
AcDbEntity
  8
5
100
AcDbTrace
 10
53.31073971994823
 20
159.0484216073277
 30
0.0
 11
53.31073971994823
 21
158.2150882739944
 31
0.0
 12
55.81073971994823
 22
158.631754940661
 32
0.0
 13
55.81073971994823
 23
158.631754940661
 33
0.0
  0
SOLID
  5
16CB
330
EEE
100
AcDbEntity
  8
5
100
AcDbTrace
 10
48.31073971994823
 20
159.0484216073277
 30
0.0
 11
48.31073971994823
 21
158.2150882739944
 31
0.0
 12
45.81073971994823
 22
158.631754940661
 32
0.0
 13
45.81073971994823
 23
158.631754940661
 33
0.0
  0
MTEXT
  5
16CC
330
EEE
100
AcDbEntity
  8
5
 62
     2
100
AcDbMText
 10
50.81073971994823
 20
160.981754940661
 30
0.0
 40
3.5
 41
0.0
 71
     5
 72
     1
  1
10
 73
     1
 44
1.0
  0
POINT
  5
16CD
330
EEE
100
AcDbEntity
  8
Defpoints
 62
     0
100
AcDbPoint
 10
55.81073971994823
 20
155.7963009119649
 30
0.0
  0
POINT
  5
16CE
330
EEE
100
AcDbEntity
  8
Defpoints
 62
     0
100
AcDbPoint
 10
45.81073971994823
 20
157.5627242124058
 30
0.0
  0
POINT
  5
16CF
330
EEE
100
AcDbEntity
  8
Defpoints
 62
     0
100
AcDbPoint
 10
45.81073971994823
 20
158.631754940661
 30
0.0
  0
ENDBLK
  5
EF9
330
EEE
100
AcDbEntity
  8
0
100
AcDbBlockEnd
  0
BLOCK
  5
F04
330
EFA
100
AcDbEntity
  8
0
100
AcDbBlockBegin
  2
*D22
 70
     1
 10
0.0
 20
0.0
 30
0.0
  3
*D22
  1

  0
LINE
  5
16BE
330
EFA
100
AcDbEntity
  8
5
370
    -2
100
AcDbLine
 10
61.81073971994823
 20
191.7963009119649
 30
0.0
 11
61.81073971994823
 21
194.5534136460426
 31
0.0
  0
LINE
  5
16BF
330
EFA
100
AcDbEntity
  8
5
370
    -2
100
AcDbLine
 10
45.81073971994823
 20
194.018898281915
 30
0.0
 11
45.81073971994823
 21
194.5534136460426
 31
0.0
  0
LINE
  5
16C0
330
EFA
100
AcDbEntity
  8
5
370
    -2
100
AcDbLine
 10
59.31073971994823
 20
193.5534136460426
 30
0.0
 11
48.31073971994823
 21
193.5534136460426
 31
0.0
  0
SOLID
  5
16C1
330
EFA
100
AcDbEntity
  8
5
100
AcDbTrace
 10
59.31073971994823
 20
193.9700803127093
 30
0.0
 11
59.31073971994823
 21
193.1367469793759
 31
0.0
 12
61.81073971994823
 22
193.5534136460426
 32
0.0
 13
61.81073971994823
 23
193.5534136460426
 33
0.0
  0
SOLID
  5
16C2
330
EFA
100
AcDbEntity
  8
5
100
AcDbTrace
 10
48.31073971994823
 20
193.9700803127093
 30
0.0
 11
48.31073971994823
 21
193.1367469793759
 31
0.0
 12
45.81073971994823
 22
193.5534136460426
 32
0.0
 13
45.81073971994823
 23
193.5534136460426
 33
0.0
  0
MTEXT
  5
16C3
330
EFA
100
AcDbEntity
  8
5
 62
     2
100
AcDbMText
 10
53.81073971994823
 20
195.9034136460426
 30
0.0
 40
3.5
 41
0.0
 71
     5
 72
     1
  1
16
 73
     1
 44
1.0
  0
POINT
  5
16C4
330
EFA
100
AcDbEntity
  8
Defpoints
 62
     0
100
AcDbPoint
 10
61.81073971994823
 20
190.7963009119649
 30
0.0
  0
POINT
  5
16C5
330
EFA
100
AcDbEntity
  8
Defpoints
 62
     0
100
AcDbPoint
 10
45.81073971994823
 20
193.018898281915
 30
0.0
  0
POINT
  5
16C6
330
EFA
100
AcDbEntity
  8
Defpoints
 62
     0
100
AcDbPoint
 10
45.81073971994823
 20
193.5534136460426
 30
0.0
  0
ENDBLK
  5
F05
330
EFA
100
AcDbEntity
  8
0
100
AcDbBlockEnd
  0
BLOCK
  5
F11
330
F06
100
AcDbEntity
  8
0
100
AcDbBlockBegin
  2
*D23
 70
     1
 10
0.0
 20
0.0
 30
0.0
  3
*D23
  1

  0
LINE
  5
16B4
330
F06
100
AcDbEntity
  8
5
370
    -2
100
AcDbLine
 10
56.81073971994824
 20
212.2963009119649
 30
0.0
 11
72.06074071994824
 21
212.2963009119648
 31
0.0
  0
LINE
  5
16B5
330
F06
100
AcDbEntity
  8
5
370
    -2
100
AcDbLine
 10
56.81073971994824
 20
222.7963009119649
 30
0.0
 11
72.06074071994824
 21
222.7963009119648
 31
0.0
  0
LINE
  5
16B6
330
F06
100
AcDbEntity
  8
5
370
    -2
100
AcDbLine
 10
71.06074071994824
 20
214.7963009119649
 30
0.0
 11
71.06074071994824
 21
220.2963009119649
 31
0.0
  0
LINE
  5
16B7
330
F06
100
AcDbEntity
  8
5
370
    -2
100
AcDbLine
 10
71.06074071994824
 20
222.7963009119648
 30
0.0
 11
71.06074071994825
 21
242.6112869742067
 31
0.0
  0
SOLID
  5
16B8
330
F06
100
AcDbEntity
  8
5
100
AcDbTrace
 10
70.64407405328157
 20
214.7963009119649
 30
0.0
 11
71.47740738661491
 21
214.7963009119649
 31
0.0
 12
71.06074071994824
 22
212.2963009119648
 32
0.0
 13
71.06074071994824
 23
212.2963009119648
 33
0.0
  0
SOLID
  5
16B9
330
F06
100
AcDbEntity
  8
5
100
AcDbTrace
 10
70.64407405328157
 20
220.2963009119649
 30
0.0
 11
71.47740738661491
 21
220.2963009119649
 31
0.0
 12
71.06074071994824
 22
222.7963009119648
 32
0.0
 13
71.06074071994824
 23
222.7963009119648
 33
0.0
  0
MTEXT
  5
16BA
330
F06
100
AcDbEntity
  8
5
 62
     2
100
AcDbMText
 10
68.71074071994822
 20
233.9537939430858
 30
0.0
 40
3.5
 41
0.0
 71
     5
 72
     1
  1
10.5x90%%d
 11
0.0000000000000001
 21
1.0
 31
0.0
 73
     1
 44
1.0
  0
POINT
  5
16BB
330
F06
100
AcDbEntity
  8
Defpoints
 62
     0
100
AcDbPoint
 10
55.81073971994825
 20
212.2963009119649
 30
0.0
  0
POINT
  5
16BC
330
F06
100
AcDbEntity
  8
Defpoints
 62
     0
100
AcDbPoint
 10
55.81073971994825
 20
222.7963009119649
 30
0.0
  0
POINT
  5
16BD
330
F06
100
AcDbEntity
  8
Defpoints
 62
     0
100
AcDbPoint
 10
71.06074071994824
 20
222.7963009119648
 30
0.0
  0
ENDBLK
  5
F12
330
F06
100
AcDbEntity
  8
0
100
AcDbBlockEnd
  0
BLOCK
  5
F1F
330
F13
100
AcDbEntity
  8
0
100
AcDbBlockBegin
  2
*D24
 70
     1
 10
0.0
 20
0.0
 30
0.0
  3
*D24
  1

  0
LINE
  5
1758
330
F13
100
AcDbEntity
  8
5
370
    -2
100
AcDbLine
 10
56.81073971994823
 20
150.2963009119649
 30
0.0
 11
72.06074071994823
 21
150.2963009119648
 31
0.0
  0
LINE
  5
1759
330
F13
100
AcDbEntity
  8
5
370
    -2
100
AcDbLine
 10
56.81073971994823
 20
144.7963009119649
 30
0.0
 11
72.06074071994823
 21
144.7963009119648
 31
0.0
  0
LINE
  5
175A
330
F13
100
AcDbEntity
  8
5
370
    -2
100
AcDbLine
 10
71.06074071994822
 20
152.7963009119648
 30
0.0
 11
71.06074071994822
 21
155.2963009119648
 31
0.0
  0
LINE
  5
175B
330
F13
100
AcDbEntity
  8
5
370
    -2
100
AcDbLine
 10
71.06074071994822
 20
142.2963009119648
 30
0.0
 11
71.06074071994822
 21
133.8726788647207
 31
0.0
  0
LINE
  5
175C
330
F13
100
AcDbEntity
  8
5
370
    -2
100
AcDbLine
 10
71.06074071994822
 20
150.2963009119648
 30
0.0
 11
71.06074071994822
 21
144.7963009119648
 31
0.0
  0
SOLID
  5
175D
330
F13
100
AcDbEntity
  8
5
100
AcDbTrace
 10
70.64407405328156
 20
152.7963009119648
 30
0.0
 11
71.47740738661489
 21
152.7963009119648
 31
0.0
 12
71.06074071994822
 22
150.2963009119648
 32
0.0
 13
71.06074071994822
 23
150.2963009119648
 33
0.0
  0
SOLID
  5
175E
330
F13
100
AcDbEntity
  8
5
100
AcDbTrace
 10
70.64407405328156
 20
142.2963009119648
 30
0.0
 11
71.47740738661489
 21
142.2963009119648
 31
0.0
 12
71.06074071994822
 22
144.7963009119648
 32
0.0
 13
71.06074071994822
 23
144.7963009119648
 33
0.0
  0
MTEXT
  5
175F
330
F13
100
AcDbEntity
  8
5
 62
     2
100
AcDbMText
 10
68.71074071994822
 20
136.8344898883428
 30
0.0
 40
3.5
 41
0.0
 71
     5
 72
     1
  1
%%c6
 11
0.0000000000000001
 21
1.0
 31
0.0
 73
     1
 44
1.0
  0
POINT
  5
1760
330
F13
100
AcDbEntity
  8
Defpoints
 62
     0
100
AcDbPoint
 10
55.81073971994823
 20
150.2963009119649
 30
0.0
  0
POINT
  5
1761
330
F13
100
AcDbEntity
  8
Defpoints
 62
     0
100
AcDbPoint
 10
55.81073971994823
 20
144.7963009119649
 30
0.0
  0
POINT
  5
1762
330
F13
100
AcDbEntity
  8
Defpoints
 62
     0
100
AcDbPoint
 10
71.06074071994822
 20
144.7963009119648
 30
0.0
  0
ENDBLK
  5
F20
330
F13
100
AcDbEntity
  8
0
100
AcDbBlockEnd
  0
BLOCK
  5
F2D
330
F21
100
AcDbEntity
  8
0
100
AcDbBlockBegin
  2
*D25
 70
     1
 10
0.0
 20
0.0
 30
0.0
  3
*D25
  1

  0
LINE
  5
18D2
330
F21
100
AcDbEntity
  8
5
370
    -2
100
AcDbLine
 10
184.0140924022179
 20
77.94512122503374
 30
0.0
 11
184.0140924022179
 21
83.45264091588177
 31
0.0
  0
LINE
  5
18D3
330
F21
100
AcDbEntity
  8
5
370
    -2
100
AcDbLine
 10
187.0140924022179
 20
77.94512122503374
 30
0.0
 11
187.0140924022179
 21
83.45264091588177
 31
0.0
  0
LINE
  5
18D4
330
F21
100
AcDbEntity
  8
5
370
    -2
100
AcDbLine
 10
181.5140924022179
 20
82.45264091588177
 30
0.0
 11
179.0140924022179
 21
82.45264091588177
 31
0.0
  0
LINE
  5
18D5
330
F21
100
AcDbEntity
  8
5
370
    -2
100
AcDbLine
 10
189.5140924022179
 20
82.45264091588177
 30
0.0
 11
192.0140924022179
 21
82.45264091588177
 31
0.0
  0
LINE
  5
18D6
330
F21
100
AcDbEntity
  8
5
370
    -2
100
AcDbLine
 10
184.0140924022179
 20
82.45264091588177
 30
0.0
 11
187.0140924022179
 21
82.45264091588177
 31
0.0
  0
SOLID
  5
18D7
330
F21
100
AcDbEntity
  8
5
100
AcDbTrace
 10
181.5140924022179
 20
82.86930758254845
 30
0.0
 11
181.5140924022179
 21
82.03597424921509
 31
0.0
 12
184.0140924022179
 22
82.45264091588177
 32
0.0
 13
184.0140924022179
 23
82.45264091588177
 33
0.0
  0
SOLID
  5
18D8
330
F21
100
AcDbEntity
  8
5
100
AcDbTrace
 10
189.5140924022179
 20
82.86930758254845
 30
0.0
 11
189.5140924022179
 21
82.03597424921509
 31
0.0
 12
187.0140924022179
 22
82.45264091588177
 32
0.0
 13
187.0140924022179
 23
82.45264091588177
 33
0.0
  0
MTEXT
  5
18D9
330
F21
100
AcDbEntity
  8
5
 62
     2
100
AcDbMText
 10
185.5140924022179
 20
84.80264091588177
 30
0.0
 40
3.5
 41
0.0
 71
     5
 72
     1
  1
3
 73
     1
 44
1.0
  0
POINT
  5
18DA
330
F21
100
AcDbEntity
  8
Defpoints
 62
     0
100
AcDbPoint
 10
184.0140924022179
 20
76.94512122503375
 30
0.0
  0
POINT
  5
18DB
330
F21
100
AcDbEntity
  8
Defpoints
 62
     0
100
AcDbPoint
 10
187.0140924022179
 20
76.94512122503375
 30
0.0
  0
POINT
  5
18DC
330
F21
100
AcDbEntity
  8
Defpoints
 62
     0
100
AcDbPoint
 10
187.0140924022179
 20
82.45264091588177
 30
0.0
  0
ENDBLK
  5
F2E
330
F21
100
AcDbEntity
  8
0
100
AcDbBlockEnd
  0
BLOCK
  5
F39
330
F2F
100
AcDbEntity
  8
0
100
AcDbBlockBegin
  2
*D26
 70
     1
 10
0.0
 20
0.0
 30
0.0
  3
*D26
  1

  0
LINE
  5
18EA
330
F2F
100
AcDbEntity
  8
5
370
    -2
100
AcDbLine
 10
180.5140924022179
 20
31.94512122503375
 30
0.0
 11
207.9381720294627
 21
31.94512122503374
 31
0.0
  0
LINE
  5
18EB
330
F2F
100
AcDbEntity
  8
5
370
    -2
100
AcDbLine
 10
188.0140924022179
 20
76.94512122503375
 30
0.0
 11
207.9381720294628
 21
76.94512122503375
 31
0.0
  0
LINE
  5
18EC
330
F2F
100
AcDbEntity
  8
5
370
    -2
100
AcDbLine
 10
206.9381720294627
 20
34.44512122503375
 30
0.0
 11
206.9381720294627
 21
74.44512122503375
 31
0.0
  0
SOLID
  5
18ED
330
F2F
100
AcDbEntity
  8
5
100
AcDbTrace
 10
206.521505362796
 20
34.44512122503375
 30
0.0
 11
207.3548386961294
 21
34.44512122503375
 31
0.0
 12
206.9381720294627
 22
31.94512122503374
 32
0.0
 13
206.9381720294627
 23
31.94512122503374
 33
0.0
  0
SOLID
  5
18EE
330
F2F
100
AcDbEntity
  8
5
100
AcDbTrace
 10
206.5215053627961
 20
74.44512122503375
 30
0.0
 11
207.3548386961294
 21
74.44512122503375
 31
0.0
 12
206.9381720294627
 22
76.94512122503375
 32
0.0
 13
206.9381720294627
 23
76.94512122503375
 33
0.0
  0
MTEXT
  5
18EF
330
F2F
100
AcDbEntity
  8
5
 62
     2
100
AcDbMText
 10
204.5881720294627
 20
54.44512122503377
 30
0.0
 40
3.5
 41
0.0
 71
     5
 72
     1
  1
45
 11
0.0000000000000001
 21
1.0
 31
0.0
 73
     1
 44
1.0
  0
POINT
  5
18F0
330
F2F
100
AcDbEntity
  8
Defpoints
 62
     0
100
AcDbPoint
 10
179.5140924022179
 20
31.94512122503375
 30
0.0
  0
POINT
  5
18F1
330
F2F
100
AcDbEntity
  8
Defpoints
 62
     0
100
AcDbPoint
 10
187.0140924022179
 20
76.94512122503375
 30
0.0
  0
POINT
  5
18F2
330
F2F
100
AcDbEntity
  8
Defpoints
 62
     0
100
AcDbPoint
 10
206.9381720294627
 20
76.94512122503375
 30
0.0
  0
ENDBLK
  5
F3A
330
F2F
100
AcDbEntity
  8
0
100
AcDbBlockEnd
  0
BLOCK
  5
F45
330
F3B
100
AcDbEntity
  8
0
100
AcDbBlockBegin
  2
*D27
 70
     1
 10
0.0
 20
0.0
 30
0.0
  3
*D27
  1

  0
LINE
  5
18E0
330
F3B
100
AcDbEntity
  8
5
370
    -2
100
AcDbLine
 10
183.0140924022179
 20
38.94512122503375
 30
0.0
 11
198.0140934022178
 21
38.94512122503375
 31
0.0
  0
LINE
  5
18E1
330
F3B
100
AcDbEntity
  8
5
370
    -2
100
AcDbLine
 10
188.0140924022179
 20
76.94512122503375
 30
0.0
 11
198.0140934022179
 21
76.94512122503375
 31
0.0
  0
LINE
  5
18E2
330
F3B
100
AcDbEntity
  8
5
370
    -2
100
AcDbLine
 10
197.0140934022179
 20
41.44512122503374
 30
0.0
 11
197.0140934022179
 21
74.44512122503375
 31
0.0
  0
SOLID
  5
18E3
330
F3B
100
AcDbEntity
  8
5
100
AcDbTrace
 10
196.5974267355512
 20
41.44512122503374
 30
0.0
 11
197.4307600688845
 21
41.44512122503374
 31
0.0
 12
197.0140934022179
 22
38.94512122503375
 32
0.0
 13
197.0140934022179
 23
38.94512122503375
 33
0.0
  0
SOLID
  5
18E4
330
F3B
100
AcDbEntity
  8
5
100
AcDbTrace
 10
196.5974267355512
 20
74.44512122503375
 30
0.0
 11
197.4307600688845
 21
74.44512122503375
 31
0.0
 12
197.0140934022179
 22
76.94512122503375
 32
0.0
 13
197.0140934022179
 23
76.94512122503375
 33
0.0
  0
MTEXT
  5
18E5
330
F3B
100
AcDbEntity
  8
5
 62
     2
100
AcDbMText
 10
194.6640934022179
 20
57.94512122503377
 30
0.0
 40
3.5
 41
0.0
 71
     5
 72
     1
  1
38
 11
0.0000000000000001
 21
1.0
 31
0.0
 73
     1
 44
1.0
  0
POINT
  5
18E6
330
F3B
100
AcDbEntity
  8
Defpoints
 62
     0
100
AcDbPoint
 10
182.0140924022179
 20
38.94512122503375
 30
0.0
  0
POINT
  5
18E7
330
F3B
100
AcDbEntity
  8
Defpoints
 62
     0
100
AcDbPoint
 10
187.0140924022179
 20
76.94512122503375
 30
0.0
  0
POINT
  5
18E8
330
F3B
100
AcDbEntity
  8
Defpoints
 62
     0
100
AcDbPoint
 10
197.0140934022179
 20
76.94512122503375
 30
0.0
  0
ENDBLK
  5
F46
330
F3B
100
AcDbEntity
  8
0
100
AcDbBlockEnd
  0
BLOCK
  5
F51
330
F47
100
AcDbEntity
  8
0
100
AcDbBlockBegin
  2
*D28
 70
     1
 10
0.0
 20
0.0
 30
0.0
  3
*D28
  1

  0
LINE
  5
18F4
330
F47
100
AcDbEntity
  8
5
370
    -2
100
AcDbLine
 10
187.0140924022179
 20
42.94512122503374
 30
0.0
 11
187.0140924022179
 21
10.94512022503375
 31
0.0
  0
LINE
  5
18F5
330
F47
100
AcDbEntity
  8
5
370
    -2
100
AcDbLine
 10
166.5140924022179
 20
17.94512122503374
 30
0.0
 11
166.5140924022179
 21
10.94512022503375
 31
0.0
  0
LINE
  5
18F6
330
F47
100
AcDbEntity
  8
5
370
    -2
100
AcDbLine
 10
184.5140924022179
 20
11.94512022503374
 30
0.0
 11
169.0140924022179
 21
11.94512022503374
 31
0.0
  0
SOLID
  5
18F7
330
F47
100
AcDbEntity
  8
5
100
AcDbTrace
 10
184.5140924022179
 20
12.36178689170041
 30
0.0
 11
184.5140924022179
 21
11.52845355836708
 31
0.0
 12
187.0140924022179
 22
11.94512022503374
 32
0.0
 13
187.0140924022179
 23
11.94512022503374
 33
0.0
  0
SOLID
  5
18F8
330
F47
100
AcDbEntity
  8
5
100
AcDbTrace
 10
169.0140924022179
 20
12.36178689170041
 30
0.0
 11
169.0140924022179
 21
11.52845355836708
 31
0.0
 12
166.5140924022179
 22
11.94512022503374
 32
0.0
 13
166.5140924022179
 23
11.94512022503374
 33
0.0
  0
MTEXT
  5
18F9
330
F47
100
AcDbEntity
  8
5
 62
     2
100
AcDbMText
 10
176.7640924022179
 20
14.29546471322272
 30
0.0
 40
3.5
 41
0.0
 71
     5
 72
     1
  1
20.5
 73
     1
 44
1.0
  0
POINT
  5
18FA
330
F47
100
AcDbEntity
  8
Defpoints
 62
     0
100
AcDbPoint
 10
187.0140924022179
 20
43.94512122503374
 30
0.0
  0
POINT
  5
18FB
330
F47
100
AcDbEntity
  8
Defpoints
 62
     0
100
AcDbPoint
 10
166.5140924022179
 20
18.94512122503374
 30
0.0
  0
POINT
  5
18FC
330
F47
100
AcDbEntity
  8
Defpoints
 62
     0
100
AcDbPoint
 10
166.5140924022179
 20
11.94512022503374
 30
0.0
  0
ENDBLK
  5
F52
330
F47
100
AcDbEntity
  8
0
100
AcDbBlockEnd
  0
BLOCK
  5
F5D
330
F53
100
AcDbEntity
  8
0
100
AcDbBlockBegin
  2
*D29
 70
     1
 10
0.0
 20
0.0
 30
0.0
  3
*D29
  1

  0
LINE
  5
16A0
330
F53
100
AcDbEntity
  8
5
370
    -2
100
AcDbLine
 10
121.8107397199482
 20
127.0463009119648
 30
0.0
 11
121.8107397199482
 21
135.5443319831065
 31
0.0
  0
LINE
  5
16A1
330
F53
100
AcDbEntity
  8
5
370
    -2
100
AcDbLine
 10
100.8107397199482
 20
133.7991583986636
 30
0.0
 11
100.8107397199482
 21
135.5443319831065
 31
0.0
  0
LINE
  5
16A2
330
F53
100
AcDbEntity
  8
5
370
    -2
100
AcDbLine
 10
119.3107397199482
 20
134.5443319831065
 30
0.0
 11
103.3107397199482
 21
134.5443319831065
 31
0.0
  0
SOLID
  5
16A3
330
F53
100
AcDbEntity
  8
5
100
AcDbTrace
 10
119.3107397199482
 20
134.9609986497732
 30
0.0
 11
119.3107397199482
 21
134.1276653164398
 31
0.0
 12
121.8107397199482
 22
134.5443319831065
 32
0.0
 13
121.8107397199482
 23
134.5443319831065
 33
0.0
  0
SOLID
  5
16A4
330
F53
100
AcDbEntity
  8
5
100
AcDbTrace
 10
103.3107397199482
 20
134.9609986497732
 30
0.0
 11
103.3107397199482
 21
134.1276653164398
 31
0.0
 12
100.8107397199482
 22
134.5443319831065
 32
0.0
 13
100.8107397199482
 23
134.5443319831065
 33
0.0
  0
MTEXT
  5
16A5
330
F53
100
AcDbEntity
  8
5
 62
     2
100
AcDbMText
 10
111.3107397199482
 20
136.8946764712955
 30
0.0
 40
3.5
 41
0.0
 71
     5
 72
     1
  1
21
 73
     1
 44
1.0
  0
POINT
  5
16A6
330
F53
100
AcDbEntity
  8
Defpoints
 62
     0
100
AcDbPoint
 10
121.8107397199482
 20
126.0463009119648
 30
0.0
  0
POINT
  5
16A7
330
F53
100
AcDbEntity
  8
Defpoints
 62
     0
100
AcDbPoint
 10
100.8107397199482
 20
132.7991583986636
 30
0.0
  0
POINT
  5
16A8
330
F53
100
AcDbEntity
  8
Defpoints
 62
     0
100
AcDbPoint
 10
100.8107397199482
 20
134.5443319831065
 30
0.0
  0
ENDBLK
  5
F5E
330
F53
100
AcDbEntity
  8
0
100
AcDbBlockEnd
  0
BLOCK
  5
F69
330
F5F
100
AcDbEntity
  8
0
100
AcDbBlockBegin
  2
*D30
 70
     1
 10
0.0
 20
0.0
 30
0.0
  3
*D30
  1

  0
LINE
  5
17D4
330
F5F
100
AcDbEntity
  8
5
370
    -2
100
AcDbLine
 10
137.8204961537967
 20
242.5463009119649
 30
0.0
 11
146.3626807970332
 21
242.5463009119649
 31
0.0
  0
LINE
  5
17D5
330
F5F
100
AcDbEntity
  8
5
370
    -2
100
AcDbLine
 10
124.8107397199482
 20
122.5463009119648
 30
0.0
 11
146.3626807970332
 21
122.5463009119648
 31
0.0
  0
LINE
  5
17D6
330
F5F
100
AcDbEntity
  8
5
370
    -2
100
AcDbLine
 10
145.3626807970332
 20
240.0463009119649
 30
0.0
 11
145.3626807970332
 21
125.0463009119648
 31
0.0
  0
SOLID
  5
17D7
330
F5F
100
AcDbEntity
  8
5
100
AcDbTrace
 10
144.9460141303665
 20
240.0463009119649
 30
0.0
 11
145.7793474636998
 21
240.0463009119649
 31
0.0
 12
145.3626807970332
 22
242.5463009119649
 32
0.0
 13
145.3626807970332
 23
242.5463009119649
 33
0.0
  0
SOLID
  5
17D8
330
F5F
100
AcDbEntity
  8
5
100
AcDbTrace
 10
144.9460141303665
 20
125.0463009119648
 30
0.0
 11
145.7793474636998
 21
125.0463009119648
 31
0.0
 12
145.3626807970332
 22
122.5463009119648
 32
0.0
 13
145.3626807970332
 23
122.5463009119648
 33
0.0
  0
MTEXT
  5
17D9
330
F5F
100
AcDbEntity
  8
5
 62
     2
100
AcDbMText
 10
143.0123363088442
 20
182.5463009119649
 30
0.0
 40
3.5
 41
0.0
 71
     5
 72
     1
  1
120
 11
0.0000000000000001
 21
1.0
 31
0.0
 73
     1
 44
1.0
  0
POINT
  5
17DA
330
F5F
100
AcDbEntity
  8
Defpoints
 62
     0
100
AcDbPoint
 10
136.8204961537967
 20
242.5463009119649
 30
0.0
  0
POINT
  5
17DB
330
F5F
100
AcDbEntity
  8
Defpoints
 62
     0
100
AcDbPoint
 10
123.8107397199482
 20
122.5463009119648
 30
0.0
  0
POINT
  5
17DC
330
F5F
100
AcDbEntity
  8
Defpoints
 62
     0
100
AcDbPoint
 10
145.3626807970332
 20
122.5463009119648
 30
0.0
  0
ENDBLK
  5
F6A
330
F5F
100
AcDbEntity
  8
0
100
AcDbBlockEnd
  0
BLOCK
  5
F75
330
F6B
100
AcDbEntity
  8
0
100
AcDbBlockBegin
  2
*D31
 70
     1
 10
0.0
 20
0.0
 30
0.0
  3
*D31
  1

  0
LINE
  5
17CB
330
F6B
100
AcDbEntity
  8
5
370
    -2
100
AcDbLine
 10
130.8222944342102
 20
259.7963009119649
 30
0.0
 11
146.3626807970332
 21
259.7963009119649
 31
0.0
  0
LINE
  5
17CC
330
F6B
100
AcDbEntity
  8
5
370
    -2
100
AcDbLine
 10
137.8204961537967
 20
242.5463009119649
 30
0.0
 11
146.3626807970332
 21
242.5463009119649
 31
0.0
  0
LINE
  5
17CD
330
F6B
100
AcDbEntity
  8
5
370
    -2
100
AcDbLine
 10
145.3626807970332
 20
257.2963009119649
 30
0.0
 11
145.3626807970332
 21
245.0463009119649
 31
0.0
  0
SOLID
  5
17CE
330
F6B
100
AcDbEntity
  8
5
100
AcDbTrace
 10
144.9460141303665
 20
257.2963009119649
 30
0.0
 11
145.7793474636998
 21
257.2963009119649
 31
0.0
 12
145.3626807970332
 22
259.7963009119649
 32
0.0
 13
145.3626807970332
 23
259.7963009119649
 33
0.0
  0
SOLID
  5
17CF
330
F6B
100
AcDbEntity
  8
5
100
AcDbTrace
 10
144.9460141303665
 20
245.0463009119649
 30
0.0
 11
145.7793474636998
 21
245.0463009119649
 31
0.0
 12
145.3626807970332
 22
242.5463009119649
 32
0.0
 13
145.3626807970332
 23
242.5463009119649
 33
0.0
  0
MTEXT
  5
17D0
330
F6B
100
AcDbEntity
  8
5
 62
     2
100
AcDbMText
 10
143.0123363088442
 20
251.1713009119649
 30
0.0
 40
3.5
 41
0.0
 71
     5
 72
     1
  1
17.25
 11
0.0000000000000001
 21
1.0
 31
0.0
 73
     1
 44
1.0
  0
POINT
  5
17D1
330
F6B
100
AcDbEntity
  8
Defpoints
 62
     0
100
AcDbPoint
 10
129.8222944342102
 20
259.7963009119649
 30
0.0
  0
POINT
  5
17D2
330
F6B
100
AcDbEntity
  8
Defpoints
 62
     0
100
AcDbPoint
 10
136.8204961537967
 20
242.5463009119649
 30
0.0
  0
POINT
  5
17D3
330
F6B
100
AcDbEntity
  8
Defpoints
 62
     0
100
AcDbPoint
 10
145.3626807970332
 20
242.5463009119649
 30
0.0
  0
ENDBLK
  5
F76
330
F6B
100
AcDbEntity
  8
0
100
AcDbBlockEnd
  0
BLOCK
  5
F81
330
F77
100
AcDbEntity
  8
0
100
AcDbBlockBegin
  2
*D32
 70
     1
 10
0.0
 20
0.0
 30
0.0
  3
*D32
  1

  0
LINE
  5
1469
330
F77
100
AcDbEntity
  8
5
370
    -2
100
AcDbLine
 10
147.5382702973434
 20
17.35303919999054
 30
0.0
 11
155.1410262028552
 21
17.35303919999053
 31
0.0
  0
LINE
  5
146A
330
F77
100
AcDbEntity
  8
5
370
    -2
100
AcDbLine
 10
155.1410262028552
 20
17.35303919999053
 30
0.0
 11
158.8298743888482
 21
22.08597351729524
 31
0.0
  0
LINE
  5
146B
330
F77
100
AcDbEntity
  8
5
370
    -2
100
AcDbLine
 10
174.1983104155874
 20
41.80426893277247
 30
0.0
 11
175.7351540182613
 21
43.77609847432019
 31
0.0
  0
MTEXT
  5
146C
330
F77
100
AcDbEntity
  8
5
 62
     2
100
AcDbMText
 10
151.0396482500993
 20
19.70338368817951
 30
0.0
 40
3.5
 41
0.0
 71
     5
 72
     1
  1
%%c20
 73
     1
 44
1.0
  0
LINE
  5
146D
330
F77
100
AcDbEntity
  8
5
370
    -2
100
AcDbLine
 10
172.6614668129135
 20
39.83243939122477
 30
0.0
 11
160.3667179915221
 21
24.05780305884297
 31
0.0
  0
SOLID
  5
146E
330
F77
100
AcDbEntity
  8
5
100
AcDbTrace
 10
173.8696721586628
 20
42.06040953321813
 30
0.0
 11
174.5269486725121
 21
41.54812833232682
 31
0.0
 12
172.6614668129135
 22
39.83243939122477
 32
0.0
 13
172.6614668129135
 23
39.83243939122477
 33
0.0
  0
SOLID
  5
146F
330
F77
100
AcDbEntity
  8
5
100
AcDbTrace
 10
158.5012361319235
 20
22.3421141177409
 30
0.0
 11
159.1585126457728
 21
21.8298329168496
 31
0.0
 12
160.3667179915221
 22
24.05780305884297
 32
0.0
 13
160.3667179915221
 23
24.05780305884297
 33
0.0
  0
POINT
  5
1470
330
F77
100
AcDbEntity
  8
Defpoints
 62
     0
100
AcDbPoint
 10
160.3667179915221
 20
24.05780305884297
 30
0.0
  0
POINT
  5
1471
330
F77
100
AcDbEntity
  8
Defpoints
 62
     0
100
AcDbPoint
 10
172.6614668129135
 20
39.83243939122477
 30
0.0
  0
ENDBLK
  5
F82
330
F77
100
AcDbEntity
  8
0
100
AcDbBlockEnd
  0
BLOCK
  5
F8E
330
F83
100
AcDbEntity
  8
0
100
AcDbBlockBegin
  2
*D33
 70
     1
 10
0.0
 20
0.0
 30
0.0
  3
*D33
  1

  0
LINE
  5
18C7
330
F83
100
AcDbEntity
  8
5
370
    -2
100
AcDbLine
 10
164.5140924022178
 20
62.44512122503374
 30
0.0
 11
164.5140924022178
 21
72.47957549889895
 31
0.0
  0
LINE
  5
18C8
330
F83
100
AcDbEntity
  8
5
370
    -2
100
AcDbLine
 10
174.5140924022179
 20
62.44512122503374
 30
0.0
 11
174.5140924022179
 21
72.47957549889895
 31
0.0
  0
LINE
  5
18C9
330
F83
100
AcDbEntity
  8
5
370
    -2
100
AcDbLine
 10
172.0140924022179
 20
71.47957549889895
 30
0.0
 11
167.0140924022178
 21
71.47957549889895
 31
0.0
  0
LINE
  5
18CA
330
F83
100
AcDbEntity
  8
5
370
    -2
100
AcDbLine
 10
164.5140924022178
 20
71.47957549889895
 30
0.0
 11
151.2573385443253
 21
71.47957549889895
 31
0.0
  0
SOLID
  5
18CB
330
F83
100
AcDbEntity
  8
5
100
AcDbTrace
 10
172.0140924022179
 20
71.89624216556563
 30
0.0
 11
172.0140924022179
 21
71.06290883223228
 31
0.0
 12
174.5140924022179
 22
71.47957549889895
 32
0.0
 13
174.5140924022179
 23
71.47957549889895
 33
0.0
  0
SOLID
  5
18CC
330
F83
100
AcDbEntity
  8
5
100
AcDbTrace
 10
167.0140924022178
 20
71.89624216556563
 30
0.0
 11
167.0140924022178
 21
71.06290883223228
 31
0.0
 12
164.5140924022178
 22
71.47957549889895
 32
0.0
 13
164.5140924022178
 23
71.47957549889895
 33
0.0
  0
MTEXT
  5
18CD
330
F83
100
AcDbEntity
  8
5
 62
     2
100
AcDbMText
 10
155.0087164970812
 20
73.82957549889894
 30
0.0
 40
3.5
 41
0.0
 71
     5
 72
     1
  1
M10
 73
     1
 44
1.0
  0
POINT
  5
18CE
330
F83
100
AcDbEntity
  8
Defpoints
 62
     0
100
AcDbPoint
 10
164.5140924022178
 20
61.44512122503375
 30
0.0
  0
POINT
  5
18CF
330
F83
100
AcDbEntity
  8
Defpoints
 62
     0
100
AcDbPoint
 10
174.5140924022179
 20
61.44512122503375
 30
0.0
  0
POINT
  5
18D0
330
F83
100
AcDbEntity
  8
Defpoints
 62
     0
100
AcDbPoint
 10
174.5140924022179
 20
71.47957549889895
 30
0.0
  0
ENDBLK
  5
F8F
330
F83
100
AcDbEntity
  8
0
100
AcDbBlockEnd
  0
BLOCK
  5
F9C
330
F90
100
AcDbEntity
  8
0
100
AcDbBlockBegin
  2
*D34
 70
     1
 10
0.0
 20
0.0
 30
0.0
  3
*D34
  1

  0
LINE
  5
1454
330
F90
100
AcDbEntity
  8
5
370
    -2
100
AcDbLine
 10
166.5140924022179
 20
34.07963061618455
 30
0.0
 11
166.5140924022179
 21
32.66877560505771
 31
0.0
  0
LINE
  5
1455
330
F90
100
AcDbEntity
  8
5
370
    -2
100
AcDbLine
 10
169.5140924022179
 20
38.94512122503375
 30
0.0
 11
169.5140924022179
 21
32.66877560505771
 31
0.0
  0
LINE
  5
1456
330
F90
100
AcDbEntity
  8
5
370
    -2
100
AcDbLine
 10
164.0140924022179
 20
33.6687756050577
 30
0.0
 11
161.5140924022179
 21
33.6687756050577
 31
0.0
  0
LINE
  5
1457
330
F90
100
AcDbEntity
  8
5
370
    -2
100
AcDbLine
 10
172.0140924022179
 20
33.6687756050577
 30
0.0
 11
183.2705941113025
 21
33.6687756050577
 31
0.0
  0
LINE
  5
1458
330
F90
100
AcDbEntity
  8
5
370
    -2
100
AcDbLine
 10
166.5140924022179
 20
33.6687756050577
 30
0.0
 11
169.5140924022179
 21
33.6687756050577
 31
0.0
  0
SOLID
  5
1459
330
F90
100
AcDbEntity
  8
5
100
AcDbTrace
 10
164.0140924022179
 20
34.08544227172437
 30
0.0
 11
164.0140924022179
 21
33.25210893839104
 31
0.0
 12
166.5140924022179
 22
33.6687756050577
 32
0.0
 13
166.5140924022179
 23
33.6687756050577
 33
0.0
  0
SOLID
  5
145A
330
F90
100
AcDbEntity
  8
5
100
AcDbTrace
 10
172.0140924022179
 20
34.08544227172437
 30
0.0
 11
172.0140924022179
 21
33.25210893839104
 31
0.0
 12
169.5140924022179
 22
33.6687756050577
 32
0.0
 13
169.5140924022179
 23
33.6687756050577
 33
0.0
  0
MTEXT
  5
145B
330
F90
100
AcDbEntity
  8
5
 62
     2
100
AcDbMText
 10
181.8981067378872
 20
36.01877560505771
 30
0.0
 40
3.5
 41
0.0
 71
     5
 72
     1
  1
3
 73
     1
 44
1.0
  0
POINT
  5
145C
330
F90
100
AcDbEntity
  8
Defpoints
 62
     0
100
AcDbPoint
 10
166.5140924022179
 20
35.07963061618454
 30
0.0
  0
POINT
  5
145D
330
F90
100
AcDbEntity
  8
Defpoints
 62
     0
100
AcDbPoint
 10
169.5140924022179
 20
39.94512122503375
 30
0.0
  0
POINT
  5
145E
330
F90
100
AcDbEntity
  8
Defpoints
 62
     0
100
AcDbPoint
 10
169.5140924022179
 20
33.6687756050577
 30
0.0
  0
ENDBLK
  5
F9D
330
F90
100
AcDbEntity
  8
0
100
AcDbBlockEnd
  0
ENDSEC
  0
SECTION
  2
ENTITIES
  0
INSERT
  5
31F
102
{ACAD_XDICTIONARY
360
3FF
102
}
330
1F
100
AcDbEntity
  8
AM_0
370
     0
100
AcDbBlockReference
  2
DIN_A3
 10
0.0
 20
0.0
 30
0.0
1001
GENIUS_GENOREF_13
1005
3F6
1001
GENIUS_GENOBJ-N-SDF_13
1002
{
1000
OWNER
1000
GEN
1002
}
1001
GENIUS_GENODEF_13
1002
{
1000
HIER
1070
     0
1002
}
1002
{
1000
MANEDIT
1070
     0
1002
}
1002
{
1000
NOSEL
1070
     0
1002
}
1002
{
1000
BEHIND
1070
     0
1002
}
1002
{
1000
OTHER
1070
     0
1002
}
1002
{
1000
REACTOR
1002
}
1001
GENIUS_GENSCREG_15
1040
1.0
1040
1.0
1011
0.0
1021
0.0
1031
0.0
1011
420.0000000000001
1021
297.0
1031
0.0
1070
     3
  0
INSERT
  5
3C2
102
{ACAD_XDICTIONARY
360
3FD
102
}
330
1F
100
AcDbEntity
  8
AM_0
370
     0
100
AcDbBlockReference
 66
     1
  2
DIN_TITLE
 10
409.9999999999999
 20
10.0
 30
0.0
1001
GENIUS_GENOREF_13
1005
3F6
  0
ATTRIB
  5
3C4
330
3C2
100
AcDbEntity
  8
AM_BOR
 62
     2
370
    35
100
AcDbText
 10
361.6488617683806
 20
15.75687844128095
 30
0.0
 40
3.5
  1
AR060/Z 4784-1
 41
0.8
  7
ACDINTS
100
AcDbAttribute
  2
GEN-TITLE-TNR{10.86}
 70
     0
  0
ATTRIB
  5
3C5
330
3C2
100
AcDbEntity
  8
AM_BOR
 62
     1
370
    25
100
AcDbText
 10
404.6300440324572
 20
10.41618341650053
 30
0.0
 40
3.000000000000294
  1

  7
ACDINTS
 72
     1
 11
404.6300440324572
 21
10.41618341650053
 31
0.0
100
AcDbAttribute
  2
GEN-TITLE-PLOT{2.94}
 70
     0
  0
ATTRIB
  5
3C6
330
3C2
100
AcDbEntity
  8
AM_BOR
 62
     2
370
    35
100
AcDbText
 10
404.0595928861538
 20
19.42000735572441
 30
0.0
 40
3.0
  1
-
 41
0.8
  7
ACDINTS
 72
     1
 11
404.8995928861538
 21
19.42000735572441
 31
0.0
100
AcDbAttribute
  2
GEN-TITLE-SHEET{2.62}
 70
     0
  0
ATTRIB
  5
3C7
330
3C2
100
AcDbEntity
  8
AM_BOR
 62
     1
370
    25
100
AcDbText
 10
291.454899637598
 20
36.17804422461478
 30
0.0
 40
2.500000000000367
  1

  7
ACDINTS
100
AcDbAttribute
  2
GEN-TITLE-CHKD{5.41}
 70
     0
  0
ATTRIB
  5
3C8
330
3C2
100
AcDbEntity
  8
AM_BOR
 62
     1
370
    25
100
AcDbText
 10
307.9380147405002
 20
36.4915214039151
 30
0.0
 40
2.500000000000367
  1

  7
ACDINTS
100
AcDbAttribute
  2
GEN-TITLE-CHKM{5}
 70
     0
  0
ATTRIB
  5
3C9
330
3C2
100
AcDbEntity
  8
AM_BOR
 62
     2
370
    35
100
AcDbText
 10
375.2424164595534
 20
49.78860215053771
 30
0.0
 40
3.0
  1
-
 41
0.8
  7
ACDINTS
100
AcDbAttribute
  2
GEN-TITLE-MAT2{11.09}
 70
     0
  0
ATTRIB
  5
3CA
330
3C2
100
AcDbEntity
  8
AM_BOR
 62
     2
370
    35
100
AcDbText
 10
375.2424164595534
 20
54.06703812316724
 30
0.0
 40
3.0
  1

 41
0.8
  7
ACDINTS
100
AcDbAttribute
  2
GEN-TITLE-MAT1{11.15}
 70
     0
  0
ATTRIB
  5
3CB
330
3C2
100
AcDbEntity
  8
AM_BOR
 62
     2
370
    35
100
AcDbText
 10
325.6346021992702
 20
49.78860215053771
 30
0.0
 40
3.0
  1
-
 41
0.8
  7
ACDINTS
100
AcDbAttribute
  2
GEN-TITLE-NORM2{14.89}
 70
     0
  0
ATTRIB
  5
3CC
330
3C2
100
AcDbEntity
  8
AM_BOR
 62
     2
370
    35
100
AcDbText
 10
325.6346021992702
 20
54.06703812316724
 30
0.0
 40
3.0
  1
-
 41
0.8
  7
ACDINTS
100
AcDbAttribute
  2
GEN-TITLE-NORM1{14.84}
 70
     0
  0
ATTRIB
  5
3CD
330
3C2
100
AcDbEntity
  8
AM_BOR
 62
     2
370
    35
100
AcDbText
 10
361.6488617683806
 20
21.07644417885149
 30
0.0
 40
3.5
  1
Z 4784-1
 41
0.8
  7
ACDINTS
100
AcDbAttribute
  2
GEN-TITLE-NR{10.86}
 70
     0
  0
ATTRIB
  5
3CE
330
3C2
100
AcDbEntity
  8
AM_BOR
 62
     2
370
    35
100
AcDbText
 10
329.2928356309285
 20
31.17459677419356
 30
0.0
 40
3.500000000000171
  1
Umrüstband
 41
0.8
  7
ACDINTS
100
AcDbAttribute
  2
GEN-TITLE-DES2{21.21}
 70
     0
  0
ATTRIB
  5
3CF
330
3C2
100
AcDbEntity
  8
AM_BOR
100
AcDbText
 10
328.7928356309284
 20
39.17459677419356
 30
0.0
 40
5.00000000000049
  1
060-42/160
 41
0.8
  7
ACDINTS
100
AcDbAttribute
  2
GEN-TITLE-DES1{15.54}
 70
     0
  0
ATTRIB
  5
3D0
330
3C2
100
AcDbEntity
  8
AM_BOR
 62
     2
370
    35
100
AcDbText
 10
393.2670275675489
 20
60.01451612903075
 30
0.0
 40
3.500000000000344
  1
-
 41
0.8
  7
ACDINTS
100
AcDbAttribute
  2
GEN-TITLE-QTY{4.38}
 70
     0
  0
ATTRIB
  5
3D1
330
3C2
100
AcDbEntity
  8
AM_BOR
 62
     2
370
    35
100
AcDbText
 10
374.2865507730519
 20
60.01451612903224
 30
0.0
 40
3.500000000000344
  1
-
 41
0.8
  7
ACDINTS
100
AcDbAttribute
  2
GEN-TITLE-POSI{2.20}
 70
     0
  0
ATTRIB
  5
3D2
330
3C2
100
AcDbEntity
  8
AM_BOR
 62
     1
370
    25
100
AcDbText
 10
307.4674718569671
 20
40.41000000000003
 30
0.0
 40
2.500000000000367
  1
gsylla
  7
ACDINTS
100
AcDbAttribute
  2
GEN-TITLE-NAME{5}
 70
     0
  0
ATTRIB
  5
3D3
330
3C2
100
AcDbEntity
  8
AM_BOR
 62
     1
370
    25
100
AcDbText
 10
291.2980531127182
 20
40.41000000000003
 30
0.0
 40
2.500000000000367
  1
05.09.06
  7
ACDINTS
100
AcDbAttribute
  2
GEN-TITLE-DAT{5.44}
 70
     0
  0
ATTRIB
  5
3D4
330
3C2
100
AcDbEntity
  8
AM_BOR
 62
     2
370
    35
100
AcDbText
 10
339.0403902127328
 20
60.01451612903077
 30
0.0
 40
3.5
  1
1:1
 41
0.8
  7
ACDINTS
100
AcDbAttribute
  2
GEN-TITLE-SCA{5.42}
 70
     0
  0
ATTRIB
  5
3D5
330
3C2
100
AcDbEntity
  8
AM_BOR
 62
     1
370
    25
100
AcDbText
 10
295.6279716976879
 20
10.94922378026546
 30
0.0
 40
2.5
  1
Z_4784-1
 41
0.8
  7
ACDINTS
100
AcDbAttribute
  2
GEN-TITLE-DWG{10.8}
 70
     0
  0
ATTRIB
  5
3D6
330
3C2
100
AcDbEntity
  8
RAHM2
100
AcDbText
 10
227.7980531127182
 20
15.03000000000003
 30
0.0
 40
2.500000000000367
  1

100
AcDbAttribute
  2
GEN-TITLE-REV1{5.44}
 70
     0
  0
ATTRIB
  5
3D7
330
3C2
100
AcDbEntity
  8
RAHM2
100
AcDbText
 10
235.4180531127182
 20
15.03000000000003
 30
0.0
 40
2.500000000000367
  1

 41
42.88373582623574
 72
     5
 11
278.3017889389603
 21
15.03000000000003
 31
0.0
100
AcDbAttribute
  2
GEN-TITLE-REVCHANGE1{9.5}
 70
     0
  0
ATTRIB
  5
3D8
330
3C2
100
AcDbEntity
  8
RAHM2
100
AcDbText
 10
273.5180531127182
 20
15.03000000000003
 30
0.0
 40
2.500000000000367
  1

100
AcDbAttribute
  2
GEN-TITLE-REVNAME1{2.7}
 70
     0
  0
ATTRIB
  5
3D9
330
3C2
100
AcDbEntity
  8
RAHM2
100
AcDbText
 10
260.8180531127182
 20
15.03000000000003
 30
0.0
 40
2.500000000000367
  1

100
AcDbAttribute
  2
GEN-TITLE-REVDATE1{4.65}
 70
     0
  0
ATTRIB
  5
3DA
330
3C2
100
AcDbEntity
  8
RAHM2
100
AcDbText
 10
227.7980531127182
 20
19.26000000000004
 30
0.0
 40
2.500000000000367
  1

100
AcDbAttribute
  2
GEN-TITLE-REV2{5.44}
 70
     0
  0
ATTRIB
  5
3DB
330
3C2
100
AcDbEntity
  8
RAHM2
100
AcDbText
 10
235.4180531127182
 20
19.26000000000004
 30
0.0
 40
2.500000000000367
  1

100
AcDbAttribute
  2
GEN-TITLE-REVCHANGE2{9.5}
 70
     0
  0
ATTRIB
  5
3DC
330
3C2
100
AcDbEntity
  8
RAHM2
100
AcDbText
 10
273.5180531127182
 20
19.26000000000004
 30
0.0
 40
2.500000000000367
  1

100
AcDbAttribute
  2
GEN-TITLE-REVNAME2{2.7}
 70
     0
  0
ATTRIB
  5
3DD
330
3C2
100
AcDbEntity
  8
RAHM2
100
AcDbText
 10
260.8180531127182
 20
19.26000000000004
 30
0.0
 40
2.500000000000367
  1

100
AcDbAttribute
  2
GEN-TITLE-REVDATE2{4.65}
 70
     0
  0
ATTRIB
  5
3DE
330
3C2
100
AcDbEntity
  8
RAHM2
100
AcDbText
 10
227.9701539421232
 20
23.4121667423965
 30
0.0
 40
2.500000000000367
  1

100
AcDbAttribute
  2
GEN-TITLE-REV3{5.44}
 70
     0
  0
ATTRIB
  5
3DF
330
3C2
100
AcDbEntity
  8
RAHM2
100
AcDbText
 10
235.5901539421232
 20
23.4121667423965
 30
0.0
 40
2.500000000000367
  1

100
AcDbAttribute
  2
GEN-TITLE-REVCHANGE3{9.5}
 70
     0
  0
ATTRIB
  5
3E0
330
3C2
100
AcDbEntity
  8
RAHM2
100
AcDbText
 10
273.6901539421232
 20
23.4121667423965
 30
0.0
 40
2.500000000000367
  1

100
AcDbAttribute
  2
GEN-TITLE-REVNAME3{2.7}
 70
     0
  0
ATTRIB
  5
3E1
330
3C2
100
AcDbEntity
  8
RAHM2
100
AcDbText
 10
260.9901539421232
 20
23.4121667423965
 30
0.0
 40
2.500000000000367
  1

100
AcDbAttribute
  2
GEN-TITLE-REVDATE3{4.65}
 70
     0
  0
ATTRIB
  5
3E2
330
3C2
100
AcDbEntity
  8
RAHM2
100
AcDbText
 10
227.7980531127182
 20
27.72000000000004
 30
0.0
 40
2.500000000000367
  1

100
AcDbAttribute
  2
GEN-TITLE-REV4{5.44}
 70
     0
  0
ATTRIB
  5
3E3
330
3C2
100
AcDbEntity
  8
RAHM2
100
AcDbText
 10
235.4180531127182
 20
27.72000000000004
 30
0.0
 40
2.500000000000367
  1

100
AcDbAttribute
  2
GEN-TITLE-REVCHANGE4{9.5}
 70
     0
  0
ATTRIB
  5
3E4
330
3C2
100
AcDbEntity
  8
RAHM2
100
AcDbText
 10
273.5180531127182
 20
27.72000000000004
 30
0.0
 40
2.500000000000367
  1

100
AcDbAttribute
  2
GEN-TITLE-REVNAME4{2.7}
 70
     0
  0
ATTRIB
  5
3E5
330
3C2
100
AcDbEntity
  8
RAHM2
100
AcDbText
 10
260.8180531127182
 20
27.72000000000004
 30
0.0
 40
2.500000000000367
  1

100
AcDbAttribute
  2
GEN-TITLE-REVDATE4{4.65}
 70
     0
  0
ATTRIB
  5
3E6
330
3C2
100
AcDbEntity
  8
RAHM2
100
AcDbText
 10
227.7980531127182
 20
31.95000000000005
 30
0.0
 40
2.500000000000367
  1

100
AcDbAttribute
  2
GEN-TITLE-REV5{5.44}
 70
     0
  0
ATTRIB
  5
3E7
330
3C2
100
AcDbEntity
  8
RAHM2
100
AcDbText
 10
235.4180531127182
 20
31.95000000000005
 30
0.0
 40
2.500000000000367
  1

100
AcDbAttribute
  2
GEN-TITLE-REVCHANGE5{9.5}
 70
     0
  0
ATTRIB
  5
3E8
330
3C2
100
AcDbEntity
  8
RAHM2
100
AcDbText
 10
260.8180531127182
 20
31.95000000000005
 30
0.0
 40
2.500000000000367
  1

100
AcDbAttribute
  2
GEN-TITLE-REVDATE5{4.65}
 70
     0
  0
ATTRIB
  5
3E9
330
3C2
100
AcDbEntity
  8
RAHM2
100
AcDbText
 10
273.5180531127182
 20
31.95000000000005
 30
0.0
 40
2.500000000000367
  1

100
AcDbAttribute
  2
GEN-TITLE-REVNAME5{2.7}
 70
     0
  0
ATTRIB
  5
3EA
330
3C2
100
AcDbEntity
  8
RAHM2
100
AcDbText
 10
227.7980531127182
 20
36.18000000000004
 30
0.0
 40
2.500000000000367
  1

100
AcDbAttribute
  2
GEN-TITLE-REV6{5.44}
 70
     0
  0
ATTRIB
  5
3EB
330
3C2
100
AcDbEntity
  8
RAHM2
100
AcDbText
 10
235.4180531127182
 20
36.18000000000004
 30
0.0
 40
2.500000000000367
  1

100
AcDbAttribute
  2
GEN-TITLE-REVCHANGE6{9.5}
 70
     0
  0
ATTRIB
  5
3EC
330
3C2
100
AcDbEntity
  8
RAHM2
100
AcDbText
 10
260.8180531127182
 20
36.18000000000004
 30
0.0
 40
2.500000000000367
  1

100
AcDbAttribute
  2
GEN-TITLE-REVDATE6{4.65}
 70
     0
  0
ATTRIB
  5
3ED
330
3C2
100
AcDbEntity
  8
RAHM2
100
AcDbText
 10
273.5180531127182
 20
36.18000000000004
 30
0.0
 40
2.500000000000367
  1

100
AcDbAttribute
  2
GEN-TITLE-REVNAME6{2.7}
 70
     0
  0
ATTRIB
  5
3EE
330
3C2
100
AcDbEntity
  8
RAHM2
100
AcDbText
 10
227.7980531127182
 20
40.41000000000003
 30
0.0
 40
2.500000000000367
  1

100
AcDbAttribute
  2
GEN-TITLE-REV7{5.44}
 70
     0
  0
ATTRIB
  5
3EF
330
3C2
100
AcDbEntity
  8
RAHM2
100
AcDbText
 10
235.4180531127182
 20
40.41000000000003
 30
0.0
 40
2.500000000000367
  1

100
AcDbAttribute
  2
GEN-TITLE-REVCHANGE7{9.5}
 70
     0
  0
ATTRIB
  5
3F0
330
3C2
100
AcDbEntity
  8
RAHM2
100
AcDbText
 10
260.8180531127182
 20
40.41000000000003
 30
0.0
 40
2.500000000000367
  1

100
AcDbAttribute
  2
GEN-TITLE-REVDATE7{4.65}
 70
     0
  0
ATTRIB
  5
3F1
330
3C2
100
AcDbEntity
  8
RAHM2
100
AcDbText
 10
273.5180531127182
 20
40.41000000000003
 30
0.0
 40
2.500000000000367
  1

100
AcDbAttribute
  2
GEN-TITLE-REVNAME7{2.7}
 70
     0
  0
ATTRIB
  5
3F2
330
3C2
100
AcDbEntity
  8
RAHM2
100
AcDbText
 10
227.7980531127182
 20
44.64000000000004
 30
0.0
 40
2.500000000000367
  1

100
AcDbAttribute
  2
GEN-TITLE-REV8{5.44}
 70
     0
  0
ATTRIB
  5
3F3
330
3C2
100
AcDbEntity
  8
RAHM2
100
AcDbText
 10
235.4180531127182
 20
44.64000000000004
 30
0.0
 40
2.500000000000367
  1

100
AcDbAttribute
  2
GEN-TITLE-REVCHANGE8{9.5}
 70
     0
  0
ATTRIB
  5
3F4
330
3C2
100
AcDbEntity
  8
RAHM2
100
AcDbText
 10
260.8180531127182
 20
44.64000000000004
 30
0.0
 40
2.500000000000367
  1

100
AcDbAttribute
  2
GEN-TITLE-REVDATE8{4.65}
 70
     0
  0
ATTRIB
  5
3F5
330
3C2
100
AcDbEntity
  8
RAHM2
100
AcDbText
 10
273.5180531127182
 20
44.64000000000004
 30
0.0
 40
2.500000000000367
  1

100
AcDbAttribute
  2
GEN-TITLE-REVNAME8{2.7}
 70
     0
  0
SEQEND
  5
3C3
330
3C2
100
AcDbEntity
  8
AM_0
370
     0
  0
POINT
  5
3F6
330
1F
100
AcDbEntity
  8
0
 60
     1
100
AcDbPoint
 10
0.0
 20
0.0
 30
0.0
1001
GENIUS_GENOLIS_13
1002
{
1000
ENT
1005
3C2
1005
31F
1002
}
1001
GENIUS_GENOENT_13
1002
{
1000
MYREF
1005
3F6
1002
}
1002
{
1000
GRP
1005
0
1002
}
1001
GENIUS_GENOBJ-N-TIT_13
1002
{
1000
OWNER
1000
GEN
1002
}
1001
GENIUS_GENODEF_13
1002
{
1000
HIER
1070
     1
1002
}
1002
{
1000
MANEDIT
1070
     0
1002
}
1002
{
1000
NOSEL
1070
     0
1002
}
1002
{
1000
BEHIND
1070
     0
1002
}
1002
{
1000
OTHER
1070
     0
1002
}
1002
{
1000
REACTOR
1002
}
1001
GENIUS_GENTITLE_13
1002
{
1000
BORDER
1000
DIN_A3
1002
}
1002
{
1000
TITLE
1000
din_title
1002
}
1002
{
1000
SCALE
1000
1:1
1002
}
1002
{
1000
TITLESTD
1000
DIN
1002
}
1002
{
1000
HRA
1005
31F
1002
}
1002
{
1000
HTIT
1005
3C2
1002
}
1002
{
1000
UNCHG
1002
{
1000
GEN-TITLE-SIZ
1000
GEN-TITLE-SCA
1002
}
1002
}
1002
{
1000
GENIUSID
1005
3F6
1002
}
  0
DIMENSION
  5
D7F
330
1F
100
AcDbEntity
  8
5
100
AcDbDimension
  2
*D7
 10
88.31073971994829
 20
60.74377903578124
 30
0.0
 11
86.81073971994834
 21
63.09377903578124
 31
0.0
 70
    33
  1
<>
 71
     5
 42
2.999999999999886
  3
GEN-ISO
100
AcDbAlignedDimension
 13
85.31073971994841
 23
56.90155723639055
 33
0.0
 14
88.31073971994829
 24
56.90155723639053
 34
0.0
1001
ACAD
1000
DSTYLE
1002
{
1070
    40
1040
1.0
1070
   272
1070
     1
1070
   274
1070
     2
1070
    47
1040
0.0
1070
    48
1040
0.1
1002
}
  0
DIMENSION
  5
D80
330
1F
100
AcDbEntity
  8
5
100
AcDbDimension
  2
*D8
 10
111.3107397199484
 20
86.94512222503375
 30
0.0
 11
98.3107397199484
 21
89.29546671322272
 31
0.0
 70
    32
  1
<>
 71
     5
 42
26.0
  3
GEN-ISO
100
AcDbAlignedDimension
 13
85.31073971994841
 23
67.94512122503377
 33
0.0
 14
111.3107397199484
 24
76.94512122503375
 34
0.0
100
AcDbRotatedDimension
1001
ACAD
1000
DSTYLE
1002
{
1070
    40
1040
1.0
1070
   272
1070
     1
1070
   274
1070
     2
1070
    47
1040
0.3
1070
    48
1040
0.2
1002
}
  0
DIMENSION
  5
D81
330
1F
100
AcDbEntity
  8
5
100
AcDbDimension
  2
*D9
 10
88.3107397199484
 20
77.94512222503377
 30
0.0
 11
80.14381337015516
 21
80.29546671322275
 31
0.0
 70
    32
  1
<>
 71
     5
 42
2.5
  3
GEN-ISO
100
AcDbAlignedDimension
 13
90.8107397199484
 23
44.94512122503374
 33
0.0
 14
88.3107397199484
 24
67.94512122503377
 34
0.0
100
AcDbRotatedDimension
1001
ACAD
1000
DSTYLE
1002
{
1070
    40
1040
1.0
1070
   272
1070
     1
1070
   274
1070
     2
1070
    47
1040
0.1
1070
    48
1040
0.1
1002
}
  0
DIMENSION
  5
D82
330
1F
100
AcDbEntity
  8
5
100
AcDbDimension
  2
*D10
 10
71.8107387199484
 20
67.94512122503377
 30
0.0
 11
69.4607387199484
 21
49.94512122503376
 31
0.0
 70
    32
  1
<>
 71
     5
 42
36.00000000000003
  3
GEN-ISO
100
AcDbAlignedDimension
 13
78.8107397199484
 23
31.94512122503375
 33
0.0
 14
85.31073971994841
 24
67.94512122503377
 34
0.0
 50
90.0
100
AcDbRotatedDimension
1001
ACAD
1000
DSTYLE
1002
{
1070
    40
1040
1.0
1070
   272
1070
     1
1070
   274
1070
     2
1070
    47
1040
0.2
1070
    48
1040
0.2
1002
}
  0
LINE
  5
D83
330
1F
100
AcDbEntity
  8
0
100
AcDbLine
 10
100.8107397199483
 20
225.8963009119648
 30
0.0
 11
123.8107397199482
 21
225.8963009119648
 31
0.0
  0
LINE
  5
D84
330
1F
100
AcDbEntity
  8
0
100
AcDbLine
 10
100.8107397199483
 20
259.1963009119647
 30
0.0
 11
123.8107397199483
 21
259.1963009119647
 31
0.0
  0
LINE
  5
D85
330
1F
100
AcDbEntity
  8
0
100
AcDbLine
 10
112.8107397199483
 20
229.7963009119647
 30
0.0
 11
125.8107397199482
 21
229.7963009119647
 31
0.0
  0
LINE
  5
D86
330
1F
100
AcDbEntity
  8
0
100
AcDbLine
 10
112.8107397199483
 20
233.2963009119648
 30
0.0
 11
125.8107397199482
 21
233.2963009119648
 31
0.0
  0
LINE
  5
D87
330
1F
100
AcDbEntity
  8
7
100
AcDbLine
 10
112.8107397199483
 20
235.2963009119648
 30
0.0
 11
112.8107397199483
 21
227.7963009119649
 31
0.0
  0
LINE
  5
D88
330
1F
100
AcDbEntity
  8
0
100
AcDbLine
 10
125.8107397199482
 20
229.7963009119647
 30
0.0
 11
125.8107397199482
 21
233.2963009119648
 31
0.0
  0
ARC
  5
D89
330
1F
100
AcDbEntity
  8
0
100
AcDbCircle
 10
112.8107397199484
 20
231.5463009119649
 30
0.0
 40
1.75
100
AcDbArc
 50
90.0
 51
270.0
  0
ARC
  5
D8A
330
1F
100
AcDbEntity
  8
0
100
AcDbCircle
 10
112.8107397199484
 20
253.5463009119649
 30
0.0
 40
1.75
100
AcDbArc
 50
90.0
 51
270.0
  0
LINE
  5
D8B
330
1F
100
AcDbEntity
  8
0
100
AcDbLine
 10
125.8107397199483
 20
251.7963009119648
 30
0.0
 11
125.8107397199483
 21
255.2963009119647
 31
0.0
  0
LINE
  5
D8C
330
1F
100
AcDbEntity
  8
0
100
AcDbLine
 10
112.8107397199483
 20
255.2963009119647
 30
0.0
 11
125.8107397199483
 21
255.2963009119647
 31
0.0
  0
LINE
  5
D8D
330
1F
100
AcDbEntity
  8
0
100
AcDbLine
 10
112.8107397199483
 20
251.7963009119648
 30
0.0
 11
125.8107397199483
 21
251.7963009119648
 31
0.0
  0
LINE
  5
D8E
330
1F
100
AcDbEntity
  8
7
100
AcDbLine
 10
112.8107397199483
 20
257.2963009119649
 30
0.0
 11
112.8107397199483
 21
249.7963009119648
 31
0.0
  0
ARC
  5
D8F
330
1F
100
AcDbEntity
  8
0
100
AcDbCircle
 10
111.8107397199484
 20
242.5463009119649
 30
0.0
 40
3.25
100
AcDbArc
 50
90.0
 51
270.0
  0
LINE
  5
D90
330
1F
100
AcDbEntity
  8
7
100
AcDbLine
 10
111.8107397199483
 20
247.7963009119648
 30
0.0
 11
111.8107397199483
 21
237.2963009119648
 31
0.0
  0
LINE
  5
D91
330
1F
100
AcDbEntity
  8
0
100
AcDbLine
 10
126.8107397199482
 20
227.6283517195337
 30
0.0
 11
126.8107397199482
 21
239.2963009119648
 31
0.0
  0
LINE
  5
D92
330
1F
100
AcDbEntity
  8
0
100
AcDbLine
 10
126.8107397199482
 20
245.7963009119648
 30
0.0
 11
126.8107397199483
 21
257.4642501043959
 31
0.0
  0
DIMENSION
  5
D93
330
1F
100
AcDbEntity
  8
5
100
AcDbDimension
  2
*D11
 10
136.8107397199483
 20
259.1963009119647
 30
0.0
 11
134.4607397199483
 21
242.5463009119647
 31
0.0
 70
    32
  1
<>{}{\H0.71x;\C3;-0.2}
 71
     5
 42
33.29999999999993
  3
GEN-ISO
100
AcDbAlignedDimension
 13
123.8107397199482
 23
225.8963009119648
 33
0.0
 14
123.8107397199483
 24
259.1963009119647
 34
0.0
 50
270.0
100
AcDbRotatedDimension
1001
GENIUS_DIMBRX_14
1000
B37
1000
B5D
1000
A38
1000
9EC
1001
GENIUS_GENODEF_13
1002
{
1000
HIER
1070
     0
1002
}
1002
{
1000
MANEDIT
1070
     0
1002
}
1002
{
1000
NOSEL
1070
     0
1002
}
1002
{
1000
BEHIND
1070
     0
1002
}
1002
{
1000
REACTOR
1002
}
1001
GENIUS_GENOBJ-N-DIMBRX_13
1002
{
1000
OWNER
1000
GEN
1002
}
1001
GENIUS_GENDTOL_13
1000
TolSmPm
1000
g6
1000
{\H0.71x;$2$+$P}
1040
33.3
1001
ACAD
1000
DSTYLE
1002
{
1070
    47
1040
0.0
1070
    48
1040
0.2
1070
   272
1070
     1
1002
}
  0
LINE
  5
D94
330
1F
100
AcDbEntity
  8
7
100
AcDbLine
 10
127.8107397199483
 20
253.5463009119648
 30
0.0
 11
109.0607397199483
 21
253.5463009119649
 31
0.0
  0
LINE
  5
D95
330
1F
100
AcDbEntity
  8
0
100
AcDbLine
 10
123.8107397199483
 20
259.1963009119647
 30
0.0
 11
126.8107397199483
 21
257.4642501043959
 31
0.0
  0
LINE
  5
D96
330
1F
100
AcDbEntity
  8
0
100
AcDbLine
 10
111.8107397199483
 20
239.2963009119648
 30
0.0
 11
126.8107397199482
 21
239.2963009119648
 31
0.0
  0
LINE
  5
D97
330
1F
100
AcDbEntity
  8
0
100
AcDbLine
 10
111.8107397199483
 20
245.7963009119648
 30
0.0
 11
126.8107397199482
 21
245.7963009119648
 31
0.0
  0
LINE
  5
D98
330
1F
100
AcDbEntity
  8
7
100
AcDbLine
 10
127.8107397199482
 20
231.5463009119647
 30
0.0
 11
109.0607397199483
 21
231.5463009119649
 31
0.0
  0
LINE
  5
D99
330
1F
100
AcDbEntity
  8
7
100
AcDbLine
 10
106.5607397199483
 20
242.5463009119649
 30
0.0
 11
131.5543786744777
 21
242.5463009119649
 31
0.0
  0
LINE
  5
D9A
330
1F
100
AcDbEntity
  8
0
100
AcDbLine
 10
123.8107397199482
 20
225.8963009119648
 30
0.0
 11
126.8107397199482
 21
227.6283517195337
 31
0.0
  0
LINE
  5
D9B
330
1F
100
AcDbEntity
  8
0
100
AcDbLine
 10
108.3107397199484
 20
76.94512122503375
 30
0.0
 11
111.3107397199484
 21
76.94512122503375
 31
0.0
  0
LINE
  5
D9C
330
1F
100
AcDbEntity
  8
7A
100
AcDbLine
 10
105.3107397199484
 20
66.94512122503375
 30
0.0
 11
114.3107397199484
 21
66.94512122503375
 31
0.0
1001
GENIUS_GENODEF_13
1002
{
1000
HIER
1070
     0
1002
}
1002
{
1000
MANEDIT
1070
     0
1002
}
1002
{
1000
NOSEL
1070
     0
1002
}
1002
{
1000
BEHIND
1070
     0
1002
}
1002
{
1000
REACTOR
1002
}
1001
GENIUS_GENOBJ-N-CEN_13
1002
{
1000
OWNER
1000
GEN
1002
}
  0
LINE
  5
D9D
330
1F
100
AcDbEntity
  8
7A
100
AcDbLine
 10
105.3107397199484
 20
60.94512122503374
 30
0.0
 11
114.3107397199484
 21
60.94512122503374
 31
0.0
1001
GENIUS_GENODEF_13
1002
{
1000
HIER
1070
     0
1002
}
1002
{
1000
MANEDIT
1070
     0
1002
}
1002
{
1000
NOSEL
1070
     0
1002
}
1002
{
1000
BEHIND
1070
     0
1002
}
1002
{
1000
REACTOR
1002
}
1001
GENIUS_GENOBJ-N-CEN_13
1002
{
1000
OWNER
1000
GEN
1002
}
  0
LINE
  5
D9E
330
1F
100
AcDbEntity
  8
7A
100
AcDbLine
 10
105.3107397199484
 20
56.94512122503375
 30
0.0
 11
114.3107397199484
 21
56.94512122503375
 31
0.0
1001
GENIUS_GENODEF_13
1002
{
1000
HIER
1070
     0
1002
}
1002
{
1000
MANEDIT
1070
     0
1002
}
1002
{
1000
NOSEL
1070
     0
1002
}
1002
{
1000
BEHIND
1070
     0
1002
}
1002
{
1000
REACTOR
1002
}
1001
GENIUS_GENOBJ-N-CEN_13
1002
{
1000
OWNER
1000
GEN
1002
}
  0
LINE
  5
D9F
330
1F
100
AcDbEntity
  8
0
100
AcDbLine
 10
85.31073971994841
 20
67.94512122503377
 30
0.0
 11
88.3107397199484
 21
67.94512122503377
 31
0.0
  0
LINE
  5
DA0
330
1F
100
AcDbEntity
  8
3
100
AcDbLine
 10
85.31073971994841
 20
66.94512122503377
 30
0.0
 11
88.3107397199484
 21
66.94512122503377
 31
0.0
  0
LINE
  5
DA1
330
1F
100
AcDbEntity
  8
0
100
AcDbLine
 10
85.31073971994841
 20
64.94512122503383
 30
0.0
 11
88.3107397199484
 21
64.94512122503383
 31
0.0
  0
LINE
  5
DA2
330
1F
100
AcDbEntity
  8
3
100
AcDbLine
 10
85.31073971994841
 20
52.1951212250338
 30
0.0
 11
88.3107397199484
 21
52.1951212250338
 31
0.0
  0
LINE
  5
DA3
330
1F
100
AcDbEntity
  8
3
100
AcDbLine
 10
85.31073971994841
 20
49.6951212250338
 30
0.0
 11
88.3107397199484
 21
49.6951212250338
 31
0.0
  0
ARC
  5
DA4
330
1F
100
AcDbEntity
  8
0
100
AcDbCircle
 10
106.3107397199484
 20
43.94512122503374
 30
0.0
 40
2.0
100
AcDbArc
 50
270.0
 51
0.0
1001
GENIUS_GENODEF_13
1002
{
1000
HIER
1070
     0
1002
}
1002
{
1000
MANEDIT
1070
     0
1002
}
1002
{
1000
NOSEL
1070
     0
1002
}
1002
{
1000
BEHIND
1070
     0
1002
}
1002
{
1000
REACTOR
1002
}
1001
GENIUS_GENOBJ-N-FIL_13
1002
{
1000
OWNER
1000
GEN
1002
}
  0
ARC
  5
DA5
330
1F
100
AcDbEntity
  8
0
100
AcDbCircle
 10
106.3107397199484
 20
43.94512122503374
 30
0.0
 40
5.0
100
AcDbArc
 50
270.0
 51
0.0
1001
GENIUS_GENODEF_13
1002
{
1000
HIER
1070
     0
1002
}
1002
{
1000
MANEDIT
1070
     0
1002
}
1002
{
1000
NOSEL
1070
     0
1002
}
1002
{
1000
BEHIND
1070
     0
1002
}
1002
{
1000
REACTOR
1002
}
1001
GENIUS_GENOBJ-N-FIL_13
1002
{
1000
OWNER
1000
GEN
1002
}
  0
LINE
  5
DA6
330
1F
100
AcDbEntity
  8
0
100
AcDbLine
 10
102.8107397199484
 20
41.94512122503375
 30
0.0
 11
102.8107397199484
 21
38.94512122503375
 31
0.0
  0
LINE
  5
DA7
330
1F
100
AcDbEntity
  8
0
100
AcDbLine
 10
106.3107397199484
 20
38.94512122503375
 30
0.0
 11
97.95216814849119
 21
38.94512122503375
 31
0.0
  0
LINE
  5
DA8
330
1F
100
AcDbEntity
  8
0
100
AcDbLine
 10
90.8107397199484
 20
41.94512122503375
 30
0.0
 11
106.3107397199484
 21
41.94512122503375
 31
0.0
  0
LINE
  5
DAB
330
1F
100
AcDbEntity
  8
0
100
AcDbLine
 10
84.39399246094524
 20
41.94512122503375
 30
0.0
 11
87.45945253486956
 21
41.94512122503375
 31
0.0
  0
LINE
  5
DAC
330
1F
100
AcDbEntity
  8
0
100
AcDbLine
 10
88.31073971994829
 20
43.94512122503342
 30
0.0
 11
87.16680094455819
 21
41.25757043032919
 31
0.0
  0
LINE
  5
DAD
330
1F
100
AcDbEntity
  8
0
100
AcDbLine
 10
85.31073971994841
 20
43.94512122503377
 30
0.0
 11
81.7202302428933
 21
36.11197104805017
 31
0.0
  0
LINE
  5
DB1
330
1F
100
AcDbEntity
  8
0
100
AcDbLine
 10
88.31073971994829
 20
43.94512122503342
 30
0.0
 11
88.3107397199484
 21
67.94512122503377
 31
0.0
  0
LINE
  5
DB2
330
1F
100
AcDbEntity
  8
0
100
AcDbLine
 10
85.31073971994841
 20
43.94512122503377
 30
0.0
 11
85.31073971994841
 21
67.94512122503377
 31
0.0
  0
LINE
  5
DB3
330
1F
100
AcDbEntity
  8
0
100
AcDbLine
 10
111.3107397199484
 20
76.94512122503375
 30
0.0
 11
111.3107397199484
 21
43.94512122503374
 31
0.0
  0
LINE
  5
DB4
330
1F
100
AcDbEntity
  8
0
100
AcDbLine
 10
108.3107397199484
 20
43.94512122503374
 30
0.0
 11
108.3107397199484
 21
76.94512122503375
 31
0.0
  0
INSERT
  5
DB5
330
1F
100
AcDbEntity
  8
6
  6
Continuous
100
AcDbBlockReference
  2
*U6
 10
100.7921068914388
 20
120.2161107311544
 30
0.0
 50
90.0
1001
GENIUS_GEFWELD_13
1002
{
1002
}
1070
     1
1001
GENIUS_GENODEF_13
1002
{
1000
HIER
1070
     0
1002
}
1002
{
1000
MANEDIT
1070
     0
1002
}
1002
{
1000
NOSEL
1070
     0
1002
}
1002
{
1000
BEHIND
1070
     0
1002
}
1002
{
1000
REACTOR
1002
}
1001
GENIUS_GENOBJ-F-WELS_13
1002
{
1000
OWNER
1000
GEF
1002
}
  0
DIMENSION
  5
DB6
330
1F
100
AcDbEntity
  8
5
100
AcDbDimension
  2
*D12
 10
187.0140924022179
 20
91.00456178974587
 30
0.0
 11
178.2640924022179
 21
93.35456178974586
 31
0.0
 70
    32
  1
<>
 71
     5
 42
17.5
  3
GEN-ISO
100
AcDbAlignedDimension
 13
169.5140924022179
 23
64.94512122503374
 33
0.0
 14
187.0140924022179
 24
76.94512122503375
 34
0.0
100
AcDbRotatedDimension
1001
GENIUS_DIMBRX_14
1000
73B
1001
GENIUS_GENODEF_13
1002
{
1000
HIER
1070
     0
1002
}
1002
{
1000
MANEDIT
1070
     0
1002
}
1002
{
1000
NOSEL
1070
     0
1002
}
1002
{
1000
BEHIND
1070
     0
1002
}
1002
{
1000
REACTOR
1002
}
1001
GENIUS_GENOBJ-N-DIMBRX_13
1002
{
1000
OWNER
1000
GEN
1002
}
1001
ACAD
1000
DSTYLE
1002
{
1070
    40
1040
1.0
1070
   272
1070
     1
1070
   274
1070
     2
1070
    47
1040
0.4
1070
    48
1040
0.0
1002
}
  0
DIMENSION
  5
DB7
330
1F
100
AcDbEntity
  8
5
100
AcDbDimension
  2
*D13
 10
57.81073971994778
 20
114.3963009119651
 30
0.0
 11
35.84004470405758
 21
92.7082151881258
 31
0.0
 70
   164
  1
R<>
 71
     5
 42
12.00000000000003
  3
GEN-ISO$4
100
AcDbRadialDimension
 15
50.07444576370907
 25
105.2229833102102
 35
0.0
 40
0.0
1001
GENIUS_GENDTOL_13
1000

1000
g6
1000

1040
0.0
1000
R<>
1001
GENIUS_DIMBRX_14
1000
109E
1001
GENIUS_GENODEF_13
1002
{
1000
HIER
1070
     0
1002
}
1002
{
1000
MANEDIT
1070
     0
1002
}
1002
{
1000
NOSEL
1070
     0
1002
}
1002
{
1000
BEHIND
1070
     0
1002
}
1002
{
1000
REACTOR
1002
}
1001
GENIUS_GENOBJ-N-DIMBRX_13
1002
{
1000
OWNER
1000
GEN
1002
}
1001
ACAD
1000
DSTYLE
1002
{
1070
     3
1000
<>
1070
    40
1040
1.0
1002
}
  0
DIMENSION
  5
DB8
330
1F
100
AcDbEntity
  8
5
100
AcDbDimension
  2
*D14
 10
35.81073971994826
 20
262.6963009119649
 30
0.0
 11
33.46039523175925
 21
270.916028476596
 31
0.0
 70
    32
  1
<>
 71
     5
 42
2.90000000000009
  3
GEN-ISO
100
AcDbAlignedDimension
 13
54.6187019527426
 23
259.7963009119649
 33
0.0
 14
58.81592121161755
 24
262.6963009119649
 34
0.0
 50
90.0
100
AcDbRotatedDimension
1001
GENIUS_GENDTOL_13
1000

1000
g6
1000

1040
0.0
1000
<>
1001
ACAD
1000
DSTYLE
1002
{
1070
    40
1040
1.0
1070
   272
1070
     1
1070
   274
1070
     4
1070
    47
1040
0.0
1070
    48
1040
0.2
1002
}
  0
DIMENSION
  5
DB9
330
1F
100
AcDbEntity
  8
5
100
AcDbDimension
  2
*D15
 10
28.81073971994826
 20
262.6963009119649
 30
0.0
 11
26.46073971994821
 21
182.5463009119649
 31
0.0
 70
    32
  1
<>
 71
     5
 42
160.3
  3
GEN-ISO
100
AcDbAlignedDimension
 13
57.81073971994823
 23
102.3963009119648
 33
0.0
 14
57.81073971994825
 24
262.6963009119649
 34
0.0
 50
90.0
100
AcDbRotatedDimension
1001
GENIUS_GENODEF_13
1002
{
1000
HIER
1070
     0
1002
}
1002
{
1000
MANEDIT
1070
     0
1002
}
1002
{
1000
NOSEL
1070
     0
1002
}
1002
{
1000
BEHIND
1070
     0
1002
}
1002
{
1000
REACTOR
1002
}
1001
GENIUS_GENOBJ-N-DIMBR_13
1002
{
1000
OWNER
1000
GEN
1002
}
1001
GENIUS_DIMBR_14
1000
11C4
1001
ACAD
1000
DSTYLE
1002
{
1070
    40
1040
1.0
1070
   272
1070
     1
1070
   274
1070
     2
1070
    47
1040
0.0
1070
    48
1040
0.2
1002
}
  0
DIMENSION
  5
DBA
330
1F
100
AcDbEntity
  8
5
100
AcDbDimension
  2
*D16
 10
35.81073971994826
 20
252.5463009119649
 30
0.0
 11
33.46073971994822
 21
235.0463009119649
 31
0.0
 70
    32
  1
<>
 71
     5
 42
34.99999999999997
  3
GEN-ISO
100
AcDbAlignedDimension
 13
47.56073971994823
 23
217.5463009119649
 33
0.0
 14
57.56073971994824
 24
252.5463009119649
 34
0.0
 50
90.0
100
AcDbRotatedDimension
1001
GENIUS_GENDTOL_13
1000

1000
g6
1000

1040
0.0
1000
<>
1001
ACAD
1000
DSTYLE
1002
{
1070
    40
1040
1.0
1002
}
  0
DIMENSION
  5
DBB
330
1F
100
AcDbEntity
  8
5
100
AcDbDimension
  2
*D17
 10
35.81073971994823
 20
217.5463009119649
 30
0.0
 11
33.46073971994819
 21
200.0463009119649
 31
0.0
 70
    32
  1
<>
 71
     5
 42
35.0
  3
GEN-ISO
100
AcDbAlignedDimension
 13
42.81073971994823
 23
182.5463009119649
 33
0.0
 14
47.56073971994823
 24
217.5463009119649
 34
0.0
 50
90.0
100
AcDbRotatedDimension
1001
GENIUS_GENDTOL_13
1000

1000
g6
1000

1040
0.0
1000
<>
1001
ACAD
1000
DSTYLE
1002
{
1070
    40
1040
1.0
1002
}
  0
DIMENSION
  5
DBC
330
1F
100
AcDbEntity
  8
5
100
AcDbDimension
  2
*D18
 10
35.81073971994823
 20
182.5463009119649
 30
0.0
 11
33.46073971994819
 21
165.0463009119649
 31
0.0
 70
    32
  1
<>
 71
     5
 42
35.0
  3
GEN-ISO
100
AcDbAlignedDimension
 13
47.56073971994823
 23
147.5463009119649
 33
0.0
 14
42.81073971994823
 24
182.5463009119649
 34
0.0
 50
90.0
100
AcDbRotatedDimension
1001
GENIUS_GENDTOL_13
1000

1000
g6
1000

1040
0.0
1000
<>
1001
ACAD
1000
DSTYLE
1002
{
1070
    40
1040
1.0
1002
}
  0
DIMENSION
  5
DBD
330
1F
100
AcDbEntity
  8
5
100
AcDbDimension
  2
*D19
 10
35.81073971994823
 20
147.5463009119649
 30
0.0
 11
33.4607397199482
 21
130.0463009119649
 31
0.0
 70
    32
  1
<>
 71
     5
 42
34.99999999999999
  3
GEN-ISO
100
AcDbAlignedDimension
 13
57.56073971994823
 23
112.5463009119649
 33
0.0
 14
47.56073971994823
 24
147.5463009119649
 34
0.0
 50
90.0
100
AcDbRotatedDimension
1001
GENIUS_GENDTOL_13
1000

1000
g6
1000

1040
0.0
1000
<>
1001
ACAD
1000
DSTYLE
1002
{
1070
    40
1040
1.0
1002
}
  0
DIMENSION
  5
DBE
330
1F
100
AcDbEntity
  8
5
100
AcDbDimension
  2
*D20
 10
45.81073971994823
 20
124.2446115994073
 30
0.0
 11
55.81073971994823
 21
126.5949560875963
 31
0.0
 70
    32
  1
<>
 71
     5
 42
20.0
  3
GEN-ISO
100
AcDbAlignedDimension
 13
65.81073971994823
 23
120.7963009119648
 33
0.0
 14
45.81073971994823
 24
121.5720357859941
 34
0.0
 50
180.0
100
AcDbRotatedDimension
1001
GENIUS_GENDTOL_13
1000

1000
g6
1000

1040
0.0
1000
<>
1001
ACAD
1000
DSTYLE
1002
{
1070
    40
1040
1.0
1002
}
  0
DIMENSION
  5
DBF
330
1F
100
AcDbEntity
  8
5
100
AcDbDimension
  2
*D21
 10
45.81073971994823
 20
158.631754940661
 30
0.0
 11
50.81073971994823
 21
160.981754940661
 31
0.0
 70
    32
  1
<>
 71
     5
 42
10.0
  3
GEN-ISO
100
AcDbAlignedDimension
 13
55.81073971994823
 23
155.7963009119649
 33
0.0
 14
45.81073971994823
 24
157.5627242124058
 34
0.0
 50
180.0
100
AcDbRotatedDimension
1001
GENIUS_GENDTOL_13
1000

1000
g6
1000

1040
0.0
1000
<>
1001
ACAD
1000
DSTYLE
1002
{
1070
    40
1040
1.0
1002
}
  0
DIMENSION
  5
DC0
330
1F
100
AcDbEntity
  8
5
100
AcDbDimension
  2
*D22
 10
45.81073971994823
 20
193.5534136460426
 30
0.0
 11
53.81073971994823
 21
195.9034136460426
 31
0.0
 70
    32
  1
<>
 71
     5
 42
16.0
  3
GEN-ISO
100
AcDbAlignedDimension
 13
61.81073971994823
 23
190.7963009119649
 33
0.0
 14
45.81073971994823
 24
193.018898281915
 34
0.0
 50
180.0
100
AcDbRotatedDimension
1001
GENIUS_GENDTOL_13
1000

1000
g6
1000

1040
0.0
1000
<>
1001
ACAD
1000
DSTYLE
1002
{
1070
    40
1040
1.0
1002
}
  0
DIMENSION
  5
DC1
330
1F
100
AcDbEntity
  8
5
100
AcDbDimension
  2
*D23
 10
71.06074071994824
 20
222.7963009119648
 30
0.0
 11
68.71074071994822
 21
233.9537939430858
 31
0.0
 70
    32
  1
<>x90%%d
 71
     5
 42
10.5
  3
GEN-ISO
100
AcDbAlignedDimension
 13
55.81073971994825
 23
212.2963009119649
 33
0.0
 14
55.81073971994825
 24
222.7963009119649
 34
0.0
 50
90.0
100
AcDbRotatedDimension
1001
GENIUS_GENDTOL_13
1000

1000
g6
1000

1040
0.0
1000
<>x90%%d
1001
ACAD
1000
DSTYLE
1002
{
1070
    40
1040
1.0
1002
}
  0
DIMENSION
  5
DC2
330
1F
100
AcDbEntity
  8
5
100
AcDbDimension
  2
*D24
 10
71.06074071994822
 20
144.7963009119648
 30
0.0
 11
68.71074071994822
 21
136.8344898883428
 31
0.0
 70
    32
  1
%%c6
 71
     5
 42
5.5
  3
GEN-ISO
100
AcDbAlignedDimension
 13
55.81073971994823
 23
150.2963009119649
 33
0.0
 14
55.81073971994823
 24
144.7963009119649
 34
0.0
 50
90.0
100
AcDbRotatedDimension
1001
ACAD
1000
DSTYLE
1002
{
1070
    40
1040
1.0
1070
   272
1070
     1
1070
   274
1070
     4
1070
    47
1040
0.0
1002
}
  0
CIRCLE
  5
DC3
330
1F
100
AcDbEntity
  8
0
100
AcDbCircle
 10
65.81073971994823
 20
252.5463009119649
 30
0.0
 40
2.75
  0
CIRCLE
  5
DC4
330
1F
100
AcDbEntity
  8
0
100
AcDbCircle
 10
65.81073971994823
 20
252.5463009119649
 30
0.0
 40
5.25
  0
LINE
  5
DC5
330
1F
100
AcDbEntity
  8
7A
100
AcDbLine
 10
65.81073971994825
 20
252.5463009119649
 30
0.0
 11
74.06073971994825
 21
252.5463009119649
 31
0.0
1001
GENIUS_GENOREF_13
1005
E3D
  0
LINE
  5
DC6
330
1F
100
AcDbEntity
  8
7A
100
AcDbLine
 10
65.81073971994825
 20
252.5463009119649
 30
0.0
 11
65.81073971994825
 21
244.2963009119649
 31
0.0
1001
GENIUS_GENOREF_13
1005
E3D
  0
LINE
  5
DC7
330
1F
100
AcDbEntity
  8
7A
100
AcDbLine
 10
65.81073971994825
 20
252.5463009119649
 30
0.0
 11
57.56073971994824
 21
252.5463009119649
 31
0.0
1001
GENIUS_GENOREF_13
1005
E3D
  0
LINE
  5
DC8
330
1F
100
AcDbEntity
  8
7A
100
AcDbLine
 10
65.81073971994825
 20
252.5463009119649
 30
0.0
 11
65.81073971994825
 21
260.7963009119649
 31
0.0
1001
GENIUS_GENOREF_13
1005
E3D
  0
CIRCLE
  5
DC9
330
1F
100
AcDbEntity
  8
0
100
AcDbCircle
 10
55.81073971994823
 20
217.5463009119649
 30
0.0
 40
2.75
  0
CIRCLE
  5
DCA
330
1F
100
AcDbEntity
  8
0
100
AcDbCircle
 10
55.81073971994823
 20
217.5463009119649
 30
0.0
 40
5.25
  0
LINE
  5
DCB
330
1F
100
AcDbEntity
  8
7A
100
AcDbLine
 10
55.81073971994825
 20
217.5463009119649
 30
0.0
 11
64.06073971994825
 21
217.5463009119649
 31
0.0
1001
GENIUS_GENOREF_13
1005
E3E
  0
LINE
  5
DCC
330
1F
100
AcDbEntity
  8
7A
100
AcDbLine
 10
55.81073971994825
 20
217.5463009119649
 30
0.0
 11
55.81073971994825
 21
209.2963009119649
 31
0.0
1001
GENIUS_GENOREF_13
1005
E3E
  0
LINE
  5
DCD
330
1F
100
AcDbEntity
  8
7A
100
AcDbLine
 10
55.81073971994825
 20
217.5463009119649
 30
0.0
 11
47.56073971994823
 21
217.5463009119649
 31
0.0
1001
GENIUS_GENOREF_13
1005
E3E
  0
LINE
  5
DCE
330
1F
100
AcDbEntity
  8
7A
100
AcDbLine
 10
55.81073971994825
 20
217.5463009119649
 30
0.0
 11
55.81073971994825
 21
225.7963009119649
 31
0.0
1001
GENIUS_GENOREF_13
1005
E3E
  0
CIRCLE
  5
DCF
330
1F
100
AcDbEntity
  8
0
100
AcDbCircle
 10
61.81073971994822
 20
182.5463009119649
 30
0.0
 40
2.75
  0
CIRCLE
  5
DD0
330
1F
100
AcDbEntity
  8
0
100
AcDbCircle
 10
61.81073971994822
 20
182.5463009119649
 30
0.0
 40
5.25
  0
LINE
  5
DD1
330
1F
100
AcDbEntity
  8
7A
100
AcDbLine
 10
61.81073971994823
 20
182.5463009119649
 30
0.0
 11
61.81073971994823
 21
174.2963009119649
 31
0.0
1001
GENIUS_GENOREF_13
1005
E3F
  0
LINE
  5
DD2
330
1F
100
AcDbEntity
  8
7A
100
AcDbLine
 10
61.81073971994823
 20
182.5463009119649
 30
0.0
 11
61.81073971994823
 21
190.7963009119649
 31
0.0
1001
GENIUS_GENOREF_13
1005
E3F
  0
CIRCLE
  5
DD3
330
1F
100
AcDbEntity
  8
0
100
AcDbCircle
 10
55.81073971994822
 20
147.5463009119649
 30
0.0
 40
2.75
  0
CIRCLE
  5
DD4
330
1F
100
AcDbEntity
  8
0
100
AcDbCircle
 10
55.81073971994822
 20
147.5463009119649
 30
0.0
 40
5.25
  0
LINE
  5
DD5
330
1F
100
AcDbEntity
  8
7A
100
AcDbLine
 10
55.81073971994823
 20
147.5463009119649
 30
0.0
 11
64.06073971994823
 21
147.5463009119649
 31
0.0
1001
GENIUS_GENOREF_13
1005
E40
  0
LINE
  5
DD6
330
1F
100
AcDbEntity
  8
7A
100
AcDbLine
 10
55.81073971994823
 20
147.5463009119649
 30
0.0
 11
55.81073971994823
 21
139.2963009119649
 31
0.0
1001
GENIUS_GENOREF_13
1005
E40
  0
LINE
  5
DD7
330
1F
100
AcDbEntity
  8
7A
100
AcDbLine
 10
55.81073971994823
 20
147.5463009119649
 30
0.0
 11
47.56073971994823
 21
147.5463009119649
 31
0.0
1001
GENIUS_GENOREF_13
1005
E40
  0
LINE
  5
DD8
330
1F
100
AcDbEntity
  8
7A
100
AcDbLine
 10
55.81073971994823
 20
147.5463009119649
 30
0.0
 11
55.81073971994823
 21
155.7963009119649
 31
0.0
1001
GENIUS_GENOREF_13
1005
E40
  0
CIRCLE
  5
DD9
330
1F
100
AcDbEntity
  8
0
100
AcDbCircle
 10
65.8107397199481
 20
112.5463009119649
 30
0.0
 40
2.75
  0
CIRCLE
  5
DDA
330
1F
100
AcDbEntity
  8
0
100
AcDbCircle
 10
65.8107397199481
 20
112.5463009119649
 30
0.0
 40
5.25
  0
LINE
  5
DDB
330
1F
100
AcDbEntity
  8
7A
100
AcDbLine
 10
65.81073971994823
 20
112.5463009119648
 30
0.0
 11
74.06073971994823
 21
112.5463009119648
 31
0.0
1001
GENIUS_GENOREF_13
1005
E41
  0
LINE
  5
DDC
330
1F
100
AcDbEntity
  8
7A
100
AcDbLine
 10
65.81073971994823
 20
112.5463009119648
 30
0.0
 11
65.81073971994823
 21
104.2963009119648
 31
0.0
1001
GENIUS_GENOREF_13
1005
E41
  0
LINE
  5
DDD
330
1F
100
AcDbEntity
  8
7A
100
AcDbLine
 10
65.81073971994823
 20
112.5463009119648
 30
0.0
 11
57.56073971994823
 21
112.5463009119649
 31
0.0
1001
GENIUS_GENOREF_13
1005
E41
  0
LINE
  5
DDE
330
1F
100
AcDbEntity
  8
7A
100
AcDbLine
 10
65.81073971994823
 20
112.5463009119648
 30
0.0
 11
65.81073971994823
 21
120.7963009119648
 31
0.0
1001
GENIUS_GENOREF_13
1005
E41
  0
LINE
  5
DDF
330
1F
100
AcDbEntity
  8
7A
100
AcDbLine
 10
181.0140924022179
 20
56.94512122503375
 30
0.0
 11
190.0140924022179
 21
56.94512122503375
 31
0.0
1001
GENIUS_GENODEF_13
1002
{
1000
HIER
1070
     0
1002
}
1002
{
1000
MANEDIT
1070
     0
1002
}
1002
{
1000
NOSEL
1070
     0
1002
}
1002
{
1000
BEHIND
1070
     0
1002
}
1002
{
1000
REACTOR
1002
}
1001
GENIUS_GENOBJ-N-CEN_13
1002
{
1000
OWNER
1000
GEN
1002
}
  0
LINE
  5
DE0
330
1F
100
AcDbEntity
  8
7A
100
AcDbLine
 10
181.0140924022179
 20
60.94512122503374
 30
0.0
 11
190.0140924022179
 21
60.94512122503374
 31
0.0
1001
GENIUS_GENODEF_13
1002
{
1000
HIER
1070
     0
1002
}
1002
{
1000
MANEDIT
1070
     0
1002
}
1002
{
1000
NOSEL
1070
     0
1002
}
1002
{
1000
BEHIND
1070
     0
1002
}
1002
{
1000
REACTOR
1002
}
1001
GENIUS_GENOBJ-N-CEN_13
1002
{
1000
OWNER
1000
GEN
1002
}
  0
LINE
  5
DE1
330
1F
100
AcDbEntity
  8
7A
100
AcDbLine
 10
181.0140924022179
 20
66.94512122503375
 30
0.0
 11
190.0140924022179
 21
66.94512122503375
 31
0.0
1001
GENIUS_GENODEF_13
1002
{
1000
HIER
1070
     0
1002
}
1002
{
1000
MANEDIT
1070
     0
1002
}
1002
{
1000
NOSEL
1070
     0
1002
}
1002
{
1000
BEHIND
1070
     0
1002
}
1002
{
1000
REACTOR
1002
}
1001
GENIUS_GENOBJ-N-CEN_13
1002
{
1000
OWNER
1000
GEN
1002
}
  0
LINE
  5
DE2
330
1F
100
AcDbEntity
  8
5A
100
AcDbLine
 10
124.8107397199482
 20
182.5463009119648
 30
0.0
 11
42.81073971994823
 21
182.5463009119649
 31
0.0
1001
GENIUS_GENODEF_13
1002
{
1000
HIER
1070
     0
1002
}
1002
{
1000
MANEDIT
1070
     0
1002
}
1002
{
1000
NOSEL
1070
     0
1002
}
1002
{
1000
BEHIND
1070
     0
1002
}
1002
{
1000
REACTOR
1002
}
1001
GENIUS_GENOBJ-N-CEN_13
1002
{
1000
OWNER
1000
GEN
1002
}
  0
ARC
  5
DE3
330
1F
100
AcDbEntity
  8
0
100
AcDbCircle
 10
57.81073971994823
 20
250.696300911965
 30
0.0
 40
12.0
100
AcDbArc
 50
90.0
 51
180.0
1001
GENIUS_GENODEF_13
1002
{
1000
HIER
1070
     0
1002
}
1002
{
1000
MANEDIT
1070
     0
1002
}
1002
{
1000
NOSEL
1070
     0
1002
}
1002
{
1000
BEHIND
1070
     0
1002
}
1002
{
1000
REACTOR
1002
}
1001
GENIUS_GENOBJ-N-FIL_13
1002
{
1000
OWNER
1000
GEN
1002
}
  0
ARC
  5
DE4
330
1F
100
AcDbEntity
  8
0
100
AcDbCircle
 10
57.8107397199481
 20
114.3963009119649
 30
0.0
 40
12.0
100
AcDbArc
 50
180.0
 51
270.0
1001
GENIUS_GENODEF_13
1002
{
1000
HIER
1070
     0
1002
}
1002
{
1000
MANEDIT
1070
     0
1002
}
1002
{
1000
NOSEL
1070
     0
1002
}
1002
{
1000
BEHIND
1070
     0
1002
}
1002
{
1000
REACTOR
1002
}
1001
GENIUS_GENOBJ-N-FIL_13
1002
{
1000
OWNER
1000
GEN
1002
}
  0
LINE
  5
DE5
330
1F
100
AcDbEntity
  8
0
100
AcDbLine
 10
57.81073971994825
 20
262.6963009119649
 30
0.0
 11
80.81073971994824
 21
262.6963009119649
 31
0.0
  0
LINE
  5
DE6
330
1F
100
AcDbEntity
  8
0
100
AcDbLine
 10
45.81073971994823
 20
114.3963009119649
 30
0.0
 11
45.81073971994825
 21
250.696300911965
 31
0.0
  0
LINE
  5
DE7
330
1F
100
AcDbEntity
  8
0
100
AcDbLine
 10
80.81073971994824
 20
102.3963009119648
 30
0.0
 11
57.81073971994823
 21
102.3963009119648
 31
0.0
  0
DIMENSION
  5
DE8
330
1F
100
AcDbEntity
  8
5
100
AcDbDimension
  2
*D25
 10
187.0140924022179
 20
82.45264091588177
 30
0.0
 11
185.5140924022179
 21
84.80264091588177
 31
0.0
 70
    32
  1
<>
 71
     5
 42
3.0
  3
GEN-ISO
100
AcDbAlignedDimension
 13
184.0140924022179
 23
76.94512122503375
 33
0.0
 14
187.0140924022179
 24
76.94512122503375
 34
0.0
100
AcDbRotatedDimension
1001
ACAD
1000
DSTYLE
1002
{
1070
    40
1040
1.0
1070
   272
1070
     1
1070
   274
1070
     2
1070
    47
1040
0.0
1070
    48
1040
0.1
1002
}
  0
DIMENSION
  5
DE9
330
1F
100
AcDbEntity
  8
5
100
AcDbDimension
  2
*D26
 10
206.9381720294627
 20
76.94512122503375
 30
0.0
 11
204.5881720294627
 21
54.44512122503377
 31
0.0
 70
    32
  1
<>
 71
     5
 42
45.0
  3
GEN-ISO
100
AcDbAlignedDimension
 13
179.5140924022179
 23
31.94512122503375
 33
0.0
 14
187.0140924022179
 24
76.94512122503375
 34
0.0
 50
90.0
100
AcDbRotatedDimension
1001
GENIUS_DIMBRX_14
1000
CFD
1001
GENIUS_GENODEF_13
1002
{
1000
HIER
1070
     0
1002
}
1002
{
1000
MANEDIT
1070
     0
1002
}
1002
{
1000
NOSEL
1070
     0
1002
}
1002
{
1000
BEHIND
1070
     0
1002
}
1002
{
1000
REACTOR
1002
}
1001
GENIUS_GENOBJ-N-DIMBRX_13
1002
{
1000
OWNER
1000
GEN
1002
}
1001
ACAD
1000
DSTYLE
1002
{
1070
    40
1040
1.0
1070
   272
1070
     1
1070
   274
1070
     2
1070
    47
1040
0.2
1070
    48
1040
0.0
1002
}
  0
DIMENSION
  5
DEA
330
1F
100
AcDbEntity
  8
5
100
AcDbDimension
  2
*D27
 10
197.0140934022179
 20
76.94512122503375
 30
0.0
 11
194.6640934022179
 21
57.94512122503377
 31
0.0
 70
    32
  1
<>
 71
     5
 42
38.0
  3
GEN-ISO
100
AcDbAlignedDimension
 13
182.0140924022179
 23
38.94512122503375
 33
0.0
 14
187.0140924022179
 24
76.94512122503375
 34
0.0
 50
90.0
100
AcDbRotatedDimension
1001
GENIUS_DIMBRX_14
1000
CFD
1001
GENIUS_GENODEF_13
1002
{
1000
HIER
1070
     0
1002
}
1002
{
1000
MANEDIT
1070
     0
1002
}
1002
{
1000
NOSEL
1070
     0
1002
}
1002
{
1000
BEHIND
1070
     0
1002
}
1002
{
1000
REACTOR
1002
}
1001
GENIUS_GENOBJ-N-DIMBRX_13
1002
{
1000
OWNER
1000
GEN
1002
}
1001
ACAD
1000
DSTYLE
1002
{
1070
    40
1040
1.0
1070
   272
1070
     1
1070
   274
1070
     2
1070
    47
1040
0.0
1070
    48
1040
0.2
1002
}
  0
DIMENSION
  5
DEB
330
1F
100
AcDbEntity
  8
5
100
AcDbDimension
  2
*D28
 10
166.5140924022179
 20
11.94512022503374
 30
0.0
 11
176.7640924022179
 21
14.29546471322272
 31
0.0
 70
    32
  1
<>
 71
     5
 42
20.5
  3
GEN-ISO
100
AcDbAlignedDimension
 13
187.0140924022179
 23
43.94512122503374
 33
0.0
 14
166.5140924022179
 24
18.94512122503374
 34
0.0
100
AcDbRotatedDimension
1001
GENIUS_GENODEF_13
1002
{
1000
HIER
1070
     0
1002
}
1002
{
1000
MANEDIT
1070
     0
1002
}
1002
{
1000
NOSEL
1070
     0
1002
}
1002
{
1000
BEHIND
1070
     0
1002
}
1002
{
1000
REACTOR
1002
}
1001
GENIUS_GENOBJ-N-DIMBR_13
1002
{
1000
OWNER
1000
GEN
1002
}
1001
GENIUS_DIMBR_14
1000
D8C
1000
D50
1001
ACAD
1000
DSTYLE
1002
{
1070
    40
1040
1.0
1070
   272
1070
     1
1070
   274
1070
     2
1070
    47
1040
0.2
1070
    48
1040
0.0
1002
}
  0
ARC
  5
DEC
330
1F
100
AcDbEntity
  8
0
100
AcDbCircle
 10
182.0140924022179
 20
43.94512122503374
 30
0.0
 40
5.0
100
AcDbArc
 50
270.0
 51
0.0
1001
GENIUS_GENODEF_13
1002
{
1000
HIER
1070
     0
1002
}
1002
{
1000
MANEDIT
1070
     0
1002
}
1002
{
1000
NOSEL
1070
     0
1002
}
1002
{
1000
BEHIND
1070
     0
1002
}
1002
{
1000
REACTOR
1002
}
1001
GENIUS_GENOBJ-N-FIL_13
1002
{
1000
OWNER
1000
GEN
1002
}
  0
ARC
  5
DED
330
1F
100
AcDbEntity
  8
0
100
AcDbCircle
 10
182.0140924022179
 20
43.94512122503374
 30
0.0
 40
2.0
100
AcDbArc
 50
270.0
 51
0.0
1001
GENIUS_GENODEF_13
1002
{
1000
HIER
1070
     0
1002
}
1002
{
1000
MANEDIT
1070
     0
1002
}
1002
{
1000
NOSEL
1070
     0
1002
}
1002
{
1000
BEHIND
1070
     0
1002
}
1002
{
1000
REACTOR
1002
}
1001
GENIUS_GENOBJ-N-FIL_13
1002
{
1000
OWNER
1000
GEN
1002
}
  0
LINE
  5
DEE
330
1F
100
AcDbEntity
  8
0
100
AcDbLine
 10
178.5140924022179
 20
41.94512122503375
 30
0.0
 11
178.5140924022179
 21
38.94512122503375
 31
0.0
  0
LINE
  5
DEF
330
1F
100
AcDbEntity
  8
0
100
AcDbLine
 10
182.0140924022179
 20
38.94512122503375
 30
0.0
 11
174.8892212716214
 21
38.94512122503375
 31
0.0
  0
LINE
  5
DF0
330
1F
100
AcDbEntity
  8
0
100
AcDbLine
 10
187.0140924022179
 20
76.94512122503375
 30
0.0
 11
187.0140924022179
 21
43.94512122503374
 31
0.0
  0
LINE
  5
DF1
330
1F
100
AcDbEntity
  8
0
100
AcDbLine
 10
184.0140924022179
 20
76.94512122503375
 30
0.0
 11
187.0140924022179
 21
76.94512122503375
 31
0.0
  0
LINE
  5
DF2
330
1F
100
AcDbEntity
  8
0
100
AcDbLine
 10
184.0140924022179
 20
43.94512122503374
 30
0.0
 11
184.0140924022179
 21
76.94512122503375
 31
0.0
  0
LINE
  5
DF3
330
1F
100
AcDbEntity
  8
0
100
AcDbLine
 10
174.5140924022179
 20
41.94512122503375
 30
0.0
 11
182.0140924022179
 21
41.94512122503375
 31
0.0
  0
LINE
  5
DF4
330
1F
100
AcDbEntity
  8
0
100
AcDbLine
 10
174.6602571439844
 20
37.74512122503376
 30
0.0
 11
174.8892212716215
 21
37.74512122503376
 31
0.0
  0
LINE
  5
DF5
330
1F
100
AcDbEntity
  8
0
100
AcDbLine
 10
174.5140924022179
 20
37.94512122503375
 30
0.0
 11
174.8892212716215
 21
37.94512122503375
 31
0.0
  0
DIMENSION
  5
DF6
330
1F
100
AcDbEntity
  8
5
100
AcDbDimension
  2
*D29
 10
100.8107397199482
 20
134.5443319831065
 30
0.0
 11
111.3107397199482
 21
136.8946764712955
 31
0.0
 70
    32
  1
<>
 71
     5
 42
21.0
  3
GEN-ISO
100
AcDbAlignedDimension
 13
121.8107397199482
 23
126.0463009119648
 33
0.0
 14
100.8107397199482
 24
132.7991583986636
 34
0.0
100
AcDbRotatedDimension
1001
GENIUS_GENDTOL_13
1000

1000
g6
1000

1040
0.0
1000
<>
1001
ACAD
1000
DSTYLE
1002
{
1070
    40
1040
1.0
1002
}
  0
DIMENSION
  5
DF7
330
1F
100
AcDbEntity
  8
5
100
AcDbDimension
  2
*D30
 10
145.3626807970332
 20
122.5463009119648
 30
0.0
 11
143.0123363088442
 21
182.5463009119649
 31
0.0
 70
    32
  1
<>
 71
     5
 42
120.0
  3
GEN-ISO
100
AcDbAlignedDimension
 13
136.8204961537967
 23
242.5463009119649
 33
0.0
 14
123.8107397199482
 24
122.5463009119648
 34
0.0
 50
270.0
100
AcDbRotatedDimension
1001
GENIUS_GENDTOL_13
1000

1000
g6
1000

1040
0.0
1000
<>
1001
GENIUS_GENODEF_13
1002
{
1000
HIER
1070
     0
1002
}
1002
{
1000
MANEDIT
1070
     0
1002
}
1002
{
1000
NOSEL
1070
     0
1002
}
1002
{
1000
BEHIND
1070
     0
1002
}
1002
{
1000
REACTOR
1002
}
1001
GENIUS_GENOBJ-N-DIMBR_13
1002
{
1000
OWNER
1000
GEN
1002
}
1001
GENIUS_DIMBR_14
1000
1A06
1001
ACAD
1000
DSTYLE
1002
{
1070
    40
1040
1.0
1002
}
  0
DIMENSION
  5
DF8
330
1F
100
AcDbEntity
  8
5
100
AcDbDimension
  2
*D31
 10
145.3626807970332
 20
242.5463009119649
 30
0.0
 11
143.0123363088442
 21
251.1713009119649
 31
0.0
 70
    32
  1
<>
 71
     5
 42
17.25000000000003
  3
GEN-ISO
100
AcDbAlignedDimension
 13
129.8222944342102
 23
259.7963009119649
 33
0.0
 14
136.8204961537967
 24
242.5463009119649
 34
0.0
 50
270.0
100
AcDbRotatedDimension
1001
GENIUS_GENDTOL_13
1000

1000
g6
1000

1040
0.0
1000
<>
1001
GENIUS_GENODEF_13
1002
{
1000
HIER
1070
     0
1002
}
1002
{
1000
MANEDIT
1070
     0
1002
}
1002
{
1000
NOSEL
1070
     0
1002
}
1002
{
1000
BEHIND
1070
     0
1002
}
1002
{
1000
REACTOR
1002
}
1001
GENIUS_GENOBJ-N-DIMBR_13
1002
{
1000
OWNER
1000
GEN
1002
}
1001
GENIUS_DIMBR_14
1000
1A06
1001
ACAD
1000
DSTYLE
1002
{
1070
    40
1040
1.0
1002
}
  0
DIMENSION
  5
DF9
330
1F
100
AcDbEntity
  8
5
100
AcDbDimension
  2
*D32
 10
172.6614668129135
 20
39.83243939122477
 30
0.0
 11
151.0396482500993
 21
17.35303919999053
 31
0.0
 70
   163
  1
%%c<>
 71
     5
 42
20.00000000000015
  3
GEN-ISO$3
100
AcDbDiametricDimension
 15
160.3667179915221
 25
24.05780305884297
 35
0.0
 40
0.0
1001
GENIUS_GENDTOL_13
1000

1000
g6
1000

1040
0.0
1000
%%c<>
1001
ACAD
1000
DSTYLE
1002
{
1070
     3
1000
<>
1070
   172
1070
     1
1070
   289
1070
     3
1002
}
  0
LINE
  5
DFA
330
1F
100
AcDbEntity
  8
0
100
AcDbLine
 10
174.5140924022179
 20
61.44512122503375
 30
0.0
 11
173.0140924022179
 21
62.94512122503374
 31
0.0
  0
LINE
  5
DFB
330
1F
100
AcDbEntity
  8
0
100
AcDbLine
 10
164.5140924022178
 20
61.44512122503375
 30
0.0
 11
166.0140924022178
 21
62.94512122503374
 31
0.0
  0
LINE
  5
DFC
330
1F
100
AcDbEntity
  8
0
100
AcDbLine
 10
173.0140924022179
 20
62.94512122503374
 30
0.0
 11
166.0140924022178
 21
62.94512122503374
 31
0.0
  0
LINE
  5
DFD
330
1F
100
AcDbEntity
  8
0
100
AcDbLine
 10
164.5140924022178
 20
61.44512122503375
 30
0.0
 11
174.5140924022179
 21
61.44512122503375
 31
0.0
  0
DIMENSION
  5
DFE
330
1F
100
AcDbEntity
  8
5
100
AcDbDimension
  2
*D33
 10
174.5140924022179
 20
71.47957549889895
 30
0.0
 11
155.0087164970812
 21
71.47957549889895
 31
0.0
 70
   160
  1
M<>
 71
     5
 42
10.00000000000011
  3
GEN-ISO
100
AcDbAlignedDimension
 13
164.5140924022178
 23
61.44512122503375
 33
0.0
 14
174.5140924022179
 24
61.44512122503375
 34
0.0
100
AcDbRotatedDimension
1001
GENIUS_GENODEF_13
1002
{
1000
HIER
1070
     0
1002
}
1002
{
1000
MANEDIT
1070
     0
1002
}
1002
{
1000
NOSEL
1070
     0
1002
}
1002
{
1000
BEHIND
1070
     0
1002
}
1002
{
1000
REACTOR
1002
}
1001
GENIUS_GENOBJ-N-DIMBR_13
1002
{
1000
OWNER
1000
GEN
1002
}
1001
GENIUS_DIMBR_14
1000
121C
1001
ACAD
1000
DSTYLE
1002
{
1070
    40
1040
1.0
1070
    47
1040
0.0
1070
    48
1040
0.3
1002
}
  0
LINE
  5
DFF
330
1F
100
AcDbEntity
  8
0
100
AcDbLine
 10
173.6555208307606
 20
38.94512122503375
 30
0.0
 11
174.8892212716214
 21
38.94512122503375
 31
0.0
  0
LINE
  5
E00
330
1F
100
AcDbEntity
  8
0
100
AcDbLine
 10
173.4538330313769
 20
39.14512122503373
 30
0.0
 11
174.8892212716214
 21
39.14512122503373
 31
0.0
  0
LINE
  5
E01
330
1F
100
AcDbEntity
  8
0
100
AcDbLine
 10
173.2401610905381
 20
39.34512122503372
 30
0.0
 11
174.8892212716215
 21
39.34512122503372
 31
0.0
  0
LINE
  5
E02
330
1F
100
AcDbEntity
  8
0
100
AcDbLine
 10
173.0133231259267
 20
39.54512122503371
 30
0.0
 11
174.8892212716215
 21
39.54512122503371
 31
0.0
  0
LINE
  5
E03
330
1F
100
AcDbEntity
  8
0
100
AcDbLine
 10
172.7718875410827
 20
39.74512122503376
 30
0.0
 11
174.8892212716214
 21
39.74512122503376
 31
0.0
  0
LINE
  5
E04
330
1F
100
AcDbEntity
  8
0
100
AcDbLine
 10
172.5140924022179
 20
39.94512122503375
 30
0.0
 11
174.8892212716214
 21
39.94512122503375
 31
0.0
  0
LINE
  5
E05
330
1F
100
AcDbEntity
  8
0
100
AcDbLine
 10
172.2377276107196
 20
40.14512122503373
 30
0.0
 11
174.8892212716214
 21
40.14512122503373
 31
0.0
  0
LINE
  5
E06
330
1F
100
AcDbEntity
  8
0
100
AcDbLine
 10
171.9399563887182
 20
40.34512122503372
 30
0.0
 11
174.8892212716214
 21
40.34512122503372
 31
0.0
  0
LINE
  5
E07
330
1F
100
AcDbEntity
  8
0
100
AcDbLine
 10
170.433275990671
 20
41.14512122503373
 30
0.0
 11
174.7284517561628
 21
41.14512122503373
 31
0.0
  0
LINE
  5
E08
330
1F
100
AcDbEntity
  8
0
100
AcDbLine
 10
170.8729913457585
 20
40.94512122503374
 30
0.0
 11
174.7820415946489
 21
40.94512122503374
 31
0.0
  0
LINE
  5
E09
330
1F
100
AcDbEntity
  8
0
100
AcDbLine
 10
171.263829237033
 20
40.74512122503375
 30
0.0
 11
174.8356314331352
 21
40.74512122503375
 31
0.0
  0
LINE
  5
E0A
330
1F
100
AcDbEntity
  8
0
100
AcDbLine
 10
171.6170327310871
 20
40.54512122503377
 30
0.0
 11
174.8892212716214
 21
40.54512122503377
 31
0.0
  0
LINE
  5
E0B
330
1F
100
AcDbEntity
  8
0
100
AcDbLine
 10
174.8892212716215
 20
40.5451212250337
 30
0.0
 11
174.5140924022179
 21
41.94512122503375
 31
0.0
  0
LINE
  5
E0C
330
1F
100
AcDbEntity
  8
0
100
AcDbLine
 10
164.4567737833938
 20
41.73120522736275
 30
0.0
 11
164.5140924022178
 21
41.94512122503375
 31
0.0
  0
LINE
  5
E0D
330
1F
100
AcDbEntity
  8
0
100
AcDbLine
 10
164.4605025637315
 20
41.74512122503375
 30
0.0
 11
164.5241175280045
 21
41.74512122503375
 31
0.0
  0
LINE
  5
E0E
330
1F
100
AcDbEntity
  8
0
100
AcDbLine
 10
168.5040672764311
 20
41.74512122503375
 30
0.0
 11
174.5676822407041
 21
41.74512122503375
 31
0.0
  0
LINE
  5
E0F
330
1F
100
AcDbEntity
  8
0
100
AcDbLine
 10
164.5140924022178
 20
41.94512122503375
 30
0.0
 11
174.5140924022179
 21
41.94512122503375
 31
0.0
  0
LINE
  5
E10
330
1F
100
AcDbEntity
  8
0
100
AcDbLine
 10
169.3140924022178
 20
41.54512122503376
 30
0.0
 11
174.6212720791903
 21
41.54512122503376
 31
0.0
  0
LINE
  5
E11
330
1F
100
AcDbEntity
  8
0
100
AcDbLine
 10
169.9258368240641
 20
41.34512122503378
 30
0.0
 11
174.6748619176766
 21
41.34512122503378
 31
0.0
  0
LINE
  5
E12
330
1F
100
AcDbEntity
  8
0
100
AcDbLine
 10
174.3601105005912
 20
38.14512122503373
 30
0.0
 11
174.8892212716215
 21
38.14512122503373
 31
0.0
  0
LINE
  5
E13
330
1F
100
AcDbEntity
  8
0
100
AcDbLine
 10
174.1978414871373
 20
38.34512122503372
 30
0.0
 11
174.8892212716215
 21
38.34512122503372
 31
0.0
  0
LINE
  5
E14
330
1F
100
AcDbEntity
  8
0
100
AcDbLine
 10
174.0267483906151
 20
38.54512122503371
 30
0.0
 11
174.8892212716214
 21
38.54512122503371
 31
0.0
  0
LINE
  5
E15
330
1F
100
AcDbEntity
  8
0
100
AcDbLine
 10
173.8462135141473
 20
38.7451212250337
 30
0.0
 11
174.8892212716214
 21
38.7451212250337
 31
0.0
  0
LINE
  5
E17
330
1F
100
AcDbEntity
  8
0
100
AcDbLine
 10
174.8892212716214
 20
40.54512122503377
 30
0.0
 11
174.8892212716214
 21
37.40929695618331
 31
0.0
  0
LINE
  5
E1C
330
1F
100
AcDbEntity
  8
7
100
AcDbLine
 10
169.5140924022179
 20
64.94512122503374
 30
0.0
 11
169.5140924022179
 21
39.94512122503375
 31
0.0
  0
LINE
  5
E1D
330
1F
100
AcDbEntity
  8
4
100
AcDbLine
 10
165.5140924022178
 20
41.94512122503375
 30
0.0
 11
165.5140924022178
 21
62.4451212250338
 31
0.0
  0
LINE
  5
E1E
330
1F
100
AcDbEntity
  8
0
100
AcDbLine
 10
164.5140924022178
 20
41.94512122503375
 30
0.0
 11
164.5140924022178
 21
61.44512122503375
 31
0.0
  0
LINE
  5
E1F
330
1F
100
AcDbEntity
  8
0
100
AcDbLine
 10
174.5140924022179
 20
41.94512122503375
 30
0.0
 11
174.5140924022179
 21
61.44512122503375
 31
0.0
  0
LINE
  5
E20
330
1F
100
AcDbEntity
  8
4
100
AcDbLine
 10
173.5140924022179
 20
41.94512122503375
 30
0.0
 11
173.5140924022179
 21
62.44512122503374
 31
0.0
  0
DIMENSION
  5
E21
330
1F
100
AcDbEntity
  8
5
100
AcDbDimension
  2
*D34
 10
169.5140924022179
 20
33.6687756050577
 30
0.0
 11
181.8981067378872
 21
33.6687756050577
 31
0.0
 70
   160
  1
<>
 71
     5
 42
3.0
  3
GEN-ISO
100
AcDbAlignedDimension
 13
166.5140924022179
 23
35.07963061618454
 33
0.0
 14
169.5140924022179
 24
39.94512122503375
 34
0.0
100
AcDbRotatedDimension
1001
GENIUS_GENDTOL_13
1000

1000
g6
1000

1040
0.0
1000
<>
1001
ACAD
1000
DSTYLE
1002
{
1070
    40
1040
1.0
1070
   272
1070
     1
1070
   274
1070
     4
1070
    47
1040
0.2
1070
    48
1040
0.0
1002
}
  0
LINE
  5
E24
330
1F
100
AcDbEntity
  8
0
100
AcDbLine
 10
100.8107397199482
 20
262.5463009119648
 30
0.0
 11
80.81073971994813
 21
262.5463009119648
 31
0.0
  0
LINE
  5
E27
330
1F
100
AcDbEntity
  8
5A
100
AcDbLine
 10
129.8222944342102
 20
259.7963009119649
 30
0.0
 11
54.6187019527426
 21
259.7963009119649
 31
0.0
  0
LINE
  5
E28
330
1F
100
AcDbEntity
  8
0
100
AcDbLine
 10
100.8107397199482
 20
222.5463009119649
 30
0.0
 11
80.81073971994824
 21
222.5463009119649
 31
0.0
  0
LINE
  5
E29
330
1F
100
AcDbEntity
  8
0
100
AcDbLine
 10
120.3107397199482
 20
127.5463009119648
 30
0.0
 11
121.8107397199482
 21
126.0463009119648
 31
0.0
  0
LINE
  5
E2A
330
1F
100
AcDbEntity
  8
0
100
AcDbLine
 10
120.3107397199482
 20
117.5463009119648
 30
0.0
 11
121.8107397199482
 21
119.0463009119648
 31
0.0
  0
LINE
  5
E2B
330
1F
100
AcDbEntity
  8
0
100
AcDbLine
 10
120.3107397199482
 20
117.5463009119648
 30
0.0
 11
120.3107397199482
 21
127.5463009119648
 31
0.0
  0
LINE
  5
E2C
330
1F
100
AcDbEntity
  8
0
100
AcDbLine
 10
121.8107397199482
 20
126.0463009119648
 30
0.0
 11
121.8107397199482
 21
119.0463009119648
 31
0.0
  0
LINE
  5
E2D
330
1F
100
AcDbEntity
  8
4
100
AcDbLine
 10
100.8107397199482
 20
118.5463009119648
 30
0.0
 11
121.3107397199482
 21
118.5463009119648
 31
0.0
  0
LINE
  5
E2E
330
1F
100
AcDbEntity
  8
4
100
AcDbLine
 10
100.8107397199482
 20
126.5463009119648
 30
0.0
 11
121.3107397199482
 21
126.5463009119648
 31
0.0
  0
LINE
  5
E2F
330
1F
100
AcDbEntity
  8
0
100
AcDbLine
 10
100.8107397199482
 20
127.5463009119648
 30
0.0
 11
120.3107397199482
 21
127.5463009119648
 31
0.0
  0
LINE
  5
E30
330
1F
100
AcDbEntity
  8
0
100
AcDbLine
 10
100.8107397199482
 20
117.5463009119648
 30
0.0
 11
120.3107397199482
 21
117.5463009119648
 31
0.0
  0
LINE
  5
E31
330
1F
100
AcDbEntity
  8
0
100
AcDbLine
 10
100.8107397199482
 20
142.5463009119648
 30
0.0
 11
80.81073971994824
 21
142.5463009119648
 31
0.0
  0
LINE
  5
E32
330
1F
100
AcDbEntity
  8
7
100
AcDbLine
 10
123.8107397199482
 20
122.5463009119648
 30
0.0
 11
98.81073971994823
 21
122.5463009119648
 31
0.0
  0
LINE
  5
E35
330
1F
100
AcDbEntity
  8
0
100
AcDbLine
 10
100.8107397199482
 20
102.5463009119648
 30
0.0
 11
80.81073971994824
 21
102.5463009119648
 31
0.0
  0
LINE
  5
E38
330
1F
100
AcDbEntity
  8
0
100
AcDbLine
 10
100.8107397199482
 20
102.5463009119648
 30
0.0
 11
100.8107397199482
 21
262.5463009119648
 31
0.0
  0
LINE
  5
E39
330
1F
100
AcDbEntity
  8
0
100
AcDbLine
 10
80.81073971994824
 20
102.5463009119648
 30
0.0
 11
80.81073971994825
 21
262.5463009119648
 31
0.0
  0
INSERT
  5
E3B
330
1F
100
AcDbEntity
  8
0
100
AcDbBlockReference
  2
DIN_LINKS
 10
406.4065406085356
 20
68.54765175838284
 30
0.0
  0
POINT
  5
E3D
330
1F
100
AcDbEntity
  8
0
 60
     1
100
AcDbPoint
 10
472.6223161237811
 20
-15.23179526387901
 30
0.0
1001
GENIUS_GENODEF_13
1002
{
1000
HIER
1070
    10
1002
}
1002
{
1000
MANEDIT
1070
     0
1002
}
1002
{
1000
NOSEL
1070
     0
1002
}
1002
{
1000
BEHIND
1070
     0
1002
}
1002
{
1000
REACTOR
1002
}
1001
GENIUS_GENOBJ-N-CRS_13
1002
{
1000
OWNER
1000
GEN
1002
}
1001
GENIUS_GENOENT_13
1002
{
1000
MYREF
1005
E3D
1002
}
1002
{
1000
GRP
1005
0
1002
}
1001
GENIUS_GENOLIS_13
1002
{
1000
ENT
1005
DC5
1005
DC6
1005
DC7
1005
DC8
1002
}
  0
POINT
  5
E3E
330
1F
100
AcDbEntity
  8
0
 60
     1
100
AcDbPoint
 10
472.6223161237811
 20
-15.23179526387901
 30
0.0
1001
GENIUS_GENODEF_13
1002
{
1000
HIER
1070
    10
1002
}
1002
{
1000
MANEDIT
1070
     0
1002
}
1002
{
1000
NOSEL
1070
     0
1002
}
1002
{
1000
BEHIND
1070
     0
1002
}
1002
{
1000
REACTOR
1002
}
1001
GENIUS_GENOBJ-N-CRS_13
1002
{
1000
OWNER
1000
GEN
1002
}
1001
GENIUS_GENOENT_13
1002
{
1000
MYREF
1005
E3E
1002
}
1002
{
1000
GRP
1005
0
1002
}
1001
GENIUS_GENOLIS_13
1002
{
1000
ENT
1005
DCB
1005
DCC
1005
DCD
1005
DCE
1002
}
  0
POINT
  5
E3F
330
1F
100
AcDbEntity
  8
0
 60
     1
100
AcDbPoint
 10
472.6223161237811
 20
-15.23179526387901
 30
0.0
1001
GENIUS_GENODEF_13
1002
{
1000
HIER
1070
    10
1002
}
1002
{
1000
MANEDIT
1070
     1
1002
}
1002
{
1000
NOSEL
1070
     0
1002
}
1002
{
1000
BEHIND
1070
     0
1002
}
1002
{
1000
REACTOR
1002
}
1001
GENIUS_GENOBJ-N-CRS_13
1002
{
1000
OWNER
1000
GEN
1002
}
1001
GENIUS_GENOENT_13
1002
{
1000
MYREF
1005
E3F
1002
}
1002
{
1000
GRP
1005
0
1002
}
1001
GENIUS_GENOLIS_13
1002
{
1000
ENT
1005
DD1
1005
DD2
1002
}
  0
POINT
  5
E40
330
1F
100
AcDbEntity
  8
0
 60
     1
100
AcDbPoint
 10
472.6223161237811
 20
-15.23179526387901
 30
0.0
1001
GENIUS_GENODEF_13
1002
{
1000
HIER
1070
    10
1002
}
1002
{
1000
MANEDIT
1070
     0
1002
}
1002
{
1000
NOSEL
1070
     0
1002
}
1002
{
1000
BEHIND
1070
     0
1002
}
1002
{
1000
REACTOR
1002
}
1001
GENIUS_GENOBJ-N-CRS_13
1002
{
1000
OWNER
1000
GEN
1002
}
1001
GENIUS_GENOENT_13
1002
{
1000
MYREF
1005
E40
1002
}
1002
{
1000
GRP
1005
0
1002
}
1001
GENIUS_GENOLIS_13
1002
{
1000
ENT
1005
DD5
1005
DD6
1005
DD7
1005
DD8
1002
}
  0
POINT
  5
E41
330
1F
100
AcDbEntity
  8
0
 60
     1
100
AcDbPoint
 10
472.6223161237811
 20
-15.23179526387901
 30
0.0
1001
GENIUS_GENODEF_13
1002
{
1000
HIER
1070
    10
1002
}
1002
{
1000
MANEDIT
1070
     0
1002
}
1002
{
1000
NOSEL
1070
     0
1002
}
1002
{
1000
BEHIND
1070
     0
1002
}
1002
{
1000
REACTOR
1002
}
1001
GENIUS_GENOBJ-N-CRS_13
1002
{
1000
OWNER
1000
GEN
1002
}
1001
GENIUS_GENOENT_13
1002
{
1000
MYREF
1005
E41
1002
}
1002
{
1000
GRP
1005
0
1002
}
1001
GENIUS_GENOLIS_13
1002
{
1000
ENT
1005
DDB
1005
DDC
1005
DDD
1005
DDE
1002
}
  0
CIRCLE
  5
15EE
330
1F
100
AcDbEntity
  8
AM_0
100
AcDbCircle
 10
166.5140924022178
 20
31.9451212250338
 30
0.0
 40
10.0
  0
LINE
  5
15EF
330
1F
100
AcDbEntity
  8
0
100
AcDbLine
 10
164.4567737833938
 20
41.73120522736273
 30
0.0
 11
164.5140924022179
 21
41.94512122503373
 31
0.0
  0
LINE
  5
15F0
330
1F
100
AcDbEntity
  8
0
100
AcDbLine
 10
164.4605025637316
 20
41.74512122503374
 30
0.0
 11
164.5241175280047
 21
41.74512122503374
 31
0.0
  0
LINE
  5
15F1
330
1F
100
AcDbEntity
  8
7A
100
AcDbLine
 10
166.5140924022179
 20
31.94512122503375
 30
0.0
 11
166.5140924022179
 21
18.94512122503374
 31
0.0
1001
GENIUS_GENOREF_13
1005
1607
  0
LINE
  5
15F2
330
1F
100
AcDbEntity
  8
7A
100
AcDbLine
 10
166.5140924022179
 20
31.94512122503375
 30
0.0
 11
153.5140924022179
 21
31.94512122503375
 31
0.0
1001
GENIUS_GENOREF_13
1005
1607
  0
LINE
  5
15F3
330
1F
100
AcDbEntity
  8
7A
100
AcDbLine
 10
166.5140924022179
 20
38.44512122503374
 30
0.0
 11
166.5140924022179
 21
51.44512122503375
 31
0.0
1001
GENIUS_GENOREF_13
1005
1607
  0
LINE
  5
15F4
330
1F
100
AcDbEntity
  8
7A
100
AcDbLine
 10
166.5140924022179
 20
31.94512122503375
 30
0.0
 11
179.5140924022179
 21
31.94512122503375
 31
0.0
1001
GENIUS_GENOREF_13
1005
1607
  0
LINE
  5
15F5
330
1F
100
AcDbEntity
  8
0
100
AcDbLine
 10
164.4567737833938
 20
41.73120522736275
 30
0.0
 11
164.5140924022178
 21
41.94512122503375
 31
0.0
  0
LINE
  5
15F6
330
1F
100
AcDbEntity
  8
0
100
AcDbLine
 10
164.4605025637315
 20
41.74512122503375
 30
0.0
 11
164.5241175280045
 21
41.74512122503375
 31
0.0
  0
LINE
  5
15F7
330
1F
100
AcDbEntity
  8
0
100
AcDbLine
 10
173.6555208307605
 20
24.9451212250338
 30
0.0
 11
173.6555208307605
 21
24.9451212250338
 31
0.0
  0
LINE
  5
15F8
330
1F
100
AcDbEntity
  8
0
100
AcDbLine
 10
173.6555208307606
 20
25.9451212250338
 30
0.0
 11
173.6555208307606
 21
25.9451212250338
 31
0.0
  0
LINE
  5
15F9
330
1F
100
AcDbEntity
  8
0
100
AcDbLine
 10
173.6555208307606
 20
25.9451212250338
 30
0.0
 11
173.6555208307606
 21
25.9451212250338
 31
0.0
  0
LINE
  5
15FA
330
1F
100
AcDbEntity
  8
0
100
AcDbLine
 10
173.6555208307608
 20
25.94512122503374
 30
0.0
 11
173.6555208307608
 21
25.94512122503374
 31
0.0
  0
ARC
  5
15FB
330
1F
100
AcDbEntity
  8
AM_0
100
AcDbCircle
 10
166.5140924022178
 20
31.9451212250338
 30
0.0
 40
7.750000000000073
100
AcDbArc
 50
45.78299365493946
 51
32.21700634505868
  0
ARC
  5
15FC
330
1F
100
AcDbEntity
  8
AM_0
100
AcDbCircle
 10
166.5140924022179
 20
31.94512122503386
 30
0.0
 40
8.0
100
AcDbArc
 50
44.14704339841434
 51
33.85295660158654
  0
ARC
  5
15FD
330
1F
100
AcDbEntity
  8
AM_0
100
AcDbCircle
 10
172.5369736035096
 20
36.82235425567004
 30
0.0
 40
0.75
100
AcDbArc
 50
317.740091564886
 51
120.2599084351133
  0
ARC
  5
15FE
330
1F
100
AcDbEntity
  8
AM_0
100
AcDbCircle
 10
172.0582464146005
 20
37.64291520928612
 30
0.0
 40
0.2
100
AcDbArc
 50
225.7829936549395
 51
300.2599084351134
1001
GENIUS_GENODEF_13
1002
{
1000
HIER
1070
     0
1002
}
1002
{
1000
MANEDIT
1070
     0
1002
}
1002
{
1000
NOSEL
1070
     0
1002
}
1002
{
1000
BEHIND
1070
     0
1002
}
1002
{
1000
OTHER
1070
     0
1002
}
1002
{
1000
REACTOR
1002
}
1001
GENIUS_GENOBJ-N-FIL_13
1002
{
1000
OWNER
1000
GEN
1002
}
  0
ARC
  5
15FF
330
1F
100
AcDbEntity
  8
AM_0
100
AcDbCircle
 10
173.2400703522584
 20
36.18348418914741
 30
0.0
 40
0.2
100
AcDbArc
 50
137.740091564886
 51
212.2170063450584
1001
GENIUS_GENOBJ-N-FIL_13
1002
{
1000
OWNER
1000
GEN
1002
}
1001
GENIUS_GENODEF_13
1002
{
1000
HIER
1070
     0
1002
}
1002
{
1000
MANEDIT
1070
     0
1002
}
1002
{
1000
NOSEL
1070
     0
1002
}
1002
{
1000
BEHIND
1070
     0
1002
}
1002
{
1000
OTHER
1070
     0
1002
}
1002
{
1000
REACTOR
1002
}
  0
CIRCLE
  5
1600
330
1F
100
AcDbEntity
  8
AM_3
100
AcDbCircle
 10
166.5140924022179
 20
31.94512122503375
 30
0.0
 40
2.7785
  0
LINE
  5
1601
330
1F
100
AcDbEntity
  8
AM_3
 48
0.2
100
AcDbLine
 10
166.5140924022179
 20
34.72362122503375
 30
0.0
 11
168.920343986633
 21
33.33437122503381
 31
0.0
  0
LINE
  5
1602
330
1F
100
AcDbEntity
  8
AM_3
 48
0.2
100
AcDbLine
 10
168.920343986633
 20
33.33437122503381
 30
0.0
 11
168.920343986633
 21
30.55587122503374
 31
0.0
  0
LINE
  5
1603
330
1F
100
AcDbEntity
  8
AM_3
 48
0.2
100
AcDbLine
 10
168.920343986633
 20
30.55587122503374
 30
0.0
 11
166.5140924022179
 21
29.1666212250338
 31
0.0
  0
LINE
  5
1604
330
1F
100
AcDbEntity
  8
AM_3
 48
0.2
100
AcDbLine
 10
166.5140924022179
 20
29.1666212250338
 30
0.0
 11
164.1078408178028
 21
30.55587122503374
 31
0.0
  0
LINE
  5
1605
330
1F
100
AcDbEntity
  8
AM_3
 48
0.2
100
AcDbLine
 10
164.1078408178028
 20
30.55587122503374
 30
0.0
 11
164.1078408178028
 21
33.33437122503381
 31
0.0
  0
LINE
  5
1606
330
1F
100
AcDbEntity
  8
AM_3
 48
0.2
100
AcDbLine
 10
164.1078408178028
 20
33.33437122503381
 30
0.0
 11
166.5140924022178
 21
34.72362122503375
 31
0.0
  0
POINT
  5
1607
330
1F
100
AcDbEntity
  8
0
 60
     1
100
AcDbPoint
 10
-445.0380483026749
 20
32.97305140553877
 30
0.0
1001
GENIUS_GENODEF_13
1002
{
1000
HIER
1070
    10
1002
}
1002
{
1000
MANEDIT
1070
     0
1002
}
1002
{
1000
NOSEL
1070
     0
1002
}
1002
{
1000
BEHIND
1070
     0
1002
}
1002
{
1000
REACTOR
1002
}
1001
GENIUS_GENOBJ-N-CRS_13
1002
{
1000
OWNER
1000
GEN
1002
}
1001
GENIUS_GENOENT_13
1002
{
1000
MYREF
1005
1607
1002
}
1002
{
1000
GRP
1005
0
1002
}
1001
GENIUS_GENOLIS_13
1002
{
1000
ENT
1005
15F1
1005
15F2
1005
15F3
1005
15F4
1002
}
  0
LINE
  5
1608
330
1F
100
AcDbEntity
  8
AM_3
 48
0.2
100
AcDbLine
 10
88.40448813553337
 20
33.33437122503381
 30
0.0
 11
90.81073971994829
 21
34.72362122503375
 31
0.0
  0
LINE
  5
1609
330
1F
100
AcDbEntity
  8
AM_3
 48
0.2
100
AcDbLine
 10
88.40448813553337
 20
30.55587122503374
 30
0.0
 11
88.40448813553337
 21
33.33437122503381
 31
0.0
  0
LINE
  5
160A
330
1F
100
AcDbEntity
  8
AM_3
 48
0.2
100
AcDbLine
 10
90.8107397199484
 20
29.1666212250338
 30
0.0
 11
88.40448813553337
 21
30.55587122503374
 31
0.0
  0
LINE
  5
160B
330
1F
100
AcDbEntity
  8
AM_3
 48
0.2
100
AcDbLine
 10
93.21699130436348
 20
30.55587122503374
 30
0.0
 11
90.8107397199484
 21
29.1666212250338
 31
0.0
  0
LINE
  5
160C
330
1F
100
AcDbEntity
  8
AM_3
 48
0.2
100
AcDbLine
 10
93.21699130436355
 20
33.33437122503381
 30
0.0
 11
93.21699130436348
 21
30.55587122503374
 31
0.0
  0
LINE
  5
160D
330
1F
100
AcDbEntity
  8
AM_3
 48
0.2
100
AcDbLine
 10
90.8107397199484
 20
34.72362122503375
 30
0.0
 11
93.21699130436355
 21
33.33437122503381
 31
0.0
  0
CIRCLE
  5
160E
330
1F
100
AcDbEntity
  8
AM_3
100
AcDbCircle
 10
90.8107397199484
 20
31.94512122503375
 30
0.0
 40
2.7785
  0
ARC
  5
160F
330
1F
100
AcDbEntity
  8
AM_0
100
AcDbCircle
 10
97.53671766998889
 20
36.18348418914741
 30
0.0
 40
0.2
100
AcDbArc
 50
137.740091564886
 51
212.2170063450584
1001
GENIUS_GENOBJ-N-FIL_13
1002
{
1000
OWNER
1000
GEN
1002
}
1001
GENIUS_GENODEF_13
1002
{
1000
HIER
1070
     0
1002
}
1002
{
1000
MANEDIT
1070
     0
1002
}
1002
{
1000
NOSEL
1070
     0
1002
}
1002
{
1000
BEHIND
1070
     0
1002
}
1002
{
1000
OTHER
1070
     0
1002
}
1002
{
1000
REACTOR
1002
}
  0
ARC
  5
1610
330
1F
100
AcDbEntity
  8
AM_0
100
AcDbCircle
 10
96.35489373233099
 20
37.64291520928612
 30
0.0
 40
0.2
100
AcDbArc
 50
225.7829936549395
 51
300.2599084351134
1001
GENIUS_GENODEF_13
1002
{
1000
HIER
1070
     0
1002
}
1002
{
1000
MANEDIT
1070
     0
1002
}
1002
{
1000
NOSEL
1070
     0
1002
}
1002
{
1000
BEHIND
1070
     0
1002
}
1002
{
1000
OTHER
1070
     0
1002
}
1002
{
1000
REACTOR
1002
}
1001
GENIUS_GENOBJ-N-FIL_13
1002
{
1000
OWNER
1000
GEN
1002
}
  0
ARC
  5
1611
330
1F
100
AcDbEntity
  8
AM_0
100
AcDbCircle
 10
96.83362092124008
 20
36.82235425567004
 30
0.0
 40
0.75
100
AcDbArc
 50
317.740091564886
 51
120.2599084351133
  0
ARC
  5
1612
330
1F
100
AcDbEntity
  8
AM_0
100
AcDbCircle
 10
90.8107397199484
 20
31.94512122503386
 30
0.0
 40
8.0
100
AcDbArc
 50
44.14704339841434
 51
33.85295660158654
  0
ARC
  5
1613
330
1F
100
AcDbEntity
  8
AM_0
100
AcDbCircle
 10
90.81073971994829
 20
31.9451212250338
 30
0.0
 40
7.750000000000073
100
AcDbArc
 50
45.78299365493946
 51
32.21700634505868
  0
LINE
  5
1614
330
1F
100
AcDbEntity
  8
0
100
AcDbLine
 10
97.9521681484913
 20
25.94512122503374
 30
0.0
 11
97.9521681484913
 21
25.94512122503374
 31
0.0
  0
LINE
  5
1615
330
1F
100
AcDbEntity
  8
0
100
AcDbLine
 10
97.95216814849119
 20
25.9451212250338
 30
0.0
 11
97.95216814849119
 21
25.9451212250338
 31
0.0
  0
LINE
  5
1616
330
1F
100
AcDbEntity
  8
0
100
AcDbLine
 10
97.95216814849119
 20
25.9451212250338
 30
0.0
 11
97.95216814849119
 21
25.9451212250338
 31
0.0
  0
LINE
  5
1617
330
1F
100
AcDbEntity
  8
0
100
AcDbLine
 10
97.95216814849107
 20
24.9451212250338
 30
0.0
 11
97.95216814849107
 21
24.9451212250338
 31
0.0
  0
LINE
  5
1618
330
1F
100
AcDbEntity
  8
7A
100
AcDbLine
 10
90.8107397199484
 20
31.94512122503375
 30
0.0
 11
103.8107397199484
 21
31.94512122503375
 31
0.0
  0
LINE
  5
1619
330
1F
100
AcDbEntity
  8
7A
100
AcDbLine
 10
90.8107397199484
 20
31.94512122503375
 30
0.0
 11
77.8107397199484
 21
31.94512122503375
 31
0.0
  0
LINE
  5
161A
330
1F
100
AcDbEntity
  8
7A
100
AcDbLine
 10
90.8107397199484
 20
45.58122091494658
 30
0.0
 11
90.8107397199484
 21
18.94512122503374
 31
0.0
  0
CIRCLE
  5
161B
330
1F
100
AcDbEntity
  8
AM_0
100
AcDbCircle
 10
90.81073971994829
 20
31.9451212250338
 30
0.0
 40
10.0
  0
LINE
  5
162E
330
1F
100
AcDbEntity
  8
AM_7
100
AcDbLine
 10
90.81073971994824
 20
264.6963009119635
 30
0.0
 11
90.8107397199484
 21
100.3963009119649
 31
0.0
  0
LINE
  5
162F
330
1F
100
AcDbEntity
  8
AM_3
100
AcDbLine
 10
80.81073971994824
 20
259.6963009119635
 30
0.0
 11
100.8107397199482
 21
259.6963009119636
 31
0.0
  0
LINE
  5
1630
330
1F
100
AcDbEntity
  8
AM_3
100
AcDbLine
 10
83.06073971994836
 20
262.6963009119635
 30
0.0
 11
83.06073971994836
 21
259.6963009119635
 31
0.0
  0
LINE
  5
1631
330
1F
100
AcDbEntity
  8
AM_3
100
AcDbLine
 10
98.56073971994813
 20
262.6963009119635
 30
0.0
 11
98.56073971994813
 21
259.6963009119635
 31
0.0
  0
LINE
  5
1632
330
1F
100
AcDbEntity
  8
AM_0N
100
AcDbLine
 10
88.08136971994823
 20
259.0963009119636
 30
0.0
 11
88.08136971994823
 21
259.1256709119635
 31
0.0
  0
LINE
  5
1633
330
1F
100
AcDbEntity
  8
AM_3N
  6
AM_DIN_F_W050x2
100
AcDbLine
 10
88.82473971994825
 20
262.6963009119635
 30
0.0
 11
88.82473971994825
 21
260.8963009119635
 31
0.0
  0
LINE
  5
1634
330
1F
100
AcDbEntity
  8
AM_3N
  6
AM_DIN_F_W050x2
100
AcDbLine
 10
88.82473971994825
 20
260.8963009119635
 30
0.0
 11
92.79673971994823
 21
260.8963009119635
 31
0.0
  0
LINE
  5
1635
330
1F
100
AcDbEntity
  8
AM_3N
  6
AM_DIN_F_W050x2
100
AcDbLine
 10
88.82473971994825
 20
260.8963009119635
 30
0.0
 11
90.81073971994824
 21
259.7496832773529
 31
0.0
  0
LINE
  5
1636
330
1F
100
AcDbEntity
  8
AM_3N
  6
AM_DIN_F_W050x2
100
AcDbLine
 10
92.79673971994823
 20
262.6963009119635
 30
0.0
 11
92.79673971994823
 21
260.8963009119635
 31
0.0
  0
LINE
  5
1637
330
1F
100
AcDbEntity
  8
AM_3N
  6
AM_DIN_F_W050x2
100
AcDbLine
 10
92.79673971994823
 20
260.8963009119635
 30
0.0
 11
90.81073971994824
 21
259.7496832773529
 31
0.0
  0
LINE
  5
1638
330
1F
100
AcDbEntity
  8
AM_3N
  6
AM_DIN_F_W050x2
100
AcDbLine
 10
90.81073971994824
 20
262.6963009119635
 30
0.0
 11
90.81073971994824
 21
260.8963009119635
 31
0.0
  0
LINE
  5
1639
330
1F
100
AcDbEntity
  8
AM_3
100
AcDbLine
 10
82.81073971994834
 20
102.3963009119636
 30
0.0
 11
82.81073971994835
 21
262.6963009119635
 31
0.0
  0
LINE
  5
163A
330
1F
100
AcDbEntity
  8
AM_3
100
AcDbLine
 10
86.31073971994812
 20
105.3963009119636
 30
0.0
 11
86.31073971994824
 21
259.6963009119635
 31
0.0
1001
GENIUS_GENODEF_13
1002
{
1000
HIER
1070
     0
1002
}
1002
{
1000
MANEDIT
1070
     0
1002
}
1002
{
1000
NOSEL
1070
     0
1002
}
1002
{
1000
BEHIND
1070
     0
1002
}
1002
{
1000
REACTOR
1002
}
1001
GENIUS_GENOBJ-N-CEN_13
1002
{
1000
OWNER
1000
GEN
1002
}
  0
LINE
  5
163B
330
1F
100
AcDbEntity
  8
AM_3
100
AcDbLine
 10
95.31073971994812
 20
105.3963009119636
 30
0.0
 11
95.31073971994825
 21
259.6963009119636
 31
0.0
1001
GENIUS_GENODEF_13
1002
{
1000
HIER
1070
     0
1002
}
1002
{
1000
MANEDIT
1070
     0
1002
}
1002
{
1000
NOSEL
1070
     0
1002
}
1002
{
1000
BEHIND
1070
     0
1002
}
1002
{
1000
REACTOR
1002
}
1001
GENIUS_GENOBJ-N-CEN_13
1002
{
1000
OWNER
1000
GEN
1002
}
  0
LINE
  5
163C
330
1F
100
AcDbEntity
  8
AM_3
100
AcDbLine
 10
98.81073971994812
 20
102.3963009119636
 30
0.0
 11
98.81073971994814
 21
262.6963009119635
 31
0.0
  0
LINE
  5
163D
330
1F
100
AcDbEntity
  8
AM_3
100
AcDbLine
 10
83.06073971994834
 20
102.3963009119641
 30
0.0
 11
83.06073971994834
 21
105.3963009119641
 31
0.0
  0
LINE
  5
163E
330
1F
100
AcDbEntity
  8
AM_3
100
AcDbLine
 10
80.81073971994811
 20
105.3963009119637
 30
0.0
 11
100.8107397199482
 21
105.3963009119637
 31
0.0
  0
LINE
  5
163F
330
1F
100
AcDbEntity
  8
AM_3
100
AcDbLine
 10
98.56073971994812
 20
102.3963009119641
 30
0.0
 11
98.56073971994812
 21
105.3963009119641
 31
0.0
  0
VIEWPORT
  5
AB
330
1B
100
AcDbEntity
 67
     1
  8
AM_VIEWS
100
AcDbViewport
 10
202.5
 20
128.5
 30
0.0
 40
625.5501767810025
 41
314.226
 68
     1
 69
     1
 12
202.5
 22
128.5
 13
0.0
 23
0.0
 14
10.0
 24
10.0
 15
10.0
 25
10.0
 16
0.0
 26
0.0
 36
1.0
 17
0.0
 27
0.0
 37
0.0
 42
50.0
 43
0.0
 44
0.0
 45
314.226
 50
0.0
 51
0.0
 72
   100
 90
    32800
  1

281
     0
 71
     1
 74
     0
110
0.0
120
0.0
130
0.0
111
1.0
121
0.0
131
0.0
112
0.0
122
1.0
132
0.0
 79
     0
146
0.0
170
     0
  0
ENDSEC
  0
SECTION
  2
OBJECTS
  0
DICTIONARY
  5
C
330
0
100
AcDbDictionary
281
     1
  3
ACAD_COLOR
350
103
  3
ACAD_GROUP
350
D
  3
ACAD_LAYOUT
350
1A
  3
ACAD_MATERIAL
350
102
  3
ACAD_MLINESTYLE
350
17
  3
ACAD_PLOTSETTINGS
350
19
  3
ACAD_PLOTSTYLENAME
350
E
  3
AcDbVariableDictionary
350
34
  3
AcmDictionary
350
49
  3
AMG
350
2B
  3
AMGSNAPSETTINGS
350
82
  0
DICTIONARY
  5
5B1
330
2
100
AcDbDictionary
280
     1
281
     1
  3
ACAD_LAYERSTATES
360
5B2
  0
DICTIONARY
  5
90
330
1F
100
AcDbDictionary
280
     1
281
     1
  3
ACAD_INDEX
360
1650
  0
DICTIONARY
  5
302
330
2BB
100
AcDbDictionary
280
     1
281
     1
  0
DICTIONARY
  5
3BF
330
327
100
AcDbDictionary
280
     1
281
     1
  0
DICTIONARY
  5
3FF
330
31F
100
AcDbDictionary
280
     1
281
     1
  3
AIMD_TITLE
360
400
  0
DICTIONARY
  5
3FD
330
3C2
100
AcDbDictionary
280
     1
281
     1
  3
AIMD_TITLE
360
3FE
  0
DICTIONARY
  5
103
102
{ACAD_REACTORS
330
C
102
}
330
C
100
AcDbDictionary
281
     1
  0
DICTIONARY
  5
D
102
{ACAD_REACTORS
330
C
102
}
330
C
100
AcDbDictionary
281
     1
  0
DICTIONARY
  5
1A
102
{ACAD_REACTORS
330
C
102
}
330
C
100
AcDbDictionary
281
     1
  3
Layout1
350
1E
  3
Layout2
350
26
  3
Model
350
22
  0
DICTIONARY
  5
102
102
{ACAD_REACTORS
330
C
102
}
330
C
100
AcDbDictionary
281
     1
  0
DICTIONARY
  5
17
102
{ACAD_REACTORS
330
C
102
}
330
C
100
AcDbDictionary
281
     1
  3
Standard
350
18
  0
DICTIONARY
  5
19
102
{ACAD_REACTORS
330
C
102
}
330
C
100
AcDbDictionary
281
     1
  0
ACDBDICTIONARYWDFLT
  5
E
102
{ACAD_REACTORS
330
C
102
}
330
C
100
AcDbDictionary
281
     1
  3
Normal
350
F
100
AcDbDictionaryWithDefault
340
F
  0
DICTIONARY
  5
34
102
{ACAD_REACTORS
330
C
102
}
330
C
100
AcDbDictionary
281
     1
  3
DIMASSOC
350
100
  3
INDEXCTL
350
35
  0
DICTIONARY
  5
49
102
{ACAD_REACTORS
330
C
102
}
330
C
100
AcDbDictionary
281
     1
  3
AcmStdDictionary
350
4A
  0
DICTIONARY
  5
2B
102
{ACAD_REACTORS
330
C
102
}
330
C
100
AcDbDictionary
281
     1
  0
DICTIONARY
  5
82
102
{ACAD_REACTORS
330
C
102
}
330
C
100
AcDbDictionary
281
     1
  0
DICTIONARY
  5
5B2
102
{ACAD_REACTORS
330
5B1
102
}
330
5B1
100
AcDbDictionary
281
     1
  0
DICTIONARY
  5
1650
102
{ACAD_REACTORS
330
90
102
}
330
90
100
AcDbDictionary
281
     1
  3
*A1
350
1651
  0
XRECORD
  5
400
102
{ACAD_REACTORS
330
3FF
102
}
330
3FF
100
AcDbXrecord
280
     1
280
     2
  1

330
3C2
  0
XRECORD
  5
3FE
102
{ACAD_REACTORS
330
3FD
102
}
330
3FD
100
AcDbXrecord
280
     1
280
     1
  1

330
31F
  0
LAYOUT
  5
1E
102
{ACAD_REACTORS
330
1A
102
}
330
1A
100
AcDbPlotSettings
  1

  2
none_device
  4
ISO_A3_(420.00_x_297.00_MM)
  6

 40
7.5
 41
20.0
 42
7.5
 43
20.0
 44
420.0
 45
297.0
 46
0.0
 47
0.0
 48
0.0
 49
0.0
140
0.0
141
0.0
142
1.0
143
1.0
 70
   688
 72
     1
 73
     0
 74
     5
  7
HP550C_Originallinien.ctb
 75
    16
147
1.0
 76
     0
 77
     2
 78
   300
148
0.0
149
0.0
100
AcDbLayout
  1
Layout1
 70
     1
 71
     1
 10
-7.5
 20
-20.0
 11
412.5
 21
277.0
 12
0.0
 22
0.0
 32
0.0
 14
1.000000000000000E+20
 24
1.000000000000000E+20
 34
1.000000000000000E+20
 15
-1.000000000000000E+20
 25
-1.000000000000000E+20
 35
-1.000000000000000E+20
146
0.0
 13
0.0
 23
0.0
 33
0.0
 16
1.0
 26
0.0
 36
0.0
 17
0.0
 27
1.0
 37
0.0
 76
     0
330
1B
331
AB
  0
LAYOUT
  5
26
102
{ACAD_REACTORS
330
1A
102
}
330
1A
100
AcDbPlotSettings
  1
*Layout1*
  2
none_device
  4
ISO_A3_(420.00_x_297.00_MM)
  6

 40
7.5
 41
20.0
 42
7.5
 43
20.0
 44
420.0
 45
297.0
 46
0.0
 47
0.0
 48
0.0
 49
0.0
140
0.0
141
0.0
142
1.0
143
1.0
 70
   688
 72
     1
 73
     0
 74
     5
  7
HP550C_Originallinien.ctb
 75
    16
147
1.0
 76
     0
 77
     2
 78
   300
148
0.0
149
0.0
100
AcDbLayout
  1
Layout2
 70
     1
 71
     2
 10
-7.5
 20
-20.0
 11
412.5
 21
277.0
 12
0.0
 22
0.0
 32
0.0
 14
1.000000000000000E+20
 24
1.000000000000000E+20
 34
1.000000000000000E+20
 15
-1.000000000000000E+20
 25
-1.000000000000000E+20
 35
-1.000000000000000E+20
146
0.0
 13
0.0
 23
0.0
 33
0.0
 16
1.0
 26
0.0
 36
0.0
 17
0.0
 27
1.0
 37
0.0
 76
     0
330
23
331
B0
  0
LAYOUT
  5
22
102
{ACAD_REACTORS
330
1A
102
}
330
1A
100
AcDbPlotSettings
  1

  2
HP DeskJet 550C
  4
A4
  6

 40
3.757083177566528
 41
15.35640048980713
 42
4.603744506835937
 43
5.027069091796875
 44
209.9733276367187
 45
296.9259948730469
 46
3.029999999999999
 47
0.0
 48
0.0
 49
0.0
140
0.0
141
0.0
142
1.0
143
1.518753759688026
 70
 11956
 72
     1
 73
     1
 74
     2
  7
HP550C_Originallinien.ctb
 75
     0
147
0.658434584027245
 76
     0
 77
     2
 78
   150
148
0.0
149
0.0
100
AcDbLayout
  1
Model
 70
     1
 71
     0
 10
0.0
 20
0.0
 11
12.0
 21
9.0
 12
0.0
 22
0.0
 32
0.0
 14
0.0
 24
0.0
 34
0.0
 15
0.0
 25
0.0
 35
0.0
146
0.0
 13
0.0
 23
0.0
 33
0.0
 16
1.0
 26
0.0
 36
0.0
 17
0.0
 27
1.0
 37
0.0
 76
     0
330
1F
  0
MLINESTYLE
  5
18
102
{ACAD_REACTORS
330
17
102
}
330
17
100
AcDbMlineStyle
  2
STANDARD
 70
     0
  3

 62
   256
 51
90.0
 52
90.0
 71
     2
 49
0.5
 62
   256
  6
BYLAYER
 49
-0.5
 62
   256
  6
BYLAYER
  0
ACDBPLACEHOLDER
  5
F
102
{ACAD_REACTORS
330
E
102
}
330
E
  0
DICTIONARYVAR
  5
100
102
{ACAD_REACTORS
330
34
102
}
330
34
100
DictionaryVariables
280
     0
  1
1
  0
DICTIONARYVAR
  5
35
102
{ACAD_REACTORS
330
34
102
}
330
34
100
DictionaryVariables
280
     0
  1
1
  0
DICTIONARY
  5
4A
102
{ACAD_REACTORS
330
49
102
}
330
49
100
AcDbDictionary
281
     1
  0
LAYER_INDEX
  5
1651
102
{ACAD_REACTORS
330
1650
102
}
330
1650
100
AcDbIndex
 40
2458961.414346239
100
AcDbLayerIndex
  8
0
360
1652
 90
      119
  8
AM_0
360
1653
 90
       14
  8
AM_VIEWS
360
1654
 90
        0
  8
AM_5
360
1655
 90
        0
  8
Defpoints
360
1656
 90
        0
  8
BSW-BBL
360
1657
 90
        0
  8
BSW-SB
360
1658
 90
        0
  8
AM_BOR
360
1659
 90
        0
  8
AM_6
360
165A
 90
        0
  8
RAHM2
360
165B
 90
        0
  8
4
360
165C
 90
        4
  8
7
360
165D
 90
        8
  8
8
360
165E
 90
        0
  8
5A
360
165F
 90
        2
  8
6
360
1660
 90
        1
  8
5
360
1661
 90
       28
  8
7A
360
1662
 90
       31
  8
2A
360
1663
 90
        0
  8
AM_3
360
1664
 90
       24
  8
AM_7
360
1665
 90
        1
  8
AM_3N
360
1666
 90
        6
  8
AM_0N
360
1667
 90
        1
  8
3
360
1668
 90
        3
  0
IDBUFFER
  5
1652
330
0
100
AcDbIdBuffer
330
15F9
330
15FA
330
1607
330
1614
330
1615
330
1616
330
1617
330
3F6
330
D83
330
D84
330
D85
330
D86
330
D88
330
D89
330
D8A
330
D8B
330
D8C
330
D8D
330
D8F
330
D91
330
D92
330
D95
330
D96
330
D97
330
D9A
330
D9B
330
D9F
330
DA1
330
DA4
330
DA5
330
DA6
330
DA7
330
DA8
330
DAB
330
DAC
330
DAD
330
DB1
330
DB2
330
DB3
330
DB4
330
DC3
330
DC4
330
DC9
330
DCA
330
DCF
330
DD0
330
DD3
330
DD4
330
DD9
330
DDA
330
DE3
330
DE4
330
DE5
330
DE6
330
DE7
330
DEC
330
DED
330
DEE
330
DEF
330
DF0
330
DF1
330
DF2
330
DF3
330
DF4
330
DF5
330
DFA
330
DFB
330
DFC
330
DFD
330
DFF
330
E00
330
E01
330
E02
330
E03
330
E04
330
E05
330
E06
330
E07
330
E08
330
E09
330
E0A
330
E0B
330
E0C
330
E0D
330
E0E
330
E0F
330
E10
330
E11
330
E12
330
E13
330
E14
330
E15
330
E17
330
E1E
330
E1F
330
E24
330
E28
330
E29
330
E2A
330
E2B
330
E2C
330
E2F
330
E30
330
E31
330
E35
330
E38
330
E39
330
E3B
330
E3D
330
E3E
330
E3F
330
E40
330
E41
330
15EF
330
15F0
330
15F5
330
15F6
330
15F7
330
15F8
  0
IDBUFFER
  5
1653
330
0
100
AcDbIdBuffer
330
31F
330
3C2
330
15EE
330
15FB
330
15FC
330
15FD
330
15FE
330
15FF
330
160F
330
1610
330
1611
330
1612
330
1613
330
161B
  0
IDBUFFER
  5
1654
330
0
100
AcDbIdBuffer
  0
IDBUFFER
  5
1655
330
0
100
AcDbIdBuffer
  0
IDBUFFER
  5
1656
330
0
100
AcDbIdBuffer
  0
IDBUFFER
  5
1657
330
0
100
AcDbIdBuffer
  0
IDBUFFER
  5
1658
330
0
100
AcDbIdBuffer
  0
IDBUFFER
  5
1659
330
0
100
AcDbIdBuffer
  0
IDBUFFER
  5
165A
330
0
100
AcDbIdBuffer
  0
IDBUFFER
  5
165B
330
0
100
AcDbIdBuffer
  0
IDBUFFER
  5
165C
330
0
100
AcDbIdBuffer
330
E1D
330
E20
330
E2D
330
E2E
  0
IDBUFFER
  5
165D
330
0
100
AcDbIdBuffer
330
D87
330
D8E
330
D90
330
D94
330
D98
330
D99
330
E1C
330
E32
  0
IDBUFFER
  5
165E
330
0
100
AcDbIdBuffer
  0
IDBUFFER
  5
165F
330
0
100
AcDbIdBuffer
330
DE2
330
E27
  0
IDBUFFER
  5
1660
330
0
100
AcDbIdBuffer
330
DB5
  0
IDBUFFER
  5
1661
330
0
100
AcDbIdBuffer
330
DC1
330
DC2
330
DE8
330
DE9
330
DEA
330
DEB
330
DF6
330
DF7
330
DF8
330
DF9
330
DFE
330
E21
330
D7F
330
D80
330
D81
330
D82
330
D93
330
DB6
330
DB7
330
DB8
330
DB9
330
DBA
330
DBB
330
DBC
330
DBD
330
DBE
330
DBF
330
DC0
  0
IDBUFFER
  5
1662
330
0
100
AcDbIdBuffer
330
DD8
330
DDB
330
DDC
330
DDD
330
DDE
330
DDF
330
DE0
330
DE1
330
15F1
330
15F2
330
15F3
330
15F4
330
1618
330
1619
330
161A
330
D9C
330
D9D
330
D9E
330
DC5
330
DC6
330
DC7
330
DC8
330
DCB
330
DCC
330
DCD
330
DCE
330
DD1
330
DD2
330
DD5
330
DD6
330
DD7
  0
IDBUFFER
  5
1663
330
0
100
AcDbIdBuffer
  0
IDBUFFER
  5
1664
330
0
100
AcDbIdBuffer
330
1631
330
1639
330
163A
330
163B
330
163C
330
163D
330
163E
330
163F
330
1600
330
1601
330
1602
330
1603
330
1604
330
1605
330
1606
330
1608
330
1609
330
160A
330
160B
330
160C
330
160D
330
160E
330
162F
330
1630
  0
IDBUFFER
  5
1665
330
0
100
AcDbIdBuffer
330
162E
  0
IDBUFFER
  5
1666
330
0
100
AcDbIdBuffer
330
1633
330
1634
330
1635
330
1636
330
1637
330
1638
  0
IDBUFFER
  5
1667
330
0
100
AcDbIdBuffer
330
1632
  0
IDBUFFER
  5
1668
330
0
100
AcDbIdBuffer
330
DA0
330
DA2
330
DA3
  0
ENDSEC
  0
EOF
