  0
SECTION
  2
HEADER
  9
$ACADVER
  1
AC1009
  9
$DWGCODEPAGE
  3
ansi_1252
  9
$INSBASE
 10
0.0
 20
0.0
 30
0.0
  9
$EXTMIN
 10
0.0
 20
0.0
 30
0.0
  9
$EXTMAX
 10
420.0
 20
297.0
 30
0.0
  9
$LIMMIN
 10
0.0
 20
0.0
  9
$LIMMAX
 10
420.0
 20
297.0
  9
$ORTHOMODE
 70
     0
  9
$REGENMODE
 70
     1
  9
$FILLMODE
 70
     1
  9
$QTEXTMODE
 70
     0
  9
$MIRRTEXT
 70
     1
  9
$DRAGMODE
 70
     2
  9
$LTSCALE
 40
1.0
  9
$OSMODE
 70
    37
  9
$ATTMODE
 70
     1
  9
$TEXTSIZE
 40
3.5
  9
$TRACEWID
 40
1.0
  9
$TEXTSTYLE
  7
STANDARD
  9
$CLAYER
  8
0
  9
$CELTYPE
  6
BYLAYER
  9
$CECOLOR
 62
   256
  9
$DIMSCALE
 40
1.0
  9
$DIMASZ
 40
3.3
  9
$DIMEXO
 40
1.0
  9
$DIMDLI
 40
3.75
  9
$DIMRND
 40
0.0
  9
$DIMDLE
 40
0.0
  9
$DIMEXE
 40
1.0
  9
$DIMTP
 40
0.0
  9
$DIMTM
 40
0.0
  9
$DIMTXT
 40
3.5277777778
  9
$DIMCEN
 40
2.5
  9
$DIMTSZ
 40
0.0
  9
$DIMTOL
 70
     0
  9
$DIMLIM
 70
     0
  9
$DIMTIH
 70
     1
  9
$DIMTOH
 70
     1
  9
$DIMSE1
 70
     0
  9
$DIMSE2
 70
     0
  9
$DIMTAD
 70
     1
  9
$DIMZIN
 70
     0
  9
$DIMBLK
  1

  9
$DIMASO
 70
     1
  9
$DIMSHO
 70
     1
  9
$DIMPOST
  1

  9
$DIMAPOST
  1

  9
$DIMALT
 70
     0
  9
$DIMALTD
 70
     3
  9
$DIMALTF
 40
0.0393700787
  9
$DIMLFAC
 40
1.0
  9
$DIMTOFL
 70
     1
  9
$DIMTVP
 40
0.0
  9
$DIMTIX
 70
     0
  9
$DIMSOXD
 70
     0
  9
$DIMSAH
 70
     0
  9
$DIMBLK1
  1

  9
$DIMBLK2
  1

  9
$DIMSTYLE
  2
ISO-25
  9
$DIMCLRD
 70
     0
  9
$DIMCLRE
 70
     0
  9
$DIMCLRT
 70
     0
  9
$DIMTFAC
 40
1.0
  9
$DIMGAP
 40
1.524
  9
$LUNITS
 70
     2
  9
$LUPREC
 70
     2
  9
$SKETCHINC
 40
1.0
  9
$FILLETRAD
 40
10.0
  9
$AUNITS
 70
     0
  9
$AUPREC
 70
     2
  9
$MENU
  1
.
  9
$ELEVATION
 40
0.0
  9
$PELEVATION
 40
0.0
  9
$THICKNESS
 40
0.0
  9
$LIMCHECK
 70
     0
  9
$CHAMFERA
 40
0.0
  9
$CHAMFERB
 40
0.0
  9
$SKPOLY
 70
     0
  9
$TDCREATE
 40
2459761.416960116
  9
$TDUPDATE
 40
2459761.416989792
  9
$TDINDWG
 40
0.0000000116
  9
$TDUSRTIMER
 40
0.0000000116
  9
$USRTIMER
 70
     1
  9
$ANGBASE
 50
0.0
  9
$ANGDIR
 70
     0
  9
$PDMODE
 70
     0
  9
$PDSIZE
 40
-1.0
  9
$PLINEWID
 40
0.0
  9
$COORDS
 70
     1
  9
$SPLFRAME
 70
     0
  9
$SPLINETYPE
 70
     6
  9
$SPLINESEGS
 70
     8
  9
$ATTDIA
 70
     0
  9
$ATTREQ
 70
     1
  9
$HANDLING
 70
     1
  9
$HANDSEED
  5
8D8
  9
$SURFTAB1
 70
     6
  9
$SURFTAB2
 70
     6
  9
$SURFTYPE
 70
     6
  9
$SURFU
 70
     6
  9
$SURFV
 70
     6
  9
$UCSNAME
  2

  9
$UCSORG
 10
0.0
 20
0.0
 30
0.0
  9
$UCSXDIR
 10
1.0
 20
0.0
 30
0.0
  9
$UCSYDIR
 10
0.0
 20
1.0
 30
0.0
  9
$PUCSNAME
  2

  9
$PUCSORG
 10
0.0
 20
0.0
 30
0.0
  9
$PUCSXDIR
 10
1.0
 20
0.0
 30
0.0
  9
$PUCSYDIR
 10
0.0
 20
1.0
 30
0.0
  9
$USERI1
 70
     0
  9
$USERI2
 70
     0
  9
$USERI3
 70
     0
  9
$USERI4
 70
     0
  9
$USERI5
 70
     0
  9
$USERR1
 40
0.0
  9
$USERR2
 40
0.0
  9
$USERR3
 40
0.0
  9
$USERR4
 40
0.0
  9
$USERR5
 40
0.0
  9
$WORLDVIEW
 70
     1
  9
$SHADEDGE
 70
     3
  9
$SHADEDIF
 70
    70
  9
$TILEMODE
 70
     0
  9
$MAXACTVP
 70
    64
  9
$PLIMCHECK
 70
     0
  9
$PEXTMIN
 10
0.0
 20
0.0
 30
0.0
  9
$PEXTMAX
 10
420.0
 20
297.0
 30
0.0
  9
$PLIMMIN
 10
0.0
 20
0.0
  9
$PLIMMAX
 10
420.0
 20
297.0
  9
$UNITMODE
 70
     0
  9
$VISRETAIN
 70
     1
  9
$PLINEGEN
 70
     0
  9
$PSLTSCALE
 70
     1
  0
ENDSEC
  0
SECTION
  2
TABLES
  0
TABLE
  2
VPORT
 70
     1
  0
VPORT
  2
*ACTIVE
 70
     0
 10
0.0
 20
0.0
 11
1.0
 21
1.0
 12
210.0
 22
148.5
 13
0.0
 23
0.0
 14
10.0
 24
10.0
 15
10.0
 25
10.0
 16
0.0
 26
0.0
 36
1.0
 17
0.0
 27
0.0
 37
0.0
 40
297.0
 41
1.4141414141
 42
50.0
 43
0.0
 44
0.0
 50
0.0
 51
0.0
 71
     0
 72
  2000
 73
     1
 74
     3
 75
     0
 76
     0
 77
     0
 78
     0
  0
ENDTAB
  0
TABLE
  2
LTYPE
 70
     6
  0
LTYPE
  2
CONTINUOUS
 70
     0
  3
Solid line
 72
    65
 73
     0
 40
0.0
  0
LTYPE
  2
HIDDEN
 70
     0
  3
Hidden __ __ __ __ __ __ __ __ __ __ __ __ __ __
 72
    65
 73
     2
 40
1.905
 49
1.27
 49
-0.635
  0
LTYPE
  2
PHANTOM
 70
     0
  3
Phantom ______  __  __  ______  __  __  ______
 72
    65
 73
     6
 40
12.7
 49
6.35
 49
-1.27
 49
1.27
 49
-1.27
 49
1.27
 49
-1.27
  0
LTYPE
  2
CENTER
 70
     0
  3
Center ____ _ ____ _ ____ _ ____ _ ____ _ ____
 72
    65
 73
     4
 40
10.16
 49
6.35
 49
-1.27
 49
1.27
 49
-1.27
  0
LTYPE
  2
CENTERX2
 70
     0
  3
Center (2x) ________  __  ________  __  _____
 72
    65
 73
     4
 40
20.32
 49
12.7
 49
-2.54
 49
2.54
 49
-2.54
  0
LTYPE
  2
DOT2
 70
     0
  3
Dot (.5x) ........................................
 72
    65
 73
     2
 40
0.635
 49
0.0
 49
-0.635
  0
ENDTAB
  0
TABLE
  2
LAYER
 70
     1
  0
LAYER
  2
0
 70
     0
 62
     7
  6
CONTINUOUS
  0
ENDTAB
  0
TABLE
  2
STYLE
 70
     1
  0
STYLE
  2
STANDARD
 70
     0
 40
0.0
 41
1.0
 50
0.0
 71
     0
 42
3.5
  3
txt
  4

  0
ENDTAB
  0
TABLE
  2
VIEW
 70
     0
  0
ENDTAB
  0
TABLE
  2
UCS
 70
     0
  0
ENDTAB
  0
TABLE
  2
APPID
 70
     1
  0
APPID
  2
ACAD
 70
     0
  0
ENDTAB
  0
TABLE
  2
DIMSTYLE
 70
     7
  0
DIMSTYLE
  2
ISO-25
 70
     0
  3

  4

  5

  6

  7

 40
1.0
 41
2.5
 42
0.625
 43
3.75
 44
1.25
 45
0.0
 46
0.0
 47
0.0
 48
0.0
140
2.5
141
2.5
142
0.0
143
0.0393700787
144
1.0
145
0.0
146
1.0
147
0.625
 71
     0
 72
     0
 73
     0
 74
     0
 75
     0
 76
     0
 77
     1
 78
     8
170
     0
171
     3
172
     1
173
     0
174
     0
175
     0
176
     0
177
     0
178
     0
  0
DIMSTYLE
  2
SLDDIMSTYLE0
 70
     0
  3

  4

  5

  6

  7

 40
1.0
 41
3.3
 42
0.0625
 43
0.38
 44
0.0
 45
0.000000001
 46
0.0
 47
0.0
 48
0.0
140
2.5683186849
141
0.09
142
0.0
143
25.4
144
1.0
145
0.0
146
1.0
147
0.6420796712
 71
     0
 72
     0
 73
     0
 74
     0
 75
     0
 76
     0
 77
     1
 78
    12
170
     0
171
     2
172
     0
173
     1
174
     0
175
     0
176
     0
177
     0
178
     0
  0
DIMSTYLE
  2
SLDDIMSTYLE1
 70
     0
  3

  4

  5

  6

  7

 40
1.0
 41
3.3
 42
0.0625
 43
0.38
 44
0.0
 45
0.000000001
 46
0.0
 47
0.0
 48
0.0
140
2.5683186849
141
0.09
142
0.0
143
25.4
144
1.0
145
0.0
146
1.0
147
0.6420796712
 71
     0
 72
     0
 73
     0
 74
     0
 75
     0
 76
     0
 77
     1
 78
    12
170
     0
171
     2
172
     1
173
     1
174
     0
175
     0
176
     0
177
     0
178
     0
  0
DIMSTYLE
  2
SLDDIMSTYLE2
 70
     0
  3

  4

  5

  6

  7

 40
1.0
 41
3.3
 42
0.0625
 43
0.38
 44
0.0
 45
0.000000001
 46
0.0
 47
0.0
 48
0.0
140
2.5683186849
141
0.09
142
0.0
143
25.4
144
1.0
145
0.0
146
1.0
147
0.6420796712
 71
     0
 72
     0
 73
     0
 74
     0
 75
     0
 76
     0
 77
     1
 78
    12
170
     0
171
     2
172
     1
173
     1
174
     0
175
     0
176
     0
177
     0
178
     0
  0
DIMSTYLE
  2
SLDDIMSTYLE3
 70
     0
  3

  4

  5

  6

  7

 40
1.0
 41
3.3
 42
0.0625
 43
0.38
 44
0.0
 45
0.0
 46
0.0
 47
0.0
 48
0.0
140
2.5683186849
141
0.09
142
0.0
143
25.4
144
1.0
145
0.0
146
1.0
147
0.6420796712
 71
     0
 72
     0
 73
     0
 74
     0
 75
     0
 76
     0
 77
     1
 78
    12
170
     0
171
     2
172
     0
173
     1
174
     0
175
     0
176
     0
177
     0
178
     0
  0
DIMSTYLE
  2
SLDDIMSTYLE4
 70
     0
  3

  4

  5

  6

  7

 40
1.0
 41
3.3
 42
0.0625
 43
0.38
 44
0.0
 45
0.000000001
 46
0.0
 47
0.0
 48
0.0
140
2.5683186849
141
0.0
142
0.0
143
25.4
144
1.0
145
0.0
146
1.0
147
0.6420796712
 71
     0
 72
     0
 73
     0
 74
     0
 75
     0
 76
     0
 77
     1
 78
    12
170
     0
171
     2
172
     0
173
     1
174
     0
175
     0
176
     0
177
     0
178
     0
  0
DIMSTYLE
  2
SLDDIMSTYLE5
 70
     0
  3

  4

  5

  6
NONE
  7

 40
1.0
 41
3.3
 42
0.0625
 43
0.38
 44
0.0
 45
0.000000001
 46
0.0
 47
0.0
 48
0.0
140
2.5683186849
141
0.0
142
0.0
143
25.4
144
1.0
145
0.0
146
1.0
147
0.6420796712
 71
     0
 72
     0
 73
     0
 74
     0
 75
     0
 76
     0
 77
     1
 78
    12
170
     0
171
     2
172
     1
173
     1
174
     0
175
     0
176
     0
177
     0
178
     0
  0
ENDTAB
  0
ENDSEC
  0
SECTION
  2
BLOCKS
  0
BLOCK
  8
0
  2
$MODEL_SPACE
 70
     0
 10
0.0
 20
0.0
 30
0.0
  3
$MODEL_SPACE
  1

  0
ENDBLK
  5
21
  8
0
  0
BLOCK
 67
     1
  8
0
  2
$PAPER_SPACE
 70
     0
 10
0.0
 20
0.0
 30
0.0
  3
$PAPER_SPACE
  1

  0
ENDBLK
  5
1D
 67
     1
  8
0
  0
BLOCK
  8
0
  2
SW_NOTE_0
 70
     0
 10
0.0
 20
0.0
 30
0.0
  3
SW_NOTE_0
  1

  0
TEXT
  5
B5
  8
0
  6
CONTINUOUS
 62
     0
 10
0.0
 20
1.2364102167
 30
0.0
 40
3.5
  1
090-745/160 DF
 41
0.7
 11
0.0
 21
0.0
 31
0.0
 73
     1
  0
TEXT
  5
B6
  8
0
  6
CONTINUOUS
 62
     0
 10
0.0
 20
-3.5931104773
 30
0.0
 40
2.6458333333
  1
Einbausituation mit Bandtasche VZX 350
 41
0.6631578947
 11
0.0
 21
-4.5277777244
 31
0.0
 73
     1
  0
ENDBLK
  5
B4
  8
0
  0
BLOCK
  8
0
  2
SW_NOTE_0_1
 70
     0
 10
0.0
 20
0.0
 30
0.0
  3
SW_NOTE_0_1
  1

  0
TEXT
  5
D7
  8
0
  6
CONTINUOUS
 62
     0
 10
0.0
 20
0.8831501548
 30
0.0
 40
2.5
  1
Maßstab:      
 41
0.55
 11
0.0
 21
0.0
 31
0.0
 73
     1
  0
TEXT
  5
D8
  8
0
  6
CONTINUOUS
 62
     0
 10
19.7052955627
 20
0.9475215793
 30
0.0
 40
3.5
  1
1:1
 41
0.7
 11
19.7052955627
 21
-0.2888886374
 31
0.0
 73
     1
  0
ENDBLK
  5
D6
  8
0
  0
BLOCK
  8
0
  2
SW_NOTE_0_2
 70
     0
 10
0.0
 20
0.0
 30
0.0
  3
SW_NOTE_0_2
  1

  0
TEXT
  5
E8
  8
0
  6
CONTINUOUS
 62
     0
 10
0.0
 20
0.8831501548
 30
0.0
 40
2.5
  1
Breuer & Schmitz
 41
0.65625
 11
0.0
 21
0.0
 31
0.0
 73
     1
  0
TEXT
  5
E9
  8
0
  6
CONTINUOUS
 62
     0
 10
0.6718747318
 20
-2.6168499532
 30
0.0
 40
2.5
  1
GmbH & Co. KG
 41
0.6192307692
 11
0.6718747318
 21
-3.500000108
 31
0.0
 73
     1
  0
TEXT
  5
EA
  8
0
  6
CONTINUOUS
 62
     0
 10
1.2413188815
 20
-6.1168500613
 30
0.0
 40
2.5
  1
Solingen - Wald
 41
0.6533333333
 11
1.2413188815
 21
-7.0000002161
 31
0.0
 73
     1
  0
TEXT
  5
EB
  8
0
  6
CONTINUOUS
 62
     0
 10
-0.7673613727
 20
-9.6168501693
 30
0.0
 40
2.5
  1
Baubeschlagfabrik
 41
0.7
 11
-0.7673613727
 21
-10.5000003241
 31
0.0
 73
     1
  0
ENDBLK
  5
E7
  8
0
  0
BLOCK
  8
0
  2
SW_NOTE_0_3
 70
     0
 10
0.0
 20
0.0
 30
0.0
  3
SW_NOTE_0_3
  1

  0
TEXT
  5
F0
  8
0
  6
CONTINUOUS
 62
     0
 10
0.0
 20
0.5608003483
 30
0.0
 40
1.5875
  1
Diese Zeichung ist unser Eigentum und darf weder
 41
0.6489583333
 11
0.0
 21
0.0
 31
0.0
 73
     1
  0
TEXT
  5
F1
  8
0
  6
CONTINUOUS
 62
     0
 10
0.0
 20
-1.5558662928
 30
0.0
 40
1.5875
  1
verwertet, vervielfältigt noch Dritten zugänglich 
 41
0.665
 11
0.0
 21
-2.1166666411
 31
0.0
 73
     1
  0
TEXT
  5
F2
  8
0
  6
CONTINUOUS
 62
     0
 10
0.0
 20
-3.6725329339
 30
0.0
 40
1.5875
  1
gemacht werden.
 41
0.7
 11
0.0
 21
-4.2333332822
 31
0.0
 73
     1
  0
TEXT
  5
F3
  8
0
  6
CONTINUOUS
 62
     0
 10
0.0
 20
-7.905866216
 30
0.0
 40
1.5875
  1
This drawing is our property and cannot either be 
 41
0.637
 11
0.0
 21
-8.4666665643
 31
0.0
 73
     1
  0
TEXT
  5
F4
  8
0
  6
CONTINUOUS
 62
     0
 10
0.0
 20
-10.0225328571
 30
0.0
 40
1.5875
  1
utilized for an other purpose or copied nor made 
 41
0.6357142857
 11
0.0
 21
-10.5833332054
 31
0.0
 73
     1
  0
TEXT
  5
F5
  8
0
  6
CONTINUOUS
 62
     0
 10
0.0
 20
-12.1391994982
 30
0.0
 40
1.5875
  1
available to a third.
 41
0.65
 11
0.0
 21
-12.6999998465
 31
0.0
 73
     1
  0
ENDBLK
  5
EF
  8
0
  0
BLOCK
  8
0
  2
_D
 70
     0
 10
0.0
 20
0.0
 30
0.0
  3
_D
  1

  0
SOLID
  5
2D6
  8
0
  6
CONTINUOUS
 62
     7
 10
390.9311609244
 20
223.7734408353
 30
0.0
 11
390.4311609244
 21
220.4734408353
 31
0.0
 12
391.4311609244
 22
220.4734408353
 32
0.0
 13
391.4311609244
 23
220.4734408353
 33
0.0
  0
SOLID
  5
2D7
  8
0
  6
CONTINUOUS
 62
     7
 10
390.9311609244
 20
193.7734408353
 30
0.0
 11
391.4311609244
 21
197.0734408353
 31
0.0
 12
390.4311609244
 22
197.0734408353
 32
0.0
 13
390.4311609244
 23
197.0734408353
 33
0.0
  0
LINE
  5
2D8
  8
0
  6
CONTINUOUS
 62
     7
 10
342.9235712462
 20
223.7734408353
 30
0.0
 11
391.9311609244
 21
223.7734408353
 31
0.0
  0
LINE
  5
2D9
  8
0
  6
CONTINUOUS
 62
     7
 10
343.9235712462
 20
193.7734408353
 30
0.0
 11
391.9311609244
 21
193.7734408353
 31
0.0
  0
LINE
  5
2DA
  8
0
  6
CONTINUOUS
 62
     7
 10
390.9311609244
 20
223.7734408353
 30
0.0
 11
390.9311609244
 21
193.7734408353
 31
0.0
  0
TEXT
  5
2DB
  8
0
  6
CONTINUOUS
 62
     7
 10
389.9964935027
 20
206.8135642123
 30
74.9999875
 40
2.6458333333
  1
30
 50
90.0
 41
0.7
 11
390.9311607498
 21
206.8135642123
 31
74.9999875
 73
     1
  0
ENDBLK
  5
2D5
  8
0
  0
BLOCK
  8
0
  2
_D_1
 70
     0
 10
0.0
 20
0.0
 30
0.0
  3
_D_1
  1

  0
SOLID
  5
2E0
  8
0
  6
CONTINUOUS
 62
     7
 10
318.9235712462
 20
179.9862877605
 30
0.0
 11
322.2235712462
 21
179.4862877605
 31
0.0
 12
322.2235712462
 22
180.4862877605
 32
0.0
 13
322.2235712462
 23
180.4862877605
 33
0.0
  0
SOLID
  5
2E1
  8
0
  6
CONTINUOUS
 62
     7
 10
342.9235712462
 20
179.9862877605
 30
0.0
 11
339.6235712462
 21
180.4862877605
 31
0.0
 12
339.6235712462
 22
179.4862877605
 32
0.0
 13
339.6235712462
 23
179.4862877605
 33
0.0
  0
LINE
  5
2E2
  8
0
  6
CONTINUOUS
 62
     7
 10
318.9235712462
 20
192.7734408353
 30
0.0
 11
318.9235712462
 21
178.9862877605
 31
0.0
  0
LINE
  5
2E3
  8
0
  6
CONTINUOUS
 62
     7
 10
342.9235712462
 20
192.7734408353
 30
0.0
 11
342.9235712462
 21
178.9862877605
 31
0.0
  0
LINE
  5
2E4
  8
0
  6
CONTINUOUS
 62
     7
 10
318.9235712462
 20
179.9862877605
 30
0.0
 11
342.9235712462
 21
179.9862877605
 31
0.0
  0
TEXT
  5
2E5
  8
0
  6
CONTINUOUS
 62
     7
 10
328.9636946232
 20
180.9209551823
 30
74.9999875
 40
2.6458333333
  1
24
 41
0.7
 11
328.9636946232
 21
179.9862879351
 31
74.9999875
 73
     1
  0
ENDBLK
  5
2DF
  8
0
  0
BLOCK
  8
0
  2
_D_2
 70
     0
 10
0.0
 20
0.0
 30
0.0
  3
_D_2
  1

  0
SOLID
  5
2EA
  8
0
  6
CONTINUOUS
 62
     7
 10
303.4235712462
 20
256.0402916405
 30
0.0
 11
306.7235712462
 21
255.5402916405
 31
0.0
 12
306.7235712462
 22
256.5402916405
 32
0.0
 13
306.7235712462
 23
256.5402916405
 33
0.0
  0
SOLID
  5
2EB
  8
0
  6
CONTINUOUS
 62
     7
 10
328.4235712462
 20
256.0402916405
 30
0.0
 11
325.1235712462
 21
256.5402916405
 31
0.0
 12
325.1235712462
 22
255.5402916405
 32
0.0
 13
325.1235712462
 23
255.5402916405
 33
0.0
  0
LINE
  5
2EC
  8
0
  6
CONTINUOUS
 62
     7
 10
303.4235712462
 20
233.7734408353
 30
0.0
 11
303.4235712462
 21
257.0402916405
 31
0.0
  0
LINE
  5
2ED
  8
0
  6
CONTINUOUS
 62
     7
 10
328.4235712462
 20
246.2734408353
 30
0.0
 11
328.4235712462
 21
257.0402916405
 31
0.0
  0
LINE
  5
2EE
  8
0
  6
CONTINUOUS
 62
     7
 10
303.4235712462
 20
256.0402916405
 30
0.0
 11
328.4235712462
 21
256.0402916405
 31
0.0
  0
TEXT
  5
2EF
  8
0
  6
CONTINUOUS
 62
     7
 10
313.9636946232
 20
256.9749590623
 30
74.9999875
 40
2.6458333333
  1
25
 50
360.0
 41
0.7
 11
313.9636946232
 21
256.0402918151
 31
74.9999875
 73
     1
  0
ENDBLK
  5
2E9
  8
0
  0
BLOCK
  8
0
  2
_D_3
 70
     0
 10
0.0
 20
0.0
 30
0.0
  3
_D_3
  1

  0
SOLID
  5
2F4
  8
0
  6
CONTINUOUS
 62
     7
 10
280.763777616
 20
174.2734408353
 30
0.0
 11
281.263777616
 21
177.5734408353
 31
0.0
 12
280.263777616
 22
177.5734408353
 32
0.0
 13
280.263777616
 23
177.5734408353
 33
0.0
  0
SOLID
  5
2F5
  8
0
  6
CONTINUOUS
 62
     7
 10
280.763777616
 20
199.2734408353
 30
0.0
 11
280.263777616
 21
195.9734408353
 31
0.0
 12
281.263777616
 22
195.9734408353
 32
0.0
 13
281.263777616
 23
195.9734408353
 33
0.0
  0
LINE
  5
2F6
  8
0
  6
CONTINUOUS
 62
     7
 10
302.4235712462
 20
199.2734408353
 30
0.0
 11
279.763777616
 21
199.2734408353
 31
0.0
  0
LINE
  5
2F7
  8
0
  6
CONTINUOUS
 62
     7
 10
280.763777616
 20
174.2734408353
 30
0.0
 11
280.763777616
 21
199.2734408353
 31
0.0
  0
TEXT
  5
2F8
  8
0
  6
CONTINUOUS
 62
     7
 10
279.8291101942
 20
184.8135642123
 30
74.9999875
 40
2.6458333333
  1
25
 50
90.0
 41
0.7
 11
280.7637774414
 21
184.8135642123
 31
74.9999875
 73
     1
  0
ENDBLK
  5
2F3
  8
0
  0
BLOCK
  8
0
  2
_D_4
 70
     0
 10
0.0
 20
0.0
 30
0.0
  3
_D_4
  1

  0
SOLID
  5
2FE
  8
0
  6
CONTINUOUS
 62
     7
 10
295.9791603647
 20
223.7734408353
 30
0.0
 11
295.4791603647
 21
220.4734408353
 31
0.0
 12
296.4791603647
 22
220.4734408353
 32
0.0
 13
296.4791603647
 23
220.4734408353
 33
0.0
  0
SOLID
  5
2FF
  8
0
  6
CONTINUOUS
 62
     7
 10
295.9791603647
 20
228.7734408353
 30
0.0
 11
296.4791603647
 21
232.0734408353
 31
0.0
 12
295.4791603647
 22
232.0734408353
 32
0.0
 13
295.4791603647
 23
232.0734408353
 33
0.0
  0
LINE
  5
300
  8
0
  6
CONTINUOUS
 62
     7
 10
319.1235712462
 20
223.7734408353
 30
0.0
 11
294.9791603647
 21
223.7734408353
 31
0.0
  0
LINE
  5
301
  8
0
  6
CONTINUOUS
 62
     7
 10
307.4235712462
 20
228.7734408353
 30
0.0
 11
294.9791603647
 21
228.7734408353
 31
0.0
  0
LINE
  5
302
  8
0
  6
CONTINUOUS
 62
     7
 10
295.9791603647
 20
223.7734408353
 30
0.0
 11
295.9791603647
 21
217.5234408353
 31
0.0
  0
LINE
  5
303
  8
0
  6
CONTINUOUS
 62
     7
 10
295.9791603647
 20
223.7734408353
 30
0.0
 11
295.9791603647
 21
228.7734408353
 31
0.0
  0
LINE
  5
304
  8
0
  6
CONTINUOUS
 62
     7
 10
295.9791603647
 20
228.7734408353
 30
0.0
 11
295.9791603647
 21
235.0234408353
 31
0.0
  0
TEXT
  5
305
  8
0
  6
CONTINUOUS
 62
     7
 10
295.0444929429
 20
225.2935025238
 30
74.9999875
 40
2.6458333333
  1
5
 50
90.0
 41
0.7
 11
295.97916019
 21
225.2935025238
 31
74.9999875
 73
     1
  0
ENDBLK
  5
2FD
  8
0
  0
BLOCK
  8
0
  2
_D_5
 70
     0
 10
0.0
 20
0.0
 30
0.0
  3
_D_5
  1

  0
SOLID
  5
30A
  8
0
  6
CONTINUOUS
 62
     7
 10
218.4235712462
 20
245.2734408353
 30
0.0
 11
217.9235712462
 21
241.9734408353
 31
0.0
 12
218.9235712462
 22
241.9734408353
 32
0.0
 13
218.9235712462
 23
241.9734408353
 33
0.0
  0
SOLID
  5
30B
  8
0
  6
CONTINUOUS
 62
     7
 10
218.4235712462
 20
174.2734408353
 30
0.0
 11
218.9235712462
 21
177.5734408353
 31
0.0
 12
217.9235712462
 22
177.5734408353
 32
0.0
 13
217.9235712462
 23
177.5734408353
 33
0.0
  0
LINE
  5
30C
  8
0
  6
CONTINUOUS
 62
     7
 10
227.4235712462
 20
245.2734408353
 30
0.0
 11
217.4235712462
 21
245.2734408353
 31
0.0
  0
LINE
  5
30D
  8
0
  6
CONTINUOUS
 62
     7
 10
227.4235712462
 20
174.2734408353
 30
0.0
 11
217.4235712462
 21
174.2734408353
 31
0.0
  0
LINE
  5
30E
  8
0
  6
CONTINUOUS
 62
     7
 10
218.4235712462
 20
245.2734408353
 30
0.0
 11
218.4235712462
 21
174.2734408353
 31
0.0
  0
TEXT
  5
30F
  8
0
  6
CONTINUOUS
 62
     7
 10
217.4889038244
 20
207.8135642123
 30
74.9999875
 40
2.6458333333
  1
71
 50
90.0
 41
0.7
 11
218.4235710716
 21
207.8135642123
 31
74.9999875
 73
     1
  0
ENDBLK
  5
309
  8
0
  0
BLOCK
  8
0
  2
_D_6
 70
     0
 10
0.0
 20
0.0
 30
0.0
  3
_D_6
  1

  0
SOLID
  5
314
  8
0
  6
CONTINUOUS
 62
     7
 10
315.4235712462
 20
185.838973504
 30
0.0
 11
312.1235712462
 21
186.338973504
 31
0.0
 12
312.1235712462
 22
185.338973504
 32
0.0
 13
312.1235712462
 23
185.338973504
 33
0.0
  0
SOLID
  5
315
  8
0
  6
CONTINUOUS
 62
     7
 10
318.9235712462
 20
185.838973504
 30
0.0
 11
322.2235712462
 21
185.338973504
 31
0.0
 12
322.2235712462
 22
186.338973504
 32
0.0
 13
322.2235712462
 23
186.338973504
 33
0.0
  0
LINE
  5
316
  8
0
  6
CONTINUOUS
 62
     7
 10
315.4235712462
 20
198.2734408353
 30
0.0
 11
315.4235712462
 21
184.838973504
 31
0.0
  0
LINE
  5
317
  8
0
  6
CONTINUOUS
 62
     7
 10
318.9235712462
 20
192.7734408353
 30
0.0
 11
318.9235712462
 21
184.838973504
 31
0.0
  0
LINE
  5
318
  8
0
  6
CONTINUOUS
 62
     7
 10
315.4235712462
 20
185.838973504
 30
0.0
 11
310.3360530439
 21
185.838973504
 31
0.0
  0
LINE
  5
319
  8
0
  6
CONTINUOUS
 62
     7
 10
315.4235712462
 20
185.838973504
 30
0.0
 11
318.9235712462
 21
185.838973504
 31
0.0
  0
LINE
  5
31A
  8
0
  6
CONTINUOUS
 62
     7
 10
318.9235712462
 20
185.838973504
 30
0.0
 11
325.1735712462
 21
185.838973504
 31
0.0
  0
TEXT
  5
31B
  8
0
  6
CONTINUOUS
 62
     7
 10
310.3360530439
 20
186.7736409258
 30
74.9999875
 40
2.6458333333
  1
3
 50
0.0
 41
0.7
 11
310.3360530439
 21
185.8389736786
 31
74.9999875
 73
     1
  0
ENDBLK
  5
313
  8
0
  0
BLOCK
  8
0
  2
_D_7
 70
     0
 10
0.0
 20
0.0
 30
0.0
  3
_D_7
  1

  0
SOLID
  5
320
  8
0
  6
CONTINUOUS
 62
     7
 10
288.6921421931
 20
199.2734408353
 30
0.0
 11
289.1921421931
 21
202.5734408353
 31
0.0
 12
288.1921421931
 22
202.5734408353
 32
0.0
 13
288.1921421931
 23
202.5734408353
 33
0.0
  0
SOLID
  5
321
  8
0
  6
CONTINUOUS
 62
     7
 10
288.6921421931
 20
223.7734408353
 30
0.0
 11
288.1921421931
 21
220.4734408353
 31
0.0
 12
289.1921421931
 22
220.4734408353
 32
0.0
 13
289.1921421931
 23
220.4734408353
 33
0.0
  0
LINE
  5
322
  8
0
  6
CONTINUOUS
 62
     7
 10
302.4235712462
 20
199.2734408353
 30
0.0
 11
287.6921421931
 21
199.2734408353
 31
0.0
  0
LINE
  5
323
  8
0
  6
CONTINUOUS
 62
     7
 10
319.1235712462
 20
223.7734408353
 30
0.0
 11
287.6921421931
 21
223.7734408353
 31
0.0
  0
LINE
  5
324
  8
0
  6
CONTINUOUS
 62
     7
 10
288.6921421931
 20
199.2734408353
 30
0.0
 11
288.6921421931
 21
223.7734408353
 31
0.0
  0
TEXT
  5
325
  8
0
  6
CONTINUOUS
 62
     7
 10
287.7574747713
 20
208.0936566286
 30
74.9999875
 40
2.6458333333
  1
24,5
 50
90.0
 41
0.7
 11
288.6921420185
 21
208.0936566286
 31
74.9999875
 73
     1
  0
ENDBLK
  5
31F
  8
0
  0
BLOCK
  8
0
  2
_D_8
 70
     0
 10
0.0
 20
0.0
 30
0.0
  3
_D_8
  1

  0
SOLID
  5
32B
  8
0
  6
CONTINUOUS
 62
     7
 10
328.4235712462
 20
250.6484574313
 30
0.0
 11
331.7235712462
 21
250.1484574313
 31
0.0
 12
331.7235712462
 22
251.1484574313
 32
0.0
 13
331.7235712462
 23
251.1484574313
 33
0.0
  0
SOLID
  5
32C
  8
0
  6
CONTINUOUS
 62
     7
 10
315.3235712462
 20
250.6484574313
 30
0.0
 11
312.0235712462
 21
251.1484574313
 31
0.0
 12
312.0235712462
 22
250.1484574313
 32
0.0
 13
312.0235712462
 23
250.1484574313
 33
0.0
  0
LINE
  5
32D
  8
0
  6
CONTINUOUS
 62
     7
 10
328.4235712462
 20
246.2734408353
 30
0.0
 11
328.4235712462
 21
251.6484574313
 31
0.0
  0
LINE
  5
32E
  8
0
  6
CONTINUOUS
 62
     7
 10
315.3235712462
 20
227.2734408353
 30
0.0
 11
315.3235712462
 21
251.6484574313
 31
0.0
  0
LINE
  5
32F
  8
0
  6
CONTINUOUS
 62
     7
 10
328.4235712462
 20
250.6484574313
 30
0.0
 11
334.6735712462
 21
250.6484574313
 31
0.0
  0
LINE
  5
330
  8
0
  6
CONTINUOUS
 62
     7
 10
328.4235712462
 20
250.6484574313
 30
0.0
 11
315.3235712462
 21
250.6484574313
 31
0.0
  0
LINE
  5
331
  8
0
  6
CONTINUOUS
 62
     7
 10
315.3235712462
 20
250.6484574313
 30
0.0
 11
309.0735712462
 21
250.6484574313
 31
0.0
  0
TEXT
  5
332
  8
0
  6
CONTINUOUS
 62
     7
 10
319.9136946232
 20
251.583124853
 30
74.9999875
 40
2.6458333333
  1
13
 50
0.0
 41
0.7
 11
319.9136946232
 21
250.6484576059
 31
74.9999875
 73
     1
  0
ENDBLK
  5
32A
  8
0
  0
BLOCK
  8
0
  2
_D_9
 70
     0
 10
0.0
 20
0.0
 30
0.0
  3
_D_9
  1

  0
SOLID
  5
337
  8
0
  6
CONTINUOUS
 62
     7
 10
315.4235712462
 20
161.0841002882
 30
0.0
 11
318.7235712462
 21
160.5841002882
 31
0.0
 12
318.7235712462
 22
161.5841002882
 32
0.0
 13
318.7235712462
 23
161.5841002882
 33
0.0
  0
SOLID
  5
338
  8
0
  6
CONTINUOUS
 62
     7
 10
303.4235712462
 20
161.0841002882
 30
0.0
 11
300.1235712462
 21
161.5841002882
 31
0.0
 12
300.1235712462
 22
160.5841002882
 32
0.0
 13
300.1235712462
 23
160.5841002882
 33
0.0
  0
LINE
  5
339
  8
0
  6
CONTINUOUS
 62
     7
 10
315.4235712462
 20
198.2734408353
 30
0.0
 11
315.4235712462
 21
160.0841002882
 31
0.0
  0
LINE
  5
33A
  8
0
  6
CONTINUOUS
 62
     7
 10
303.4235712462
 20
173.2734408353
 30
0.0
 11
303.4235712462
 21
160.0841002882
 31
0.0
  0
LINE
  5
33B
  8
0
  6
CONTINUOUS
 62
     7
 10
315.4235712462
 20
161.0841002882
 30
0.0
 11
321.6735712462
 21
161.0841002882
 31
0.0
  0
LINE
  5
33C
  8
0
  6
CONTINUOUS
 62
     7
 10
315.4235712462
 20
161.0841002882
 30
0.0
 11
303.4235712462
 21
161.0841002882
 31
0.0
  0
LINE
  5
33D
  8
0
  6
CONTINUOUS
 62
     7
 10
303.4235712462
 20
161.0841002882
 30
0.0
 11
297.1735712462
 21
161.0841002882
 31
0.0
  0
TEXT
  5
33E
  8
0
  6
CONTINUOUS
 62
     7
 10
307.4636946232
 20
162.01876771
 30
74.9999875
 40
2.6458333333
  1
12
 50
0.0
 41
0.7
 11
307.4636946232
 21
161.0841004629
 31
74.9999875
 73
     1
  0
ENDBLK
  5
336
  8
0
  0
BLOCK
  8
0
  2
SW_CENTERMARKSYMBOL_0
 70
     0
 10
0.0
 20
0.0
 30
0.0
  3
SW_CENTERMARKSYMBOL_0
  1

  0
LINE
  5
343
  8
0
  6
CONTINUOUS
 62
     0
 10
0.0
 20
0.0
 30
0.0
 11
0.0
 21
2.5
 31
0.0
  0
LINE
  5
344
  8
0
  6
CONTINUOUS
 62
     0
 10
0.0
 20
0.0
 30
0.0
 11
-2.5
 21
0.0
 31
0.0
  0
LINE
  5
345
  8
0
  6
CONTINUOUS
 62
     0
 10
0.0
 20
0.0
 30
0.0
 11
0.0
 21
-2.5
 31
0.0
  0
LINE
  5
346
  8
0
  6
CONTINUOUS
 62
     0
 10
0.0
 20
0.0
 30
0.0
 11
2.5
 21
0.0
 31
0.0
  0
LINE
  5
347
  8
0
  6
CONTINUOUS
 62
     0
 10
0.0
 20
5.0
 30
0.0
 11
0.0
 21
13.45
 31
0.0
  0
LINE
  5
348
  8
0
  6
CONTINUOUS
 62
     0
 10
-5.0
 20
0.0
 30
0.0
 11
-13.45
 21
0.0
 31
0.0
  0
LINE
  5
349
  8
0
  6
CONTINUOUS
 62
     0
 10
0.0
 20
-5.0
 30
0.0
 11
0.0
 21
-13.45
 31
0.0
  0
LINE
  5
34A
  8
0
  6
CONTINUOUS
 62
     0
 10
5.0
 20
0.0
 30
0.0
 11
13.45
 21
0.0
 31
0.0
  0
ENDBLK
  5
342
  8
0
  0
BLOCK
  8
0
  2
_D_10
 70
     0
 10
0.0
 20
0.0
 30
0.0
  3
_D_10
  1

  0
SOLID
  5
4AE
  8
0
  6
CONTINUOUS
 62
     7
 10
71.3062272193
 20
223.4357594171
 30
0.0
 11
70.8062272193
 21
220.1357594171
 31
0.0
 12
71.8062272193
 22
220.1357594171
 32
0.0
 13
71.8062272193
 23
220.1357594171
 33
0.0
  0
SOLID
  5
4AF
  8
0
  6
CONTINUOUS
 62
     7
 10
71.3062272193
 20
167.4357594171
 30
0.0
 11
71.8062272193
 21
170.7357594171
 31
0.0
 12
70.8062272193
 22
170.7357594171
 32
0.0
 13
70.8062272193
 23
170.7357594171
 33
0.0
  0
LINE
  5
4B0
  8
0
  6
CONTINUOUS
 62
     7
 10
89.0251586025
 20
223.4357594171
 30
0.0
 11
70.3062272193
 21
223.4357594171
 31
0.0
  0
LINE
  5
4B1
  8
0
  6
CONTINUOUS
 62
     7
 10
88.9211819386
 20
167.4357594171
 30
0.0
 11
70.3062272193
 21
167.4357594171
 31
0.0
  0
LINE
  5
4B2
  8
0
  6
CONTINUOUS
 62
     7
 10
71.3062272193
 20
223.4357594171
 30
0.0
 11
71.3062272193
 21
167.4357594171
 31
0.0
  0
TEXT
  5
4B3
  8
0
  6
CONTINUOUS
 62
     7
 10
70.3715597975
 20
193.4758827941
 30
-6.6480450876
 40
2.6458333333
  1
56
 50
90.0
 41
0.7
 11
71.3062270447
 21
193.4758827941
 31
-6.6480450876
 73
     1
  0
ENDBLK
  5
4AD
  8
0
  0
BLOCK
  8
0
  2
_D_11
 70
     0
 10
0.0
 20
0.0
 30
0.0
  3
_D_11
  1

  0
SOLID
  5
4B8
  8
0
  6
CONTINUOUS
 62
     7
 10
64.8976973644
 20
234.6857594171
 30
0.0
 11
64.3976973644
 21
231.3857594171
 31
0.0
 12
65.3976973644
 22
231.3857594171
 32
0.0
 13
65.3976973644
 23
231.3857594171
 33
0.0
  0
SOLID
  5
4B9
  8
0
  6
CONTINUOUS
 62
     7
 10
64.8976973644
 20
156.1857594171
 30
0.0
 11
65.3976973644
 21
159.4857594171
 31
0.0
 12
64.3976973644
 22
159.4857594171
 32
0.0
 13
64.3976973644
 23
159.4857594171
 33
0.0
  0
LINE
  5
4BA
  8
0
  6
CONTINUOUS
 62
     7
 10
84.495276749
 20
234.6857594171
 30
0.0
 11
63.8976973644
 21
234.6857594171
 31
0.0
  0
LINE
  5
4BB
  8
0
  6
CONTINUOUS
 62
     7
 10
84.495276749
 20
156.1857594171
 30
0.0
 11
63.8976973644
 21
156.1857594171
 31
0.0
  0
LINE
  5
4BC
  8
0
  6
CONTINUOUS
 62
     7
 10
64.8976973644
 20
234.6857594171
 30
0.0
 11
64.8976973644
 21
156.1857594171
 31
0.0
  0
TEXT
  5
4BD
  8
0
  6
CONTINUOUS
 62
     7
 10
63.9630299426
 20
192.0059752105
 30
-6.6480450876
 40
2.6458333333
  1
78,5
 50
90.0
 41
0.7
 11
64.8976971898
 21
192.0059752105
 31
-6.6480450876
 73
     1
  0
ENDBLK
  5
4B7
  8
0
  0
BLOCK
  8
0
  2
_D_12
 70
     0
 10
0.0
 20
0.0
 30
0.0
  3
_D_12
  1

  0
ARC
  5
4C3
  8
0
  6
CONTINUOUS
 62
     7
 10
129.5004598087
 20
195.4357594172
 30
0.0
 40
53.27605851471532
 50
175.0
 51
185.0
  0
ARC
  5
4C4
  8
0
  6
CONTINUOUS
 62
     7
 10
129.5004598087
 20
195.4357594172
 30
0.0
 40
53.27605851471534
 50
168.2880565469
 51
175.0
  0
ARC
  5
4C5
  8
0
  6
CONTINUOUS
 62
     7
 10
129.5004598087
 20
195.4357594172
 30
0.0
 40
53.27605851471533
 50
185.0
 51
191.7119434531
  0
SOLID
  5
4C6
  8
0
  6
CONTINUOUS
 62
     7
 10
76.4271327811
 20
200.0790738677
 30
0.0
 11
77.3127890114
 21
203.2970877026
 31
0.0
 12
76.3197662313
 22
203.4150103815
 32
0.0
 13
76.3197662313
 23
203.4150103815
 33
0.0
  0
SOLID
  5
4C7
  8
0
  6
CONTINUOUS
 62
     7
 10
76.4271327811
 20
190.7924449666
 30
0.0
 11
76.3197662313
 21
187.4565084528
 31
0.0
 12
77.3127890114
 22
187.5744311317
 32
0.0
 13
77.3127890114
 23
187.5744311317
 33
0.0
  0
LINE
  5
4C8
  8
0
  6
CONTINUOUS
 62
     7
 10
82.4990820509
 20
199.5478471411
 30
0.0
 11
75.430938083
 21
200.1662296104
 31
0.0
  0
LINE
  5
4C9
  8
0
  6
CONTINUOUS
 62
     7
 10
82.4990820509
 20
191.3236716932
 30
0.0
 11
75.430938083
 21
190.7052892239
 31
0.0
  0
TEXT
  5
4CA
  8
0
  6
CONTINUOUS
 62
     7
 10
75.2897338722
 20
192.7703272471
 30
-6.6480450876
 40
2.6458333333
  1
10°
 50
90.0
 41
0.7
 11
76.2244011193
 21
192.7703272471
 31
-6.6480450876
 73
     1
  0
ENDBLK
  5
4C2
  8
0
  0
BLOCK
  8
0
  2
_D_13
 70
     0
 10
0.0
 20
0.0
 30
0.0
  3
_D_13
  1

  0
SOLID
  5
4CF
  8
0
  6
CONTINUOUS
 62
     7
 10
107.6330913703
 20
230.4357594172
 30
0.0
 11
108.1330913703
 21
233.7357594172
 31
0.0
 12
107.1330913703
 22
233.7357594172
 32
0.0
 13
107.1330913703
 23
233.7357594172
 33
0.0
  0
SOLID
  5
4D0
  8
0
  6
CONTINUOUS
 62
     7
 10
107.6330913703
 20
216.4357594172
 30
0.0
 11
107.1330913703
 21
213.1357594172
 31
0.0
 12
108.1330913703
 22
213.1357594172
 32
0.0
 13
108.1330913703
 23
213.1357594172
 33
0.0
  0
LINE
  5
4D1
  8
0
  6
CONTINUOUS
 62
     7
 10
99.495276749
 20
230.4357594171
 30
0.0
 11
108.6330913703
 21
230.4357594172
 31
0.0
  0
LINE
  5
4D2
  8
0
  6
CONTINUOUS
 62
     7
 10
99.495276749
 20
216.4357594171
 30
0.0
 11
108.6330913703
 21
216.4357594172
 31
0.0
  0
LINE
  5
4D3
  8
0
  6
CONTINUOUS
 62
     7
 10
107.6330913703
 20
230.4357594172
 30
0.0
 11
107.6330913703
 21
236.6857594172
 31
0.0
  0
LINE
  5
4D4
  8
0
  6
CONTINUOUS
 62
     7
 10
107.6330913703
 20
230.4357594172
 30
0.0
 11
107.6330913703
 21
216.4357594172
 31
0.0
  0
LINE
  5
4D5
  8
0
  6
CONTINUOUS
 62
     7
 10
107.6330913703
 20
216.4357594172
 30
0.0
 11
107.6330913703
 21
210.1857594171
 31
0.0
  0
TEXT
  5
4D6
  8
0
  6
CONTINUOUS
 62
     7
 10
106.6984239485
 20
221.4758827941
 30
-6.6480450876
 40
2.6458333333
  1
14
 50
90.0
 41
0.7
 11
107.6330911957
 21
221.4758827941
 31
-6.6480450876
 73
     1
  0
ENDBLK
  5
4CE
  8
0
  0
BLOCK
  8
0
  2
_D_14
 70
     0
 10
0.0
 20
0.0
 30
0.0
  3
_D_14
  1

  0
SOLID
  5
4DB
  8
0
  6
CONTINUOUS
 62
     7
 10
101.495276749
 20
241.8736482755
 30
0.0
 11
104.795276749
 21
241.3736482755
 31
0.0
 12
104.795276749
 22
242.3736482755
 32
0.0
 13
104.795276749
 23
242.3736482755
 33
0.0
  0
SOLID
  5
4DC
  8
0
  6
CONTINUOUS
 62
     7
 10
89.495276749
 20
241.8736482755
 30
0.0
 11
86.195276749
 21
242.3736482755
 31
0.0
 12
86.195276749
 22
241.3736482755
 32
0.0
 13
86.195276749
 23
241.3736482755
 33
0.0
  0
LINE
  5
4DD
  8
0
  6
CONTINUOUS
 62
     7
 10
101.495276749
 20
228.4357594171
 30
0.0
 11
101.495276749
 21
242.8736482755
 31
0.0
  0
LINE
  5
4DE
  8
0
  6
CONTINUOUS
 62
     7
 10
89.495276749
 20
228.4357594171
 30
0.0
 11
89.495276749
 21
242.8736482755
 31
0.0
  0
LINE
  5
4DF
  8
0
  6
CONTINUOUS
 62
     7
 10
101.495276749
 20
241.8736482755
 30
0.0
 11
107.745276749
 21
241.8736482755
 31
0.0
  0
LINE
  5
4E0
  8
0
  6
CONTINUOUS
 62
     7
 10
101.495276749
 20
241.8736482755
 30
0.0
 11
89.495276749
 21
241.8736482755
 31
0.0
  0
LINE
  5
4E1
  8
0
  6
CONTINUOUS
 62
     7
 10
89.495276749
 20
241.8736482755
 30
0.0
 11
83.245276749
 21
241.8736482755
 31
0.0
  0
TEXT
  5
4E2
  8
0
  6
CONTINUOUS
 62
     7
 10
93.535400126
 20
242.8083156972
 30
-6.6480450876
 40
2.6458333333
  1
12
 50
0.0
 41
0.7
 11
93.535400126
 21
241.8736484501
 31
-6.6480450876
 73
     1
  0
ENDBLK
  5
4DA
  8
0
  0
BLOCK
  8
0
  2
_D_15
 70
     0
 10
0.0
 20
0.0
 30
0.0
  3
_D_15
  1

  0
SOLID
  5
4E8
  8
0
  6
CONTINUOUS
 62
     7
 10
90.6888171345
 20
217.0406177384
 30
0.0
 11
88.3025212787
 21
214.7070384943
 31
0.0
 12
89.1009018383
 22
214.1048852894
 32
0.0
 13
89.1009018383
 23
214.1048852894
 33
0.0
  0
LINE
  5
4E9
  8
0
  6
CONTINUOUS
 62
     7
 10
90.6888171345
 20
217.0406177384
 30
0.0
 11
84.9650545069
 21
209.4516175094
 31
0.0
  0
LINE
  5
4EA
  8
0
  6
CONTINUOUS
 62
     7
 10
90.6888171345
 20
217.0406177384
 30
0.0
 11
92.495276749
 21
219.4357594171
 31
0.0
  0
TEXT
  5
4EB
  8
0
  6
CONTINUOUS
 62
     7
 10
84.2462309682
 20
209.9937673555
 30
-6.6480450876
 40
2.6458333333
  1
R3
 50
52.9757342663
 41
0.7
 11
84.992451128
 21
209.4309544772
 31
-6.6480450876
 73
     1
  0
ENDBLK
  5
4E7
  8
0
  0
BLOCK
  8
0
  2
_D_16
 70
     0
 10
0.0
 20
0.0
 30
0.0
  3
_D_16
  1

  0
SOLID
  5
4F0
  8
0
  6
CONTINUOUS
 62
     7
 10
83.495276749
 20
146.9488404128
 30
0.0
 11
80.195276749
 21
147.4488404128
 31
0.0
 12
80.195276749
 22
146.4488404128
 32
0.0
 13
80.195276749
 23
146.4488404128
 33
0.0
  0
SOLID
  5
4F1
  8
0
  6
CONTINUOUS
 62
     7
 10
95.495276749
 20
146.9488404128
 30
0.0
 11
98.795276749
 21
146.4488404128
 31
0.0
 12
98.795276749
 22
147.4488404128
 32
0.0
 13
98.795276749
 23
147.4488404128
 33
0.0
  0
LINE
  5
4F2
  8
0
  6
CONTINUOUS
 62
     7
 10
83.495276749
 20
157.1857594171
 30
0.0
 11
83.495276749
 21
145.9488404128
 31
0.0
  0
LINE
  5
4F3
  8
0
  6
CONTINUOUS
 62
     7
 10
95.495276749
 20
158.6236654482
 30
0.0
 11
95.495276749
 21
145.9488404128
 31
0.0
  0
LINE
  5
4F4
  8
0
  6
CONTINUOUS
 62
     7
 10
83.495276749
 20
146.9488404128
 30
0.0
 11
77.245276749
 21
146.9488404128
 31
0.0
  0
LINE
  5
4F5
  8
0
  6
CONTINUOUS
 62
     7
 10
83.495276749
 20
146.9488404128
 30
0.0
 11
95.495276749
 21
146.9488404128
 31
0.0
  0
LINE
  5
4F6
  8
0
  6
CONTINUOUS
 62
     7
 10
95.495276749
 20
146.9488404128
 30
0.0
 11
101.745276749
 21
146.9488404128
 31
0.0
  0
TEXT
  5
4F7
  8
0
  6
CONTINUOUS
 62
     7
 10
87.535400126
 20
147.8835078346
 30
-6.6480450876
 40
2.6458333333
  1
12
 50
0.0
 41
0.7
 11
87.535400126
 21
146.9488405874
 31
-6.6480450876
 73
     1
  0
ENDBLK
  5
4EF
  8
0
  0
BLOCK
  8
0
  2
_D_17
 70
     0
 10
0.0
 20
0.0
 30
0.0
  3
_D_17
  1

  0
SOLID
  5
557
  8
0
  6
CONTINUOUS
 62
     7
 10
66.495276749
 20
61.4491692339
 30
0.0
 11
65.995276749
 21
58.1491692339
 31
0.0
 12
66.995276749
 22
58.1491692339
 32
0.0
 13
66.995276749
 23
58.1491692339
 33
0.0
  0
SOLID
  5
558
  8
0
  6
CONTINUOUS
 62
     7
 10
66.495276749
 20
73.4491692339
 30
0.0
 11
66.995276749
 21
76.7491692339
 31
0.0
 12
65.995276749
 22
76.7491692339
 32
0.0
 13
65.995276749
 23
76.7491692339
 33
0.0
  0
LINE
  5
559
  8
0
  6
CONTINUOUS
 62
     7
 10
82.495276749
 20
61.4491692339
 30
0.0
 11
65.495276749
 21
61.4491692339
 31
0.0
  0
LINE
  5
55A
  8
0
  6
CONTINUOUS
 62
     7
 10
109.545276749
 20
73.4491692339
 30
0.0
 11
65.495276749
 21
73.4491692339
 31
0.0
  0
LINE
  5
55B
  8
0
  6
CONTINUOUS
 62
     7
 10
66.495276749
 20
61.4491692339
 30
0.0
 11
66.495276749
 21
55.1991692339
 31
0.0
  0
LINE
  5
55C
  8
0
  6
CONTINUOUS
 62
     7
 10
66.495276749
 20
61.4491692339
 30
0.0
 11
66.495276749
 21
73.4491692339
 31
0.0
  0
LINE
  5
55D
  8
0
  6
CONTINUOUS
 62
     7
 10
66.495276749
 20
73.4491692339
 30
0.0
 11
66.495276749
 21
79.6991692339
 31
0.0
  0
TEXT
  5
55E
  8
0
  6
CONTINUOUS
 62
     7
 10
65.5606093272
 20
65.4892926108
 30
0.0
 40
2.6458333333
  1
12
 50
90.0
 41
0.7
 11
66.4952765744
 21
65.4892926108
 31
0.0
 73
     1
  0
ENDBLK
  5
556
  8
0
  0
BLOCK
  8
0
  2
_D_18
 70
     0
 10
0.0
 20
0.0
 30
0.0
  3
_D_18
  1

  0
SOLID
  5
563
  8
0
  6
CONTINUOUS
 62
     7
 10
73.495276749
 20
61.4491692339
 30
0.0
 11
72.995276749
 21
58.1491692339
 31
0.0
 12
73.995276749
 22
58.1491692339
 32
0.0
 13
73.995276749
 23
58.1491692339
 33
0.0
  0
SOLID
  5
564
  8
0
  6
CONTINUOUS
 62
     7
 10
73.495276749
 20
65.4491692339
 30
0.0
 11
73.995276749
 21
68.7491692339
 31
0.0
 12
72.995276749
 22
68.7491692339
 32
0.0
 13
72.995276749
 23
68.7491692339
 33
0.0
  0
LINE
  5
565
  8
0
  6
CONTINUOUS
 62
     7
 10
82.495276749
 20
61.4491692339
 30
0.0
 11
72.495276749
 21
61.4491692339
 31
0.0
  0
LINE
  5
566
  8
0
  6
CONTINUOUS
 62
     7
 10
82.495276749
 20
65.4491692339
 30
0.0
 11
72.495276749
 21
65.4491692339
 31
0.0
  0
LINE
  5
567
  8
0
  6
CONTINUOUS
 62
     7
 10
73.495276749
 20
61.4491692339
 30
0.0
 11
73.495276749
 21
55.1991692339
 31
0.0
  0
LINE
  5
568
  8
0
  6
CONTINUOUS
 62
     7
 10
73.495276749
 20
61.4491692339
 30
0.0
 11
73.495276749
 21
65.4491692339
 31
0.0
  0
LINE
  5
569
  8
0
  6
CONTINUOUS
 62
     7
 10
73.495276749
 20
65.4491692339
 30
0.0
 11
73.495276749
 21
71.6991692339
 31
0.0
  0
TEXT
  5
56A
  8
0
  6
CONTINUOUS
 62
     7
 10
72.5606093272
 20
62.4692309224
 30
0.0
 40
2.6458333333
  1
4
 50
90.0
 41
0.7
 11
73.4952765744
 21
62.4692309224
 31
0.0
 73
     1
  0
ENDBLK
  5
562
  8
0
  0
BLOCK
  8
0
  2
_D_19
 70
     0
 10
0.0
 20
0.0
 30
0.0
  3
_D_19
  1

  0
SOLID
  5
56F
  8
0
  6
CONTINUOUS
 62
     7
 10
83.495276749
 20
94.3579607615
 30
0.0
 11
86.795276749
 21
93.8579607615
 31
0.0
 12
86.795276749
 22
94.8579607615
 32
0.0
 13
86.795276749
 23
94.8579607615
 33
0.0
  0
SOLID
  5
570
  8
0
  6
CONTINUOUS
 62
     7
 10
123.995276749
 20
94.3579607615
 30
0.0
 11
120.695276749
 21
94.8579607615
 31
0.0
 12
120.695276749
 22
93.8579607615
 32
0.0
 13
120.695276749
 23
93.8579607615
 33
0.0
  0
LINE
  5
571
  8
0
  6
CONTINUOUS
 62
     7
 10
83.495276749
 20
66.4491692339
 30
0.0
 11
83.495276749
 21
95.3579607615
 31
0.0
  0
LINE
  5
572
  8
0
  6
CONTINUOUS
 62
     7
 10
123.995276749
 20
87.8991692339
 30
0.0
 11
123.995276749
 21
95.3579607615
 31
0.0
  0
LINE
  5
573
  8
0
  6
CONTINUOUS
 62
     7
 10
83.495276749
 20
94.3579607615
 30
0.0
 11
123.995276749
 21
94.3579607615
 31
0.0
  0
TEXT
  5
574
  8
0
  6
CONTINUOUS
 62
     7
 10
100.3154925423
 20
95.2926281833
 30
0.0
 40
2.6458333333
  1
40,5
 50
360.0
 41
0.7
 11
100.3154925423
 21
94.3579609361
 31
0.0
 73
     1
  0
ENDBLK
  5
56E
  8
0
  0
BLOCK
  8
0
  2
_D_20
 70
     0
 10
0.0
 20
0.0
 30
0.0
  3
_D_20
  1

  0
SOLID
  5
579
  8
0
  6
CONTINUOUS
 62
     7
 10
144.2727999509
 20
73.4491692339
 30
0.0
 11
143.7727999509
 21
70.1491692339
 31
0.0
 12
144.7727999509
 22
70.1491692339
 32
0.0
 13
144.7727999509
 23
70.1491692339
 33
0.0
  0
SOLID
  5
57A
  8
0
  6
CONTINUOUS
 62
     7
 10
144.2727999509
 20
35.4491692339
 30
0.0
 11
144.7727999509
 21
38.7491692339
 31
0.0
 12
143.7727999509
 22
38.7491692339
 32
0.0
 13
143.7727999509
 23
38.7491692339
 33
0.0
  0
LINE
  5
57B
  8
0
  6
CONTINUOUS
 62
     7
 10
138.445276749
 20
73.4491692339
 30
0.0
 11
145.2727999509
 21
73.4491692339
 31
0.0
  0
LINE
  5
57C
  8
0
  6
CONTINUOUS
 62
     7
 10
115.495276749
 20
35.4491692339
 30
0.0
 11
145.2727999509
 21
35.4491692339
 31
0.0
  0
LINE
  5
57D
  8
0
  6
CONTINUOUS
 62
     7
 10
144.2727999509
 20
73.4491692339
 30
0.0
 11
144.2727999509
 21
35.4491692339
 31
0.0
  0
TEXT
  5
57E
  8
0
  6
CONTINUOUS
 62
     7
 10
143.3381325291
 20
52.4892926108
 30
0.0
 40
2.6458333333
  1
38
 50
90.0
 41
0.7
 11
144.2727997763
 21
52.4892926108
 31
0.0
 73
     1
  0
ENDBLK
  5
578
  8
0
  0
BLOCK
  8
0
  2
_D_21
 70
     0
 10
0.0
 20
0.0
 30
0.0
  3
_D_21
  1

  0
SOLID
  5
583
  8
0
  6
CONTINUOUS
 62
     7
 10
79.1346557363
 20
47.3491692339
 30
0.0
 11
79.6346557363
 21
50.6491692339
 31
0.0
 12
78.6346557363
 22
50.6491692339
 32
0.0
 13
78.6346557363
 23
50.6491692339
 33
0.0
  0
SOLID
  5
584
  8
0
  6
CONTINUOUS
 62
     7
 10
79.1346557363
 20
35.4491692339
 30
0.0
 11
78.6346557363
 21
32.1491692339
 31
0.0
 12
79.6346557363
 22
32.1491692339
 32
0.0
 13
79.6346557363
 23
32.1491692339
 33
0.0
  0
LINE
  5
585
  8
0
  6
CONTINUOUS
 62
     7
 10
88.495276749
 20
47.3491692339
 30
0.0
 11
78.1346557363
 21
47.3491692339
 31
0.0
  0
LINE
  5
586
  8
0
  6
CONTINUOUS
 62
     7
 10
88.495276749
 20
35.4491692339
 30
0.0
 11
78.1346557363
 21
35.4491692339
 31
0.0
  0
LINE
  5
587
  8
0
  6
CONTINUOUS
 62
     7
 10
79.1346557363
 20
47.3491692339
 30
0.0
 11
79.1346557363
 21
53.5991692339
 31
0.0
  0
LINE
  5
588
  8
0
  6
CONTINUOUS
 62
     7
 10
79.1346557363
 20
47.3491692339
 30
0.0
 11
79.1346557363
 21
35.4491692339
 31
0.0
  0
LINE
  5
589
  8
0
  6
CONTINUOUS
 62
     7
 10
79.1346557363
 20
35.4491692339
 30
0.0
 11
79.1346557363
 21
29.1991692339
 31
0.0
  0
TEXT
  5
58A
  8
0
  6
CONTINUOUS
 62
     7
 10
78.1999883145
 20
37.9693850272
 30
0.0
 40
2.6458333333
  1
11,9
 50
90.0
 41
0.7
 11
79.1346555617
 21
37.9693850272
 31
0.0
 73
     1
  0
ENDBLK
  5
582
  8
0
  0
BLOCK
  8
0
  2
_D_22
 70
     0
 10
0.0
 20
0.0
 30
0.0
  3
_D_22
  1

  0
SOLID
  5
58F
  8
0
  6
CONTINUOUS
 62
     7
 10
89.495276749
 20
25.4391442338
 30
0.0
 11
92.795276749
 21
24.9391442338
 31
0.0
 12
92.795276749
 22
25.9391442338
 32
0.0
 13
92.795276749
 23
25.9391442338
 33
0.0
  0
SOLID
  5
590
  8
0
  6
CONTINUOUS
 62
     7
 10
119.495276749
 20
25.4391442338
 30
0.0
 11
116.195276749
 21
25.9391442338
 31
0.0
 12
116.195276749
 22
24.9391442338
 32
0.0
 13
116.195276749
 23
24.9391442338
 33
0.0
  0
LINE
  5
591
  8
0
  6
CONTINUOUS
 62
     7
 10
89.495276749
 20
34.4491692339
 30
0.0
 11
89.495276749
 21
24.4391442338
 31
0.0
  0
LINE
  5
592
  8
0
  6
CONTINUOUS
 62
     7
 10
119.495276749
 20
39.4491692339
 30
0.0
 11
119.495276749
 21
24.4391442338
 31
0.0
  0
LINE
  5
593
  8
0
  6
CONTINUOUS
 62
     7
 10
89.495276749
 20
25.4391442338
 30
0.0
 11
119.495276749
 21
25.4391442338
 31
0.0
  0
TEXT
  5
594
  8
0
  6
CONTINUOUS
 62
     7
 10
102.535400126
 20
26.3738116556
 30
0.0
 40
2.6458333333
  1
30
 50
360.0
 41
0.7
 11
102.535400126
 21
25.4391444085
 31
0.0
 73
     1
  0
ENDBLK
  5
58E
  8
0
  0
BLOCK
  8
0
  2
_D_23
 70
     0
 10
0.0
 20
0.0
 30
0.0
  3
_D_23
  1

  0
SOLID
  5
599
  8
0
  6
CONTINUOUS
 62
     7
 10
123.995276749
 20
18.4391442339
 30
0.0
 11
120.695276749
 21
18.9391442339
 31
0.0
 12
120.695276749
 22
17.9391442339
 32
0.0
 13
120.695276749
 23
17.9391442339
 33
0.0
  0
SOLID
  5
59A
  8
0
  6
CONTINUOUS
 62
     7
 10
89.495276749
 20
18.4391442339
 30
0.0
 11
92.795276749
 21
17.9391442339
 31
0.0
 12
92.795276749
 22
18.9391442339
 32
0.0
 13
92.795276749
 23
18.9391442339
 33
0.0
  0
LINE
  5
59B
  8
0
  6
CONTINUOUS
 62
     7
 10
123.995276749
 20
58.9991692339
 30
0.0
 11
123.995276749
 21
17.4391442339
 31
0.0
  0
LINE
  5
59C
  8
0
  6
CONTINUOUS
 62
     7
 10
89.495276749
 20
34.4491692339
 30
0.0
 11
89.495276749
 21
17.4391442339
 31
0.0
  0
LINE
  5
59D
  8
0
  6
CONTINUOUS
 62
     7
 10
123.995276749
 20
18.4391442339
 30
0.0
 11
89.495276749
 21
18.4391442339
 31
0.0
  0
TEXT
  5
59E
  8
0
  6
CONTINUOUS
 62
     7
 10
103.3154925423
 20
19.3738116556
 30
0.0
 40
2.6458333333
  1
34,5
 50
0.0
 41
0.7
 11
103.3154925423
 21
18.4391444085
 31
0.0
 73
     1
  0
ENDBLK
  5
598
  8
0
  0
BLOCK
  8
0
  2
_NONE
 70
     0
 10
0.0
 20
0.0
 30
0.0
  3
_NONE
  1

  0
ENDBLK
  5
5A3
  8
0
  0
BLOCK
  8
0
  2
_D_24
 70
     0
 10
0.0
 20
0.0
 30
0.0
  3
_D_24
  1

  0
SOLID
  5
5A7
  8
0
  6
CONTINUOUS
 62
     7
 10
133.4782549205
 20
78.9241692339
 30
0.0
 11
136.5861387529
 21
80.141156532
 31
0.0
 12
136.0861387529
 22
81.0071819357
 32
0.0
 13
136.0861387529
 23
81.0071819357
 33
0.0
  0
LINE
  5
5A8
  8
0
  6
CONTINUOUS
 62
     7
 10
133.4782549205
 20
78.9241692339
 30
0.0
 11
144.8488070532
 21
85.4889605685
 31
0.0
  0
LINE
  5
5A9
  8
0
  6
CONTINUOUS
 62
     7
 10
133.4782549205
 20
78.9241692339
 30
0.0
 11
114.5122985776
 21
67.9741692339
 31
0.0
  0
TEXT
  5
5AA
  8
0
  6
CONTINUOUS
 62
     7
 10
137.7476894645
 20
82.4548725129
 30
0.0
 40
2.6458333333
  1
%%c
 50
30.0
 41
0.7
 11
138.215023088
 21
81.6454269328
 31
0.0
 73
     1
  0
TEXT
  5
5AB
  8
0
  6
CONTINUOUS
 62
     7
 10
140.9927204351
 20
84.3283920174
 30
0.0
 40
2.6458333333
  1
22
 50
30.0
 41
0.7
 11
141.4600540587
 21
83.5189464373
 31
0.0
 73
     1
  0
ENDBLK
  5
5A6
  8
0
  0
BLOCK
  8
0
  2
SW_CENTERMARKSYMBOL_1
 70
     0
 10
0.0
 20
0.0
 30
0.0
  3
SW_CENTERMARKSYMBOL_1
  1

  0
LINE
  5
5AF
  8
0
  6
CONTINUOUS
 62
     0
 10
0.0
 20
0.0
 30
0.0
 11
0.0
 21
2.5
 31
0.0
  0
LINE
  5
5B0
  8
0
  6
CONTINUOUS
 62
     0
 10
0.0
 20
0.0
 30
0.0
 11
-2.5
 21
0.0
 31
0.0
  0
LINE
  5
5B1
  8
0
  6
CONTINUOUS
 62
     0
 10
0.0
 20
0.0
 30
0.0
 11
0.0
 21
-2.5
 31
0.0
  0
LINE
  5
5B2
  8
0
  6
CONTINUOUS
 62
     0
 10
0.0
 20
0.0
 30
0.0
 11
2.5
 21
0.0
 31
0.0
  0
LINE
  5
5B3
  8
0
  6
CONTINUOUS
 62
     0
 10
0.0
 20
5.0
 30
0.0
 11
0.0
 21
13.45
 31
0.0
  0
LINE
  5
5B4
  8
0
  6
CONTINUOUS
 62
     0
 10
-5.0
 20
0.0
 30
0.0
 11
-13.45
 21
0.0
 31
0.0
  0
LINE
  5
5B5
  8
0
  6
CONTINUOUS
 62
     0
 10
0.0
 20
-5.0
 30
0.0
 11
0.0
 21
-13.45
 31
0.0
  0
LINE
  5
5B6
  8
0
  6
CONTINUOUS
 62
     0
 10
5.0
 20
0.0
 30
0.0
 11
13.45
 21
0.0
 31
0.0
  0
ENDBLK
  5
5AE
  8
0
  0
ENDSEC
  0
SECTION
  2
ENTITIES
  0
VIEWPORT
  5
73
 67
     1
  8
0
 10
210.0
 20
148.5
 30
0.0
 40
444.36
 41
314.226
 68
     1
 69
     1
1001
ACAD
1000
MVIEW
1002
{
1070
    16
1010
0.0
1020
0.0
1030
0.0
1010
0.0
1020
0.0
1030
1.0
1040
0.0
1040
314.226
1040
210.0
1040
148.5
1040
50.0
1040
0.0
1040
0.0
1070
     0
1070
   100
1070
     0
1070
     3
1070
     0
1070
     0
1070
     0
1070
     0
1040
0.0
1040
0.0
1040
0.0
1040
10.0
1040
10.0
1040
10.0
1040
10.0
1070
     0
1002
{
1002
}
1002
}
  0
LINE
  5
77
 67
     1
  8
0
  6
CONTINUOUS
 62
     7
 10
227.8
 20
60.25
 30
0.0
 11
227.8
 21
5.0
 31
0.0
  0
LINE
  5
78
 67
     1
  8
0
  6
CONTINUOUS
 62
     7
 10
235.42
 20
43.25
 30
0.0
 11
235.42
 21
5.0
 31
0.0
  0
LINE
  5
79
 67
     1
  8
0
  6
CONTINUOUS
 62
     7
 10
260.82
 20
5.0
 30
0.0
 11
260.82
 21
43.25
 31
0.0
  0
LINE
  5
7A
 67
     1
  8
0
  6
CONTINUOUS
 62
     7
 10
410.0
 20
287.0
 30
0.0
 11
410.0
 21
60.25
 31
0.0
  0
LINE
  5
7B
 67
     1
  8
0
  6
CONTINUOUS
 62
     7
 10
281.14
 20
22.0
 30
0.0
 11
415.0
 21
22.0
 31
0.0
  0
LINE
  5
7C
 67
     1
  8
0
  6
CONTINUOUS
 62
     7
 10
415.0
 20
43.25
 30
0.0
 11
227.8
 21
43.25
 31
0.0
  0
LINE
  5
7D
 67
     1
  8
0
  6
CONTINUOUS
 62
     7
 10
227.8
 20
60.25
 30
0.0
 11
415.0
 21
60.25
 31
0.0
  0
LINE
  5
7E
 67
     1
  8
0
  6
CONTINUOUS
 62
     7
 10
281.14
 20
38.9447711707
 30
0.0
 11
227.8
 21
38.9447711707
 31
0.0
  0
LINE
  5
7F
 67
     1
  8
0
  6
CONTINUOUS
 62
     7
 10
281.14
 20
5.0
 30
0.0
 11
281.14
 21
60.25
 31
0.0
  0
LINE
  5
80
 67
     1
  8
0
  6
CONTINUOUS
 62
     7
 10
324.32
 20
60.25
 30
0.0
 11
324.32
 21
5.0
 31
0.0
  0
LINE
  5
81
 67
     1
  8
0
  6
CONTINUOUS
 62
     7
 10
273.52
 20
43.25
 30
0.0
 11
273.52
 21
5.0
 31
0.0
  0
LINE
  5
82
 67
     1
  8
0
  6
CONTINUOUS
 62
     7
 10
290.5491845626
 20
22.0
 30
0.0
 11
290.5491845626
 21
43.25
 31
0.0
  0
LINE
  5
83
 67
     1
  8
0
  6
CONTINUOUS
 62
     7
 10
281.14
 20
13.5
 30
0.0
 11
227.8
 21
13.5
 31
0.0
  0
LINE
  5
84
 67
     1
  8
0
  6
CONTINUOUS
 62
     7
 10
306.6969257405
 20
43.25
 30
0.0
 11
306.6969257405
 21
22.0
 31
0.0
  0
LINE
  5
85
 67
     1
  8
0
  6
CONTINUOUS
 62
     7
 10
368.48
 20
5.0
 30
0.0
 11
368.48
 21
9.25
 31
0.0
  0
LINE
  5
86
 67
     1
  8
0
  6
CONTINUOUS
 62
     7
 10
376.28
 20
53.875
 30
0.0
 11
376.28
 21
60.25
 31
0.0
  0
LINE
  5
87
 67
     1
  8
0
  6
CONTINUOUS
 62
     7
 10
227.8
 20
9.23
 30
0.0
 11
281.14
 21
9.23
 31
0.0
  0
LINE
  5
88
 67
     1
  8
0
  6
CONTINUOUS
 62
     7
 10
399.68
 20
9.25
 30
0.0
 11
399.68
 21
22.0
 31
0.0
  0
LINE
  5
89
 67
     1
  8
0
  6
CONTINUOUS
 62
     7
 10
415.0
 20
53.875
 30
0.0
 11
324.32
 21
53.875
 31
0.0
  0
LINE
  5
8A
 67
     1
  8
0
  6
CONTINUOUS
 62
     7
 10
415.0
 20
5.0
 30
0.0
 11
415.0
 21
60.25
 31
0.0
  0
LINE
  5
8B
 67
     1
  8
0
  6
CONTINUOUS
 62
     7
 10
227.8
 20
5.0
 30
0.0
 11
415.0
 21
5.0
 31
0.0
  0
LINE
  5
8C
 67
     1
  8
0
  6
CONTINUOUS
 62
     7
 10
281.14
 20
17.75
 30
0.0
 11
227.8
 21
17.75
 31
0.0
  0
LINE
  5
8D
 67
     1
  8
0
  6
CONTINUOUS
 62
     7
 10
281.14
 20
22.0
 30
0.0
 11
227.8
 21
22.0
 31
0.0
  0
LINE
  5
8E
 67
     1
  8
0
  6
CONTINUOUS
 62
     7
 10
324.32
 20
26.25
 30
0.0
 11
227.8
 21
26.25
 31
0.0
  0
LINE
  5
8F
 67
     1
  8
0
  6
CONTINUOUS
 62
     7
 10
324.32
 20
30.5
 30
0.0
 11
227.8
 21
30.5
 31
0.0
  0
LINE
  5
90
 67
     1
  8
0
  6
CONTINUOUS
 62
     7
 10
324.32
 20
34.75
 30
0.0
 11
227.8
 21
34.75
 31
0.0
  0
LINE
  5
91
 67
     1
  8
0
  6
CONTINUOUS
 62
     7
 10
324.32
 20
38.9447711707
 30
0.0
 11
281.14
 21
38.9447711707
 31
0.0
  0
LINE
  5
92
 67
     1
  8
0
  6
CONTINUOUS
 62
     7
 10
415.0
 20
13.5
 30
0.0
 11
399.68
 21
13.5
 31
0.0
  0
LINE
  5
93
 67
     1
  8
0
  6
CONTINUOUS
 62
     7
 10
324.32
 20
9.23
 30
0.0
 11
415.0
 21
9.23
 31
0.0
  0
LINE
  5
94
 67
     1
  8
0
  6
CONTINUOUS
 62
     7
 10
222.8
 20
5.0
 30
0.0
 11
227.8
 21
5.0
 31
0.0
  0
LINE
  5
95
 67
     1
  8
0
  6
CONTINUOUS
 62
     7
 10
415.0
 20
292.0
 30
0.0
 11
5.0
 21
292.0
 31
0.0
  0
LINE
  5
96
 67
     1
  8
0
  6
CONTINUOUS
 62
     7
 10
410.0
 20
287.0
 30
0.0
 11
10.0
 21
287.0
 31
0.0
  0
LINE
  5
97
 67
     1
  8
0
  6
CONTINUOUS
 62
     7
 10
5.0
 20
292.0
 30
0.0
 11
5.0
 21
5.0
 31
0.0
  0
LINE
  5
98
 67
     1
  8
0
  6
CONTINUOUS
 62
     7
 10
10.0
 20
287.0
 30
0.0
 11
10.0
 21
10.0
 31
0.0
  0
LINE
  5
99
 67
     1
  8
0
  6
CONTINUOUS
 62
     7
 10
10.0
 20
48.5
 30
0.0
 11
5.0
 21
48.5
 31
0.0
  0
LINE
  5
9A
 67
     1
  8
0
  6
CONTINUOUS
 62
     7
 10
5.0
 20
98.5
 30
0.0
 11
10.0
 21
98.5
 31
0.0
  0
LINE
  5
9B
 67
     1
  8
0
  6
CONTINUOUS
 62
     7
 10
5.0
 20
198.5
 30
0.0
 11
10.0
 21
198.5
 31
0.0
  0
LINE
  5
9C
 67
     1
  8
0
  6
CONTINUOUS
 62
     7
 10
5.0
 20
148.5
 30
0.0
 11
15.0
 21
148.5
 31
0.0
  0
LINE
  5
9D
 67
     1
  8
0
  6
CONTINUOUS
 62
     7
 10
5.0
 20
5.0
 30
0.0
 11
227.8
 21
5.0
 31
0.0
  0
LINE
  5
9E
 67
     1
  8
0
  6
CONTINUOUS
 62
     7
 10
10.0
 20
10.0
 30
0.0
 11
227.8
 21
10.0
 31
0.0
  0
LINE
  5
9F
 67
     1
  8
0
  6
CONTINUOUS
 62
     7
 10
60.0
 20
5.0
 30
0.0
 11
60.0
 21
10.0
 31
0.0
  0
LINE
  5
A0
 67
     1
  8
0
  6
CONTINUOUS
 62
     7
 10
110.0
 20
10.0
 30
0.0
 11
110.0
 21
5.0
 31
0.0
  0
LINE
  5
A1
 67
     1
  8
0
  6
CONTINUOUS
 62
     7
 10
160.0
 20
5.0
 30
0.0
 11
160.0
 21
10.0
 31
0.0
  0
LINE
  5
A2
 67
     1
  8
0
  6
CONTINUOUS
 62
     7
 10
10.0
 20
248.5
 30
0.0
 11
5.0
 21
248.5
 31
0.0
  0
LINE
  5
A3
 67
     1
  8
0
  6
CONTINUOUS
 62
     7
 10
60.0
 20
287.0
 30
0.0
 11
60.0
 21
292.0
 31
0.0
  0
LINE
  5
A4
 67
     1
  8
0
  6
CONTINUOUS
 62
     7
 10
110.0
 20
292.0
 30
0.0
 11
110.0
 21
287.0
 31
0.0
  0
LINE
  5
A5
 67
     1
  8
0
  6
CONTINUOUS
 62
     7
 10
160.0
 20
287.0
 30
0.0
 11
160.0
 21
292.0
 31
0.0
  0
LINE
  5
A6
 67
     1
  8
0
  6
CONTINUOUS
 62
     7
 10
260.0
 20
287.0
 30
0.0
 11
260.0
 21
292.0
 31
0.0
  0
LINE
  5
A7
 67
     1
  8
0
  6
CONTINUOUS
 62
     7
 10
415.0
 20
60.25
 30
0.0
 11
415.0
 21
292.0
 31
0.0
  0
LINE
  5
A8
 67
     1
  8
0
  6
CONTINUOUS
 62
     7
 10
210.0
 20
5.0
 30
0.0
 11
210.0
 21
15.0
 31
0.0
  0
LINE
  5
A9
 67
     1
  8
0
  6
CONTINUOUS
 62
     7
 10
410.0
 20
198.5
 30
0.0
 11
415.0
 21
198.5
 31
0.0
  0
LINE
  5
AA
 67
     1
  8
0
  6
CONTINUOUS
 62
     7
 10
410.0
 20
98.5
 30
0.0
 11
415.0
 21
98.5
 31
0.0
  0
LINE
  5
AB
 67
     1
  8
0
  6
CONTINUOUS
 62
     7
 10
415.0
 20
148.5
 30
0.0
 11
405.0
 21
148.5
 31
0.0
  0
LINE
  5
AC
 67
     1
  8
0
  6
CONTINUOUS
 62
     7
 10
310.0
 20
292.0
 30
0.0
 11
310.0
 21
287.0
 31
0.0
  0
LINE
  5
AD
 67
     1
  8
0
  6
CONTINUOUS
 62
     7
 10
360.0
 20
287.0
 30
0.0
 11
360.0
 21
292.0
 31
0.0
  0
LINE
  5
AE
 67
     1
  8
0
  6
CONTINUOUS
 62
     7
 10
210.0
 20
292.0
 30
0.0
 11
210.0
 21
282.0
 31
0.0
  0
LINE
  5
AF
 67
     1
  8
0
  6
CONTINUOUS
 62
     7
 10
415.0
 20
248.5
 30
0.0
 11
410.0
 21
248.5
 31
0.0
  0
TEXT
  5
B0
 67
     1
  8
0
  6
CONTINUOUS
 62
     7
 10
292.3135229667
 20
35.8622859183
 30
0.0
 40
2.1166666667
  1
11.03.22
 41
0.7
 11
292.3135229667
 21
35.1145521205
 31
0.0
 73
     1
  0
TEXT
  5
B1
 67
     1
  8
0
  6
CONTINUOUS
 62
     7
 10
308.5002993218
 20
35.8622859183
 30
0.0
 40
2.1166666667
  1
Bachmann
 41
0.7
 11
308.5002993218
 21
35.1145521205
 31
0.0
 73
     1
  0
INSERT
  5
B7
 67
     1
  8
0
  6
CONTINUOUS
 62
     7
  2
SW_NOTE_0
 10
326.3079477367
 20
31.3885096083
 30
0.0
  0
TEXT
  5
B8
 67
     1
  8
0
  6
CONTINUOUS
 62
     7
 10
6.6666666667
 20
122.9348266002
 30
0.0
 40
1.8520833333
  1
D
 41
0.7
 11
6.6666666667
 21
122.2805595272
 31
0.0
 73
     1
  0
TEXT
  5
B9
 67
     1
  8
0
  6
CONTINUOUS
 62
     7
 10
6.6666666667
 20
72.9348266002
 30
0.0
 40
1.8520833333
  1
E
 41
0.7
 11
6.6666666667
 21
72.2805595272
 31
0.0
 73
     1
  0
TEXT
  5
BA
 67
     1
  8
0
  6
CONTINUOUS
 62
     7
 10
6.6666666667
 20
22.9348266002
 30
0.0
 40
1.8520833333
  1
F
 41
0.7
 11
6.6666666667
 21
22.2805595272
 31
0.0
 73
     1
  0
TEXT
  5
BB
 67
     1
  8
0
  6
CONTINUOUS
 62
     7
 10
6.6666666667
 20
172.9348266002
 30
0.0
 40
1.8520833333
  1
C
 41
0.7
 11
6.6666666667
 21
172.2805595272
 31
0.0
 73
     1
  0
TEXT
  5
BC
 67
     1
  8
0
  6
CONTINUOUS
 62
     7
 10
34.5833333333
 20
6.9348306002
 30
0.0
 40
1.8520833333
  1
1
 41
0.7
 11
34.5833333333
 21
6.2805635272
 31
0.0
 73
     1
  0
TEXT
  5
BD
 67
     1
  8
0
  6
CONTINUOUS
 62
     7
 10
84.1666666667
 20
6.9348306002
 30
0.0
 40
1.8520833333
  1
2
 41
0.7
 11
84.1666666667
 21
6.2805635272
 31
0.0
 73
     1
  0
TEXT
  5
BE
 67
     1
  8
0
  6
CONTINUOUS
 62
     7
 10
134.1666666667
 20
6.9348306002
 30
0.0
 40
1.8520833333
  1
3
 41
0.7
 11
134.1666666667
 21
6.2805635272
 31
0.0
 73
     1
  0
TEXT
  5
BF
 67
     1
  8
0
  6
CONTINUOUS
 62
     7
 10
184.1666666667
 20
6.9348306002
 30
0.0
 40
1.8520833333
  1
4
 41
0.7
 11
184.1666666667
 21
6.2805635272
 31
0.0
 73
     1
  0
TEXT
  5
C0
 67
     1
  8
0
  6
CONTINUOUS
 62
     7
 10
6.6666666667
 20
222.9348266002
 30
0.0
 40
1.8520833333
  1
B
 41
0.7
 11
6.6666666667
 21
222.2805595272
 31
0.0
 73
     1
  0
TEXT
  5
C1
 67
     1
  8
0
  6
CONTINUOUS
 62
     7
 10
6.6666666667
 20
272.9348266002
 30
0.0
 40
1.8520833333
  1
A
 41
0.7
 11
6.6666666667
 21
272.2805595272
 31
0.0
 73
     1
  0
TEXT
  5
C2
 67
     1
  8
0
  6
CONTINUOUS
 62
     7
 10
134.1666666667
 20
288.9348306002
 30
0.0
 40
1.8520833333
  1
3
 41
0.7
 11
134.1666666667
 21
288.2805635272
 31
0.0
 73
     1
  0
TEXT
  5
C3
 67
     1
  8
0
  6
CONTINUOUS
 62
     7
 10
84.1666666667
 20
288.9348306002
 30
0.0
 40
1.8520833333
  1
2
 41
0.7
 11
84.1666666667
 21
288.2805635272
 31
0.0
 73
     1
  0
TEXT
  5
C4
 67
     1
  8
0
  6
CONTINUOUS
 62
     7
 10
34.5833333333
 20
288.9348306002
 30
0.0
 40
1.8520833333
  1
1
 41
0.7
 11
34.5833333333
 21
288.2805635272
 31
0.0
 73
     1
  0
TEXT
  5
C5
 67
     1
  8
0
  6
CONTINUOUS
 62
     7
 10
234.1666666667
 20
288.9348306002
 30
0.0
 40
1.8520833333
  1
5
 41
0.7
 11
234.1666666667
 21
288.2805635272
 31
0.0
 73
     1
  0
TEXT
  5
C6
 67
     1
  8
0
  6
CONTINUOUS
 62
     7
 10
411.6666666667
 20
172.9348266002
 30
0.0
 40
1.8520833333
  1
C
 41
0.7
 11
411.6666666667
 21
172.2805595272
 31
0.0
 73
     1
  0
TEXT
  5
C7
 67
     1
  8
0
  6
CONTINUOUS
 62
     7
 10
411.6666666667
 20
122.9348266002
 30
0.0
 40
1.8520833333
  1
D
 41
0.7
 11
411.6666666667
 21
122.2805595272
 31
0.0
 73
     1
  0
TEXT
  5
C8
 67
     1
  8
0
  6
CONTINUOUS
 62
     7
 10
184.1666666667
 20
288.9348306002
 30
0.0
 40
1.8520833333
  1
4
 41
0.7
 11
184.1666666667
 21
288.2805635272
 31
0.0
 73
     1
  0
TEXT
  5
C9
 67
     1
  8
0
  6
CONTINUOUS
 62
     7
 10
284.1666666667
 20
288.9348306002
 30
0.0
 40
1.8520833333
  1
6
 41
0.7
 11
284.1666666667
 21
288.2805635272
 31
0.0
 73
     1
  0
TEXT
  5
CA
 67
     1
  8
0
  6
CONTINUOUS
 62
     7
 10
334.1666666667
 20
288.9348306002
 30
0.0
 40
1.8520833333
  1
7
 41
0.7
 11
334.1666666667
 21
288.2805635272
 31
0.0
 73
     1
  0
TEXT
  5
CB
 67
     1
  8
0
  6
CONTINUOUS
 62
     7
 10
384.1666666667
 20
288.9348306002
 30
0.0
 40
1.8520833333
  1
8
 41
0.7
 11
384.1666666667
 21
288.2805635272
 31
0.0
 73
     1
  0
TEXT
  5
CC
 67
     1
  8
0
  6
CONTINUOUS
 62
     7
 10
411.6666666667
 20
272.9348266002
 30
0.0
 40
1.8520833333
  1
A
 41
0.7
 11
411.6666666667
 21
272.2805595272
 31
0.0
 73
     1
  0
TEXT
  5
CD
 67
     1
  8
0
  6
CONTINUOUS
 62
     7
 10
411.6666666667
 20
222.9348266002
 30
0.0
 40
1.8520833333
  1
B
 41
0.7
 11
411.6666666667
 21
222.2805595272
 31
0.0
 73
     1
  0
TEXT
  5
CE
 67
     1
  8
0
  6
CONTINUOUS
 62
     7
 10
228.6542475233
 20
5.8405442472
 30
0.0
 40
2.0
  1
Zust.
 41
0.7
 11
228.6542475233
 21
5.1340241233
 31
0.0
 73
     1
  0
TEXT
  5
CF
 67
     1
  8
0
  6
CONTINUOUS
 62
     7
 10
242.3236265502
 20
5.8405442472
 30
0.0
 40
2.0
  1
Änderung
 41
0.7
 11
242.3236265502
 21
5.1340241233
 31
0.0
 73
     1
  0
TEXT
  5
D0
 67
     1
  8
0
  6
CONTINUOUS
 62
     7
 10
273.7487245318
 20
5.8293213552
 30
0.0
 40
2.0
  1
Name
 41
0.7
 11
273.7487245318
 21
5.1228012314
 31
0.0
 73
     1
  0
TEXT
  5
D1
 67
     1
  8
0
  6
CONTINUOUS
 62
     7
 10
281.9346052427
 20
36.0024961334
 30
0.0
 40
2.0
  1
Bearb.
 41
0.7
 11
281.9346052427
 21
35.2959760096
 31
0.0
 73
     1
  0
TEXT
  5
D2
 67
     1
  8
0
  6
CONTINUOUS
 62
     7
 10
282.5538425523
 20
31.8123005822
 30
0.0
 40
2.0
  1
Gepr.
 41
0.7
 11
282.5538425523
 21
31.1057804584
 31
0.0
 73
     1
  0
TEXT
  5
D3
 67
     1
  8
0
  6
CONTINUOUS
 62
     7
 10
282.568021583
 20
27.5024931334
 30
0.0
 40
2.0
  1
Norm
 41
0.7
 11
282.568021583
 21
26.7959730096
 31
0.0
 73
     1
  0
INSERT
  5
D9
 67
     1
  8
0
  6
CONTINUOUS
 62
     7
  2
SW_NOTE_0_1
 10
326.1421941634
 20
54.7004161895
 30
0.0
  0
TEXT
  5
DA
 67
     1
  8
0
  6
CONTINUOUS
 62
     7
 10
293.8208978724
 20
40.2378571451
 30
0.0
 40
2.0
  1
Datum
 41
0.7
 11
293.8208978724
 21
39.5313370213
 31
0.0
 73
     1
  0
TEXT
  5
DB
 67
     1
  8
0
  6
CONTINUOUS
 62
     7
 10
310.9758605414
 20
40.2399684874
 30
0.0
 40
2.0
  1
Name
 41
0.7
 11
310.9758605414
 21
39.5334483635
 31
0.0
 73
     1
  0
TEXT
  5
DC
 67
     1
  8
0
  6
CONTINUOUS
 62
     7
 10
400.679992
 20
18.8834825574
 30
0.0
 40
2.5
  1
Blatt
 41
0.7
 11
400.679992
 21
18.0003324026
 31
0.0
 73
     1
  0
TEXT
  5
DD
 67
     1
  8
0
  6
CONTINUOUS
 62
     7
 10
401.6114022462
 20
14.9434680153
 30
0.0
 40
2.0
  1
1 (A3)
 41
0.7
 11
401.6114022462
 21
14.2369478915
 31
0.0
 73
     1
  0
TEXT
  5
DE
 67
     1
  8
0
  6
CONTINUOUS
 62
     7
 10
401.6114022462
 20
10.7163935227
 30
0.0
 40
2.0
  1
1 von 1
 41
0.6
 11
401.6114022462
 21
10.0098733989
 31
0.0
 73
     1
  0
TEXT
  5
DF
 67
     1
  8
0
  6
CONTINUOUS
 62
     7
 10
325.769379396
 20
6.0126746831
 30
0.0
 40
2.0
  1
Ers. für:
 41
0.7
 11
325.769379396
 21
5.3061545592
 31
0.0
 73
     1
  0
TEXT
  5
E0
 67
     1
  8
0
  6
CONTINUOUS
 62
     7
 10
369.3744127484
 20
6.1456631557
 30
0.0
 40
2.0
  1
Ers. durch: 
 41
0.6416666667
 11
369.3744127484
 21
5.4391430318
 31
0.0
 73
     1
  0
TEXT
  5
E1
 67
     1
  8
0
  6
CONTINUOUS
 62
     7
 10
325.8260642912
 20
38.8860690348
 30
0.0
 40
2.5
  1
Benennung:
 41
0.7
 11
325.8260642912
 21
38.00291888
 31
0.0
 73
     1
  0
TEXT
  5
E2
 67
     1
  8
0
  6
CONTINUOUS
 62
     7
 10
326.3720674831
 20
17.4450861174
 30
0.0
 40
2.5
  1
ZEICHNUNGSNR.   
 41
0.634375
 11
326.3720674831
 21
16.5619359626
 31
0.0
 73
     1
  0
TEXT
  5
E3
 67
     1
  8
0
  6
CONTINUOUS
 62
     7
 10
326.4245832263
 20
11.7244404863
 30
0.0
 40
2.5
  1
TEILENUMMER   
 41
0.625
 11
326.4245832263
 21
10.8412903315
 31
0.0
 73
     1
  0
TEXT
  5
E4
 67
     1
  8
0
  6
CONTINUOUS
 62
     7
 10
263.2346620132
 20
5.8293213552
 30
0.0
 40
2.0
  1
Datum
 41
0.7
 11
263.2346620132
 21
5.1228012314
 31
0.0
 73
     1
  0
INSERT
  5
EC
 67
     1
  8
0
  6
CONTINUOUS
 62
     7
  2
SW_NOTE_0_2
 10
290.4226877706
 20
16.7269093507
 30
0.0
  0
INSERT
  5
F6
 67
     1
  8
0
  6
CONTINUOUS
 62
     7
  2
SW_NOTE_0_3
 10
230.3638616607
 20
56.9426173561
 30
0.0
  0
TEXT
  5
F7
 67
     1
  8
0
  6
CONTINUOUS
 62
     7
 10
380.8494930471
 20
55.6933776061
 30
0.0
 40
3.5
  1
ISO2768-m-K
 41
0.7
 11
380.8494930471
 21
54.4569673894
 31
0.0
 73
     1
  0
TEXT
  5
F8
 67
     1
  8
0
  6
CONTINUOUS
 62
     7
 10
326.1548865668
 20
50.1794325104
 30
0.0
 40
2.5
  1
Material:
 41
0.7
 11
326.1548865668
 21
49.2962823556
 31
0.0
 73
     1
  0
LINE
  5
F9
 67
     1
  8
0
  6
CONTINUOUS
 62
     7
 10
347.3961940811
 20
447.1960307514
 30
0.0
 11
347.3961940811
 21
447.4960307514
 31
0.0
  0
LINE
  5
FA
 67
     1
  8
0
  6
CONTINUOUS
 62
     7
 10
329.8961940811
 20
447.4960307514
 30
0.0
 11
329.8961940811
 21
447.1960307514
 31
0.0
  0
ARC
  5
FB
 67
     1
  8
0
  6
CONTINUOUS
 62
     7
 10
330.0961940811
 20
447.1960307514
 30
0.0
 40
0.1999999999999886
 50
180.0
 51
270.0
  0
ARC
  5
FC
 67
     1
  8
0
  6
CONTINUOUS
 62
     7
 10
347.1961940811
 20
447.1960307514
 30
0.0
 40
0.2000000000000455
 50
270.0
 51
360.0
  0
ARC
  5
FD
 67
     1
  8
0
  6
CONTINUOUS
 62
     7
 10
330.0961940811
 20
526.2960307514
 30
0.0
 40
0.1999999999999318
 50
90.0
 51
180.0
  0
ARC
  5
FE
 67
     1
  8
0
  6
CONTINUOUS
 62
     7
 10
347.1961940811
 20
526.2960307514
 30
0.0
 40
0.1999999999999886
 50
0.0
 51
90.0
  0
LINE
  5
FF
 67
     1
  8
0
  6
CONTINUOUS
 62
     7
 10
347.3961940811
 20
525.9960307514
 30
0.0
 11
347.3961940811
 21
526.2960307514
 31
0.0
  0
LINE
  5
100
 67
     1
  8
0
  6
CONTINUOUS
 62
     7
 10
329.8961940811
 20
526.2960307514
 30
0.0
 11
329.8961940811
 21
525.9960307514
 31
0.0
  0
LINE
  5
101
 67
     1
  8
0
  6
CONTINUOUS
 62
     7
 10
334.1461940811
 20
527.0460307514
 30
0.0
 11
334.1461940811
 21
526.4960307514
 31
0.0
  0
LINE
  5
102
 67
     1
  8
0
  6
CONTINUOUS
 62
     7
 10
334.1461940811
 20
446.9960307514
 30
0.0
 11
334.1461940811
 21
446.4460307514
 31
0.0
  0
LINE
  5
103
 67
     1
  8
0
  6
CONTINUOUS
 62
     7
 10
343.1461940811
 20
446.4460307514
 30
0.0
 11
343.1461940811
 21
446.9960307514
 31
0.0
  0
LINE
  5
104
 67
     1
  8
0
  6
CONTINUOUS
 62
     7
 10
343.1461940811
 20
526.4960307514
 30
0.0
 11
343.1461940811
 21
527.0460307514
 31
0.0
  0
LINE
  5
105
 67
     1
  8
0
  6
CONTINUOUS
 62
     7
 10
349.5961940811
 20
447.4960307514
 30
0.0
 11
349.5961940811
 21
525.9960307514
 31
0.0
  0
LINE
  5
106
 67
     1
  8
0
  6
CONTINUOUS
 62
     7
 10
349.5961940811
 20
406.5960307514
 30
0.0
 11
349.5961940811
 21
446.4460307514
 31
0.0
  0
LINE
  5
107
 67
     1
  8
0
  6
CONTINUOUS
 62
     7
 10
327.6961940811
 20
446.4460307514
 30
0.0
 11
327.6961940811
 21
406.5960307514
 31
0.0
  0
LINE
  5
108
 67
     1
  8
0
  6
CONTINUOUS
 62
     7
 10
349.5961940811
 20
527.0460307514
 30
0.0
 11
349.5961940811
 21
566.8960307514
 31
0.0
  0
LINE
  5
109
 67
     1
  8
0
  6
CONTINUOUS
 62
     7
 10
327.6961940811
 20
566.8960307514
 30
0.0
 11
327.6961940811
 21
527.0460307514
 31
0.0
  0
LINE
  5
10A
 67
     1
  8
0
  6
CONTINUOUS
 62
     7
 10
325.6461940811
 20
336.7460307514
 30
0.0
 11
325.6461940811
 21
636.7460307514
 31
0.0
  0
LINE
  5
10B
 67
     1
  8
0
  6
CONTINUOUS
 62
     7
 10
325.6461940811
 20
336.7460307514
 30
0.0
 11
225.6461940811
 21
336.7460307514
 31
0.0
  0
LINE
  5
10C
 67
     1
  8
0
  6
CONTINUOUS
 62
     7
 10
225.6461940811
 20
336.7460307514
 30
0.0
 11
225.6461940811
 21
636.7460307514
 31
0.0
  0
LINE
  5
10D
 67
     1
  8
0
  6
CONTINUOUS
 62
     7
 10
325.6461940811
 20
636.7460307514
 30
0.0
 11
225.6461940811
 21
636.7460307514
 31
0.0
  0
LINE
  5
10E
 67
     1
  8
0
  6
CONTINUOUS
 62
     7
 10
369.1461940811
 20
636.7460307514
 30
0.0
 11
325.6461940811
 21
636.7460307514
 31
0.0
  0
LINE
  5
10F
 67
     1
  8
0
  6
CONTINUOUS
 62
     7
 10
369.1461940811
 20
336.7460307514
 30
0.0
 11
369.1461940811
 21
636.7460307514
 31
0.0
  0
LINE
  5
110
 67
     1
  8
0
  6
CONTINUOUS
 62
     7
 10
369.1461940811
 20
336.7460307514
 30
0.0
 11
325.6461940811
 21
336.7460307514
 31
0.0
  0
LINE
  5
111
 67
     1
  8
0
  6
CONTINUOUS
 62
     7
 10
326.6461940811
 20
446.4460307514
 30
0.0
 11
326.6461940811
 21
447.4960307514
 31
0.0
  0
LINE
  5
112
 67
     1
  8
0
  6
CONTINUOUS
 62
     7
 10
326.6461940811
 20
525.9960307514
 30
0.0
 11
326.6461940811
 21
527.0460307514
 31
0.0
  0
LINE
  5
113
 67
     1
  8
0
  6
CONTINUOUS
 62
     7
 10
330.6461940811
 20
446.4460307514
 30
0.0
 11
330.6461940811
 21
446.9960307514
 31
0.0
  0
LINE
  5
114
 67
     1
  8
0
  6
CONTINUOUS
 62
     7
 10
330.6461940811
 20
526.4960307514
 30
0.0
 11
330.6461940811
 21
527.0460307514
 31
0.0
  0
LINE
  5
115
 67
     1
  8
0
  6
CONTINUOUS
 62
     7
 10
332.6461940811
 20
446.4460307514
 30
0.0
 11
332.6461940811
 21
446.9960307514
 31
0.0
  0
LINE
  5
116
 67
     1
  8
0
  6
CONTINUOUS
 62
     7
 10
332.6461940811
 20
526.4960307514
 30
0.0
 11
332.6461940811
 21
527.0460307514
 31
0.0
  0
LINE
  5
117
 67
     1
  8
0
  6
CONTINUOUS
 62
     7
 10
333.1461940811
 20
446.4460307514
 30
0.0
 11
333.1461940811
 21
446.9960307514
 31
0.0
  0
LINE
  5
118
 67
     1
  8
0
  6
CONTINUOUS
 62
     7
 10
333.1461940811
 20
526.4960307514
 30
0.0
 11
333.1461940811
 21
527.0460307514
 31
0.0
  0
LINE
  5
119
 67
     1
  8
0
  6
CONTINUOUS
 62
     7
 10
347.1961940811
 20
446.9960307514
 30
0.0
 11
330.0961940811
 21
446.9960307514
 31
0.0
  0
LINE
  5
11A
 67
     1
  8
0
  6
CONTINUOUS
 62
     7
 10
330.8540888029
 20
526.4960307514
 30
0.0
 11
347.1961940811
 21
526.4960307514
 31
0.0
  0
LINE
  5
11B
 67
     1
  8
0
  6
CONTINUOUS
 62
     7
 10
330.0961940811
 20
526.4960307514
 30
0.0
 11
330.8540888029
 21
526.4960307514
 31
0.0
  0
LINE
  5
11C
 67
     1
  8
0
  6
CONTINUOUS
 62
     7
 10
327.7358998627
 20
525.9960307514
 30
0.0
 11
327.7358998627
 21
447.4960307514
 31
0.0
  0
LINE
  5
11D
 67
     1
  8
0
  6
CONTINUOUS
 62
     7
 10
327.7358998627
 20
447.4960307514
 30
0.0
 11
349.5961940811
 21
447.4960307514
 31
0.0
  0
LINE
  5
11E
 67
     1
  8
0
  6
CONTINUOUS
 62
     7
 10
349.5961940811
 20
525.9960307514
 30
0.0
 11
327.7358998627
 21
525.9960307514
 31
0.0
  0
LINE
  5
11F
 67
     1
  8
0
  6
CONTINUOUS
 62
     7
 10
326.6643245749
 20
525.9960307514
 30
0.0
 11
326.6643245749
 21
447.4960307514
 31
0.0
  0
LINE
  5
120
 67
     1
  8
0
  6
CONTINUOUS
 62
     7
 10
327.7358998627
 20
525.9960307514
 30
0.0
 11
326.6643245749
 21
525.9960307514
 31
0.0
  0
LINE
  5
121
 67
     1
  8
0
  6
CONTINUOUS
 62
     7
 10
327.7358998627
 20
447.4960307514
 30
0.0
 11
326.6643245749
 21
447.4960307514
 31
0.0
  0
LINE
  5
122
 67
     1
  8
0
  6
CONTINUOUS
 62
     7
 10
326.6461940811
 20
525.9960307514
 30
0.0
 11
326.6461940811
 21
447.4960307514
 31
0.0
  0
LINE
  5
123
 67
     1
  8
0
  6
CONTINUOUS
 62
     7
 10
326.6643245749
 20
525.9960307514
 30
0.0
 11
326.6461940811
 21
525.9960307514
 31
0.0
  0
LINE
  5
124
 67
     1
  8
0
  6
CONTINUOUS
 62
     7
 10
326.6461940811
 20
447.4960307514
 30
0.0
 11
326.6643245749
 21
447.4960307514
 31
0.0
  0
LINE
  5
125
 67
     1
  8
0
  6
CONTINUOUS
 62
     7
 10
349.5961940811
 20
446.4460307514
 30
0.0
 11
327.6961940811
 21
446.4460307514
 31
0.0
  0
LINE
  5
126
 67
     1
  8
0
  6
CONTINUOUS
 62
     7
 10
327.6961940811
 20
406.5960307514
 30
0.0
 11
349.5961940811
 21
406.5960307514
 31
0.0
  0
LINE
  5
127
 67
     1
  8
0
  6
CONTINUOUS
 62
     7
 10
327.6961940811
 20
527.0460307514
 30
0.0
 11
349.5961940811
 21
527.0460307514
 31
0.0
  0
LINE
  5
128
 67
     1
  8
0
  6
CONTINUOUS
 62
     7
 10
349.5961940811
 20
566.8960307514
 30
0.0
 11
327.6961940811
 21
566.8960307514
 31
0.0
  0
LINE
  5
129
 67
     1
  8
0
  6
CONTINUOUS
 62
     7
 10
326.2575950258
 20
566.8960307514
 30
0.0
 11
327.171914766
 21
566.8960307514
 31
0.0
  0
LINE
  5
12A
 67
     1
  8
0
  6
CONTINUOUS
 62
     7
 10
327.171914766
 20
527.0460307514
 30
0.0
 11
327.171914766
 21
566.8960307514
 31
0.0
  0
LINE
  5
12B
 67
     1
  8
0
  6
CONTINUOUS
 62
     7
 10
327.171914766
 20
527.0460307514
 30
0.0
 11
326.1081556912
 21
527.0460307514
 31
0.0
  0
LINE
  5
12C
 67
     1
  8
0
  6
CONTINUOUS
 62
     7
 10
326.1081556912
 20
527.0460307514
 30
0.0
 11
326.1081556912
 21
553.7460307514
 31
0.0
  0
LINE
  5
12D
 67
     1
  8
0
  6
CONTINUOUS
 62
     7
 10
326.2575950258
 20
553.7460307514
 30
0.0
 11
326.1081556912
 21
553.7460307514
 31
0.0
  0
LINE
  5
12E
 67
     1
  8
0
  6
CONTINUOUS
 62
     7
 10
326.2575950258
 20
553.7460307514
 30
0.0
 11
326.2575950258
 21
566.8960307514
 31
0.0
  0
LINE
  5
12F
 67
     1
  8
0
  6
CONTINUOUS
 62
     7
 10
326.1081556912
 20
446.4460307514
 30
0.0
 11
327.171914766
 21
446.4460307514
 31
0.0
  0
LINE
  5
130
 67
     1
  8
0
  6
CONTINUOUS
 62
     7
 10
327.171914766
 20
406.5960307514
 30
0.0
 11
327.171914766
 21
446.4460307514
 31
0.0
  0
LINE
  5
131
 67
     1
  8
0
  6
CONTINUOUS
 62
     7
 10
327.171914766
 20
406.5960307514
 30
0.0
 11
326.2575950258
 21
406.5960307514
 31
0.0
  0
LINE
  5
132
 67
     1
  8
0
  6
CONTINUOUS
 62
     7
 10
326.2575950258
 20
406.5960307514
 30
0.0
 11
326.2575950258
 21
419.7460307514
 31
0.0
  0
LINE
  5
133
 67
     1
  8
0
  6
CONTINUOUS
 62
     7
 10
326.1081556912
 20
419.7460307514
 30
0.0
 11
326.2575950258
 21
419.7460307514
 31
0.0
  0
LINE
  5
134
 67
     1
  8
0
  6
CONTINUOUS
 62
     7
 10
326.1081556912
 20
419.7460307514
 30
0.0
 11
326.1081556912
 21
446.4460307514
 31
0.0
  0
LINE
  5
135
 67
     1
  8
0
  6
CONTINUOUS
 62
     7
 10
326.1081556912
 20
527.0460307514
 30
0.0
 11
325.6461940811
 21
527.0460307514
 31
0.0
  0
LINE
  5
136
 67
     1
  8
0
  6
CONTINUOUS
 62
     7
 10
325.6461940811
 20
446.4460307514
 30
0.0
 11
326.1081556912
 21
446.4460307514
 31
0.0
  0
LINE
  5
137
 67
     1
  8
0
  6
CONTINUOUS
 62
     7
 10
325.6461940811
 20
419.7460307514
 30
0.0
 11
326.1081556912
 21
419.7460307514
 31
0.0
  0
LINE
  5
138
 67
     1
  8
0
  6
CONTINUOUS
 62
     7
 10
326.1081556912
 20
553.7460307514
 30
0.0
 11
325.6461940811
 21
553.7460307514
 31
0.0
  0
LINE
  5
139
 67
     1
  8
0
  6
CONTINUOUS
 62
     7
 10
326.1081556912
 20
553.7460307514
 30
0.0
 11
326.1081556912
 21
558.7460307514
 31
0.0
  0
LINE
  5
13A
 67
     1
  8
0
  6
CONTINUOUS
 62
     7
 10
326.1081556912
 20
558.7460307514
 30
0.0
 11
326.2127632254
 21
558.7460307514
 31
0.0
  0
LINE
  5
13B
 67
     1
  8
0
  6
CONTINUOUS
 62
     7
 10
326.2127632254
 20
558.7460307514
 30
0.0
 11
326.2575950258
 21
553.7460307514
 31
0.0
  0
LINE
  5
13C
 67
     1
  8
0
  6
CONTINUOUS
 62
     7
 10
326.2127632254
 20
414.7460307514
 30
0.0
 11
326.1081556912
 21
414.7460307514
 31
0.0
  0
LINE
  5
13D
 67
     1
  8
0
  6
CONTINUOUS
 62
     7
 10
326.1081556912
 20
414.7460307514
 30
0.0
 11
326.1081556912
 21
419.7460307514
 31
0.0
  0
LINE
  5
13E
 67
     1
  8
0
  6
CONTINUOUS
 62
     7
 10
326.2575950258
 20
419.7460307514
 30
0.0
 11
326.2127632254
 21
414.7460307514
 31
0.0
  0
LINE
  5
13F
 67
     1
  8
0
  6
CONTINUOUS
 62
     7
 10
326.1081556912
 20
414.7460307514
 30
0.0
 11
325.6461940811
 21
414.7460307514
 31
0.0
  0
LINE
  5
140
 67
     1
  8
0
  6
CONTINUOUS
 62
     7
 10
325.6461940811
 20
558.7460307514
 30
0.0
 11
326.1081556912
 21
558.7460307514
 31
0.0
  0
LINE
  5
141
 67
     1
  8
0
  6
CONTINUOUS
 62
     7
 10
326.1380435581
 20
558.7460307514
 30
0.0
 11
326.1380435581
 21
566.8960307514
 31
0.0
  0
LINE
  5
142
 67
     1
  8
0
  6
CONTINUOUS
 62
     7
 10
326.2575950258
 20
566.8960307514
 30
0.0
 11
326.1380435581
 21
566.8960307514
 31
0.0
  0
LINE
  5
143
 67
     1
  8
0
  6
CONTINUOUS
 62
     7
 10
326.1380435581
 20
406.5960307514
 30
0.0
 11
326.1380435581
 21
414.7460307514
 31
0.0
  0
LINE
  5
144
 67
     1
  8
0
  6
CONTINUOUS
 62
     7
 10
326.2575950258
 20
406.5960307514
 30
0.0
 11
326.1380435581
 21
406.5960307514
 31
0.0
  0
LINE
  5
145
 67
     1
  8
0
  6
CONTINUOUS
 62
     7
 10
327.6961940811
 20
406.5960307514
 30
0.0
 11
327.171914766
 21
406.5960307514
 31
0.0
  0
LINE
  5
146
 67
     1
  8
0
  6
CONTINUOUS
 62
     7
 10
327.171914766
 20
446.4460307514
 30
0.0
 11
327.6961940811
 21
446.4460307514
 31
0.0
  0
LINE
  5
147
 67
     1
  8
0
  6
CONTINUOUS
 62
     7
 10
327.6961940811
 20
527.0460307514
 30
0.0
 11
327.171914766
 21
527.0460307514
 31
0.0
  0
LINE
  5
148
 67
     1
  8
0
  6
CONTINUOUS
 62
     7
 10
327.6961940811
 20
566.8960307514
 30
0.0
 11
327.171914766
 21
566.8960307514
 31
0.0
  0
LINE
  5
149
 67
     1
  8
0
  6
CONTINUOUS
 62
     8
 10
329.8961940811
 20
447.1960307514
 30
0.0
 11
347.3961940811
 21
447.1960307514
 31
0.0
  0
LINE
  5
14A
 67
     1
  8
0
  6
CONTINUOUS
 62
     8
 10
330.6718173344
 20
526.2960307514
 30
0.0
 11
329.8961940811
 21
526.2960307514
 31
0.0
  0
LINE
  5
14B
 67
     1
  8
0
  6
CONTINUOUS
 62
     8
 10
347.3961940811
 20
526.2960307514
 30
0.0
 11
330.6718173344
 21
526.2960307514
 31
0.0
  0
LINE
  5
14C
 67
     1
  8
0
  6
CENTER
 62
     7
 10
386.3661940811
 20
486.7460307514
 30
0.0
 11
208.4261940811
 21
486.7460307514
 31
0.0
  0
LINE
  5
14D
 67
     1
  8
0
  6
CONTINUOUS
 62
     7
 10
384.3661940811
 20
480.4960307514
 30
0.0
 11
384.3661940811
 21
486.7460307514
 31
0.0
  0
SOLID
  5
14E
 67
     1
  8
0
  6
CONTINUOUS
 62
     7
 10
384.3661940811
 20
486.7460307514
 30
0.0
 11
383.8661940811
 21
483.4460307514
 31
0.0
 12
384.8661940811
 22
483.4460307514
 32
0.0
 13
384.8661940811
 23
483.4460307514
 33
0.0
  0
LINE
  5
14F
 67
     1
  8
0
  6
CONTINUOUS
 62
     7
 10
210.4261940811
 20
480.4960307514
 30
0.0
 11
210.4261940811
 21
486.7460307514
 31
0.0
  0
SOLID
  5
150
 67
     1
  8
0
  6
CONTINUOUS
 62
     7
 10
210.4261940811
 20
486.7460307514
 30
0.0
 11
209.9261940811
 21
483.4460307514
 31
0.0
 12
210.9261940811
 22
483.4460307514
 32
0.0
 13
210.9261940811
 23
483.4460307514
 33
0.0
  0
TEXT
  5
151
 67
     1
  8
0
  6
CONTINUOUS
 62
     7
 10
385.6480210929
 20
482.3668143206
 30
0.0
 40
3.5
  1
A
 41
0.7
 11
385.6480210929
 21
485.8668143206
 31
0.0
 73
     3
  0
TEXT
  5
152
 67
     1
  8
0
  6
CONTINUOUS
 62
     7
 10
205.9397995396
 20
482.3668143206
 30
0.0
 40
3.5
  1
A
 41
0.7
 11
205.9397995396
 21
485.8668143206
 31
0.0
 73
     3
  0
LINE
  5
153
 67
     1
  8
0
  6
CENTERX2
 62
     7
 10
326.1081556912
 20
421.7460307514
 30
0.0
 11
326.1081556912
 21
412.7460307514
 31
0.0
  0
LINE
  5
154
 67
     1
  8
0
  6
CENTERX2
 62
     7
 10
326.1081556912
 20
551.7460307514
 30
0.0
 11
326.1081556912
 21
560.7460307514
 31
0.0
  0
LINE
  5
155
 67
     1
  8
0
  6
CENTERX2
 62
     7
 10
338.6461940811
 20
403.9434429521
 30
0.0
 11
338.6461940811
 21
570.8716337081
 31
0.0
  0
LINE
  5
156
 67
     1
  8
0
  6
CONTINUOUS
 62
     7
 10
305.8133791554
 20
215.1336329261
 30
0.0
 11
303.4235712462
 21
212.7438250169
 31
0.0
  0
LINE
  5
157
 67
     1
  8
0
  6
CONTINUOUS
 62
     7
 10
307.4235712462
 20
212.2536969564
 30
0.0
 11
303.4235712462
 21
208.2536969564
 31
0.0
  0
LINE
  5
158
 67
     1
  8
0
  6
CONTINUOUS
 62
     7
 10
307.4235712462
 20
207.7635688958
 30
0.0
 11
303.4235712462
 21
203.7635688958
 31
0.0
  0
LINE
  5
159
 67
     1
  8
0
  6
CONTINUOUS
 62
     7
 10
307.4235712462
 20
203.2734408353
 30
0.0
 11
306.9235712462
 21
202.7734408353
 31
0.0
  0
LINE
  5
15A
 67
     1
  8
0
  6
CONTINUOUS
 62
     7
 10
309.982802883
 20
232.7734408353
 30
0.0
 11
303.4235712462
 21
226.2142091985
 31
0.0
  0
LINE
  5
15B
 67
     1
  8
0
  6
CONTINUOUS
 62
     7
 10
307.4235712462
 20
225.724081138
 30
0.0
 11
303.4729309435
 21
221.7734408353
 31
0.0
  0
LINE
  5
15C
 67
     1
  8
0
  6
CONTINUOUS
 62
     7
 10
314.4729309435
 20
232.7734408353
 30
0.0
 11
310.4729309435
 21
228.7734408353
 31
0.0
  0
LINE
  5
15D
 67
     1
  8
0
  6
CONTINUOUS
 62
     7
 10
318.963059004
 20
232.7734408353
 30
0.0
 11
314.963059004
 21
228.7734408353
 31
0.0
  0
LINE
  5
15E
 67
     1
  8
0
  6
CONTINUOUS
 62
     7
 10
323.4531870646
 20
232.7734408353
 30
0.0
 11
319.4531870646
 21
228.7734408353
 31
0.0
  0
LINE
  5
15F
 67
     1
  8
0
  6
CONTINUOUS
 62
     7
 10
327.9433151251
 20
232.7734408353
 30
0.0
 11
323.9433151251
 21
228.7734408353
 31
0.0
  0
LINE
  5
160
 67
     1
  8
0
  6
CONTINUOUS
 62
     7
 10
315.3235712462
 20
224.6438250169
 30
0.0
 11
312.8235712462
 21
222.1438250169
 31
0.0
  0
LINE
  5
161
 67
     1
  8
0
  6
CONTINUOUS
 62
     7
 10
315.3235712462
 20
220.1536969564
 30
0.0
 11
312.8235712462
 21
217.6536969564
 31
0.0
  0
LINE
  5
162
 67
     1
  8
0
  6
CONTINUOUS
 62
     7
 10
315.3235712462
 20
215.6635688958
 30
0.0
 11
312.8235712462
 21
213.1635688958
 31
0.0
  0
LINE
  5
163
 67
     1
  8
0
  6
CONTINUOUS
 62
     7
 10
315.3235712462
 20
211.1734408353
 30
0.0
 11
312.8235712462
 21
208.6734408353
 31
0.0
  0
LINE
  5
164
 67
     1
  8
0
  6
CONTINUOUS
 62
     7
 10
315.3235712462
 20
206.6833127748
 30
0.0
 11
312.8235712462
 21
204.1833127748
 31
0.0
  0
LINE
  5
165
 67
     1
  8
0
  6
CONTINUOUS
 62
     7
 10
338.5078604683
 20
247.8281142391
 30
0.0
 11
330.8688978424
 21
240.1891516132
 31
0.0
  0
LINE
  5
166
 67
     1
  8
0
  6
CONTINUOUS
 62
     7
 10
334.9359447501
 20
239.7660704603
 30
0.0
 11
330.2460954504
 21
235.0762211606
 31
0.0
  0
LINE
  5
167
 67
     1
  8
0
  6
CONTINUOUS
 62
     7
 10
343.2413747008
 20
248.071500411
 30
0.0
 11
338.9309416212
 21
243.7610673314
 31
0.0
  0
LINE
  5
168
 67
     1
  8
0
  6
CONTINUOUS
 62
     7
 10
334.2162510142
 20
234.5562486639
 30
0.0
 11
329.8268751931
 21
230.1668728428
 31
0.0
  0
LINE
  5
169
 67
     1
  8
0
  6
CONTINUOUS
 62
     7
 10
346.5886986777
 20
246.9286963273
 30
0.0
 11
343.5501130422
 21
243.8901106918
 31
0.0
  0
LINE
  5
16A
 67
     1
  8
0
  6
CONTINUOUS
 62
     7
 10
333.797030757
 20
229.6469003461
 30
0.0
 11
329.4237544487
 21
225.2736240378
 31
0.0
  0
LINE
  5
16B
 67
     1
  8
0
  6
CONTINUOUS
 62
     7
 10
349.1663905002
 20
245.0162600893
 30
0.0
 11
346.3379633754
 21
242.1878329646
 31
0.0
  0
LINE
  5
16C
 67
     1
  8
0
  6
CONTINUOUS
 62
     7
 10
333.4235712462
 20
224.7833127748
 30
0.0
 11
329.4235712462
 21
220.7833127748
 31
0.0
  0
LINE
  5
16D
 67
     1
  8
0
  6
CONTINUOUS
 62
     7
 10
339.2970294502
 20
230.6567709788
 30
0.0
 11
336.2584438147
 21
227.6181853433
 31
0.0
  0
LINE
  5
16E
 67
     1
  8
0
  6
CONTINUOUS
 62
     7
 10
351.0788267382
 20
242.4385682668
 30
0.0
 11
348.0402411027
 21
239.3999826313
 31
0.0
  0
LINE
  5
16F
 67
     1
  8
0
  6
CONTINUOUS
 62
     7
 10
333.4235712462
 20
220.2931847142
 30
0.0
 11
329.4235712462
 21
216.2931847142
 31
0.0
  0
LINE
  5
170
 67
     1
  8
0
  6
CONTINUOUS
 62
     7
 10
343.9162008712
 20
230.7858143392
 30
0.0
 11
339.6057677916
 21
226.4753812596
 31
0.0
  0
LINE
  5
171
 67
     1
  8
0
  6
CONTINUOUS
 62
     7
 10
352.2216308219
 20
239.0912442899
 30
0.0
 11
347.9111977423
 21
234.7808112103
 31
0.0
  0
LINE
  5
172
 67
     1
  8
0
  6
CONTINUOUS
 62
     7
 10
333.4235712462
 20
215.8030566537
 30
0.0
 11
332.3939554278
 21
214.7734408353
 31
0.0
  0
LINE
  5
173
 67
     1
  8
0
  6
CONTINUOUS
 62
     7
 10
351.9782446499
 20
234.3577300575
 30
0.0
 11
344.339282024
 21
226.7187674316
 31
0.0
  0
LINE
  5
174
 67
     1
  8
0
  6
CONTINUOUS
 62
     7
 10
344.6055517615
 20
240.4554213507
 30
0.0
 11
338.2415907308
 21
234.09146032
 31
0.0
  0
LINE
  5
175
 67
     1
  8
0
  6
CONTINUOUS
 62
     7
 10
345.9235604415
 20
237.2833019776
 30
0.0
 11
341.4137101039
 21
232.77345164
 31
0.0
  0
LINE
  5
176
 67
     1
  8
0
  6
CONTINUOUS
 62
     7
 10
337.9151508815
 20
242.7452765916
 30
0.0
 11
335.9517354898
 21
240.7818612
 31
0.0
  0
LINE
  5
177
 67
     1
  8
0
  6
CONTINUOUS
 62
     7
 10
336.447264367
 20
236.7872620166
 30
0.0
 11
335.1679352492
 21
235.5079328989
 31
0.0
  0
LINE
  5
178
 67
     1
  8
0
  6
CONTINUOUS
 62
     7
 10
343.1890791826
 20
243.5290768323
 30
0.0
 11
341.9097500649
 21
242.2497477145
 31
0.0
  0
LINE
  5
179
 67
     1
  8
0
  6
CONTINUOUS
 62
     7
 10
337.8880373403
 20
233.7379069294
 30
0.0
 11
336.8273771685
 21
232.6772467576
 31
0.0
  0
LINE
  5
17A
 67
     1
  8
0
  6
CONTINUOUS
 62
     7
 10
346.0197653239
 20
241.869634913
 30
0.0
 11
344.9591051521
 21
240.8089747412
 31
0.0
  0
LINE
  5
17B
 67
     1
  8
0
  6
CONTINUOUS
 62
     7
 10
340.9373924275
 20
232.2971339561
 30
0.0
 11
339.6580633098
 21
231.0178048384
 31
0.0
  0
LINE
  5
17C
 67
     1
  8
0
  6
CONTINUOUS
 62
     7
 10
347.6792072431
 20
239.0389487717
 30
0.0
 11
346.3998781254
 21
237.759619654
 31
0.0
  0
LINE
  5
17D
 67
     1
  8
0
  6
CONTINUOUS
 62
     7
 10
346.8954070025
 20
233.7650204706
 30
0.0
 11
344.9319916109
 21
231.801605079
 31
0.0
  0
LINE
  5
17E
 67
     1
  8
0
  6
CONTINUOUS
 62
     7
 10
323.4334431856
 20
223.7734408353
 30
0.0
 11
318.9235712462
 21
219.2635688958
 31
0.0
  0
LINE
  5
17F
 67
     1
  8
0
  6
CONTINUOUS
 62
     7
 10
321.9235712462
 20
217.7734408353
 30
0.0
 11
318.9235712462
 21
214.7734408353
 31
0.0
  0
LINE
  5
180
 67
     1
  8
0
  6
CONTINUOUS
 62
     7
 10
325.9235712462
 20
221.7734408353
 30
0.0
 11
324.9235712462
 21
220.7734408353
 31
0.0
  0
LINE
  5
181
 67
     1
  8
0
  6
CONTINUOUS
 62
     7
 10
321.1439554278
 20
203.5234408353
 30
0.0
 11
318.9235712462
 21
201.3030566537
 31
0.0
  0
LINE
  5
182
 67
     1
  8
0
  6
CONTINUOUS
 62
     7
 10
321.9235712462
 20
199.8129285932
 30
0.0
 11
318.9235712462
 21
196.8129285932
 31
0.0
  0
LINE
  5
183
 67
     1
  8
0
  6
CONTINUOUS
 62
     7
 10
321.9235712462
 20
195.3228005326
 30
0.0
 11
320.3742115489
 21
193.7734408353
 31
0.0
  0
LINE
  5
184
 67
     1
  8
0
  6
CONTINUOUS
 62
     7
 10
336.9038273673
 20
223.7734408353
 30
0.0
 11
335.9235712462
 21
222.7931847142
 31
0.0
  0
LINE
  5
185
 67
     1
  8
0
  6
CONTINUOUS
 62
     7
 10
341.3939554278
 20
223.7734408353
 30
0.0
 11
338.3939554278
 21
220.7734408353
 31
0.0
  0
LINE
  5
186
 67
     1
  8
0
  6
CONTINUOUS
 62
     7
 10
342.9235712462
 20
216.3228005326
 30
0.0
 11
340.4235712462
 21
213.8228005326
 31
0.0
  0
LINE
  5
187
 67
     1
  8
0
  6
CONTINUOUS
 62
     7
 10
340.8544676699
 20
205.2734408353
 30
0.0
 11
340.4235712462
 21
204.8425444116
 31
0.0
  0
LINE
  5
188
 67
     1
  8
0
  6
CONTINUOUS
 62
     7
 10
342.9235712462
 20
202.852416351
 30
0.0
 11
340.4235712462
 21
200.352416351
 31
0.0
  0
LINE
  5
189
 67
     1
  8
0
  6
CONTINUOUS
 62
     7
 10
342.9235712462
 20
198.3622882905
 30
0.0
 11
340.4235712462
 21
195.8622882905
 31
0.0
  0
LINE
  5
18A
 67
     1
  8
0
  6
CONTINUOUS
 62
     7
 10
342.9235712462
 20
193.87216023
 30
0.0
 11
342.8248518515
 21
193.7734408353
 31
0.0
  0
LINE
  5
18B
 67
     1
  8
0
  6
CONTINUOUS
 62
     7
 10
326.4235712462
 20
213.2931847142
 30
0.0
 11
324.4038273673
 21
211.2734408353
 31
0.0
  0
LINE
  5
18C
 67
     1
  8
0
  6
CONTINUOUS
 62
     7
 10
323.8939554278
 20
206.2734408353
 30
0.0
 11
322.4235712462
 21
204.8030566537
 31
0.0
  0
LINE
  5
18D
 67
     1
  8
0
  6
CONTINUOUS
 62
     7
 10
329.3939554278
 20
211.7734408353
 30
0.0
 11
327.5957438062
 21
209.9752292137
 31
0.0
  0
LINE
  5
18E
 67
     1
  8
0
  6
CONTINUOUS
 62
     7
 10
326.4235712462
 20
204.3129285932
 30
0.0
 11
325.8840834883
 21
203.7734408353
 31
0.0
  0
LINE
  5
18F
 67
     1
  8
0
  6
CONTINUOUS
 62
     7
 10
333.8840834883
 20
211.7734408353
 30
0.0
 11
327.8840834883
 21
205.7734408353
 31
0.0
  0
LINE
  5
190
 67
     1
  8
0
  6
CONTINUOUS
 62
     7
 10
338.1216413975
 20
211.520870684
 30
0.0
 11
332.3742115489
 21
205.7734408353
 31
0.0
  0
LINE
  5
191
 67
     1
  8
0
  6
CONTINUOUS
 62
     7
 10
338.4235712462
 20
207.3326724721
 30
0.0
 11
336.8643396094
 21
205.7734408353
 31
0.0
  0
LINE
  5
192
 67
     1
  8
0
  6
CONTINUOUS
 62
     7
 10
333.4235712462
 20
213.8425444116
 30
0.0
 11
335.4235712462
 21
211.8425444116
 31
0.0
  0
LINE
  5
193
 67
     1
  8
0
  6
CONTINUOUS
 62
     7
 10
334.982802883
 20
216.7734408353
 30
0.0
 11
335.4235712462
 21
216.3326724721
 31
0.0
  0
LINE
  5
194
 67
     1
  8
0
  6
CONTINUOUS
 62
     7
 10
333.4235712462
 20
204.8622882905
 30
0.0
 11
335.4235712462
 21
202.8622882905
 31
0.0
  0
LINE
  5
195
 67
     1
  8
0
  6
CONTINUOUS
 62
     7
 10
326.4235712462
 20
202.8820321694
 30
0.0
 11
328.5321625803
 21
200.7734408353
 31
0.0
  0
LINE
  5
196
 67
     1
  8
0
  6
CONTINUOUS
 62
     7
 10
328.1722906408
 20
205.6234408353
 30
0.0
 11
329.4235712462
 21
204.37216023
 31
0.0
  0
LINE
  5
197
 67
     1
  8
0
  6
CONTINUOUS
 62
     7
 10
326.4235712462
 20
216.352416351
 30
0.0
 11
329.4235712462
 21
213.352416351
 31
0.0
  0
LINE
  5
198
 67
     1
  8
0
  6
CONTINUOUS
 62
     7
 10
291.9235712462
 20
134.1090867771
 30
0.0
 11
292.259217188
 21
133.7734408353
 31
0.0
  0
LINE
  5
199
 67
     1
  8
0
  6
CONTINUOUS
 62
     7
 10
291.9235712462
 20
138.5992148377
 30
0.0
 11
296.7493452485
 21
133.7734408353
 31
0.0
  0
LINE
  5
19A
 67
     1
  8
0
  6
CONTINUOUS
 62
     7
 10
291.9235712462
 20
143.0893428982
 30
0.0
 11
301.2394733091
 21
133.7734408353
 31
0.0
  0
LINE
  5
19B
 67
     1
  8
0
  6
CONTINUOUS
 62
     7
 10
291.9235712462
 20
147.5794709587
 30
0.0
 11
305.7296013696
 21
133.7734408353
 31
0.0
  0
LINE
  5
19C
 67
     1
  8
0
  6
CONTINUOUS
 62
     7
 10
291.9235712462
 20
152.0695990193
 30
0.0
 11
310.2197294301
 21
133.7734408353
 31
0.0
  0
LINE
  5
19D
 67
     1
  8
0
  6
CONTINUOUS
 62
     7
 10
291.9235712462
 20
156.5597270798
 30
0.0
 11
314.7098574907
 21
133.7734408353
 31
0.0
  0
LINE
  5
19E
 67
     1
  8
0
  6
CONTINUOUS
 62
     7
 10
291.9235712462
 20
161.0498551403
 30
0.0
 11
319.1999855512
 21
133.7734408353
 31
0.0
  0
LINE
  5
19F
 67
     1
  8
0
  6
CONTINUOUS
 62
     7
 10
291.9235712462
 20
165.5399832009
 30
0.0
 11
323.6901136118
 21
133.7734408353
 31
0.0
  0
LINE
  5
1A0
 67
     1
  8
0
  6
CONTINUOUS
 62
     7
 10
293.1802416723
 20
168.7734408353
 30
0.0
 11
299.6195822194
 21
162.3341002882
 31
0.0
  0
LINE
  5
1A1
 67
     1
  8
0
  6
CONTINUOUS
 62
     7
 10
297.6703697328
 20
168.7734408353
 30
0.0
 11
304.8597102799
 21
161.5841002882
 31
0.0
  0
LINE
  5
1A2
 67
     1
  8
0
  6
CONTINUOUS
 62
     7
 10
302.1604977934
 20
168.7734408353
 30
0.0
 11
306.4837560788
 21
164.4501825498
 31
0.0
  0
LINE
  5
1A3
 67
     1
  8
0
  6
CONTINUOUS
 62
     7
 10
306.6506258539
 20
168.7734408353
 30
0.0
 11
310.3957147146
 21
165.0283519746
 31
0.0
  0
LINE
  5
1A4
 67
     1
  8
0
  6
CONTINUOUS
 62
     7
 10
306.9235712462
 20
172.9906235036
 30
0.0
 11
317.5800944615
 21
162.3341002882
 31
0.0
  0
LINE
  5
1A5
 67
     1
  8
0
  6
CONTINUOUS
 62
     7
 10
306.9235712462
 20
177.4807515641
 30
0.0
 11
350.630881975
 21
133.7734408353
 31
0.0
  0
LINE
  5
1A6
 67
     1
  8
0
  6
CONTINUOUS
 62
     7
 10
306.9235712462
 20
181.9708796246
 30
0.0
 11
355.1210100355
 21
133.7734408353
 31
0.0
  0
LINE
  5
1A7
 67
     1
  8
0
  6
CONTINUOUS
 62
     7
 10
306.9235712462
 20
186.4610076852
 30
0.0
 11
359.611138096
 21
133.7734408353
 31
0.0
  0
LINE
  5
1A8
 67
     1
  8
0
  6
CONTINUOUS
 62
     7
 10
306.9235712462
 20
190.9511357457
 30
0.0
 11
309.3561147324
 21
188.5185922595
 31
0.0
  0
LINE
  5
1A9
 67
     1
  8
0
  6
CONTINUOUS
 62
     7
 10
308.5913942171
 20
193.7734408353
 30
0.0
 11
312.5816098621
 21
189.7832251903
 31
0.0
  0
LINE
  5
1AA
 67
     1
  8
0
  6
CONTINUOUS
 62
     7
 10
313.0815222776
 20
193.7734408353
 30
0.0
 11
319.7659896089
 21
187.088973504
 31
0.0
  0
LINE
  5
1AB
 67
     1
  8
0
  6
CONTINUOUS
 62
     7
 10
317.5716503382
 20
193.7734408353
 30
0.0
 11
325.0061176695
 21
186.338973504
 31
0.0
  0
LINE
  5
1AC
 67
     1
  8
0
  6
CONTINUOUS
 62
     7
 10
322.0617783987
 20
193.7734408353
 30
0.0
 11
331.9046797872
 21
183.9305394468
 31
0.0
  0
LINE
  5
1AD
 67
     1
  8
0
  6
CONTINUOUS
 62
     7
 10
326.5519064592
 20
193.7734408353
 30
0.0
 11
339.089059534
 21
181.2362877605
 31
0.0
  0
LINE
  5
1AE
 67
     1
  8
0
  6
CONTINUOUS
 62
     7
 10
331.0420345198
 20
193.7734408353
 30
0.0
 11
371.9235712462
 21
152.8919041089
 31
0.0
  0
LINE
  5
1AF
 67
     1
  8
0
  6
CONTINUOUS
 62
     7
 10
335.5321625803
 20
193.7734408353
 30
0.0
 11
371.9235712462
 21
157.3820321694
 31
0.0
  0
LINE
  5
1B0
 67
     1
  8
0
  6
CONTINUOUS
 62
     7
 10
340.0222906408
 20
193.7734408353
 30
0.0
 11
371.9235712462
 21
161.87216023
 31
0.0
  0
LINE
  5
1B1
 67
     1
  8
0
  6
CONTINUOUS
 62
     7
 10
342.9235712462
 20
195.3622882905
 30
0.0
 11
371.9235712462
 21
166.3622882905
 31
0.0
  0
LINE
  5
1B2
 67
     1
  8
0
  6
CONTINUOUS
 62
     7
 10
342.9235712462
 20
199.852416351
 30
0.0
 11
371.9235712462
 21
170.852416351
 31
0.0
  0
LINE
  5
1B3
 67
     1
  8
0
  6
CONTINUOUS
 62
     7
 10
342.9235712462
 20
204.3425444116
 30
0.0
 11
371.9235712462
 21
175.3425444116
 31
0.0
  0
LINE
  5
1B4
 67
     1
  8
0
  6
CONTINUOUS
 62
     7
 10
342.9235712462
 20
208.8326724721
 30
0.0
 11
371.9235712462
 21
179.8326724721
 31
0.0
  0
LINE
  5
1B5
 67
     1
  8
0
  6
CONTINUOUS
 62
     7
 10
342.9235712462
 20
213.3228005326
 30
0.0
 11
371.9235712462
 21
184.3228005326
 31
0.0
  0
LINE
  5
1B6
 67
     1
  8
0
  6
CONTINUOUS
 62
     7
 10
342.9235712462
 20
217.8129285932
 30
0.0
 11
371.9235712462
 21
188.8129285932
 31
0.0
  0
LINE
  5
1B7
 67
     1
  8
0
  6
CONTINUOUS
 62
     7
 10
342.9235712462
 20
222.3030566537
 30
0.0
 11
371.9235712462
 21
193.3030566537
 31
0.0
  0
LINE
  5
1B8
 67
     1
  8
0
  6
CONTINUOUS
 62
     7
 10
345.9433151251
 20
223.7734408353
 30
0.0
 11
371.9235712462
 21
197.7931847142
 31
0.0
  0
LINE
  5
1B9
 67
     1
  8
0
  6
CONTINUOUS
 62
     7
 10
350.4334431857
 20
223.7734408353
 30
0.0
 11
371.9235712462
 21
202.2833127748
 31
0.0
  0
LINE
  5
1BA
 67
     1
  8
0
  6
CONTINUOUS
 62
     7
 10
354.9235712462
 20
223.7734408353
 30
0.0
 11
371.9235712462
 21
206.7734408353
 31
0.0
  0
LINE
  5
1BB
 67
     1
  8
0
  6
CONTINUOUS
 62
     7
 10
359.4136993067
 20
223.7734408353
 30
0.0
 11
371.9235712462
 21
211.2635688958
 31
0.0
  0
LINE
  5
1BC
 67
     1
  8
0
  6
CONTINUOUS
 62
     7
 10
363.9038273673
 20
223.7734408353
 30
0.0
 11
371.9235712462
 21
215.7536969564
 31
0.0
  0
LINE
  5
1BD
 67
     1
  8
0
  6
CONTINUOUS
 62
     7
 10
368.3939554278
 20
223.7734408353
 30
0.0
 11
371.9235712462
 21
220.2438250169
 31
0.0
  0
LINE
  5
1BE
 67
     1
  8
0
  6
CONTINUOUS
 62
     7
 10
228.4235712462
 20
175.1584464745
 30
0.0
 11
229.3085768853
 21
174.2734408353
 31
0.0
  0
LINE
  5
1BF
 67
     1
  8
0
  6
CONTINUOUS
 62
     7
 10
228.4235712462
 20
179.648574535
 30
0.0
 11
233.7987049459
 21
174.2734408353
 31
0.0
  0
LINE
  5
1C0
 67
     1
  8
0
  6
CONTINUOUS
 62
     7
 10
228.4235712462
 20
184.1387025955
 30
0.0
 11
238.2888330064
 21
174.2734408353
 31
0.0
  0
LINE
  5
1C1
 67
     1
  8
0
  6
CONTINUOUS
 62
     7
 10
228.4235712462
 20
188.6288306561
 30
0.0
 11
242.7789610669
 21
174.2734408353
 31
0.0
  0
LINE
  5
1C2
 67
     1
  8
0
  6
CONTINUOUS
 62
     7
 10
228.4235712462
 20
193.1189587166
 30
0.0
 11
247.2690891275
 21
174.2734408353
 31
0.0
  0
LINE
  5
1C3
 67
     1
  8
0
  6
CONTINUOUS
 62
     7
 10
228.4235712462
 20
197.6090867771
 30
0.0
 11
251.759217188
 21
174.2734408353
 31
0.0
  0
LINE
  5
1C4
 67
     1
  8
0
  6
CONTINUOUS
 62
     7
 10
228.4235712462
 20
202.0992148377
 30
0.0
 11
256.2493452485
 21
174.2734408353
 31
0.0
  0
LINE
  5
1C5
 67
     1
  8
0
  6
CONTINUOUS
 62
     7
 10
228.4235712462
 20
206.5893428982
 30
0.0
 11
260.7394733091
 21
174.2734408353
 31
0.0
  0
LINE
  5
1C6
 67
     1
  8
0
  6
CONTINUOUS
 62
     7
 10
228.4235712462
 20
211.0794709587
 30
0.0
 11
265.2296013696
 21
174.2734408353
 31
0.0
  0
LINE
  5
1C7
 67
     1
  8
0
  6
CONTINUOUS
 62
     7
 10
228.4235712462
 20
215.5695990193
 30
0.0
 11
269.7197294301
 21
174.2734408353
 31
0.0
  0
LINE
  5
1C8
 67
     1
  8
0
  6
CONTINUOUS
 62
     7
 10
228.4235712462
 20
220.0597270798
 30
0.0
 11
274.2098574907
 21
174.2734408353
 31
0.0
  0
LINE
  5
1C9
 67
     1
  8
0
  6
CONTINUOUS
 62
     7
 10
228.4235712462
 20
224.5498551403
 30
0.0
 11
278.6999855512
 21
174.2734408353
 31
0.0
  0
LINE
  5
1CA
 67
     1
  8
0
  6
CONTINUOUS
 62
     7
 10
228.4235712462
 20
229.0399832009
 30
0.0
 11
279.513777616
 21
177.949776831
 31
0.0
  0
LINE
  5
1CB
 67
     1
  8
0
  6
CONTINUOUS
 62
     7
 10
228.4235712462
 20
233.5301112614
 30
0.0
 11
276.8195259297
 21
185.1341565779
 31
0.0
  0
LINE
  5
1CC
 67
     1
  8
0
  6
CONTINUOUS
 62
     7
 10
228.4235712462
 20
238.0202393219
 30
0.0
 11
276.8195259297
 21
189.6242846384
 31
0.0
  0
LINE
  5
1CD
 67
     1
  8
0
  6
CONTINUOUS
 62
     7
 10
228.4235712462
 20
242.5103673825
 30
0.0
 11
280.263777616
 21
190.6701610126
 31
0.0
  0
LINE
  5
1CE
 67
     1
  8
0
  6
CONTINUOUS
 62
     7
 10
230.1506258539
 20
245.2734408353
 30
0.0
 11
279.513777616
 21
195.9102890732
 31
0.0
  0
LINE
  5
1CF
 67
     1
  8
0
  6
CONTINUOUS
 62
     7
 10
234.6407539144
 20
245.2734408353
 30
0.0
 11
280.1407539144
 21
199.7734408353
 31
0.0
  0
LINE
  5
1D0
 67
     1
  8
0
  6
CONTINUOUS
 62
     7
 10
239.130881975
 20
245.2734408353
 30
0.0
 11
303.4235712462
 21
180.9807515641
 31
0.0
  0
LINE
  5
1D1
 67
     1
  8
0
  6
CONTINUOUS
 62
     7
 10
243.6210100355
 20
245.2734408353
 30
0.0
 11
287.4421421931
 21
201.4523086777
 31
0.0
  0
LINE
  5
1D2
 67
     1
  8
0
  6
CONTINUOUS
 62
     7
 10
248.111138096
 20
245.2734408353
 30
0.0
 11
284.7478905068
 21
208.6366884246
 31
0.0
  0
LINE
  5
1D3
 67
     1
  8
0
  6
CONTINUOUS
 62
     7
 10
252.6012661566
 20
245.2734408353
 30
0.0
 11
284.7478905068
 21
213.1268164851
 31
0.0
  0
LINE
  5
1D4
 67
     1
  8
0
  6
CONTINUOUS
 62
     7
 10
257.0913942171
 20
245.2734408353
 30
0.0
 11
286.4316716989
 21
215.9331633535
 31
0.0
  0
LINE
  5
1D5
 67
     1
  8
0
  6
CONTINUOUS
 62
     7
 10
304.0815222776
 20
202.7734408353
 30
0.0
 11
307.5815222776
 21
199.2734408353
 31
0.0
  0
LINE
  5
1D6
 67
     1
  8
0
  6
CONTINUOUS
 62
     7
 10
261.5815222776
 20
245.2734408353
 30
0.0
 11
288.1921421931
 21
218.6628209198
 31
0.0
  0
LINE
  5
1D7
 67
     1
  8
0
  6
CONTINUOUS
 62
     7
 10
308.5716503382
 20
202.7734408353
 30
0.0
 11
312.0716503382
 21
199.2734408353
 31
0.0
  0
LINE
  5
1D8
 67
     1
  8
0
  6
CONTINUOUS
 62
     7
 10
266.0716503382
 20
245.2734408353
 30
0.0
 11
287.4421421931
 21
223.9029489804
 31
0.0
  0
LINE
  5
1D9
 67
     1
  8
0
  6
CONTINUOUS
 62
     7
 10
313.0617783987
 20
202.7734408353
 30
0.0
 11
315.4235712462
 21
200.4116479878
 31
0.0
  0
LINE
  5
1DA
 67
     1
  8
0
  6
CONTINUOUS
 62
     7
 10
270.5617783987
 20
245.2734408353
 30
0.0
 11
294.7291603647
 21
221.1060588693
 31
0.0
  0
LINE
  5
1DB
 67
     1
  8
0
  6
CONTINUOUS
 62
     7
 10
275.0519064592
 20
245.2734408353
 30
0.0
 11
292.0920298362
 21
228.2333174583
 31
0.0
  0
LINE
  5
1DC
 67
     1
  8
0
  6
CONTINUOUS
 62
     7
 10
279.5420345198
 20
245.2734408353
 30
0.0
 11
294.7291603647
 21
230.0863149904
 31
0.0
  0
LINE
  5
1DD
 67
     1
  8
0
  6
CONTINUOUS
 62
     7
 10
284.0321625803
 20
245.2734408353
 30
0.0
 11
295.4791603647
 21
233.8264430509
 31
0.0
  0
LINE
  5
1DE
 67
     1
  8
0
  6
CONTINUOUS
 62
     7
 10
288.5222906408
 20
245.2734408353
 30
0.0
 11
303.4235712462
 21
230.37216023
 31
0.0
  0
LINE
  5
1DF
 67
     1
  8
0
  6
CONTINUOUS
 62
     7
 10
293.0124187014
 20
245.2734408353
 30
0.0
 11
305.5124187014
 21
232.7734408353
 31
0.0
  0
LINE
  5
1E0
 67
     1
  8
0
  6
CONTINUOUS
 62
     7
 10
297.5025467619
 20
245.2734408353
 30
0.0
 11
310.0025467619
 21
232.7734408353
 31
0.0
  0
LINE
  5
1E1
 67
     1
  8
0
  6
CONTINUOUS
 62
     7
 10
301.9926748224
 20
245.2734408353
 30
0.0
 11
314.4926748224
 21
232.7734408353
 31
0.0
  0
LINE
  5
1E2
 67
     1
  8
0
  6
CONTINUOUS
 62
     7
 10
306.482802883
 20
245.2734408353
 30
0.0
 11
318.982802883
 21
232.7734408353
 31
0.0
  0
LINE
  5
1E3
 67
     1
  8
0
  6
CONTINUOUS
 62
     7
 10
310.9729309435
 20
245.2734408353
 30
0.0
 11
323.4729309435
 21
232.7734408353
 31
0.0
  0
LINE
  5
1E4
 67
     1
  8
0
  6
CONTINUOUS
 62
     7
 10
315.463059004
 20
245.2734408353
 30
0.0
 11
327.963059004
 21
232.7734408353
 31
0.0
  0
LINE
  5
1E5
 67
     1
  8
0
  6
CONTINUOUS
 62
     7
 10
319.9531870646
 20
245.2734408353
 30
0.0
 11
328.4235712462
 21
236.8030566537
 31
0.0
  0
LINE
  5
1E6
 67
     1
  8
0
  6
CONTINUOUS
 62
     7
 10
324.4433151251
 20
245.2734408353
 30
0.0
 11
328.4235712462
 21
241.2931847142
 31
0.0
  0
LINE
  5
1E7
 67
     1
  8
0
  6
CONTINUOUS
 62
     7
 10
331.858803413
 20
179.4862877605
 30
0.0
 11
371.9235712462
 21
139.4215199273
 31
0.0
  0
LINE
  5
1E8
 67
     1
  8
0
  6
CONTINUOUS
 62
     7
 10
333.8633864135
 20
181.9718328205
 30
0.0
 11
335.3489314735
 21
180.4862877605
 31
0.0
  0
LINE
  5
1E9
 67
     1
  8
0
  6
CONTINUOUS
 62
     7
 10
323.2235712462
 20
179.1412638062
 30
0.0
 11
368.5913942171
 21
133.7734408353
 31
0.0
  0
LINE
  5
1EA
 67
     1
  8
0
  6
CONTINUOUS
 62
     7
 10
327.3686753524
 20
179.4862877605
 30
0.0
 11
371.9235712462
 21
134.9313918668
 31
0.0
  0
LINE
  5
1EB
 67
     1
  8
0
  6
CONTINUOUS
 62
     7
 10
341.589059534
 20
178.7362877605
 30
0.0
 11
371.9235712462
 21
148.4017760484
 31
0.0
  0
LINE
  5
1EC
 67
     1
  8
0
  6
CONTINUOUS
 62
     7
 10
336.3489314735
 20
179.4862877605
 30
0.0
 11
371.9235712462
 21
143.9116479878
 31
0.0
  0
LINE
  5
1ED
 67
     1
  8
0
  6
CONTINUOUS
 62
     7
 10
319.1384192314
 20
178.7362877605
 30
0.0
 11
364.1012661566
 21
133.7734408353
 31
0.0
  0
LINE
  5
1EE
 67
     1
  8
0
  6
CONTINUOUS
 62
     7
 10
278.1200568396
 20
183.833625668
 30
0.0
 11
280.263777616
 21
181.6899048916
 31
0.0
  0
LINE
  5
1EF
 67
     1
  8
0
  6
CONTINUOUS
 62
     7
 10
281.263777616
 20
185.1800329521
 30
0.0
 11
292.1703697328
 21
174.2734408353
 31
0.0
  0
LINE
  5
1F0
 67
     1
  8
0
  6
CONTINUOUS
 62
     7
 10
282.013777616
 20
175.449776831
 30
0.0
 11
283.1901136118
 21
174.2734408353
 31
0.0
  0
LINE
  5
1F1
 67
     1
  8
0
  6
CONTINUOUS
 62
     7
 10
281.263777616
 20
189.6701610126
 30
0.0
 11
296.6604977934
 21
174.2734408353
 31
0.0
  0
LINE
  5
1F2
 67
     1
  8
0
  6
CONTINUOUS
 62
     7
 10
281.263777616
 20
194.1602890732
 30
0.0
 11
301.1506258539
 21
174.2734408353
 31
0.0
  0
LINE
  5
1F3
 67
     1
  8
0
  6
CONTINUOUS
 62
     7
 10
282.013777616
 20
197.9004171337
 30
0.0
 11
303.4235712462
 21
176.4906235036
 31
0.0
  0
LINE
  5
1F4
 67
     1
  8
0
  6
CONTINUOUS
 62
     7
 10
281.263777616
 20
180.6899048916
 30
0.0
 11
287.6802416723
 21
174.2734408353
 31
0.0
  0
LINE
  5
1F5
 67
     1
  8
0
  6
CONTINUOUS
 62
     7
 10
297.2291603647
 20
223.0961869299
 30
0.0
 11
303.4235712462
 21
216.9017760484
 31
0.0
  0
LINE
  5
1F6
 67
     1
  8
0
  6
CONTINUOUS
 62
     7
 10
296.4791603647
 20
219.3560588693
 30
0.0
 11
303.4235712462
 21
212.4116479878
 31
0.0
  0
LINE
  5
1F7
 67
     1
  8
0
  6
CONTINUOUS
 62
     7
 10
296.5420345198
 20
228.2734408353
 30
0.0
 11
303.4235712462
 21
221.3919041089
 31
0.0
  0
LINE
  5
1F8
 67
     1
  8
0
  6
CONTINUOUS
 62
     7
 10
297.2291603647
 20
232.0764430509
 30
0.0
 11
303.4235712462
 21
225.8820321694
 31
0.0
  0
LINE
  5
1F9
 67
     1
  8
0
  6
CONTINUOUS
 62
     7
 10
313.2857334879
 20
184.588973504
 30
0.0
 11
318.4235712462
 21
179.4511357457
 31
0.0
  0
LINE
  5
1FA
 67
     1
  8
0
  6
CONTINUOUS
 62
     7
 10
313.2758679784
 20
189.088967074
 30
0.0
 11
315.2758615484
 21
187.088973504
 31
0.0
  0
LINE
  5
1FB
 67
     1
  8
0
  6
CONTINUOUS
 62
     7
 10
317.0258615484
 20
185.338973504
 30
0.0
 11
321.1285472919
 21
181.2362877605
 31
0.0
  0
LINE
  5
1FC
 67
     1
  8
0
  6
CONTINUOUS
 62
     7
 10
322.2659896089
 20
184.588973504
 30
0.0
 11
326.3686753524
 21
180.4862877605
 31
0.0
  0
LINE
  5
1FD
 67
     1
  8
0
  6
CONTINUOUS
 62
     7
 10
325.1735712462
 20
186.1715199273
 30
0.0
 11
327.9837560788
 21
183.3613350946
 31
0.0
  0
LINE
  5
1FE
 67
     1
  8
0
  6
CONTINUOUS
 62
     7
 10
315.9235712462
 20
186.4412638062
 30
0.0
 11
316.0258615484
 21
186.338973504
 31
0.0
  0
LINE
  5
1FF
 67
     1
  8
0
  6
CONTINUOUS
 62
     7
 10
286.2708606142
 20
207.1137183171
 30
0.0
 11
288.1921421931
 21
205.1924367382
 31
0.0
  0
LINE
  5
200
 67
     1
  8
0
  6
CONTINUOUS
 62
     7
 10
289.1921421931
 20
208.6825647988
 30
0.0
 11
303.4235712462
 21
194.4511357457
 31
0.0
  0
LINE
  5
201
 67
     1
  8
0
  6
CONTINUOUS
 62
     7
 10
289.1921421931
 20
213.1726928593
 30
0.0
 11
303.4235712462
 21
198.9412638062
 31
0.0
  0
LINE
  5
202
 67
     1
  8
0
  6
CONTINUOUS
 62
     7
 10
289.9421421931
 20
198.9523086777
 30
0.0
 11
303.4235712462
 21
185.4708796246
 31
0.0
  0
LINE
  5
203
 67
     1
  8
0
  6
CONTINUOUS
 62
     7
 10
289.1921421931
 20
217.6628209198
 30
0.0
 11
303.4235712462
 21
203.4313918668
 31
0.0
  0
LINE
  5
204
 67
     1
  8
0
  6
CONTINUOUS
 62
     7
 10
289.9421421931
 20
221.4029489804
 30
0.0
 11
303.4235712462
 21
207.9215199273
 31
0.0
  0
LINE
  5
205
 67
     1
  8
0
  6
CONTINUOUS
 62
     7
 10
289.1921421931
 20
204.1924367382
 30
0.0
 11
289.811138096
 21
203.5734408353
 31
0.0
  0
LINE
  5
206
 67
     1
  8
0
  6
CONTINUOUS
 62
     7
 10
289.9421421931
 20
203.4424367382
 30
0.0
 11
303.4235712462
 21
189.9610076852
 31
0.0
  0
LINE
  5
207
 67
     1
  8
0
  6
CONTINUOUS
 62
     7
 10
310.3498383404
 20
160.5841002882
 30
0.0
 11
337.1604977934
 21
133.7734408353
 31
0.0
  0
LINE
  5
208
 67
     1
  8
0
  6
CONTINUOUS
 62
     7
 10
312.3633864135
 20
163.0606802757
 30
0.0
 11
313.839966401
 21
161.5841002882
 31
0.0
  0
LINE
  5
209
 67
     1
  8
0
  6
CONTINUOUS
 62
     7
 10
319.7235712462
 20
160.1906235036
 30
0.0
 11
346.1407539144
 21
133.7734408353
 31
0.0
  0
LINE
  5
20A
 67
     1
  8
0
  6
CONTINUOUS
 62
     7
 10
305.8597102799
 20
160.5841002882
 30
0.0
 11
332.6703697328
 21
133.7734408353
 31
0.0
  0
LINE
  5
20B
 67
     1
  8
0
  6
CONTINUOUS
 62
     7
 10
314.839966401
 20
160.5841002882
 30
0.0
 11
314.9235712462
 21
160.500495443
 31
0.0
  0
LINE
  5
20C
 67
     1
  8
0
  6
CONTINUOUS
 62
     7
 10
302.1195822194
 20
159.8341002882
 30
0.0
 11
328.1802416723
 21
133.7734408353
 31
0.0
  0
LINE
  5
20D
 67
     1
  8
0
  6
CONTINUOUS
 62
     7
 10
315.589966401
 20
159.8341002882
 30
0.0
 11
341.6506258539
 21
133.7734408353
 31
0.0
  0
LINE
  5
20E
 67
     1
  8
0
  6
CONTINUOUS
 62
     7
 10
324.9235712462
 20
217.3806718691
 30
0.0
 11
321.9235712462
 21
217.3806718691
 31
0.0
  0
LINE
  5
20F
 67
     1
  8
0
  6
CONTINUOUS
 62
     7
 10
318.8735712462
 20
200.9534408353
 30
0.0
 11
318.9235712462
 21
200.9534408353
 31
0.0
  0
LINE
  5
210
 67
     1
  8
0
  6
CONTINUOUS
 62
     7
 10
318.9235712462
 20
210.5934408353
 30
0.0
 11
318.8735712462
 21
210.5934408353
 31
0.0
  0
LINE
  5
211
 67
     1
  8
0
  6
CONTINUOUS
 62
     7
 10
322.5235712462
 20
202.7734408353
 30
0.0
 11
326.4235712462
 21
202.7734408353
 31
0.0
  0
LINE
  5
212
 67
     1
  8
0
  6
CONTINUOUS
 62
     7
 10
335.4235712462
 20
202.7734408353
 30
0.0
 11
339.8235712462
 21
202.7734408353
 31
0.0
  0
LINE
  5
213
 67
     1
  8
0
  6
CONTINUOUS
 62
     7
 10
339.8235712462
 20
214.7734408353
 30
0.0
 11
335.4235712462
 21
214.7734408353
 31
0.0
  0
LINE
  5
214
 67
     1
  8
0
  6
CONTINUOUS
 62
     7
 10
326.4235712462
 20
214.7734408353
 30
0.0
 11
322.5235712462
 21
214.7734408353
 31
0.0
  0
LINE
  5
215
 67
     1
  8
0
  6
CONTINUOUS
 62
     7
 10
322.5235712462
 20
214.7734408353
 30
0.0
 11
321.9235712462
 21
214.1734408353
 31
0.0
  0
LINE
  5
216
 67
     1
  8
0
  6
CONTINUOUS
 62
     7
 10
321.9235712462
 20
203.3734408353
 30
0.0
 11
322.5235712462
 21
202.7734408353
 31
0.0
  0
LINE
  5
217
 67
     1
  8
0
  6
CONTINUOUS
 62
     7
 10
339.8235712462
 20
202.7734408353
 30
0.0
 11
340.4235712462
 21
203.3734408353
 31
0.0
  0
LINE
  5
218
 67
     1
  8
0
  6
CONTINUOUS
 62
     7
 10
340.4235712462
 20
214.1734408353
 30
0.0
 11
339.8235712462
 21
214.7734408353
 31
0.0
  0
LINE
  5
219
 67
     1
  8
0
  6
CONTINUOUS
 62
     7
 10
312.8235712462
 20
224.7734408353
 30
0.0
 11
307.6235712462
 21
224.7734408353
 31
0.0
  0
LINE
  5
21A
 67
     1
  8
0
  6
CONTINUOUS
 62
     7
 10
307.6235712462
 20
212.7734408353
 30
0.0
 11
312.8235712462
 21
212.7734408353
 31
0.0
  0
LINE
  5
21B
 67
     1
  8
0
  6
CONTINUOUS
 62
     7
 10
307.6235712462
 20
224.7734408353
 30
0.0
 11
307.4235712462
 21
224.5734408353
 31
0.0
  0
LINE
  5
21C
 67
     1
  8
0
  6
CONTINUOUS
 62
     7
 10
307.4235712462
 20
212.9734408353
 30
0.0
 11
307.6235712462
 21
212.7734408353
 31
0.0
  0
LINE
  5
21D
 67
     1
  8
0
  6
CONTINUOUS
 62
     7
 10
303.4235712462
 20
199.2734408353
 30
0.0
 11
315.4235712462
 21
199.2734408353
 31
0.0
  0
LINE
  5
21E
 67
     1
  8
0
  6
CONTINUOUS
 62
     7
 10
228.4235712462
 20
174.2734408353
 30
0.0
 11
303.4235712462
 21
174.2734408353
 31
0.0
  0
LINE
  5
21F
 67
     1
  8
0
  6
CONTINUOUS
 62
     7
 10
303.4235712462
 20
232.7734408353
 30
0.0
 11
328.4235712462
 21
232.7734408353
 31
0.0
  0
LINE
  5
220
 67
     1
  8
0
  6
CONTINUOUS
 62
     7
 10
303.4235712462
 20
232.7734408353
 30
0.0
 11
303.4235712462
 21
202.7734408353
 31
0.0
  0
LINE
  5
221
 67
     1
  8
0
  6
CONTINUOUS
 62
     7
 10
315.4235712462
 20
202.7734408353
 30
0.0
 11
303.4235712462
 21
202.7734408353
 31
0.0
  0
LINE
  5
222
 67
     1
  8
0
  6
CONTINUOUS
 62
     7
 10
328.4235712462
 20
232.7734408353
 30
0.0
 11
328.4235712462
 21
245.2734408353
 31
0.0
  0
LINE
  5
223
 67
     1
  8
0
  6
CONTINUOUS
 62
     7
 10
315.4235712462
 20
199.2734408353
 30
0.0
 11
315.4235712462
 21
202.7734408353
 31
0.0
  0
LINE
  5
224
 67
     1
  8
0
  6
CONTINUOUS
 62
     7
 10
328.4235712462
 20
245.2734408353
 30
0.0
 11
228.4235712462
 21
245.2734408353
 31
0.0
  0
LINE
  5
225
 67
     1
  8
0
  6
CONTINUOUS
 62
     7
 10
303.4235712462
 20
174.2734408353
 30
0.0
 11
303.4235712462
 21
199.2734408353
 31
0.0
  0
LINE
  5
226
 67
     1
  8
0
  6
CONTINUOUS
 62
     7
 10
228.4235712462
 20
245.2734408353
 30
0.0
 11
228.4235712462
 21
174.2734408353
 31
0.0
  0
LINE
  5
227
 67
     1
  8
0
  6
CONTINUOUS
 62
     7
 10
307.4235712462
 20
226.2734408353
 30
0.0
 11
312.8235712462
 21
226.2734408353
 31
0.0
  0
LINE
  5
228
 67
     1
  8
0
  6
CONTINUOUS
 62
     7
 10
315.3235712462
 20
226.2734408353
 30
0.0
 11
315.4235712462
 21
226.2734408353
 31
0.0
  0
LINE
  5
229
 67
     1
  8
0
  6
CONTINUOUS
 62
     7
 10
315.4235712462
 20
226.2734408353
 30
0.0
 11
315.4235712462
 21
220.5734408353
 31
0.0
  0
LINE
  5
22A
 67
     1
  8
0
  6
CONTINUOUS
 62
     7
 10
315.4235712462
 20
214.7734408353
 30
0.0
 11
315.4235712462
 21
202.7734408353
 31
0.0
  0
LINE
  5
22B
 67
     1
  8
0
  6
CONTINUOUS
 62
     7
 10
315.4235712462
 20
220.5734408353
 30
0.0
 11
315.4235712462
 21
214.7734408353
 31
0.0
  0
LINE
  5
22C
 67
     1
  8
0
  6
CONTINUOUS
 62
     7
 10
371.9235712462
 20
223.7734408353
 30
0.0
 11
342.9235712462
 21
223.7734408353
 31
0.0
  0
LINE
  5
22D
 67
     1
  8
0
  6
CONTINUOUS
 62
     7
 10
371.9235712462
 20
133.7734408353
 30
0.0
 11
371.9235712462
 21
223.7734408353
 31
0.0
  0
LINE
  5
22E
 67
     1
  8
0
  6
CONTINUOUS
 62
     7
 10
291.9235712462
 20
133.7734408353
 30
0.0
 11
371.9235712462
 21
133.7734408353
 31
0.0
  0
LINE
  5
22F
 67
     1
  8
0
  6
CONTINUOUS
 62
     7
 10
291.9235712462
 20
168.7734408353
 30
0.0
 11
291.9235712462
 21
133.7734408353
 31
0.0
  0
LINE
  5
230
 67
     1
  8
0
  6
CONTINUOUS
 62
     7
 10
306.9235712462
 20
168.7734408353
 30
0.0
 11
291.9235712462
 21
168.7734408353
 31
0.0
  0
LINE
  5
231
 67
     1
  8
0
  6
CONTINUOUS
 62
     7
 10
306.9235712462
 20
193.7734408353
 30
0.0
 11
306.9235712462
 21
168.7734408353
 31
0.0
  0
LINE
  5
232
 67
     1
  8
0
  6
CONTINUOUS
 62
     7
 10
342.9235712462
 20
193.7734408353
 30
0.0
 11
306.9235712462
 21
193.7734408353
 31
0.0
  0
LINE
  5
233
 67
     1
  8
0
  6
CONTINUOUS
 62
     7
 10
342.9235712462
 20
193.7734408353
 30
0.0
 11
342.9235712462
 21
223.7734408353
 31
0.0
  0
LINE
  5
234
 67
     1
  8
0
  6
CONTINUOUS
 62
     7
 10
340.4235712462
 20
217.7734408353
 30
0.0
 11
333.4235712461
 21
217.7734408353
 31
0.0
  0
LINE
  5
235
 67
     1
  8
0
  6
CONTINUOUS
 62
     7
 10
329.4235712462
 20
217.7734408353
 30
0.0
 11
321.9235712462
 21
217.7734408353
 31
0.0
  0
LINE
  5
236
 67
     1
  8
0
  6
CONTINUOUS
 62
     7
 10
318.9235712462
 20
223.7734408353
 30
0.0
 11
318.9235712462
 21
222.5734408353
 31
0.0
  0
LINE
  5
237
 67
     1
  8
0
  6
CONTINUOUS
 62
     7
 10
342.9235712462
 20
223.7734408353
 30
0.0
 11
341.9235712462
 21
223.7734408353
 31
0.0
  0
LINE
  5
238
 67
     1
  8
0
  6
CONTINUOUS
 62
     7
 10
320.1235712462
 20
223.7734408353
 30
0.0
 11
318.9235712462
 21
223.7734408353
 31
0.0
  0
LINE
  5
239
 67
     1
  8
0
  6
CONTINUOUS
 62
     7
 10
324.9235712462
 20
217.7734408353
 30
0.0
 11
324.9235712462
 21
217.249679375
 31
0.0
  0
LINE
  5
23A
 67
     1
  8
0
  6
CONTINUOUS
 62
     7
 10
324.9235712462
 20
194.2203717474
 30
0.0
 11
324.9235712462
 21
193.7734408353
 31
0.0
  0
LINE
  5
23B
 67
     1
  8
0
  6
CONTINUOUS
 62
     7
 10
329.4235712462
 20
205.6234408353
 30
0.0
 11
326.4235712462
 21
205.6234408353
 31
0.0
  0
LINE
  5
23C
 67
     1
  8
0
  6
CONTINUOUS
 62
     7
 10
326.4235712462
 20
211.9234408353
 30
0.0
 11
329.4235712462
 21
211.9234408353
 31
0.0
  0
LINE
  5
23D
 67
     1
  8
0
  6
CONTINUOUS
 62
     7
 10
329.4235712462
 20
205.6234408353
 30
0.0
 11
329.4235712462
 21
205.7734408353
 31
0.0
  0
LINE
  5
23E
 67
     1
  8
0
  6
CONTINUOUS
 62
     7
 10
329.4235712462
 20
211.7734408353
 30
0.0
 11
329.4235712462
 21
211.9234408353
 31
0.0
  0
LINE
  5
23F
 67
     1
  8
0
  6
CONTINUOUS
 62
     7
 10
326.4235712462
 20
200.7734408353
 30
0.0
 11
329.4235712462
 21
200.7734408353
 31
0.0
  0
LINE
  5
240
 67
     1
  8
0
  6
CONTINUOUS
 62
     7
 10
329.4235712462
 20
205.6234408353
 30
0.0
 11
329.4235712462
 21
200.7734408353
 31
0.0
  0
LINE
  5
241
 67
     1
  8
0
  6
CONTINUOUS
 62
     7
 10
326.4235712462
 20
205.6234408353
 30
0.0
 11
326.4235712462
 21
200.7734408353
 31
0.0
  0
LINE
  5
242
 67
     1
  8
0
  6
CONTINUOUS
 62
     7
 10
329.4235712462
 20
216.7734408353
 30
0.0
 11
326.4235712462
 21
216.7734408353
 31
0.0
  0
LINE
  5
243
 67
     1
  8
0
  6
CONTINUOUS
 62
     7
 10
329.4235712462
 20
216.7734408353
 30
0.0
 11
329.4235712462
 21
211.9234408353
 31
0.0
  0
LINE
  5
244
 67
     1
  8
0
  6
CONTINUOUS
 62
     7
 10
326.4235712462
 20
216.7734408353
 30
0.0
 11
326.4235712462
 21
211.9234408353
 31
0.0
  0
LINE
  5
245
 67
     1
  8
0
  6
CONTINUOUS
 62
     7
 10
335.4235712462
 20
206.2734408353
 30
0.0
 11
333.4235712462
 21
206.2734408353
 31
0.0
  0
LINE
  5
246
 67
     1
  8
0
  6
CONTINUOUS
 62
     7
 10
333.4235712462
 20
211.2734408353
 30
0.0
 11
335.4235712462
 21
211.2734408353
 31
0.0
  0
LINE
  5
247
 67
     1
  8
0
  6
CONTINUOUS
 62
     7
 10
333.4235712462
 20
200.7734408353
 30
0.0
 11
335.4235712462
 21
200.7734408353
 31
0.0
  0
LINE
  5
248
 67
     1
  8
0
  6
CONTINUOUS
 62
     7
 10
335.4235712462
 20
206.2734408353
 30
0.0
 11
335.4235712462
 21
200.7734408353
 31
0.0
  0
LINE
  5
249
 67
     1
  8
0
  6
CONTINUOUS
 62
     7
 10
333.4235712462
 20
206.2734408353
 30
0.0
 11
333.4235712462
 21
200.7734408353
 31
0.0
  0
LINE
  5
24A
 67
     1
  8
0
  6
CONTINUOUS
 62
     7
 10
335.4235712462
 20
216.7734408353
 30
0.0
 11
333.4235712462
 21
216.7734408353
 31
0.0
  0
LINE
  5
24B
 67
     1
  8
0
  6
CONTINUOUS
 62
     7
 10
335.4235712462
 20
216.7734408353
 30
0.0
 11
335.4235712462
 21
211.2734408353
 31
0.0
  0
LINE
  5
24C
 67
     1
  8
0
  6
CONTINUOUS
 62
     7
 10
333.4235712462
 20
216.7734408353
 30
0.0
 11
333.4235712462
 21
211.2734408353
 31
0.0
  0
LINE
  5
24D
 67
     1
  8
0
  6
CONTINUOUS
 62
     7
 10
325.5009215154
 20
210.2734408353
 30
0.0
 11
325.5009215154
 21
207.2734408353
 31
0.0
  0
LINE
  5
24E
 67
     1
  8
0
  6
CONTINUOUS
 62
     7
 10
325.5009215154
 20
207.2734408353
 30
0.0
 11
324.9235712462
 21
206.2734408353
 31
0.0
  0
LINE
  5
24F
 67
     1
  8
0
  6
CONTINUOUS
 62
     7
 10
324.9235712462
 20
207.5234408353
 30
0.0
 11
324.9235712462
 21
206.2734408353
 31
0.0
  0
LINE
  5
250
 67
     1
  8
0
  6
CONTINUOUS
 62
     7
 10
324.9235712462
 20
210.0234408353
 30
0.0
 11
324.9235712462
 21
207.5234408353
 31
0.0
  0
LINE
  5
251
 67
     1
  8
0
  6
CONTINUOUS
 62
     7
 10
324.9235712462
 20
211.2734408353
 30
0.0
 11
324.9235712462
 21
210.0234408353
 31
0.0
  0
LINE
  5
252
 67
     1
  8
0
  6
CONTINUOUS
 62
     7
 10
324.9235712462
 20
211.2734408353
 30
0.0
 11
325.5009215154
 21
210.2734408353
 31
0.0
  0
LINE
  5
253
 67
     1
  8
0
  6
CONTINUOUS
 62
     7
 10
337.8690712462
 20
205.7734408353
 30
0.0
 11
338.4235712462
 21
206.3279408353
 31
0.0
  0
LINE
  5
254
 67
     1
  8
0
  6
CONTINUOUS
 62
     7
 10
337.8690712462
 20
205.7734408353
 30
0.0
 11
326.6735712462
 21
205.7734408353
 31
0.0
  0
ARC
  5
255
 67
     1
  8
0
  6
CONTINUOUS
 62
     7
 10
326.6735712462
 20
205.5234408353
 30
0.0
 40
0.25
 50
90.0
 51
180.0
  0
LINE
  5
256
 67
     1
  8
0
  6
CONTINUOUS
 62
     7
 10
326.4235712462
 20
205.5234408353
 30
0.0
 11
326.4235712462
 21
203.7734408353
 31
0.0
  0
LINE
  5
257
 67
     1
  8
0
  6
CONTINUOUS
 62
     7
 10
326.4235712462
 20
203.7734408353
 30
0.0
 11
323.0235712462
 21
203.7734408353
 31
0.0
  0
ARC
  5
258
 67
     1
  8
0
  6
CONTINUOUS
 62
     7
 10
323.0235712462
 20
204.3734408353
 30
0.0
 40
0.6000000000000227
 50
180.0
 51
270.0
  0
LINE
  5
259
 67
     1
  8
0
  6
CONTINUOUS
 62
     7
 10
322.4235712462
 20
204.3734408353
 30
0.0
 11
322.4235712462
 21
206.2734408353
 31
0.0
  0
LINE
  5
25A
 67
     1
  8
0
  6
CONTINUOUS
 62
     7
 10
327.4235712462
 20
207.2734408353
 30
0.0
 11
325.5009215154
 21
207.2734408353
 31
0.0
  0
LINE
  5
25B
 67
     1
  8
0
  6
CONTINUOUS
 62
     7
 10
328.28959665
 20
208.7734408353
 30
0.0
 11
327.4235712462
 21
207.2734408353
 31
0.0
  0
LINE
  5
25C
 67
     1
  8
0
  6
CONTINUOUS
 62
     7
 10
327.4235712462
 20
210.2734408353
 30
0.0
 11
328.28959665
 21
208.7734408353
 31
0.0
  0
LINE
  5
25D
 67
     1
  8
0
  6
CONTINUOUS
 62
     7
 10
325.5009215154
 20
210.2734408353
 30
0.0
 11
327.4235712462
 21
210.2734408353
 31
0.0
  0
LINE
  5
25E
 67
     1
  8
0
  6
CONTINUOUS
 62
     7
 10
322.4235712462
 20
211.2734408353
 30
0.0
 11
324.9235712462
 21
211.2734408353
 31
0.0
  0
LINE
  5
25F
 67
     1
  8
0
  6
CONTINUOUS
 62
     7
 10
322.4235712462
 20
211.2734408353
 30
0.0
 11
322.4235712462
 21
213.1734408353
 31
0.0
  0
ARC
  5
260
 67
     1
  8
0
  6
CONTINUOUS
 62
     7
 10
323.0235712462
 20
213.1734408353
 30
0.0
 40
0.6000000000000512
 50
90.0
 51
180.0
  0
LINE
  5
261
 67
     1
  8
0
  6
CONTINUOUS
 62
     7
 10
323.0235712462
 20
213.7734408353
 30
0.0
 11
326.4235712462
 21
213.7734408353
 31
0.0
  0
LINE
  5
262
 67
     1
  8
0
  6
CONTINUOUS
 62
     7
 10
326.4235712462
 20
213.7734408353
 30
0.0
 11
326.4235712462
 21
212.0234408353
 31
0.0
  0
ARC
  5
263
 67
     1
  8
0
  6
CONTINUOUS
 62
     7
 10
326.6735712462
 20
212.0234408353
 30
0.0
 40
0.25
 50
180.0
 51
270.0
  0
LINE
  5
264
 67
     1
  8
0
  6
CONTINUOUS
 62
     7
 10
326.6735712462
 20
211.7734408353
 30
0.0
 11
337.8690712462
 21
211.7734408353
 31
0.0
  0
LINE
  5
265
 67
     1
  8
0
  6
CONTINUOUS
 62
     7
 10
338.4235712462
 20
211.2189408353
 30
0.0
 11
337.8690712462
 21
211.7734408353
 31
0.0
  0
LINE
  5
266
 67
     1
  8
0
  6
CONTINUOUS
 62
     7
 10
338.4235712462
 20
211.2189408353
 30
0.0
 11
338.4235712462
 21
206.3279408353
 31
0.0
  0
LINE
  5
267
 67
     1
  8
0
  6
CONTINUOUS
 62
     7
 10
324.9235712462
 20
206.2734408353
 30
0.0
 11
322.4235712462
 21
206.2734408353
 31
0.0
  0
LINE
  5
268
 67
     1
  8
0
  6
CONTINUOUS
 62
     7
 10
327.4235712462
 20
210.2734408353
 30
0.0
 11
327.4235712462
 21
207.2734408353
 31
0.0
  0
LINE
  5
269
 67
     1
  8
0
  6
CONTINUOUS
 62
     7
 10
324.9235712462
 20
208.7734408353
 30
0.0
 11
322.4235712462
 21
208.7734408353
 31
0.0
  0
LINE
  5
26A
 67
     1
  8
0
  6
CONTINUOUS
 62
     7
 10
322.4235712462
 20
206.2734408353
 30
0.0
 11
322.4235712462
 21
208.7734408353
 31
0.0
  0
LINE
  5
26B
 67
     1
  8
0
  6
CONTINUOUS
 62
     7
 10
322.4235712462
 20
208.7734408353
 30
0.0
 11
322.4235712462
 21
211.2734408353
 31
0.0
  0
LINE
  5
26C
 67
     1
  8
0
  6
CONTINUOUS
 62
     7
 10
342.9235712462
 20
205.2734408353
 30
0.0
 11
340.4235712462
 21
205.2734408353
 31
0.0
  0
LINE
  5
26D
 67
     1
  8
0
  6
CONTINUOUS
 62
     7
 10
340.4235712462
 20
193.7734408353
 30
0.0
 11
342.9235712462
 21
193.7734408353
 31
0.0
  0
LINE
  5
26E
 67
     1
  8
0
  6
CONTINUOUS
 62
     7
 10
342.9235712462
 20
193.7734408353
 30
0.0
 11
342.9235712462
 21
205.2734408353
 31
0.0
  0
LINE
  5
26F
 67
     1
  8
0
  6
CONTINUOUS
 62
     7
 10
340.4235712462
 20
193.7734408353
 30
0.0
 11
340.4235712462
 21
205.2734408353
 31
0.0
  0
LINE
  5
270
 67
     1
  8
0
  6
CONTINUOUS
 62
     7
 10
340.4235712462
 20
212.2734408353
 30
0.0
 11
342.9235712462
 21
212.2734408353
 31
0.0
  0
LINE
  5
271
 67
     1
  8
0
  6
CONTINUOUS
 62
     7
 10
340.4235712462
 20
205.2734408353
 30
0.0
 11
340.4235712462
 21
212.2734408353
 31
0.0
  0
LINE
  5
272
 67
     1
  8
0
  6
CONTINUOUS
 62
     7
 10
342.9235712462
 20
217.7734408353
 30
0.0
 11
340.4235712462
 21
217.7734408353
 31
0.0
  0
LINE
  5
273
 67
     1
  8
0
  6
CONTINUOUS
 62
     7
 10
342.9235712462
 20
212.2734408353
 30
0.0
 11
342.9235712462
 21
217.7734408353
 31
0.0
  0
LINE
  5
274
 67
     1
  8
0
  6
CONTINUOUS
 62
     7
 10
340.4235712462
 20
212.2734408353
 30
0.0
 11
340.4235712462
 21
217.7734408353
 31
0.0
  0
LINE
  5
275
 67
     1
  8
0
  6
CONTINUOUS
 62
     7
 10
318.9235712462
 20
214.0234408353
 30
0.0
 11
321.9235712462
 21
214.0234408353
 31
0.0
  0
ARC
  5
276
 67
     1
  8
0
  6
CONTINUOUS
 62
     7
 10
320.1235712462
 20
222.5734408353
 30
0.0
 40
1.200000000000017
 50
90.0
 51
180.0
  0
LINE
  5
277
 67
     1
  8
0
  6
CONTINUOUS
 62
     7
 10
325.9235712462
 20
220.7734408353
 30
0.0
 11
325.9235712462
 21
223.7734408353
 31
0.0
  0
LINE
  5
278
 67
     1
  8
0
  6
CONTINUOUS
 62
     7
 10
322.4829567949
 20
221.6282688489
 30
0.0
 11
323.7037777187
 21
220.7734408353
 31
0.0
  0
ARC
  5
279
 67
     1
  8
0
  6
CONTINUOUS
 62
     7
 10
322.2448915897
 20
220.4521204917
 30
0.0
 40
1.200000000000031
 50
78.5573097619
 51
191.4426902381
  0
LINE
  5
27A
 67
     1
  8
0
  6
CONTINUOUS
 62
     7
 10
321.9235712462
 20
218.9932343628
 30
0.0
 11
321.0687432326
 21
220.2140552865
 31
0.0
  0
LINE
  5
27B
 67
     1
  8
0
  6
CONTINUOUS
 62
     7
 10
321.9235712462
 20
214.0234408353
 30
0.0
 11
321.9235712462
 21
218.9932343628
 31
0.0
  0
LINE
  5
27C
 67
     1
  8
0
  6
CONTINUOUS
 62
     7
 10
323.7037777187
 20
220.7734408353
 30
0.0
 11
325.9235712462
 21
220.7734408353
 31
0.0
  0
LINE
  5
27D
 67
     1
  8
0
  6
CONTINUOUS
 62
     7
 10
325.9235712462
 20
223.7734408353
 30
0.0
 11
320.1235712462
 21
223.7734408353
 31
0.0
  0
LINE
  5
27E
 67
     1
  8
0
  6
CONTINUOUS
 62
     7
 10
318.9235712462
 20
222.5734408353
 30
0.0
 11
318.9235712462
 21
214.0234408353
 31
0.0
  0
LINE
  5
27F
 67
     1
  8
0
  6
CONTINUOUS
 62
     7
 10
321.9235712462
 20
203.5234408353
 30
0.0
 11
318.9235712462
 21
203.5234408353
 31
0.0
  0
LINE
  5
280
 67
     1
  8
0
  6
CONTINUOUS
 62
     7
 10
321.9235712462
 20
193.7734408353
 30
0.0
 11
321.9235712462
 21
203.5234408353
 31
0.0
  0
LINE
  5
281
 67
     1
  8
0
  6
CONTINUOUS
 62
     7
 10
318.9235712462
 20
193.7734408353
 30
0.0
 11
321.9235712462
 21
193.7734408353
 31
0.0
  0
LINE
  5
282
 67
     1
  8
0
  6
CONTINUOUS
 62
     7
 10
318.9235712462
 20
203.5234408353
 30
0.0
 11
318.9235712462
 21
193.7734408353
 31
0.0
  0
LINE
  5
283
 67
     1
  8
0
  6
CONTINUOUS
 62
     7
 10
321.9235712462
 20
214.0234408353
 30
0.0
 11
321.9235712462
 21
203.5234408353
 31
0.0
  0
LINE
  5
284
 67
     1
  8
0
  6
CONTINUOUS
 62
     7
 10
318.9235712462
 20
214.0234408353
 30
0.0
 11
318.9235712462
 21
203.5234408353
 31
0.0
  0
LINE
  5
285
 67
     1
  8
0
  6
CONTINUOUS
 62
     7
 10
335.9235712462
 20
223.7734408353
 30
0.0
 11
335.9235712462
 21
220.7734408353
 31
0.0
  0
LINE
  5
286
 67
     1
  8
0
  6
CONTINUOUS
 62
     7
 10
335.9235712462
 20
220.7734408353
 30
0.0
 11
341.9235712462
 21
220.7734408353
 31
0.0
  0
LINE
  5
287
 67
     1
  8
0
  6
CONTINUOUS
 62
     7
 10
341.9235712462
 20
220.7734408353
 30
0.0
 11
341.9235712462
 21
223.7734408353
 31
0.0
  0
LINE
  5
288
 67
     1
  8
0
  6
CONTINUOUS
 62
     7
 10
341.9235712462
 20
223.7734408353
 30
0.0
 11
335.9235712462
 21
223.7734408353
 31
0.0
  0
LINE
  5
289
 67
     1
  8
0
  6
CONTINUOUS
 62
     7
 10
325.9235712462
 20
220.7734408353
 30
0.0
 11
329.4235712462
 21
220.7734408353
 31
0.0
  0
LINE
  5
28A
 67
     1
  8
0
  6
CONTINUOUS
 62
     7
 10
333.4235712461
 20
220.7734408353
 30
0.0
 11
335.9235712462
 21
220.7734408353
 31
0.0
  0
LINE
  5
28B
 67
     1
  8
0
  6
CONTINUOUS
 62
     7
 10
335.9235712462
 20
223.7734408353
 30
0.0
 11
333.4235712462
 21
223.7734408353
 31
0.0
  0
LINE
  5
28C
 67
     1
  8
0
  6
CONTINUOUS
 62
     7
 10
329.4235712462
 20
223.7734408353
 30
0.0
 11
325.9235712462
 21
223.7734408353
 31
0.0
  0
CIRCLE
  5
28D
 67
     1
  8
0
  6
CONTINUOUS
 62
     7
 10
341.4235712462
 20
237.2734408353
 30
0.0
 40
6.49999999999999
  0
CIRCLE
  5
28E
 67
     1
  8
0
  6
CONTINUOUS
 62
     7
 10
341.4235712462
 20
237.2734408353
 30
0.0
 40
4.999999999999983
  0
CIRCLE
  5
28F
 67
     1
  8
0
  6
CONTINUOUS
 62
     7
 10
341.4235712462
 20
237.2734408353
 30
0.0
 40
4.49999999999995
  0
LINE
  5
290
 67
     1
  8
0
  6
CONTINUOUS
 62
     7
 10
334.2440867297
 20
229.0055812527
 30
0.0
 11
336.8667294754
 21
232.0258039313
 31
0.0
  0
ARC
  5
291
 67
     1
  8
0
  6
CONTINUOUS
 62
     7
 10
334.4235712462
 20
225.2308222653
 30
0.0
 40
1.000000000000005
 50
175.1192252455
 51
180.0
  0
ARC
  5
292
 67
     1
  8
0
  6
CONTINUOUS
 62
     7
 10
341.4235712462
 20
237.2734408353
 30
0.0
 40
10.94999999999999
 50
229.0302342984
 51
175.1192252455
  0
LINE
  5
293
 67
     1
  8
0
  6
CONTINUOUS
 62
     7
 10
333.427197345
 20
225.3159048661
 30
0.0
 11
334.4987726327
 21
237.864764911
 31
0.0
  0
ARC
  5
294
 67
     1
  8
0
  6
CONTINUOUS
 62
     7
 10
334.4235712462
 20
225.2308222653
 30
0.0
 40
5.000000000000027
 50
175.1192252455
 51
180.0
  0
LINE
  5
295
 67
     1
  8
0
  6
CONTINUOUS
 62
     7
 10
329.4417017401
 20
225.6562352694
 30
0.0
 11
330.5132770278
 21
238.2050953142
 31
0.0
  0
ARC
  5
296
 67
     1
  8
0
  6
CONTINUOUS
 62
     7
 10
341.4235712462
 20
237.2734408353
 30
0.0
 40
6.950000000000018
 50
229.0302342984
 51
175.1192252455
  0
LINE
  5
297
 67
     1
  8
0
  6
CONTINUOUS
 62
     7
 10
333.4235712461
 20
214.7734408353
 30
0.0
 11
333.4235712462
 21
225.2308222653
 31
0.0
  0
LINE
  5
298
 67
     1
  8
0
  6
CONTINUOUS
 62
     7
 10
329.4235712462
 20
214.7734408353
 30
0.0
 11
333.4235712461
 21
214.7734408353
 31
0.0
  0
LINE
  5
299
 67
     1
  8
0
  6
CONTINUOUS
 62
     7
 10
329.4235712462
 20
214.7734408353
 30
0.0
 11
329.4235712462
 21
225.2308222653
 31
0.0
  0
LINE
  5
29A
 67
     1
  8
0
  6
CONTINUOUS
 62
     7
 10
329.4235712462
 20
196.7734408353
 30
0.0
 11
333.4235712461
 21
196.7734408353
 31
0.0
  0
LINE
  5
29B
 67
     1
  8
0
  6
CONTINUOUS
 62
     7
 10
329.4235712462
 20
202.7734408353
 30
0.0
 11
333.4235712461
 21
202.7734408353
 31
0.0
  0
LINE
  5
29C
 67
     1
  8
0
  6
CONTINUOUS
 62
     7
 10
333.4235712461
 20
196.7734408353
 30
0.0
 11
333.4235712461
 21
200.7734408353
 31
0.0
  0
LINE
  5
29D
 67
     1
  8
0
  6
CONTINUOUS
 62
     7
 10
329.4235712462
 20
196.7734408353
 30
0.0
 11
329.4235712462
 21
200.7734408353
 31
0.0
  0
LINE
  5
29E
 67
     1
  8
0
  6
CONTINUOUS
 62
     7
 10
312.8235712462
 20
202.7734408353
 30
0.0
 11
312.8235712462
 21
226.2734408353
 31
0.0
  0
LINE
  5
29F
 67
     1
  8
0
  6
CONTINUOUS
 62
     7
 10
315.3235712462
 20
226.2734408353
 30
0.0
 11
312.8235712462
 21
226.2734408353
 31
0.0
  0
LINE
  5
2A0
 67
     1
  8
0
  6
CONTINUOUS
 62
     7
 10
315.3235712462
 20
202.7734408353
 30
0.0
 11
315.3235712462
 21
226.2734408353
 31
0.0
  0
LINE
  5
2A1
 67
     1
  8
0
  6
CONTINUOUS
 62
     7
 10
312.8235712462
 20
202.7734408353
 30
0.0
 11
315.3235712462
 21
202.7734408353
 31
0.0
  0
LINE
  5
2A2
 67
     1
  8
0
  6
CONTINUOUS
 62
     7
 10
307.4235712462
 20
224.0234408353
 30
0.0
 11
305.1735712462
 21
221.7734408353
 31
0.0
  0
LINE
  5
2A3
 67
     1
  8
0
  6
CONTINUOUS
 62
     7
 10
305.1735712462
 20
215.7734408353
 30
0.0
 11
307.4235712462
 21
213.5234408353
 31
0.0
  0
LINE
  5
2A4
 67
     1
  8
0
  6
CONTINUOUS
 62
     7
 10
305.1735712462
 20
215.7734408353
 30
0.0
 11
305.1735712462
 21
221.7734408353
 31
0.0
  0
LINE
  5
2A5
 67
     1
  8
0
  6
CONTINUOUS
 62
     7
 10
307.4235712462
 20
224.0234408353
 30
0.0
 11
307.4235712462
 21
213.5234408353
 31
0.0
  0
LINE
  5
2A6
 67
     1
  8
0
  6
CONTINUOUS
 62
     7
 10
303.4235712462
 20
221.7734408353
 30
0.0
 11
305.1735712462
 21
221.7734408353
 31
0.0
  0
LINE
  5
2A7
 67
     1
  8
0
  6
CONTINUOUS
 62
     7
 10
328.349524913
 20
228.7734408353
 30
0.0
 11
308.4235712462
 21
228.7734408353
 31
0.0
  0
LINE
  5
2A8
 67
     1
  8
0
  6
CONTINUOUS
 62
     7
 10
328.349524913
 20
232.7734408353
 30
0.0
 11
308.4235712462
 21
232.7734408353
 31
0.0
  0
LINE
  5
2A9
 67
     1
  8
0
  6
CONTINUOUS
 62
     7
 10
328.349524913
 20
228.7734408353
 30
0.0
 11
328.349524913
 21
232.7734408353
 31
0.0
  0
ARC
  5
2AA
 67
     1
  8
0
  6
CONTINUOUS
 62
     7
 10
308.4235712462
 20
227.7734408353
 30
0.0
 40
5.000000000000057
 50
90.0
 51
180.0
  0
ARC
  5
2AB
 67
     1
  8
0
  6
CONTINUOUS
 62
     7
 10
308.4235712462
 20
227.7734408353
 30
0.0
 40
1.0
 50
90.0
 51
180.0
  0
LINE
  5
2AC
 67
     1
  8
0
  6
CONTINUOUS
 62
     7
 10
307.4235712462
 20
227.7734408353
 30
0.0
 11
307.4235712462
 21
224.0234408353
 31
0.0
  0
LINE
  5
2AD
 67
     1
  8
0
  6
CONTINUOUS
 62
     7
 10
303.4235712462
 20
227.7734408353
 30
0.0
 11
303.4235712462
 21
221.7734408353
 31
0.0
  0
LINE
  5
2AE
 67
     1
  8
0
  6
CONTINUOUS
 62
     7
 10
305.1735712462
 20
215.7734408353
 30
0.0
 11
303.4235712462
 21
215.7734408353
 31
0.0
  0
LINE
  5
2AF
 67
     1
  8
0
  6
CONTINUOUS
 62
     7
 10
307.4235712462
 20
202.7734408353
 30
0.0
 11
303.4235712462
 21
202.7734408353
 31
0.0
  0
LINE
  5
2B0
 67
     1
  8
0
  6
CONTINUOUS
 62
     7
 10
307.4235712462
 20
213.5234408353
 30
0.0
 11
307.4235712462
 21
202.7734408353
 31
0.0
  0
LINE
  5
2B1
 67
     1
  8
0
  6
CONTINUOUS
 62
     7
 10
303.4235712462
 20
215.7734408353
 30
0.0
 11
303.4235712462
 21
202.7734408353
 31
0.0
  0
ARC
  5
2B2
 67
     1
  8
0
  6
CONTINUOUS
 62
     7
 10
328.8855328563
 20
227.7734408353
 30
0.0
 40
1.0
 50
77.716335435
 51
90.0
  0
LINE
  5
2B3
 67
     1
  8
0
  6
CONTINUOUS
 62
     7
 10
328.8855328563
 20
232.7734408353
 30
0.0
 11
328.8855328563
 21
228.7734408353
 31
0.0
  0
ARC
  5
2B4
 67
     1
  8
0
  6
CONTINUOUS
 62
     7
 10
328.8855328563
 20
227.7734408353
 30
0.0
 40
5.0
 50
77.716335435
 51
90.0
  0
LINE
  5
2B5
 67
     1
  8
0
  6
CONTINUOUS
 62
     7
 10
329.0982846712
 20
228.7505471065
 30
0.0
 11
329.9492919311
 21
232.6589721913
 31
0.0
  0
LINE
  5
2B6
 67
     1
  8
0
  6
CONTINUOUS
 62
     7
 10
328.8855328563
 20
228.7734408353
 30
0.0
 11
328.349524913
 21
228.7734408353
 31
0.0
  0
LINE
  5
2B7
 67
     1
  8
0
  6
CONTINUOUS
 62
     7
 10
328.8855328563
 20
232.7734408353
 30
0.0
 11
328.4235712462
 21
232.7734408353
 31
0.0
  0
LINE
  5
2B8
 67
     1
  8
0
  6
CONTINUOUS
 62
     7
 10
339.0939388723
 20
226.5741271656
 30
0.0
 11
333.6361171444
 21
227.7624948106
 31
0.0
  0
LINE
  5
2B9
 67
     1
  8
0
  6
CONTINUOUS
 62
     7
 10
329.6948401963
 20
228.620655124
 30
0.0
 11
329.0982846712
 21
228.7505471065
 31
0.0
  0
LINE
  5
2BA
 67
     1
  8
0
  6
CONTINUOUS
 62
     7
 10
334.357683644
 20
231.6991038887
 30
0.0
 11
333.9793081597
 21
231.7814900871
 31
0.0
  0
LINE
  5
2BB
 67
     1
  8
0
  6
CONTINUOUS
 62
     7
 10
330.0380312116
 20
232.6396504005
 30
0.0
 11
329.9492919311
 21
232.6589721913
 31
0.0
  0
LINE
  5
2BC
 67
     1
  8
0
  6
CONTINUOUS
 62
     7
 10
321.9235712462
 20
194.2203717474
 30
0.0
 11
324.9235712462
 21
194.2203717474
 31
0.0
  0
LINE
  5
2BD
 67
     1
  8
0
  6
CONTINUOUS
 62
     7
 10
324.9235712462
 20
217.2192788893
 30
0.0
 11
321.9235712462
 21
217.2192788893
 31
0.0
  0
LINE
  5
2BE
 67
     1
  8
0
  6
CONTINUOUS
 62
     7
 10
324.9235712462
 20
217.2084046991
 30
0.0
 11
324.9235712462
 21
217.2192788893
 31
0.0
  0
LINE
  5
2BF
 67
     1
  8
0
  6
CONTINUOUS
 62
     7
 10
324.9235712462
 20
217.2084046991
 30
0.0
 11
329.4235712462
 21
217.2084046991
 31
0.0
  0
LINE
  5
2C0
 67
     1
  8
0
  6
CONTINUOUS
 62
     7
 10
333.4235712461
 20
217.2084046991
 30
0.0
 11
340.4235712462
 21
217.2084046991
 31
0.0
  0
LINE
  5
2C1
 67
     1
  8
0
  6
CONTINUOUS
 62
     7
 10
340.4235712462
 20
194.2312459376
 30
0.0
 11
324.9235712462
 21
194.2312459376
 31
0.0
  0
LINE
  5
2C2
 67
     1
  8
0
  6
CONTINUOUS
 62
     7
 10
324.9235712462
 20
194.2203717474
 30
0.0
 11
324.9235712462
 21
194.2312459376
 31
0.0
  0
LINE
  5
2C3
 67
     1
  8
0
  6
CONTINUOUS
 62
     7
 10
324.9235712462
 20
217.3801254401
 30
0.0
 11
321.9235712462
 21
217.3801254401
 31
0.0
  0
LINE
  5
2C4
 67
     1
  8
0
  6
CONTINUOUS
 62
     7
 10
324.9235712462
 20
217.249679375
 30
0.0
 11
324.9235712462
 21
217.2192788893
 31
0.0
  0
LINE
  5
2C5
 67
     1
  8
0
  6
CONTINUOUS
 62
     7
 10
318.8735712462
 20
200.9534408353
 30
0.0
 11
318.8735712462
 21
210.5934408353
 31
0.0
  0
LINE
  5
2C6
 67
     1
  8
0
  6
CONTINUOUS
 62
     7
 10
322.5235712462
 20
214.7734408353
 30
0.0
 11
322.5235712462
 21
213.5051033143
 31
0.0
  0
LINE
  5
2C7
 67
     1
  8
0
  6
CONTINUOUS
 62
     7
 10
322.5235712462
 20
204.0417783563
 30
0.0
 11
322.5235712462
 21
202.7734408353
 31
0.0
  0
LINE
  5
2C8
 67
     1
  8
0
  6
CONTINUOUS
 62
     7
 10
339.8235712462
 20
202.7734408353
 30
0.0
 11
339.8235712462
 21
214.7734408353
 31
0.0
  0
ARC
  5
2C9
 67
     1
  8
0
  6
CONTINUOUS
 62
     7
 10
341.4235712462
 20
237.2734408353
 30
0.0
 40
7.000000000000003
 50
181.9714635805
 51
229.0302342984
  0
CIRCLE
  5
2CA
 67
     1
  8
0
  6
CONTINUOUS
 62
     7
 10
341.4235712462
 20
237.2734408353
 30
0.0
 40
4.525000000000011
  0
ARC
  5
2CB
 67
     1
  8
0
  6
CONTINUOUS
 62
     7
 10
341.4235712462
 20
237.2734408353
 30
0.0
 40
8.749999999999986
 50
212.5313837128
 51
229.0302342984
  0
ARC
  5
2CC
 67
     1
  8
0
  6
CONTINUOUS
 62
     7
 10
341.4235712462
 20
237.2734408353
 30
0.0
 40
9.000000000000002
 50
214.5653612339
 51
229.0302342984
  0
LINE
  5
2CD
 67
     1
  8
0
  6
CONTINUOUS
 62
     7
 10
307.6235712462
 20
224.7734408353
 30
0.0
 11
307.6235712462
 21
212.7734408353
 31
0.0
  0
LINE
  5
2CE
 67
     1
  8
0
  6
CONTINUOUS
 62
     8
 10
315.3235712462
 20
220.5734408353
 30
0.0
 11
315.4235712462
 21
220.5734408353
 31
0.0
  0
LINE
  5
2CF
 67
     1
  8
0
  6
CONTINUOUS
 62
     8
 10
315.3235712462
 20
214.7734408353
 30
0.0
 11
315.4235712462
 21
214.7734408353
 31
0.0
  0
ARC
  5
2D0
 67
     1
  8
0
  6
CONTINUOUS
 62
     8
 10
341.4235712462
 20
237.2734408353
 30
0.0
 40
7.499999999999953
 50
197.1981940529
 51
229.0302342984
  0
DIMENSION
  5
2D1
 67
     1
  8
0
  6
CONTINUOUS
 62
     7
  2
_D
 10
390.9311609244
 20
193.7734408353
 30
0.0
 11
390.9311609244
 21
208.7734408353
 31
0.0
 70
   160
  1
<>
  3
SLDDIMSTYLE0
 13
341.9235712462
 23
223.7734408353
 33
0.0
 14
342.9235712462
 24
193.7734408353
 34
0.0
 50
90.0
  0
DIMENSION
  5
2DC
 67
     1
  8
0
  6
CONTINUOUS
 62
     7
  2
_D_1
 10
342.9235712462
 20
179.9862877605
 30
0.0
 11
330.9235712462
 21
179.9862877605
 31
0.0
 70
   160
  1
<>
  3
SLDDIMSTYLE0
 13
318.9235712462
 23
193.7734408353
 33
0.0
 14
342.9235712462
 24
193.7734408353
 34
0.0
  0
DIMENSION
  5
2E6
 67
     1
  8
0
  6
CONTINUOUS
 62
     7
  2
_D_2
 10
328.4235712462
 20
256.0402916405
 30
0.0
 11
315.9235712462
 21
256.0402916405
 31
0.0
 70
   160
  1
<>
  3
SLDDIMSTYLE0
 13
303.4235712462
 23
232.7734408353
 33
0.0
 14
328.4235712462
 24
245.2734408353
 34
0.0
  0
DIMENSION
  5
2F0
 67
     1
  8
0
  6
CONTINUOUS
 62
     7
  2
_D_3
 10
280.763777616
 20
199.2734408353
 30
0.0
 11
280.763777616
 21
186.7734408353
 31
0.0
 70
   160
  1
<>
  3
SLDDIMSTYLE0
 13
303.4235712462
 23
174.2734408353
 33
0.0
 14
303.4235712462
 24
199.2734408353
 34
0.0
 50
90.0
  0
DIMENSION
  5
2F9
 67
     1
  8
0
  6
CONTINUOUS
 62
     7
  2
_D_4
 10
295.9791603647
 20
228.7734408353
 30
0.0
 11
295.9791603647
 21
226.2734408353
 31
0.0
 70
   160
  1
<>
  3
SLDDIMSTYLE1
 13
320.1235712462
 23
223.7734408353
 33
0.0
 14
308.4235712462
 24
228.7734408353
 34
0.0
 50
90.0
  0
DIMENSION
  5
306
 67
     1
  8
0
  6
CONTINUOUS
 62
     7
  2
_D_5
 10
218.4235712462
 20
174.2734408353
 30
0.0
 11
218.4235712462
 21
209.7734408353
 31
0.0
 70
   160
  1
<>
  3
SLDDIMSTYLE0
 13
228.4235712462
 23
245.2734408353
 33
0.0
 14
228.4235712462
 24
174.2734408353
 34
0.0
 50
90.0
  0
DIMENSION
  5
310
 67
     1
  8
0
  6
CONTINUOUS
 62
     7
  2
_D_6
 10
318.9235712462
 20
185.838973504
 30
0.0
 11
311.3159913554
 21
185.838973504
 31
0.0
 70
   160
  1
<>
  3
SLDDIMSTYLE1
 13
315.4235712462
 23
199.2734408353
 33
0.0
 14
318.9235712462
 24
193.7734408353
 34
0.0
  0
DIMENSION
  5
31C
 67
     1
  8
0
  6
CONTINUOUS
 62
     7
  2
_D_7
 10
288.6921421931
 20
223.7734408353
 30
0.0
 11
288.6921421931
 21
211.5234408353
 31
0.0
 70
   160
  1
<>
  3
SLDDIMSTYLE0
 13
303.4235712462
 23
199.2734408353
 33
0.0
 14
320.1235712462
 24
223.7734408353
 34
0.0
 50
90.0
  0
DIMENSION
  5
326
 67
     1
  8
0
  6
CONTINUOUS
 62
     7
  2
_D_8
 10
315.3235712462
 20
250.6484574313
 30
0.0
 11
321.8735712462
 21
250.6484574313
 31
0.0
 70
   160
  1
<>
  3
SLDDIMSTYLE2
 13
328.4235712462
 23
245.2734408353
 33
0.0
 14
315.3235712462
 24
226.2734408353
 34
0.0
 50
0.0
  0
DIMENSION
  5
333
 67
     1
  8
0
  6
CONTINUOUS
 62
     7
  2
_D_9
 10
303.4235712462
 20
161.0841002882
 30
0.0
 11
309.4235712462
 21
161.0841002882
 31
0.0
 70
   160
  1
<>
  3
SLDDIMSTYLE1
 13
315.4235712462
 23
199.2734408353
 33
0.0
 14
303.4235712462
 24
174.2734408353
 34
0.0
  0
TEXT
  5
33F
 67
     1
  8
0
  6
CONTINUOUS
 62
     7
 10
709.3355449976
 20
374.981689187
 30
0.0
 40
3.5
  1
A-A
 41
0.7
 11
709.3355449976
 21
373.7452789703
 31
0.0
 73
     1
  0
INSERT
  5
34B
 67
     1
  8
0
  6
CONTINUOUS
 62
     7
  2
SW_CENTERMARKSYMBOL_0
 10
341.4235712462
 20
237.2734408353
 30
0.0
  0
LINE
  5
34C
 67
     1
  8
0
  6
CENTERX2
 62
     7
 10
338.5454946325
 20
208.7734408353
 30
0.0
 11
322.5557836663
 21
208.7734408353
 31
0.0
  0
LINE
  5
34D
 67
     1
  8
0
  6
CENTERX2
 62
     7
 10
309.2908355588
 20
218.7734408353
 30
0.0
 11
301.4235712462
 21
218.7734408353
 31
0.0
  0
ARC
  5
34E
 67
     1
  8
0
  6
CONTINUOUS
 62
     7
 10
115.445276749
 20
234.9857594172
 30
0.0
 40
0.2000000000000028
 50
90.0
 51
180.0
  0
ARC
  5
34F
 67
     1
  8
0
  6
CONTINUOUS
 62
     7
 10
132.545276749
 20
234.9857594172
 30
0.0
 40
0.2000000000000171
 50
360.0
 51
90.0
  0
LINE
  5
350
 67
     1
  8
0
  6
CONTINUOUS
 62
     7
 10
132.745276749
 20
234.6857594172
 30
0.0
 11
132.745276749
 21
234.9857594172
 31
0.0
  0
LINE
  5
351
 67
     1
  8
0
  6
CONTINUOUS
 62
     7
 10
115.245276749
 20
234.9857594172
 30
0.0
 11
115.245276749
 21
234.6857594172
 31
0.0
  0
ARC
  5
352
 67
     1
  8
0
  6
CONTINUOUS
 62
     7
 10
115.445276749
 20
155.8857594172
 30
0.0
 40
0.2000000000000171
 50
180.0
 51
270.0
  0
ARC
  5
353
 67
     1
  8
0
  6
CONTINUOUS
 62
     7
 10
132.545276749
 20
155.8857594172
 30
0.0
 40
0.1999999999999886
 50
270.0
 51
0.0
  0
LINE
  5
354
 67
     1
  8
0
  6
CONTINUOUS
 62
     7
 10
132.745276749
 20
155.8857594172
 30
0.0
 11
132.745276749
 21
156.1857594172
 31
0.0
  0
LINE
  5
355
 67
     1
  8
0
  6
CONTINUOUS
 62
     7
 10
115.245276749
 20
156.1857594172
 30
0.0
 11
115.245276749
 21
155.8857594172
 31
0.0
  0
LINE
  5
356
 67
     1
  8
0
  6
CONTINUOUS
 62
     7
 10
119.495276749
 20
235.7357594172
 30
0.0
 11
119.495276749
 21
235.1857594172
 31
0.0
  0
LINE
  5
357
 67
     1
  8
0
  6
CONTINUOUS
 62
     7
 10
119.495276749
 20
155.6857594172
 30
0.0
 11
119.495276749
 21
155.1357594172
 31
0.0
  0
LINE
  5
358
 67
     1
  8
0
  6
CONTINUOUS
 62
     7
 10
128.495276749
 20
155.1357594172
 30
0.0
 11
128.495276749
 21
155.6857594172
 31
0.0
  0
LINE
  5
359
 67
     1
  8
0
  6
CONTINUOUS
 62
     7
 10
128.495276749
 20
235.1857594172
 30
0.0
 11
128.495276749
 21
235.7357594172
 31
0.0
  0
LINE
  5
35A
 67
     1
  8
0
  6
CONTINUOUS
 62
     7
 10
134.945276749
 20
156.1857594172
 30
0.0
 11
134.945276749
 21
234.6857594172
 31
0.0
  0
LINE
  5
35B
 67
     1
  8
0
  6
CONTINUOUS
 62
     7
 10
152.595276749
 20
136.9357594172
 30
0.0
 11
157.795276749
 21
136.9357594172
 31
0.0
  0
LINE
  5
35C
 67
     1
  8
0
  6
CONTINUOUS
 62
     7
 10
157.795276749
 20
148.9357594172
 30
0.0
 11
152.595276749
 21
148.9357594172
 31
0.0
  0
LINE
  5
35D
 67
     1
  8
0
  6
CONTINUOUS
 62
     7
 10
157.795276749
 20
136.9357594172
 30
0.0
 11
157.995276749
 21
137.1357594172
 31
0.0
  0
LINE
  5
35E
 67
     1
  8
0
  6
CONTINUOUS
 62
     7
 10
157.995276749
 20
148.7357594172
 30
0.0
 11
157.795276749
 21
148.9357594172
 31
0.0
  0
LINE
  5
35F
 67
     1
  8
0
  6
CONTINUOUS
 62
     7
 10
152.595276749
 20
241.9357594172
 30
0.0
 11
157.795276749
 21
241.9357594172
 31
0.0
  0
LINE
  5
360
 67
     1
  8
0
  6
CONTINUOUS
 62
     7
 10
157.795276749
 20
253.9357594172
 30
0.0
 11
152.595276749
 21
253.9357594172
 31
0.0
  0
LINE
  5
361
 67
     1
  8
0
  6
CONTINUOUS
 62
     7
 10
157.795276749
 20
241.9357594172
 30
0.0
 11
157.995276749
 21
242.1357594172
 31
0.0
  0
LINE
  5
362
 67
     1
  8
0
  6
CONTINUOUS
 62
     7
 10
157.995276749
 20
253.7357594172
 30
0.0
 11
157.795276749
 21
253.9357594172
 31
0.0
  0
LINE
  5
363
 67
     1
  8
0
  6
CONTINUOUS
 62
     7
 10
113.045276749
 20
155.1357594172
 30
0.0
 11
113.045276749
 21
115.2857594172
 31
0.0
  0
LINE
  5
364
 67
     1
  8
0
  6
CONTINUOUS
 62
     7
 10
113.045276749
 20
275.5857594172
 30
0.0
 11
113.045276749
 21
235.7357594172
 31
0.0
  0
LINE
  5
365
 67
     1
  8
0
  6
CONTINUOUS
 62
     7
 10
117.3030190759
 20
235.1857594172
 30
0.0
 11
132.545276749
 21
235.1857594172
 31
0.0
  0
LINE
  5
366
 67
     1
  8
0
  6
CONTINUOUS
 62
     7
 10
115.445276749
 20
235.1857594172
 30
0.0
 11
117.3030190759
 21
235.1857594172
 31
0.0
  0
LINE
  5
367
 67
     1
  8
0
  6
CONTINUOUS
 62
     7
 10
132.545276749
 20
155.6857594172
 30
0.0
 11
115.445276749
 21
155.6857594172
 31
0.0
  0
LINE
  5
368
 67
     1
  8
0
  6
CONTINUOUS
 62
     7
 10
89.495276749
 20
163.9357594171
 30
0.0
 11
83.495276749
 21
163.410827436
 31
0.0
  0
LINE
  5
369
 67
     1
  8
0
  6
CONTINUOUS
 62
     7
 10
89.495276749
 20
163.4357594171
 30
0.0
 11
89.495276749
 21
163.9357594171
 31
0.0
  0
ARC
  5
36A
 67
     1
  8
0
  6
CONTINUOUS
 62
     7
 10
92.495276749
 20
163.4357594171
 30
0.0
 40
3.0
 50
180.0
 51
270.0
  0
LINE
  5
36B
 67
     1
  8
0
  6
CONTINUOUS
 62
     7
 10
98.495276749
 20
160.4357594171
 30
0.0
 11
92.495276749
 21
160.4357594171
 31
0.0
  0
ARC
  5
36C
 67
     1
  8
0
  6
CONTINUOUS
 62
     7
 10
98.495276749
 20
163.4357594171
 30
0.0
 40
3.0
 50
270.0
 51
0.0
  0
LINE
  5
36D
 67
     1
  8
0
  6
CONTINUOUS
 62
     7
 10
101.495276749
 20
171.4357594171
 30
0.0
 11
101.495276749
 21
163.4357594171
 31
0.0
  0
ARC
  5
36E
 67
     1
  8
0
  6
CONTINUOUS
 62
     7
 10
98.495276749
 20
171.4357594171
 30
0.0
 40
3.0
 50
0.0
 51
90.0
  0
LINE
  5
36F
 67
     1
  8
0
  6
CONTINUOUS
 62
     7
 10
92.495276749
 20
174.4357594171
 30
0.0
 11
98.495276749
 21
174.4357594171
 31
0.0
  0
ARC
  5
370
 67
     1
  8
0
  6
CONTINUOUS
 62
     7
 10
92.495276749
 20
171.4357594171
 30
0.0
 40
3.0
 50
90.0
 51
180.0
  0
LINE
  5
371
 67
     1
  8
0
  6
CONTINUOUS
 62
     7
 10
89.495276749
 20
170.9357594171
 30
0.0
 11
89.495276749
 21
171.4357594171
 31
0.0
  0
LINE
  5
372
 67
     1
  8
0
  6
CONTINUOUS
 62
     7
 10
83.495276749
 20
171.4606913983
 30
0.0
 11
89.495276749
 21
170.9357594171
 31
0.0
  0
LINE
  5
373
 67
     1
  8
0
  6
CONTINUOUS
 62
     7
 10
83.495276749
 20
191.410827436
 30
0.0
 11
83.495276749
 21
171.4606913983
 31
0.0
  0
LINE
  5
374
 67
     1
  8
0
  6
CONTINUOUS
 62
     7
 10
89.495276749
 20
191.9357594171
 30
0.0
 11
83.495276749
 21
191.410827436
 31
0.0
  0
LINE
  5
375
 67
     1
  8
0
  6
CONTINUOUS
 62
     7
 10
89.495276749
 20
191.4357594171
 30
0.0
 11
89.495276749
 21
191.9357594171
 31
0.0
  0
ARC
  5
376
 67
     1
  8
0
  6
CONTINUOUS
 62
     7
 10
92.495276749
 20
191.4357594171
 30
0.0
 40
3.0
 50
180.0
 51
270.0
  0
LINE
  5
377
 67
     1
  8
0
  6
CONTINUOUS
 62
     7
 10
98.495276749
 20
188.4357594171
 30
0.0
 11
92.495276749
 21
188.4357594171
 31
0.0
  0
ARC
  5
378
 67
     1
  8
0
  6
CONTINUOUS
 62
     7
 10
98.495276749
 20
191.4357594171
 30
0.0
 40
3.0
 50
270.0
 51
0.0
  0
LINE
  5
379
 67
     1
  8
0
  6
CONTINUOUS
 62
     7
 10
101.495276749
 20
199.4357594171
 30
0.0
 11
101.495276749
 21
191.4357594171
 31
0.0
  0
ARC
  5
37A
 67
     1
  8
0
  6
CONTINUOUS
 62
     7
 10
98.495276749
 20
199.4357594171
 30
0.0
 40
3.0
 50
0.0
 51
90.0
  0
LINE
  5
37B
 67
     1
  8
0
  6
CONTINUOUS
 62
     7
 10
92.495276749
 20
202.4357594171
 30
0.0
 11
98.495276749
 21
202.4357594171
 31
0.0
  0
ARC
  5
37C
 67
     1
  8
0
  6
CONTINUOUS
 62
     7
 10
92.495276749
 20
199.4357594171
 30
0.0
 40
3.0
 50
90.0
 51
180.0
  0
LINE
  5
37D
 67
     1
  8
0
  6
CONTINUOUS
 62
     7
 10
89.495276749
 20
198.9357594171
 30
0.0
 11
89.495276749
 21
199.4357594171
 31
0.0
  0
LINE
  5
37E
 67
     1
  8
0
  6
CONTINUOUS
 62
     7
 10
83.495276749
 20
199.4606913983
 30
0.0
 11
89.495276749
 21
198.9357594171
 31
0.0
  0
LINE
  5
37F
 67
     1
  8
0
  6
CONTINUOUS
 62
     7
 10
83.495276749
 20
219.410827436
 30
0.0
 11
83.495276749
 21
199.4606913983
 31
0.0
  0
LINE
  5
380
 67
     1
  8
0
  6
CONTINUOUS
 62
     7
 10
89.495276749
 20
219.9357594171
 30
0.0
 11
83.495276749
 21
219.410827436
 31
0.0
  0
LINE
  5
381
 67
     1
  8
0
  6
CONTINUOUS
 62
     7
 10
89.495276749
 20
219.4357594171
 30
0.0
 11
89.495276749
 21
219.9357594171
 31
0.0
  0
ARC
  5
382
 67
     1
  8
0
  6
CONTINUOUS
 62
     7
 10
92.495276749
 20
219.4357594171
 30
0.0
 40
3.0
 50
180.0
 51
270.0
  0
LINE
  5
383
 67
     1
  8
0
  6
CONTINUOUS
 62
     7
 10
98.495276749
 20
216.4357594171
 30
0.0
 11
92.495276749
 21
216.4357594171
 31
0.0
  0
ARC
  5
384
 67
     1
  8
0
  6
CONTINUOUS
 62
     7
 10
98.495276749
 20
219.4357594171
 30
0.0
 40
3.0
 50
270.0
 51
0.0
  0
LINE
  5
385
 67
     1
  8
0
  6
CONTINUOUS
 62
     7
 10
101.495276749
 20
227.4357594171
 30
0.0
 11
101.495276749
 21
219.4357594171
 31
0.0
  0
ARC
  5
386
 67
     1
  8
0
  6
CONTINUOUS
 62
     7
 10
98.495276749
 20
227.4357594171
 30
0.0
 40
3.0
 50
0.0
 51
90.0
  0
LINE
  5
387
 67
     1
  8
0
  6
CONTINUOUS
 62
     7
 10
92.495276749
 20
230.4357594171
 30
0.0
 11
98.495276749
 21
230.4357594171
 31
0.0
  0
ARC
  5
388
 67
     1
  8
0
  6
CONTINUOUS
 62
     7
 10
92.495276749
 20
227.4357594171
 30
0.0
 40
3.0
 50
90.0
 51
180.0
  0
LINE
  5
389
 67
     1
  8
0
  6
CONTINUOUS
 62
     7
 10
89.495276749
 20
226.9357594171
 30
0.0
 11
89.495276749
 21
227.4357594171
 31
0.0
  0
LINE
  5
38A
 67
     1
  8
0
  6
CONTINUOUS
 62
     7
 10
83.495276749
 20
227.4606913983
 30
0.0
 11
89.495276749
 21
226.9357594171
 31
0.0
  0
LINE
  5
38B
 67
     1
  8
0
  6
CONTINUOUS
 62
     7
 10
83.495276749
 20
232.6857594171
 30
0.0
 11
83.495276749
 21
227.4606913983
 31
0.0
  0
ARC
  5
38C
 67
     1
  8
0
  6
CONTINUOUS
 62
     7
 10
85.495276749
 20
232.6857594171
 30
0.0
 40
2.0
 50
90.0
 51
180.0
  0
LINE
  5
38D
 67
     1
  8
0
  6
CONTINUOUS
 62
     7
 10
111.952658179
 20
234.6857594172
 30
0.0
 11
85.495276749
 21
234.6857594171
 31
0.0
  0
LINE
  5
38E
 67
     1
  8
0
  6
CONTINUOUS
 62
     7
 10
111.952658179
 20
234.6857594172
 30
0.0
 11
111.952658179
 21
156.1857594172
 31
0.0
  0
LINE
  5
38F
 67
     1
  8
0
  6
CONTINUOUS
 62
     7
 10
111.952658179
 20
156.1857594172
 30
0.0
 11
85.495276749
 21
156.1857594171
 31
0.0
  0
ARC
  5
390
 67
     1
  8
0
  6
CONTINUOUS
 62
     7
 10
85.495276749
 20
158.1857594171
 30
0.0
 40
2.0
 50
180.0
 51
270.0
  0
LINE
  5
391
 67
     1
  8
0
  6
CONTINUOUS
 62
     7
 10
83.495276749
 20
163.410827436
 30
0.0
 11
83.495276749
 21
158.1857594171
 31
0.0
  0
LINE
  5
392
 67
     1
  8
0
  6
CONTINUOUS
 62
     7
 10
112.3780711831
 20
234.6857594172
 30
0.0
 11
112.3780711831
 21
156.1857594172
 31
0.0
  0
LINE
  5
393
 67
     1
  8
0
  6
CONTINUOUS
 62
     7
 10
112.3780711831
 20
234.6857594172
 30
0.0
 11
111.952658179
 21
234.6857594172
 31
0.0
  0
LINE
  5
394
 67
     1
  8
0
  6
CONTINUOUS
 62
     7
 10
111.952658179
 20
156.1857594172
 30
0.0
 11
112.3780711831
 21
156.1857594172
 31
0.0
  0
LINE
  5
395
 67
     1
  8
0
  6
CONTINUOUS
 62
     7
 10
124.9269312279
 20
234.6857594172
 30
0.0
 11
112.3780711831
 21
234.6857594172
 31
0.0
  0
LINE
  5
396
 67
     1
  8
0
  6
CONTINUOUS
 62
     7
 10
124.9269312279
 20
234.6857594172
 30
0.0
 11
124.9269312279
 21
156.1857594172
 31
0.0
  0
LINE
  5
397
 67
     1
  8
0
  6
CONTINUOUS
 62
     7
 10
124.9269312279
 20
156.1857594172
 30
0.0
 11
112.3780711831
 21
156.1857594172
 31
0.0
  0
LINE
  5
398
 67
     1
  8
0
  6
CONTINUOUS
 62
     7
 10
134.945276749
 20
234.6857594172
 30
0.0
 11
124.9269312279
 21
234.6857594172
 31
0.0
  0
LINE
  5
399
 67
     1
  8
0
  6
CONTINUOUS
 62
     7
 10
124.9269312279
 20
156.1857594172
 30
0.0
 11
134.945276749
 21
156.1857594172
 31
0.0
  0
LINE
  5
39A
 67
     1
  8
0
  6
CONTINUOUS
 62
     7
 10
150.095276749
 20
263.2857594172
 30
0.0
 11
152.595276749
 21
263.2857594172
 31
0.0
  0
LINE
  5
39B
 67
     1
  8
0
  6
CONTINUOUS
 62
     7
 10
150.095276749
 20
263.2857594172
 30
0.0
 11
150.095276749
 21
275.2857594172
 31
0.0
  0
LINE
  5
39C
 67
     1
  8
0
  6
CONTINUOUS
 62
     7
 10
150.095276749
 20
275.2857594172
 30
0.0
 11
152.595276749
 21
275.2857594172
 31
0.0
  0
LINE
  5
39D
 67
     1
  8
0
  6
CONTINUOUS
 62
     7
 10
152.595276749
 20
263.2857594172
 30
0.0
 11
152.595276749
 21
275.2857594172
 31
0.0
  0
LINE
  5
39E
 67
     1
  8
0
  6
CONTINUOUS
 62
     7
 10
150.095276749
 20
127.5857594172
 30
0.0
 11
152.595276749
 21
127.5857594172
 31
0.0
  0
LINE
  5
39F
 67
     1
  8
0
  6
CONTINUOUS
 62
     7
 10
150.095276749
 20
127.5857594172
 30
0.0
 11
150.095276749
 21
263.2857594172
 31
0.0
  0
LINE
  5
3A0
 67
     1
  8
0
  6
CONTINUOUS
 62
     7
 10
152.595276749
 20
127.5857594172
 30
0.0
 11
152.595276749
 21
263.2857594172
 31
0.0
  0
LINE
  5
3A1
 67
     1
  8
0
  6
CONTINUOUS
 62
     7
 10
150.095276749
 20
115.5857594172
 30
0.0
 11
152.595276749
 21
115.5857594172
 31
0.0
  0
LINE
  5
3A2
 67
     1
  8
0
  6
CONTINUOUS
 62
     7
 10
150.095276749
 20
115.5857594172
 30
0.0
 11
150.095276749
 21
127.5857594172
 31
0.0
  0
LINE
  5
3A3
 67
     1
  8
0
  6
CONTINUOUS
 62
     7
 10
152.595276749
 20
115.5857594172
 30
0.0
 11
152.595276749
 21
127.5857594172
 31
0.0
  0
LINE
  5
3A4
 67
     1
  8
0
  6
CONTINUOUS
 62
     7
 10
157.795276749
 20
144.4595620139
 30
0.0
 11
157.795276749
 21
148.9357594172
 31
0.0
  0
LINE
  5
3A5
 67
     1
  8
0
  6
CONTINUOUS
 62
     7
 10
157.795276749
 20
136.9357594172
 30
0.0
 11
157.795276749
 21
144.4595620139
 31
0.0
  0
LINE
  5
3A6
 67
     1
  8
0
  6
CONTINUOUS
 62
     7
 10
157.795276749
 20
251.2005541838
 30
0.0
 11
157.795276749
 21
253.9357594172
 31
0.0
  0
LINE
  5
3A7
 67
     1
  8
0
  6
CONTINUOUS
 62
     7
 10
157.795276749
 20
241.9357594172
 30
0.0
 11
157.795276749
 21
251.2005541838
 31
0.0
  0
LINE
  5
3A8
 67
     1
  8
0
  6
CONTINUOUS
 62
     7
 10
157.995276749
 20
115.4357594172
 30
0.0
 11
157.995276749
 21
127.4357594172
 31
0.0
  0
LINE
  5
3A9
 67
     1
  8
0
  6
CONTINUOUS
 62
     7
 10
157.995276749
 20
127.4357594172
 30
0.0
 11
161.995276749
 21
127.4357594172
 31
0.0
  0
LINE
  5
3AA
 67
     1
  8
0
  6
CONTINUOUS
 62
     7
 10
161.995276749
 20
127.4357594172
 30
0.0
 11
161.995276749
 21
115.4357594172
 31
0.0
  0
LINE
  5
3AB
 67
     1
  8
0
  6
CONTINUOUS
 62
     7
 10
157.995276749
 20
115.4357594172
 30
0.0
 11
161.995276749
 21
115.4357594172
 31
0.0
  0
LINE
  5
3AC
 67
     1
  8
0
  6
CONTINUOUS
 62
     7
 10
157.995276749
 20
263.4357594172
 30
0.0
 11
161.995276749
 21
263.4357594172
 31
0.0
  0
LINE
  5
3AD
 67
     1
  8
0
  6
CONTINUOUS
 62
     7
 10
161.995276749
 20
127.4357594172
 30
0.0
 11
161.995276749
 21
263.4357594172
 31
0.0
  0
LINE
  5
3AE
 67
     1
  8
0
  6
CONTINUOUS
 62
     7
 10
157.995276749
 20
127.4357594172
 30
0.0
 11
157.995276749
 21
263.4357594172
 31
0.0
  0
LINE
  5
3AF
 67
     1
  8
0
  6
CONTINUOUS
 62
     7
 10
157.995276749
 20
275.4357594172
 30
0.0
 11
161.995276749
 21
275.4357594172
 31
0.0
  0
LINE
  5
3B0
 67
     1
  8
0
  6
CONTINUOUS
 62
     7
 10
161.995276749
 20
263.4357594172
 30
0.0
 11
161.995276749
 21
275.4357594172
 31
0.0
  0
LINE
  5
3B1
 67
     1
  8
0
  6
CONTINUOUS
 62
     7
 10
157.995276749
 20
275.4357594172
 30
0.0
 11
157.995276749
 21
263.4357594172
 31
0.0
  0
LINE
  5
3B2
 67
     1
  8
0
  6
CONTINUOUS
 62
     7
 10
126.3249091229
 20
155.1357594172
 30
0.0
 11
113.045276749
 21
155.1357594172
 31
0.0
  0
LINE
  5
3B3
 67
     1
  8
0
  6
CONTINUOUS
 62
     7
 10
126.3249091229
 20
115.2857594172
 30
0.0
 11
126.3249091229
 21
155.1357594172
 31
0.0
  0
LINE
  5
3B4
 67
     1
  8
0
  6
CONTINUOUS
 62
     7
 10
113.045276749
 20
115.2857594172
 30
0.0
 11
126.3249091229
 21
115.2857594172
 31
0.0
  0
LINE
  5
3B5
 67
     1
  8
0
  6
CONTINUOUS
 62
     7
 10
126.3249091229
 20
235.7357594172
 30
0.0
 11
126.3249091229
 21
275.5857594172
 31
0.0
  0
LINE
  5
3B6
 67
     1
  8
0
  6
CONTINUOUS
 62
     7
 10
126.3249091229
 20
275.5857594172
 30
0.0
 11
113.045276749
 21
275.5857594172
 31
0.0
  0
LINE
  5
3B7
 67
     1
  8
0
  6
CONTINUOUS
 62
     7
 10
113.045276749
 20
235.7357594172
 30
0.0
 11
126.3249091229
 21
235.7357594172
 31
0.0
  0
LINE
  5
3B8
 67
     1
  8
0
  6
CONTINUOUS
 62
     7
 10
136.320563324
 20
235.7357594172
 30
0.0
 11
136.320563324
 21
275.5857594172
 31
0.0
  0
LINE
  5
3B9
 67
     1
  8
0
  6
CONTINUOUS
 62
     7
 10
126.3249091229
 20
275.5857594172
 30
0.0
 11
136.320563324
 21
275.5857594172
 31
0.0
  0
LINE
  5
3BA
 67
     1
  8
0
  6
CONTINUOUS
 62
     7
 10
126.3249091229
 20
235.7357594172
 30
0.0
 11
136.320563324
 21
235.7357594172
 31
0.0
  0
LINE
  5
3BB
 67
     1
  8
0
  6
CONTINUOUS
 62
     7
 10
136.320563324
 20
115.2857594172
 30
0.0
 11
136.320563324
 21
155.1357594172
 31
0.0
  0
LINE
  5
3BC
 67
     1
  8
0
  6
CONTINUOUS
 62
     7
 10
126.3249091229
 20
115.2857594172
 30
0.0
 11
136.320563324
 21
115.2857594172
 31
0.0
  0
LINE
  5
3BD
 67
     1
  8
0
  6
CONTINUOUS
 62
     7
 10
136.320563324
 20
155.1357594172
 30
0.0
 11
126.3249091229
 21
155.1357594172
 31
0.0
  0
LINE
  5
3BE
 67
     1
  8
0
  6
CONTINUOUS
 62
     7
 10
157.9810438398
 20
267.4357594172
 30
0.0
 11
156.995276749
 21
267.4357594172
 31
0.0
  0
LINE
  5
3BF
 67
     1
  8
0
  6
CONTINUOUS
 62
     7
 10
157.9810438398
 20
272.6395629787
 30
0.0
 11
157.9810438398
 21
267.4357594172
 31
0.0
  0
LINE
  5
3C0
 67
     1
  8
0
  6
CONTINUOUS
 62
     7
 10
157.9810438398
 20
123.4357594172
 30
0.0
 11
157.9810438398
 21
118.2319558556
 31
0.0
  0
LINE
  5
3C1
 67
     1
  8
0
  6
CONTINUOUS
 62
     7
 10
156.995276749
 20
123.4357594172
 30
0.0
 11
157.9810438398
 21
123.4357594172
 31
0.0
  0
LINE
  5
3C2
 67
     1
  8
0
  6
CONTINUOUS
 62
     7
 10
136.5333151389
 20
123.4357594172
 30
0.0
 11
136.5333151389
 21
155.1357594172
 31
0.0
  0
LINE
  5
3C3
 67
     1
  8
0
  6
CONTINUOUS
 62
     7
 10
136.503427272
 20
123.4357594172
 30
0.0
 11
136.5333151389
 21
123.4357594172
 31
0.0
  0
LINE
  5
3C4
 67
     1
  8
0
  6
CONTINUOUS
 62
     7
 10
136.503427272
 20
115.2857594172
 30
0.0
 11
136.503427272
 21
123.4357594172
 31
0.0
  0
LINE
  5
3C5
 67
     1
  8
0
  6
CONTINUOUS
 62
     7
 10
136.320563324
 20
115.2857594172
 30
0.0
 11
136.503427272
 21
115.2857594172
 31
0.0
  0
LINE
  5
3C6
 67
     1
  8
0
  6
CONTINUOUS
 62
     7
 10
136.5333151389
 20
155.1357594172
 30
0.0
 11
136.320563324
 21
155.1357594172
 31
0.0
  0
LINE
  5
3C7
 67
     1
  8
0
  6
CONTINUOUS
 62
     7
 10
136.503427272
 20
267.4357594172
 30
0.0
 11
136.503427272
 21
275.5857594172
 31
0.0
  0
LINE
  5
3C8
 67
     1
  8
0
  6
CONTINUOUS
 62
     7
 10
136.5333151389
 20
267.4357594172
 30
0.0
 11
136.503427272
 21
267.4357594172
 31
0.0
  0
LINE
  5
3C9
 67
     1
  8
0
  6
CONTINUOUS
 62
     7
 10
136.5333151389
 20
235.7357594172
 30
0.0
 11
136.5333151389
 21
267.4357594172
 31
0.0
  0
LINE
  5
3CA
 67
     1
  8
0
  6
CONTINUOUS
 62
     7
 10
136.320563324
 20
235.7357594172
 30
0.0
 11
136.5333151389
 21
235.7357594172
 31
0.0
  0
LINE
  5
3CB
 67
     1
  8
0
  6
CONTINUOUS
 62
     7
 10
136.503427272
 20
275.5857594172
 30
0.0
 11
136.320563324
 21
275.5857594172
 31
0.0
  0
LINE
  5
3CC
 67
     1
  8
0
  6
CONTINUOUS
 62
     7
 10
137.0693230822
 20
155.1357594172
 30
0.0
 11
136.5333151389
 21
155.1357594172
 31
0.0
  0
LINE
  5
3CD
 67
     1
  8
0
  6
CONTINUOUS
 62
     7
 10
137.0693230822
 20
235.7357594172
 30
0.0
 11
137.0693230822
 21
155.1357594172
 31
0.0
  0
LINE
  5
3CE
 67
     1
  8
0
  6
CONTINUOUS
 62
     7
 10
136.5333151389
 20
235.7357594172
 30
0.0
 11
137.0693230822
 21
235.7357594172
 31
0.0
  0
LINE
  5
3CF
 67
     1
  8
0
  6
CONTINUOUS
 62
     7
 10
136.5333151389
 20
267.4357594172
 30
0.0
 11
150.095276749
 21
267.4357594172
 31
0.0
  0
LINE
  5
3D0
 67
     1
  8
0
  6
CONTINUOUS
 62
     7
 10
152.595276749
 20
267.4357594172
 30
0.0
 11
156.995276749
 21
267.4357594172
 31
0.0
  0
LINE
  5
3D1
 67
     1
  8
0
  6
CONTINUOUS
 62
     7
 10
136.5333151389
 20
123.4357594172
 30
0.0
 11
150.095276749
 21
123.4357594172
 31
0.0
  0
LINE
  5
3D2
 67
     1
  8
0
  6
CONTINUOUS
 62
     7
 10
152.595276749
 20
123.4357594172
 30
0.0
 11
156.995276749
 21
123.4357594172
 31
0.0
  0
LINE
  5
3D3
 67
     1
  8
0
  6
CONTINUOUS
 62
     8
 10
117.1464750367
 20
234.9857594172
 30
0.0
 11
115.245276749
 21
234.9857594172
 31
0.0
  0
LINE
  5
3D4
 67
     1
  8
0
  6
CONTINUOUS
 62
     8
 10
132.745276749
 20
234.9857594172
 30
0.0
 11
117.1464750367
 21
234.9857594172
 31
0.0
  0
LINE
  5
3D5
 67
     1
  8
0
  6
CONTINUOUS
 62
     8
 10
115.245276749
 20
155.8857594172
 30
0.0
 11
132.745276749
 21
155.8857594172
 31
0.0
  0
LINE
  5
3D6
 67
     1
  8
0
  6
CONTINUOUS
 62
     8
 10
156.995276749
 20
123.4357594172
 30
0.0
 11
156.995276749
 21
136.9357594172
 31
0.0
  0
LINE
  5
3D7
 67
     1
  8
0
  6
CONTINUOUS
 62
     8
 10
156.995276749
 20
148.9357594172
 30
0.0
 11
156.995276749
 21
241.9357594172
 31
0.0
  0
LINE
  5
3D8
 67
     1
  8
0
  6
CONTINUOUS
 62
     8
 10
156.995276749
 20
253.9357594172
 30
0.0
 11
156.995276749
 21
267.4357594172
 31
0.0
  0
LINE
  5
3D9
 67
     1
  8
0
  6
HIDDEN
 62
     7
 10
152.345276749
 20
139.9357594172
 30
0.0
 11
152.345276749
 21
145.9357594172
 31
0.0
  0
LINE
  5
3DA
 67
     1
  8
0
  6
HIDDEN
 62
     7
 10
150.095276749
 20
148.1857594172
 30
0.0
 11
150.095276749
 21
137.7095318236
 31
0.0
  0
LINE
  5
3DB
 67
     1
  8
0
  6
HIDDEN
 62
     7
 10
152.345276749
 20
244.9357594172
 30
0.0
 11
152.345276749
 21
250.9357594172
 31
0.0
  0
LINE
  5
3DC
 67
     1
  8
0
  6
HIDDEN
 62
     7
 10
150.095276749
 20
253.1857594172
 30
0.0
 11
150.095276749
 21
242.7095318236
 31
0.0
  0
LINE
  5
3DD
 67
     1
  8
0
  6
HIDDEN
 62
     7
 10
152.595276749
 20
145.9357594172
 30
0.0
 11
152.595276749
 21
139.9594153132
 31
0.0
  0
LINE
  5
3DE
 67
     1
  8
0
  6
HIDDEN
 62
     7
 10
152.595276749
 20
250.9357594172
 30
0.0
 11
152.595276749
 21
244.9594153132
 31
0.0
  0
LINE
  5
3DF
 67
     1
  8
0
  6
HIDDEN
 62
     7
 10
152.595276749
 20
136.9389045673
 30
0.0
 11
152.595276749
 21
148.9258848622
 31
0.0
  0
LINE
  5
3E0
 67
     1
  8
0
  6
HIDDEN
 62
     7
 10
157.795276749
 20
148.9357594172
 30
0.0
 11
157.795276749
 21
136.9357594172
 31
0.0
  0
ARC
  5
3E1
 67
     1
  8
0
  6
HIDDEN
 62
     7
 10
160.5983309491
 20
139.6208245593
 30
0.0
 40
0.3969957999157844
 50
263.5109835017
 51
359.0906435256
  0
LINE
  5
3E2
 67
     1
  8
0
  6
HIDDEN
 62
     7
 10
160.5534653637
 20
139.2263720977
 30
0.0
 11
160.5534653637
 21
143.4594927627
 31
0.0
  0
ARC
  5
3E3
 67
     1
  8
0
  6
HIDDEN
 62
     7
 10
160.6522177855
 20
142.8790099588
 30
0.0
 40
0.5888228311168978
 50
54.3650877769
 51
99.6547934717
  0
LINE
  5
3E4
 67
     1
  8
0
  6
HIDDEN
 62
     7
 10
160.995276749
 20
139.6145239984
 30
0.0
 11
160.995276749
 21
143.3575733025
 31
0.0
  0
POLYLINE
  5
3E5
 67
     1
  8
0
  6
HIDDEN
 62
     7
 66
     1
 10
0.0
 20
0.0
 30
0.0
 70
   128
  0
VERTEX
  5
671
 67
     1
  8
0
  6
HIDDEN
 62
     7
 10
158.2161824417
 20
139.4659811121
 30
0.0
  0
VERTEX
  5
672
 67
     1
  8
0
  6
HIDDEN
 62
     7
 10
158.7747234528
 20
139.4086978816
 30
0.0
  0
VERTEX
  5
673
 67
     1
  8
0
  6
HIDDEN
 62
     7
 10
160.5534653637
 20
139.2263720977
 30
0.0
  0
SEQEND
  5
894
 67
     1
  8
0
  6
HIDDEN
 62
     7
  0
LINE
  5
3E6
 67
     1
  8
0
  6
HIDDEN
 62
     7
 10
158.2161824417
 20
139.4659811121
 30
0.0
 11
158.2161824417
 21
143.3965771326
 31
0.0
  0
POLYLINE
  5
3E7
 67
     1
  8
0
  6
HIDDEN
 62
     7
 66
     1
 10
0.0
 20
0.0
 30
0.0
 70
   128
  0
VERTEX
  5
674
 67
     1
  8
0
  6
HIDDEN
 62
     7
 10
160.5534653637
 20
143.4594927627
 30
0.0
  0
VERTEX
  5
675
 67
     1
  8
0
  6
HIDDEN
 62
     7
 10
158.7747234528
 20
143.4116183469
 30
0.0
  0
VERTEX
  5
676
 67
     1
  8
0
  6
HIDDEN
 62
     7
 10
158.2161824417
 20
143.3965771326
 30
0.0
  0
SEQEND
  5
895
 67
     1
  8
0
  6
HIDDEN
 62
     7
  0
ARC
  5
3E8
 67
     1
  8
0
  6
HIDDEN
 62
     7
 10
158.193381355
 20
139.2691733775
 30
0.0
 40
0.1981241377554599
 50
83.3914809169
 51
179.1954683259
  0
POLYLINE
  5
3E9
 67
     1
  8
0
  6
HIDDEN
 62
     7
 66
     1
 10
0.0
 20
0.0
 30
0.0
 70
   128
  0
VERTEX
  5
677
 67
     1
  8
0
  6
HIDDEN
 62
     7
 10
158.2161824417
 20
143.3965771326
 30
0.0
  0
VERTEX
  5
678
 67
     1
  8
0
  6
HIDDEN
 62
     7
 10
158.2078475396
 20
143.3963977125
 30
0.0
  0
VERTEX
  5
679
 67
     1
  8
0
  6
HIDDEN
 62
     7
 10
158.1665698916
 20
143.3968270577
 30
0.0
  0
VERTEX
  5
67A
 67
     1
  8
0
  6
HIDDEN
 62
     7
 10
158.1029771418
 20
143.4020801619
 30
0.0
  0
VERTEX
  5
67B
 67
     1
  8
0
  6
HIDDEN
 62
     7
 10
158.0498045211
 20
143.4123736617
 30
0.0
  0
VERTEX
  5
67C
 67
     1
  8
0
  6
HIDDEN
 62
     7
 10
158.0127130707
 20
143.4266097033
 30
0.0
  0
VERTEX
  5
67D
 67
     1
  8
0
  6
HIDDEN
 62
     7
 10
157.9959616086
 20
143.4432896436
 30
0.0
  0
VERTEX
  5
67E
 67
     1
  8
0
  6
HIDDEN
 62
     7
 10
157.995276749
 20
143.4475237
 30
0.0
  0
SEQEND
  5
896
 67
     1
  8
0
  6
HIDDEN
 62
     7
  0
LINE
  5
3EA
 67
     1
  8
0
  6
HIDDEN
 62
     7
 10
157.995276749
 20
139.271955291
 30
0.0
 11
157.995276749
 21
143.4475237
 31
0.0
  0
LINE
  5
3EB
 67
     1
  8
0
  6
HIDDEN
 62
     7
 10
160.995276749
 20
143.3575733025
 30
0.0
 11
160.995276749
 21
143.1969577851
 31
0.0
  0
LINE
  5
3EC
 67
     1
  8
0
  6
HIDDEN
 62
     7
 10
152.7964743538
 20
145.9595618124
 30
0.0
 11
152.7964743538
 21
139.9119570219
 31
0.0
  0
LINE
  5
3ED
 67
     1
  8
0
  6
HIDDEN
 62
     7
 10
152.595276749
 20
139.7287623126
 30
0.0
 11
152.595276749
 21
146.1427565217
 31
0.0
  0
ARC
  5
3EE
 67
     1
  8
0
  6
HIDDEN
 62
     7
 10
158.1591067581
 20
144.620708094
 30
0.0
 40
0.2631815829347461
 50
231.5012179711
 51
282.5251463489
  0
POLYLINE
  5
3EF
 67
     1
  8
0
  6
HIDDEN
 62
     7
 66
     1
 10
0.0
 20
0.0
 30
0.0
 70
   128
  0
VERTEX
  5
67F
 67
     1
  8
0
  6
HIDDEN
 62
     7
 10
158.2161824417
 20
144.3637899905
 30
0.0
  0
VERTEX
  5
680
 67
     1
  8
0
  6
HIDDEN
 62
     7
 10
158.7747234528
 20
144.3788312048
 30
0.0
  0
VERTEX
  5
681
 67
     1
  8
0
  6
HIDDEN
 62
     7
 10
160.5534653637
 20
144.4267056205
 30
0.0
  0
SEQEND
  5
897
 67
     1
  8
0
  6
HIDDEN
 62
     7
  0
ARC
  5
3F0
 67
     1
  8
0
  6
HIDDEN
 62
     7
 10
160.6647862914
 20
143.9007061215
 30
0.0
 40
0.5376502785057987
 50
52.070303104
 51
101.9495781447
  0
LINE
  5
3F1
 67
     1
  8
0
  6
HIDDEN
 62
     7
 10
160.995276749
 20
144.164170643
 30
0.0
 11
160.995276749
 21
144.3247861604
 31
0.0
  0
POLYLINE
  5
3F2
 67
     1
  8
0
  6
HIDDEN
 62
     7
 66
     1
 10
0.0
 20
0.0
 30
0.0
 70
   128
  0
VERTEX
  5
682
 67
     1
  8
0
  6
HIDDEN
 62
     7
 10
160.995276749
 20
144.164170643
 30
0.0
  0
VERTEX
  5
683
 67
     1
  8
0
  6
HIDDEN
 62
     7
 10
158.3717242342
 20
144.1681936144
 30
0.0
  0
VERTEX
  5
684
 67
     1
  8
0
  6
HIDDEN
 62
     7
 10
157.995276749
 20
144.1687708115
 30
0.0
  0
SEQEND
  5
898
 67
     1
  8
0
  6
HIDDEN
 62
     7
  0
LINE
  5
3F3
 67
     1
  8
0
  6
HIDDEN
 62
     7
 10
160.5534653637
 20
144.4267056205
 30
0.0
 11
160.5534653637
 21
146.9313093446
 31
0.0
  0
ARC
  5
3F4
 67
     1
  8
0
  6
HIDDEN
 62
     7
 10
160.5982424602
 20
146.5045606526
 30
0.0
 40
0.3970858885547224
 50
0.9236852312
 51
96.474687744
  0
LINE
  5
3F5
 67
     1
  8
0
  6
HIDDEN
 62
     7
 10
160.995276749
 20
144.3247861604
 30
0.0
 11
160.995276749
 21
146.5357594172
 31
0.0
  0
LINE
  5
3F6
 67
     1
  8
0
  6
HIDDEN
 62
     7
 10
158.2161824417
 20
144.3637899905
 30
0.0
 11
158.2161824417
 21
146.6849368477
 31
0.0
  0
POLYLINE
  5
3F7
 67
     1
  8
0
  6
HIDDEN
 62
     7
 66
     1
 10
0.0
 20
0.0
 30
0.0
 70
   128
  0
VERTEX
  5
685
 67
     1
  8
0
  6
HIDDEN
 62
     7
 10
160.5534653637
 20
146.899113836
 30
0.0
  0
VERTEX
  5
686
 67
     1
  8
0
  6
HIDDEN
 62
     7
 10
158.7747234528
 20
146.7167880522
 30
0.0
  0
VERTEX
  5
687
 67
     1
  8
0
  6
HIDDEN
 62
     7
 10
158.2161824417
 20
146.6595048217
 30
0.0
  0
SEQEND
  5
899
 67
     1
  8
0
  6
HIDDEN
 62
     7
  0
LINE
  5
3F8
 67
     1
  8
0
  6
HIDDEN
 62
     7
 10
160.995276749
 20
144.164170643
 30
0.0
 11
160.995276749
 21
145.9042387038
 31
0.0
  0
POLYLINE
  5
3F9
 67
     1
  8
0
  6
HIDDEN
 62
     7
 66
     1
 10
0.0
 20
0.0
 30
0.0
 70
   128
  0
VERTEX
  5
688
 67
     1
  8
0
  6
HIDDEN
 62
     7
 10
157.995276749
 20
145.9167902817
 30
0.0
  0
VERTEX
  5
689
 67
     1
  8
0
  6
HIDDEN
 62
     7
 10
158.3717242342
 20
145.914592074
 30
0.0
  0
VERTEX
  5
68A
 67
     1
  8
0
  6
HIDDEN
 62
     7
 10
160.995276749
 20
145.8992709175
 30
0.0
  0
SEQEND
  5
89A
 67
     1
  8
0
  6
HIDDEN
 62
     7
  0
POLYLINE
  5
3FA
 67
     1
  8
0
  6
HIDDEN
 62
     7
 66
     1
 10
0.0
 20
0.0
 30
0.0
 70
   128
  0
VERTEX
  5
68B
 67
     1
  8
0
  6
HIDDEN
 62
     7
 10
160.995276749
 20
145.645303818
 30
0.0
  0
VERTEX
  5
68C
 67
     1
  8
0
  6
HIDDEN
 62
     7
 10
158.3717242342
 20
145.6606249745
 30
0.0
  0
VERTEX
  5
68D
 67
     1
  8
0
  6
HIDDEN
 62
     7
 10
157.995276749
 20
145.6628231823
 30
0.0
  0
SEQEND
  5
89B
 67
     1
  8
0
  6
HIDDEN
 62
     7
  0
LINE
  5
3FB
 67
     1
  8
0
  6
HIDDEN
 62
     7
 10
160.995276749
 20
145.645303818
 30
0.0
 11
160.995276749
 21
142.6745610492
 31
0.0
  0
POLYLINE
  5
3FC
 67
     1
  8
0
  6
HIDDEN
 62
     7
 66
     1
 10
0.0
 20
0.0
 30
0.0
 70
   128
  0
VERTEX
  5
68E
 67
     1
  8
0
  6
HIDDEN
 62
     7
 10
157.995276749
 20
142.6699608807
 30
0.0
  0
VERTEX
  5
68F
 67
     1
  8
0
  6
HIDDEN
 62
     7
 10
158.3717242342
 20
142.6705380778
 30
0.0
  0
VERTEX
  5
690
 67
     1
  8
0
  6
HIDDEN
 62
     7
 10
160.995276749
 20
142.6745610492
 30
0.0
  0
SEQEND
  5
89C
 67
     1
  8
0
  6
HIDDEN
 62
     7
  0
POLYLINE
  5
3FD
 67
     1
  8
0
  6
HIDDEN
 62
     7
 66
     1
 10
0.0
 20
0.0
 30
0.0
 70
   128
  0
VERTEX
  5
691
 67
     1
  8
0
  6
HIDDEN
 62
     7
 10
160.995276749
 20
141.7073481913
 30
0.0
  0
VERTEX
  5
692
 67
     1
  8
0
  6
HIDDEN
 62
     7
 10
158.3717242342
 20
141.7033252199
 30
0.0
  0
VERTEX
  5
693
 67
     1
  8
0
  6
HIDDEN
 62
     7
 10
157.995276749
 20
141.7027480228
 30
0.0
  0
SEQEND
  5
89D
 67
     1
  8
0
  6
HIDDEN
 62
     7
  0
LINE
  5
3FE
 67
     1
  8
0
  6
HIDDEN
 62
     7
 10
160.995276749
 20
141.7073481913
 30
0.0
 11
160.995276749
 21
139.9672801305
 31
0.0
  0
POLYLINE
  5
3FF
 67
     1
  8
0
  6
HIDDEN
 62
     7
 66
     1
 10
0.0
 20
0.0
 30
0.0
 70
   128
  0
VERTEX
  5
694
 67
     1
  8
0
  6
HIDDEN
 62
     7
 10
157.995276749
 20
139.9547285526
 30
0.0
  0
VERTEX
  5
695
 67
     1
  8
0
  6
HIDDEN
 62
     7
 10
158.3717242342
 20
139.9569267603
 30
0.0
  0
VERTEX
  5
696
 67
     1
  8
0
  6
HIDDEN
 62
     7
 10
160.995276749
 20
139.9722479168
 30
0.0
  0
SEQEND
  5
89E
 67
     1
  8
0
  6
HIDDEN
 62
     7
  0
POLYLINE
  5
400
 67
     1
  8
0
  6
HIDDEN
 62
     7
 66
     1
 10
0.0
 20
0.0
 30
0.0
 70
   128
  0
VERTEX
  5
697
 67
     1
  8
0
  6
HIDDEN
 62
     7
 10
160.995276749
 20
140.2262150163
 30
0.0
  0
VERTEX
  5
698
 67
     1
  8
0
  6
HIDDEN
 62
     7
 10
158.3717242342
 20
140.2108938598
 30
0.0
  0
VERTEX
  5
699
 67
     1
  8
0
  6
HIDDEN
 62
     7
 10
157.995276749
 20
140.208695652
 30
0.0
  0
SEQEND
  5
89F
 67
     1
  8
0
  6
HIDDEN
 62
     7
  0
POLYLINE
  5
401
 67
     1
  8
0
  6
HIDDEN
 62
     7
 66
     1
 10
0.0
 20
0.0
 30
0.0
 70
   128
  0
VERTEX
  5
69A
 67
     1
  8
0
  6
HIDDEN
 62
     7
 10
157.995276749
 20
143.2015579536
 30
0.0
  0
VERTEX
  5
69B
 67
     1
  8
0
  6
HIDDEN
 62
     7
 10
158.3717242342
 20
143.2009807565
 30
0.0
  0
VERTEX
  5
69C
 67
     1
  8
0
  6
HIDDEN
 62
     7
 10
160.995276749
 20
143.1969577851
 30
0.0
  0
SEQEND
  5
8A0
 67
     1
  8
0
  6
HIDDEN
 62
     7
  0
LINE
  5
402
 67
     1
  8
0
  6
HIDDEN
 62
     7
 10
160.995276749
 20
140.2262150163
 30
0.0
 11
160.995276749
 21
143.1969577851
 31
0.0
  0
LINE
  5
403
 67
     1
  8
0
  6
HIDDEN
 62
     7
 10
157.995276749
 20
140.208695652
 30
0.0
 11
157.995276749
 21
139.9547285526
 31
0.0
  0
LINE
  5
404
 67
     1
  8
0
  6
HIDDEN
 62
     7
 10
157.995276749
 20
141.7027480228
 30
0.0
 11
157.995276749
 21
142.6699608807
 31
0.0
  0
LINE
  5
405
 67
     1
  8
0
  6
HIDDEN
 62
     7
 10
157.995276749
 20
145.6628231823
 30
0.0
 11
157.995276749
 21
145.9167902817
 31
0.0
  0
LINE
  5
406
 67
     1
  8
0
  6
HIDDEN
 62
     7
 10
157.995276749
 20
144.1687708115
 30
0.0
 11
157.995276749
 21
143.2015579536
 31
0.0
  0
ARC
  5
407
 67
     1
  8
0
  6
HIDDEN
 62
     7
 10
158.1931804628
 20
146.8560838329
 30
0.0
 40
0.1979201826709704
 50
180.7391418074
 51
276.6739089499
  0
LINE
  5
408
 67
     1
  8
0
  6
HIDDEN
 62
     7
 10
157.995276749
 20
144.4147365578
 30
0.0
 11
157.995276749
 21
146.8844307491
 31
0.0
  0
LINE
  5
409
 67
     1
  8
0
  6
HIDDEN
 62
     7
 10
160.995276749
 20
140.2262150163
 30
0.0
 11
160.995276749
 21
139.6145239984
 31
0.0
  0
ARC
  5
40A
 67
     1
  8
0
  6
HIDDEN
 62
     7
 10
158.1931254188
 20
139.015497671
 30
0.0
 40
0.1978643444951038
 50
83.3081508549
 51
179.2787983879
  0
LINE
  5
40B
 67
     1
  8
0
  6
HIDDEN
 62
     7
 10
160.995276749
 20
139.360556899
 30
0.0
 11
160.995276749
 21
139.9722479168
 31
0.0
  0
ARC
  5
40C
 67
     1
  8
0
  6
HIDDEN
 62
     7
 10
160.5976634061
 20
139.3676172863
 30
0.0
 40
0.3976760233680116
 50
263.6189165505
 51
358.9827104744
  0
POLYLINE
  5
40D
 67
     1
  8
0
  6
HIDDEN
 62
     7
 66
     1
 10
0.0
 20
0.0
 30
0.0
 70
   128
  0
VERTEX
  5
69D
 67
     1
  8
0
  6
HIDDEN
 62
     7
 10
160.5534653637
 20
138.9724049983
 30
0.0
  0
VERTEX
  5
69E
 67
     1
  8
0
  6
HIDDEN
 62
     7
 10
158.7747234528
 20
139.1547307821
 30
0.0
  0
VERTEX
  5
69F
 67
     1
  8
0
  6
HIDDEN
 62
     7
 10
158.2161824417
 20
139.2120140126
 30
0.0
  0
SEQEND
  5
8A1
 67
     1
  8
0
  6
HIDDEN
 62
     7
  0
LINE
  5
40E
 67
     1
  8
0
  6
HIDDEN
 62
     7
 10
160.995276749
 20
141.5467326739
 30
0.0
 11
160.995276749
 21
139.3357594172
 31
0.0
  0
ARC
  5
40F
 67
     1
  8
0
  6
HIDDEN
 62
     7
 10
160.6538192592
 20
142.0183537778
 30
0.0
 40
0.5822539677230806
 50
260.075276611
 51
305.9048421414
  0
LINE
  5
410
 67
     1
  8
0
  6
HIDDEN
 62
     7
 10
160.5534653637
 20
141.4448132137
 30
0.0
 11
160.5534653637
 21
138.9402094897
 31
0.0
  0
POLYLINE
  5
411
 67
     1
  8
0
  6
HIDDEN
 62
     7
 66
     1
 10
0.0
 20
0.0
 30
0.0
 70
   128
  0
VERTEX
  5
6A0
 67
     1
  8
0
  6
HIDDEN
 62
     7
 10
158.2161824417
 20
141.5077288438
 30
0.0
  0
VERTEX
  5
6A1
 67
     1
  8
0
  6
HIDDEN
 62
     7
 10
158.7747234528
 20
141.4926876295
 30
0.0
  0
VERTEX
  5
6A2
 67
     1
  8
0
  6
HIDDEN
 62
     7
 10
160.5534653637
 20
141.4448132137
 30
0.0
  0
SEQEND
  5
8A2
 67
     1
  8
0
  6
HIDDEN
 62
     7
  0
LINE
  5
412
 67
     1
  8
0
  6
HIDDEN
 62
     7
 10
158.2161824417
 20
141.5077288438
 30
0.0
 11
158.2161824417
 21
139.1865819866
 31
0.0
  0
ARC
  5
413
 67
     1
  8
0
  6
HIDDEN
 62
     7
 10
158.1585148481
 20
141.2533772778
 30
0.0
 40
0.2608069602291096
 50
77.2256353806
 51
128.7480002994
  0
LINE
  5
414
 67
     1
  8
0
  6
HIDDEN
 62
     7
 10
157.995276749
 20
141.4567822765
 30
0.0
 11
157.995276749
 21
138.9870880852
 31
0.0
  0
LINE
  5
415
 67
     1
  8
0
  6
HIDDEN
 62
     7
 10
160.995276749
 20
146.5109619353
 30
0.0
 11
160.995276749
 21
145.8992709175
 31
0.0
  0
ARC
  5
416
 67
     1
  8
0
  6
HIDDEN
 62
     7
 10
158.1934137284
 20
146.6023823151
 30
0.0
 40
0.1981570288128724
 50
180.8150565198
 51
276.5979942374
  0
POLYLINE
  5
417
 67
     1
  8
0
  6
HIDDEN
 62
     7
 66
     1
 10
0.0
 20
0.0
 30
0.0
 70
   128
  0
VERTEX
  5
6A3
 67
     1
  8
0
  6
HIDDEN
 62
     7
 10
158.2161824417
 20
142.4749417017
 30
0.0
  0
VERTEX
  5
6A4
 67
     1
  8
0
  6
HIDDEN
 62
     7
 10
158.1544259779
 20
142.474141998
 30
0.0
  0
VERTEX
  5
6A5
 67
     1
  8
0
  6
HIDDEN
 62
     7
 10
158.0924998753
 20
142.467938142
 30
0.0
  0
VERTEX
  5
6A6
 67
     1
  8
0
  6
HIDDEN
 62
     7
 10
158.0418910934
 20
142.4568641023
 30
0.0
  0
VERTEX
  5
6A7
 67
     1
  8
0
  6
HIDDEN
 62
     7
 10
158.0081479217
 20
142.4420703809
 30
0.0
  0
VERTEX
  5
6A8
 67
     1
  8
0
  6
HIDDEN
 62
     7
 10
157.99752382
 20
142.4316497811
 30
0.0
  0
VERTEX
  5
6A9
 67
     1
  8
0
  6
HIDDEN
 62
     7
 10
157.995276749
 20
142.4239951343
 30
0.0
  0
SEQEND
  5
8A3
 67
     1
  8
0
  6
HIDDEN
 62
     7
  0
LINE
  5
418
 67
     1
  8
0
  6
HIDDEN
 62
     7
 10
158.2161824417
 20
146.4055377222
 30
0.0
 11
158.2161824417
 21
142.4749417017
 31
0.0
  0
LINE
  5
419
 67
     1
  8
0
  6
HIDDEN
 62
     7
 10
157.995276749
 20
146.5995635433
 30
0.0
 11
157.995276749
 21
142.4239951343
 31
0.0
  0
LINE
  5
41A
 67
     1
  8
0
  6
HIDDEN
 62
     7
 10
160.995276749
 20
146.2569948359
 30
0.0
 11
160.995276749
 21
142.5139455318
 31
0.0
  0
ARC
  5
41B
 67
     1
  8
0
  6
HIDDEN
 62
     7
 10
160.5988908722
 20
146.2513316038
 30
0.0
 40
0.3964263305731949
 50
0.8185387995
 51
96.5798341757
  0
ARC
  5
41C
 67
     1
  8
0
  6
HIDDEN
 62
     7
 10
160.6409608734
 20
143.0413065429
 30
0.0
 40
0.6353340662342961
 50
262.0843117703
 51
303.8958069811
  0
LINE
  5
41D
 67
     1
  8
0
  6
HIDDEN
 62
     7
 10
160.5534653637
 20
146.6451467365
 30
0.0
 11
160.5534653637
 21
142.4120260716
 31
0.0
  0
LINE
  5
41E
 67
     1
  8
0
  6
HIDDEN
 62
     7
 10
160.995276749
 20
145.645303818
 30
0.0
 11
160.995276749
 21
146.2569948359
 31
0.0
  0
POLYLINE
  5
41F
 67
     1
  8
0
  6
HIDDEN
 62
     7
 66
     1
 10
0.0
 20
0.0
 30
0.0
 70
   128
  0
VERTEX
  5
6AA
 67
     1
  8
0
  6
HIDDEN
 62
     7
 10
158.2161824417
 20
146.4055377222
 30
0.0
  0
VERTEX
  5
6AB
 67
     1
  8
0
  6
HIDDEN
 62
     7
 10
158.7747234528
 20
146.4628209527
 30
0.0
  0
VERTEX
  5
6AC
 67
     1
  8
0
  6
HIDDEN
 62
     7
 10
160.5534653637
 20
146.6451467365
 30
0.0
  0
SEQEND
  5
8A4
 67
     1
  8
0
  6
HIDDEN
 62
     7
  0
LINE
  5
420
 67
     1
  8
0
  6
HIDDEN
 62
     7
 10
160.995276749
 20
141.7073481913
 30
0.0
 11
160.995276749
 21
141.5467326739
 31
0.0
  0
LINE
  5
421
 67
     1
  8
0
  6
HIDDEN
 62
     7
 10
160.995276749
 20
142.5139455318
 30
0.0
 11
160.995276749
 21
142.6745610492
 31
0.0
  0
POLYLINE
  5
422
 67
     1
  8
0
  6
HIDDEN
 62
     7
 66
     1
 10
0.0
 20
0.0
 30
0.0
 70
   128
  0
VERTEX
  5
6AD
 67
     1
  8
0
  6
HIDDEN
 62
     7
 10
160.5534653637
 20
142.4120260716
 30
0.0
  0
VERTEX
  5
6AE
 67
     1
  8
0
  6
HIDDEN
 62
     7
 10
158.7747234528
 20
142.4599004874
 30
0.0
  0
VERTEX
  5
6AF
 67
     1
  8
0
  6
HIDDEN
 62
     7
 10
158.2161824417
 20
142.4749417017
 30
0.0
  0
SEQEND
  5
8A5
 67
     1
  8
0
  6
HIDDEN
 62
     7
  0
LINE
  5
423
 67
     1
  8
0
  6
HIDDEN
 62
     7
 10
152.595276749
 20
241.9359554636
 30
0.0
 11
152.595276749
 21
253.9157576793
 31
0.0
  0
LINE
  5
424
 67
     1
  8
0
  6
HIDDEN
 62
     7
 10
157.795276749
 20
253.9357594172
 30
0.0
 11
157.795276749
 21
241.9357594172
 31
0.0
  0
ARC
  5
425
 67
     1
  8
0
  6
HIDDEN
 62
     7
 10
160.6130841166
 20
245.2599911623
 30
0.0
 40
0.3846364147274446
 50
261.0831873769
 51
353.5378967191
  0
LINE
  5
426
 67
     1
  8
0
  6
HIDDEN
 62
     7
 10
160.5534653637
 20
244.8800032996
 30
0.0
 11
160.5534653637
 21
249.6745167573
 31
0.0
  0
POLYLINE
  5
427
 67
     1
  8
0
  6
HIDDEN
 62
     7
 66
     1
 10
0.0
 20
0.0
 30
0.0
 70
   128
  0
VERTEX
  5
6B0
 67
     1
  8
0
  6
HIDDEN
 62
     7
 10
160.995276749
 20
249.4561511232
 30
0.0
  0
VERTEX
  5
6B1
 67
     1
  8
0
  6
HIDDEN
 62
     7
 10
160.9765001984
 20
249.5226770525
 30
0.0
  0
VERTEX
  5
6B2
 67
     1
  8
0
  6
HIDDEN
 62
     7
 10
160.9140054922
 20
249.5888651702
 30
0.0
  0
VERTEX
  5
6B3
 67
     1
  8
0
  6
HIDDEN
 62
     7
 10
160.8151666227
 20
249.6395929527
 30
0.0
  0
VERTEX
  5
6B4
 67
     1
  8
0
  6
HIDDEN
 62
     7
 10
160.6919345105
 20
249.669217196
 30
0.0
  0
VERTEX
  5
6B5
 67
     1
  8
0
  6
HIDDEN
 62
     7
 10
160.5585646872
 20
249.6747925996
 30
0.0
  0
VERTEX
  5
6B6
 67
     1
  8
0
  6
HIDDEN
 62
     7
 10
160.5534653637
 20
249.6745167573
 30
0.0
  0
SEQEND
  5
8A6
 67
     1
  8
0
  6
HIDDEN
 62
     7
  0
LINE
  5
428
 67
     1
  8
0
  6
HIDDEN
 62
     7
 10
160.995276749
 20
245.2167018654
 30
0.0
 11
160.995276749
 21
249.4561511232
 31
0.0
  0
POLYLINE
  5
429
 67
     1
  8
0
  6
HIDDEN
 62
     7
 66
     1
 10
0.0
 20
0.0
 30
0.0
 70
   128
  0
VERTEX
  5
6B7
 67
     1
  8
0
  6
HIDDEN
 62
     7
 10
158.2161824417
 20
245.0878497931
 30
0.0
  0
VERTEX
  5
6B8
 67
     1
  8
0
  6
HIDDEN
 62
     7
 10
158.7747234528
 20
245.0381600156
 30
0.0
  0
VERTEX
  5
6B9
 67
     1
  8
0
  6
HIDDEN
 62
     7
 10
160.5534653637
 20
244.8800032996
 30
0.0
  0
SEQEND
  5
8A7
 67
     1
  8
0
  6
HIDDEN
 62
     7
  0
LINE
  5
42A
 67
     1
  8
0
  6
HIDDEN
 62
     7
 10
158.2161824417
 20
245.0878497931
 30
0.0
 11
158.2161824417
 21
249.5397180502
 31
0.0
  0
POLYLINE
  5
42B
 67
     1
  8
0
  6
HIDDEN
 62
     7
 66
     1
 10
0.0
 20
0.0
 30
0.0
 70
   128
  0
VERTEX
  5
6BA
 67
     1
  8
0
  6
HIDDEN
 62
     7
 10
160.5534653637
 20
249.6745167573
 30
0.0
  0
VERTEX
  5
6BB
 67
     1
  8
0
  6
HIDDEN
 62
     7
 10
158.7747234528
 20
249.5719443228
 30
0.0
  0
VERTEX
  5
6BC
 67
     1
  8
0
  6
HIDDEN
 62
     7
 10
158.2161824417
 20
249.5397180502
 30
0.0
  0
SEQEND
  5
8A8
 67
     1
  8
0
  6
HIDDEN
 62
     7
  0
ARC
  5
42C
 67
     1
  8
0
  6
HIDDEN
 62
     7
 10
158.1841110886
 20
244.9008191664
 30
0.0
 40
0.1897604463595529
 50
80.2697550211
 51
174.3370582995
  0
POLYLINE
  5
42D
 67
     1
  8
0
  6
HIDDEN
 62
     7
 66
     1
 10
0.0
 20
0.0
 30
0.0
 70
   128
  0
VERTEX
  5
6BD
 67
     1
  8
0
  6
HIDDEN
 62
     7
 10
158.2161824417
 20
249.5397180502
 30
0.0
  0
VERTEX
  5
6BE
 67
     1
  8
0
  6
HIDDEN
 62
     7
 10
158.2078475396
 20
249.5393336371
 30
0.0
  0
VERTEX
  5
6BF
 67
     1
  8
0
  6
HIDDEN
 62
     7
 10
158.1665698916
 20
249.5402535225
 30
0.0
  0
VERTEX
  5
6C0
 67
     1
  8
0
  6
HIDDEN
 62
     7
 10
158.1029771418
 20
249.5515084627
 30
0.0
  0
VERTEX
  5
6C1
 67
     1
  8
0
  6
HIDDEN
 62
     7
 10
158.0498045211
 20
249.5735626082
 30
0.0
  0
VERTEX
  5
6C2
 67
     1
  8
0
  6
HIDDEN
 62
     7
 10
158.0127130707
 20
249.6040637732
 30
0.0
  0
VERTEX
  5
6C3
 67
     1
  8
0
  6
HIDDEN
 62
     7
 10
157.9959616086
 20
249.6398010674
 30
0.0
  0
VERTEX
  5
6C4
 67
     1
  8
0
  6
HIDDEN
 62
     7
 10
157.995276749
 20
249.6488726657
 30
0.0
  0
SEQEND
  5
8A9
 67
     1
  8
0
  6
HIDDEN
 62
     7
  0
LINE
  5
42E
 67
     1
  8
0
  6
HIDDEN
 62
     7
 10
157.995276749
 20
244.9195439943
 30
0.0
 11
157.995276749
 21
249.6488726657
 31
0.0
  0
LINE
  5
42F
 67
     1
  8
0
  6
HIDDEN
 62
     7
 10
152.7964743538
 20
250.9595618124
 30
0.0
 11
152.7964743538
 21
244.9119570219
 31
0.0
  0
LINE
  5
430
 67
     1
  8
0
  6
HIDDEN
 62
     7
 10
152.595276749
 20
244.7120965814
 30
0.0
 11
152.595276749
 21
251.1594222529
 31
0.0
  0
POLYLINE
  5
431
 67
     1
  8
0
  6
HIDDEN
 62
     7
 66
     1
 10
0.0
 20
0.0
 30
0.0
 70
   128
  0
VERTEX
  5
6C5
 67
     1
  8
0
  6
HIDDEN
 62
     7
 10
157.995276749
 20
249.1218833542
 30
0.0
  0
VERTEX
  5
6C6
 67
     1
  8
0
  6
HIDDEN
 62
     7
 10
158.3717242342
 20
249.1206466913
 30
0.0
  0
VERTEX
  5
6C7
 67
     1
  8
0
  6
HIDDEN
 62
     7
 10
160.995276749
 20
249.1120273491
 30
0.0
  0
SEQEND
  5
8AA
 67
     1
  8
0
  6
HIDDEN
 62
     7
  0
POLYLINE
  5
432
 67
     1
  8
0
  6
HIDDEN
 62
     7
 66
     1
 10
0.0
 20
0.0
 30
0.0
 70
   128
  0
VERTEX
  5
6C8
 67
     1
  8
0
  6
HIDDEN
 62
     7
 10
160.995276749
 20
249.9510266726
 30
0.0
  0
VERTEX
  5
6C9
 67
     1
  8
0
  6
HIDDEN
 62
     7
 10
158.3717242342
 20
249.9596460148
 30
0.0
  0
VERTEX
  5
6CA
 67
     1
  8
0
  6
HIDDEN
 62
     7
 10
157.995276749
 20
249.9608826776
 30
0.0
  0
SEQEND
  5
8AB
 67
     1
  8
0
  6
HIDDEN
 62
     7
  0
LINE
  5
433
 67
     1
  8
0
  6
HIDDEN
 62
     7
 10
160.995276749
 20
249.9510266726
 30
0.0
 11
160.995276749
 21
250.9061106372
 31
0.0
  0
POLYLINE
  5
434
 67
     1
  8
0
  6
HIDDEN
 62
     7
 66
     1
 10
0.0
 20
0.0
 30
0.0
 70
   128
  0
VERTEX
  5
6CB
 67
     1
  8
0
  6
HIDDEN
 62
     7
 10
157.995276749
 20
250.6835410467
 30
0.0
  0
VERTEX
  5
6CC
 67
     1
  8
0
  6
HIDDEN
 62
     7
 10
158.3717242342
 20
250.6816342329
 30
0.0
  0
VERTEX
  5
6CD
 67
     1
  8
0
  6
HIDDEN
 62
     7
 10
160.995276749
 20
250.6683440457
 30
0.0
  0
SEQEND
  5
8AC
 67
     1
  8
0
  6
HIDDEN
 62
     7
  0
POLYLINE
  5
435
 67
     1
  8
0
  6
HIDDEN
 62
     7
 66
     1
 10
0.0
 20
0.0
 30
0.0
 70
   128
  0
VERTEX
  5
6CE
 67
     1
  8
0
  6
HIDDEN
 62
     7
 10
160.995276749
 20
250.1242115846
 30
0.0
  0
VERTEX
  5
6CF
 67
     1
  8
0
  6
HIDDEN
 62
     7
 10
158.3717242342
 20
250.1375017718
 30
0.0
  0
VERTEX
  5
6D0
 67
     1
  8
0
  6
HIDDEN
 62
     7
 10
157.995276749
 20
250.1394085856
 30
0.0
  0
SEQEND
  5
8AD
 67
     1
  8
0
  6
HIDDEN
 62
     7
  0
LINE
  5
436
 67
     1
  8
0
  6
HIDDEN
 62
     7
 10
160.995276749
 20
250.1242115846
 30
0.0
 11
160.995276749
 21
246.7594914852
 31
0.0
  0
POLYLINE
  5
437
 67
     1
  8
0
  6
HIDDEN
 62
     7
 66
     1
 10
0.0
 20
0.0
 30
0.0
 70
   128
  0
VERTEX
  5
6D1
 67
     1
  8
0
  6
HIDDEN
 62
     7
 10
157.995276749
 20
246.7496354802
 30
0.0
  0
VERTEX
  5
6D2
 67
     1
  8
0
  6
HIDDEN
 62
     7
 10
158.3717242342
 20
246.750872143
 30
0.0
  0
VERTEX
  5
6D3
 67
     1
  8
0
  6
HIDDEN
 62
     7
 10
160.995276749
 20
246.7594914852
 30
0.0
  0
SEQEND
  5
8AE
 67
     1
  8
0
  6
HIDDEN
 62
     7
  0
POLYLINE
  5
438
 67
     1
  8
0
  6
HIDDEN
 62
     7
 66
     1
 10
0.0
 20
0.0
 30
0.0
 70
   128
  0
VERTEX
  5
6D4
 67
     1
  8
0
  6
HIDDEN
 62
     7
 10
160.995276749
 20
245.9204921617
 30
0.0
  0
VERTEX
  5
6D5
 67
     1
  8
0
  6
HIDDEN
 62
     7
 10
158.3717242342
 20
245.9118728195
 30
0.0
  0
VERTEX
  5
6D6
 67
     1
  8
0
  6
HIDDEN
 62
     7
 10
157.995276749
 20
245.9106361567
 30
0.0
  0
SEQEND
  5
8AF
 67
     1
  8
0
  6
HIDDEN
 62
     7
  0
LINE
  5
439
 67
     1
  8
0
  6
HIDDEN
 62
     7
 10
160.995276749
 20
245.9204921617
 30
0.0
 11
160.995276749
 21
244.9654081971
 31
0.0
  0
POLYLINE
  5
43A
 67
     1
  8
0
  6
HIDDEN
 62
     7
 66
     1
 10
0.0
 20
0.0
 30
0.0
 70
   128
  0
VERTEX
  5
6D7
 67
     1
  8
0
  6
HIDDEN
 62
     7
 10
157.995276749
 20
245.1879777876
 30
0.0
  0
VERTEX
  5
6D8
 67
     1
  8
0
  6
HIDDEN
 62
     7
 10
158.3717242342
 20
245.1898846014
 30
0.0
  0
VERTEX
  5
6D9
 67
     1
  8
0
  6
HIDDEN
 62
     7
 10
160.995276749
 20
245.2031747886
 30
0.0
  0
SEQEND
  5
8B0
 67
     1
  8
0
  6
HIDDEN
 62
     7
  0
POLYLINE
  5
43B
 67
     1
  8
0
  6
HIDDEN
 62
     7
 66
     1
 10
0.0
 20
0.0
 30
0.0
 70
   128
  0
VERTEX
  5
6DA
 67
     1
  8
0
  6
HIDDEN
 62
     7
 10
160.995276749
 20
245.7473072497
 30
0.0
  0
VERTEX
  5
6DB
 67
     1
  8
0
  6
HIDDEN
 62
     7
 10
158.3717242342
 20
245.7340170625
 30
0.0
  0
VERTEX
  5
6DC
 67
     1
  8
0
  6
HIDDEN
 62
     7
 10
157.995276749
 20
245.7321102487
 30
0.0
  0
SEQEND
  5
8B1
 67
     1
  8
0
  6
HIDDEN
 62
     7
  0
LINE
  5
43C
 67
     1
  8
0
  6
HIDDEN
 62
     7
 10
160.995276749
 20
245.7473072497
 30
0.0
 11
160.995276749
 21
249.1120273491
 31
0.0
  0
LINE
  5
43D
 67
     1
  8
0
  6
HIDDEN
 62
     7
 10
157.995276749
 20
245.7321102487
 30
0.0
 11
157.995276749
 21
245.1879777876
 31
0.0
  0
LINE
  5
43E
 67
     1
  8
0
  6
HIDDEN
 62
     7
 10
157.995276749
 20
245.9106361567
 30
0.0
 11
157.995276749
 21
246.7496354802
 31
0.0
  0
LINE
  5
43F
 67
     1
  8
0
  6
HIDDEN
 62
     7
 10
157.995276749
 20
250.1394085856
 30
0.0
 11
157.995276749
 21
250.6835410467
 31
0.0
  0
LINE
  5
440
 67
     1
  8
0
  6
HIDDEN
 62
     7
 10
157.995276749
 20
249.9608826776
 30
0.0
 11
157.995276749
 21
249.1218833542
 31
0.0
  0
LINE
  5
441
 67
     1
  8
0
  6
HIDDEN
 62
     7
 10
160.995276749
 20
249.4561511232
 30
0.0
 11
160.995276749
 21
249.1120273491
 31
0.0
  0
POLYLINE
  5
442
 67
     1
  8
0
  6
HIDDEN
 62
     7
 66
     1
 10
0.0
 20
0.0
 30
0.0
 70
   128
  0
VERTEX
  5
6DD
 67
     1
  8
0
  6
HIDDEN
 62
     7
 10
157.995276749
 20
250.4878719891
 30
0.0
  0
VERTEX
  5
6DE
 67
     1
  8
0
  6
HIDDEN
 62
     7
 10
157.9991188919
 20
250.4664693943
 30
0.0
  0
VERTEX
  5
6DF
 67
     1
  8
0
  6
HIDDEN
 62
     7
 10
158.0233941753
 20
250.4317678487
 30
0.0
  0
VERTEX
  5
6E0
 67
     1
  8
0
  6
HIDDEN
 62
     7
 10
158.0673933767
 20
250.4034936684
 30
0.0
  0
VERTEX
  5
6E1
 67
     1
  8
0
  6
HIDDEN
 62
     7
 10
158.1258026733
 20
250.3849535012
 30
0.0
  0
VERTEX
  5
6E2
 67
     1
  8
0
  6
HIDDEN
 62
     7
 10
158.1665698916
 20
250.379252846
 30
0.0
  0
VERTEX
  5
6E3
 67
     1
  8
0
  6
HIDDEN
 62
     7
 10
158.2161824417
 20
250.3787173737
 30
0.0
  0
SEQEND
  5
8B2
 67
     1
  8
0
  6
HIDDEN
 62
     7
  0
POLYLINE
  5
443
 67
     1
  8
0
  6
HIDDEN
 62
     7
 66
     1
 10
0.0
 20
0.0
 30
0.0
 70
   128
  0
VERTEX
  5
6E4
 67
     1
  8
0
  6
HIDDEN
 62
     7
 10
158.2161824417
 20
250.3787173737
 30
0.0
  0
VERTEX
  5
6E5
 67
     1
  8
0
  6
HIDDEN
 62
     7
 10
158.7747234528
 20
250.4109436463
 30
0.0
  0
VERTEX
  5
6E6
 67
     1
  8
0
  6
HIDDEN
 62
     7
 10
160.5534653637
 20
250.5135160808
 30
0.0
  0
SEQEND
  5
8B3
 67
     1
  8
0
  6
HIDDEN
 62
     7
  0
POLYLINE
  5
444
 67
     1
  8
0
  6
HIDDEN
 62
     7
 66
     1
 10
0.0
 20
0.0
 30
0.0
 70
   128
  0
VERTEX
  5
6E7
 67
     1
  8
0
  6
HIDDEN
 62
     7
 10
160.5534653637
 20
250.5135160808
 30
0.0
  0
VERTEX
  5
6E8
 67
     1
  8
0
  6
HIDDEN
 62
     7
 10
160.6092905077
 20
250.5145831655
 30
0.0
  0
VERTEX
  5
6E9
 67
     1
  8
0
  6
HIDDEN
 62
     7
 10
160.7398585072
 20
250.4998851417
 30
0.0
  0
VERTEX
  5
6EA
 67
     1
  8
0
  6
HIDDEN
 62
     7
 10
160.8542215098
 20
250.4625369267
 30
0.0
  0
VERTEX
  5
6EB
 67
     1
  8
0
  6
HIDDEN
 62
     7
 10
160.9400472069
 20
250.4065295419
 30
0.0
  0
VERTEX
  5
6EC
 67
     1
  8
0
  6
HIDDEN
 62
     7
 10
160.9876834252
 20
250.3377626826
 30
0.0
  0
VERTEX
  5
6ED
 67
     1
  8
0
  6
HIDDEN
 62
     7
 10
160.995276749
 20
250.2951504467
 30
0.0
  0
SEQEND
  5
8B4
 67
     1
  8
0
  6
HIDDEN
 62
     7
  0
LINE
  5
445
 67
     1
  8
0
  6
HIDDEN
 62
     7
 10
160.995276749
 20
249.9510266726
 30
0.0
 11
160.995276749
 21
250.2951504467
 31
0.0
  0
LINE
  5
446
 67
     1
  8
0
  6
HIDDEN
 62
     7
 10
160.5534653637
 20
250.5135160808
 30
0.0
 11
160.5534653637
 21
251.9295133234
 31
0.0
  0
ARC
  5
447
 67
     1
  8
0
  6
HIDDEN
 62
     7
 10
160.612593357
 20
251.1550161649
 30
0.0
 40
0.3851969759449122
 50
6.5490656135
 51
98.829850293
  0
LINE
  5
448
 67
     1
  8
0
  6
HIDDEN
 62
     7
 10
160.995276749
 20
250.2951504467
 30
0.0
 11
160.995276749
 21
251.5357594172
 31
0.0
  0
LINE
  5
449
 67
     1
  8
0
  6
HIDDEN
 62
     7
 10
158.2161824417
 20
250.3787173737
 30
0.0
 11
158.2161824417
 21
251.6837473828
 31
0.0
  0
POLYLINE
  5
44A
 67
     1
  8
0
  6
HIDDEN
 62
     7
 66
     1
 10
0.0
 20
0.0
 30
0.0
 70
   128
  0
VERTEX
  5
6EE
 67
     1
  8
0
  6
HIDDEN
 62
     7
 10
160.5534653637
 20
251.5356479958
 30
0.0
  0
VERTEX
  5
6EF
 67
     1
  8
0
  6
HIDDEN
 62
     7
 10
158.7747234528
 20
251.3774912798
 30
0.0
  0
VERTEX
  5
6F0
 67
     1
  8
0
  6
HIDDEN
 62
     7
 10
158.2161824417
 20
251.3278015024
 30
0.0
  0
SEQEND
  5
8B5
 67
     1
  8
0
  6
HIDDEN
 62
     7
  0
ARC
  5
44B
 67
     1
  8
0
  6
HIDDEN
 62
     7
 10
158.1829332356
 20
251.5132861666
 30
0.0
 40
0.1884411589392017
 50
185.2305184157
 51
280.1626682636
  0
LINE
  5
44C
 67
     1
  8
0
  6
HIDDEN
 62
     7
 10
157.995276749
 20
250.4878719891
 30
0.0
 11
157.995276749
 21
251.8827401632
 31
0.0
  0
LINE
  5
44D
 67
     1
  8
0
  6
HIDDEN
 62
     7
 10
160.995276749
 20
245.7473072497
 30
0.0
 11
160.995276749
 21
245.2167018654
 31
0.0
  0
ARC
  5
44E
 67
     1
  8
0
  6
HIDDEN
 62
     7
 10
158.1825977616
 20
244.358672986
 30
0.0
 40
0.1880673834474866
 50
79.7130620254
 51
174.8937512953
  0
LINE
  5
44F
 67
     1
  8
0
  6
HIDDEN
 62
     7
 10
160.995276749
 20
244.6725694043
 30
0.0
 11
160.995276749
 21
245.2031747886
 31
0.0
  0
ARC
  5
450
 67
     1
  8
0
  6
HIDDEN
 62
     7
 10
160.6091752864
 20
244.7209878162
 30
0.0
 40
0.3891255350685245
 50
261.7688533079
 51
352.8522307857
  0
POLYLINE
  5
451
 67
     1
  8
0
  6
HIDDEN
 62
     7
 66
     1
 10
0.0
 20
0.0
 30
0.0
 70
   128
  0
VERTEX
  5
6F1
 67
     1
  8
0
  6
HIDDEN
 62
     7
 10
160.5534653637
 20
244.3358708385
 30
0.0
  0
VERTEX
  5
6F2
 67
     1
  8
0
  6
HIDDEN
 62
     7
 10
158.7747234528
 20
244.4940275545
 30
0.0
  0
VERTEX
  5
6F3
 67
     1
  8
0
  6
HIDDEN
 62
     7
 10
158.2161824417
 20
244.5437173319
 30
0.0
  0
SEQEND
  5
8B6
 67
     1
  8
0
  6
HIDDEN
 62
     7
  0
LINE
  5
452
 67
     1
  8
0
  6
HIDDEN
 62
     7
 10
160.995276749
 20
245.5763683876
 30
0.0
 11
160.995276749
 21
244.3357594172
 31
0.0
  0
POLYLINE
  5
453
 67
     1
  8
0
  6
HIDDEN
 62
     7
 66
     1
 10
0.0
 20
0.0
 30
0.0
 70
   128
  0
VERTEX
  5
6F4
 67
     1
  8
0
  6
HIDDEN
 62
     7
 10
160.5534653637
 20
245.3580027535
 30
0.0
  0
VERTEX
  5
6F5
 67
     1
  8
0
  6
HIDDEN
 62
     7
 10
160.6051945224
 20
245.3568684387
 30
0.0
  0
VERTEX
  5
6F6
 67
     1
  8
0
  6
HIDDEN
 62
     7
 10
160.6870162973
 20
245.3626486809
 30
0.0
  0
VERTEX
  5
6F7
 67
     1
  8
0
  6
HIDDEN
 62
     7
 10
160.8102741727
 20
245.3911882362
 30
0.0
  0
VERTEX
  5
6F8
 67
     1
  8
0
  6
HIDDEN
 62
     7
 10
160.9092507436
 20
245.440281716
 30
0.0
  0
VERTEX
  5
6F9
 67
     1
  8
0
  6
HIDDEN
 62
     7
 10
160.9733823905
 20
245.5046764377
 30
0.0
  0
VERTEX
  5
6FA
 67
     1
  8
0
  6
HIDDEN
 62
     7
 10
160.995276749
 20
245.5763683876
 30
0.0
  0
SEQEND
  5
8B7
 67
     1
  8
0
  6
HIDDEN
 62
     7
  0
LINE
  5
454
 67
     1
  8
0
  6
HIDDEN
 62
     7
 10
160.5534653637
 20
245.3580027535
 30
0.0
 11
160.5534653637
 21
243.9420055109
 31
0.0
  0
POLYLINE
  5
455
 67
     1
  8
0
  6
HIDDEN
 62
     7
 66
     1
 10
0.0
 20
0.0
 30
0.0
 70
   128
  0
VERTEX
  5
6FB
 67
     1
  8
0
  6
HIDDEN
 62
     7
 10
158.2161824417
 20
245.4928014606
 30
0.0
  0
VERTEX
  5
6FC
 67
     1
  8
0
  6
HIDDEN
 62
     7
 10
158.7747234528
 20
245.460575188
 30
0.0
  0
VERTEX
  5
6FD
 67
     1
  8
0
  6
HIDDEN
 62
     7
 10
160.5534653637
 20
245.3580027535
 30
0.0
  0
SEQEND
  5
8B8
 67
     1
  8
0
  6
HIDDEN
 62
     7
  0
LINE
  5
456
 67
     1
  8
0
  6
HIDDEN
 62
     7
 10
158.2161824417
 20
245.4928014606
 30
0.0
 11
158.2161824417
 21
244.1877714515
 31
0.0
  0
POLYLINE
  5
457
 67
     1
  8
0
  6
HIDDEN
 62
     7
 66
     1
 10
0.0
 20
0.0
 30
0.0
 70
   128
  0
VERTEX
  5
6FE
 67
     1
  8
0
  6
HIDDEN
 62
     7
 10
157.995276749
 20
245.3836468452
 30
0.0
  0
VERTEX
  5
6FF
 67
     1
  8
0
  6
HIDDEN
 62
     7
 10
157.99752382
 20
245.4000471655
 30
0.0
  0
VERTEX
  5
700
 67
     1
  8
0
  6
HIDDEN
 62
     7
 10
158.0187342286
 20
245.4352105502
 30
0.0
  0
VERTEX
  5
701
 67
     1
  8
0
  6
HIDDEN
 62
     7
 10
158.060173472
 20
245.4645653963
 30
0.0
  0
VERTEX
  5
702
 67
     1
  8
0
  6
HIDDEN
 62
     7
 10
158.1169472777
 20
245.4846314881
 30
0.0
  0
VERTEX
  5
703
 67
     1
  8
0
  6
HIDDEN
 62
     7
 10
158.1822098109
 20
245.4931683785
 30
0.0
  0
VERTEX
  5
704
 67
     1
  8
0
  6
HIDDEN
 62
     7
 10
158.2161824417
 20
245.4928014606
 30
0.0
  0
SEQEND
  5
8B9
 67
     1
  8
0
  6
HIDDEN
 62
     7
  0
LINE
  5
458
 67
     1
  8
0
  6
HIDDEN
 62
     7
 10
157.995276749
 20
245.3836468452
 30
0.0
 11
157.995276749
 21
243.9887786711
 31
0.0
  0
ARC
  5
459
 67
     1
  8
0
  6
HIDDEN
 62
     7
 10
158.1842922309
 20
250.9709374219
 30
0.0
 40
0.1899642911690209
 50
185.7289103543
 51
279.6642763251
  0
POLYLINE
  5
45A
 67
     1
  8
0
  6
HIDDEN
 62
     7
 66
     1
 10
0.0
 20
0.0
 30
0.0
 70
   128
  0
VERTEX
  5
705
 67
     1
  8
0
  6
HIDDEN
 62
     7
 10
158.2161824417
 20
246.3318007841
 30
0.0
  0
VERTEX
  5
706
 67
     1
  8
0
  6
HIDDEN
 62
     7
 10
158.1544259779
 20
246.3300873939
 30
0.0
  0
VERTEX
  5
707
 67
     1
  8
0
  6
HIDDEN
 62
     7
 10
158.0924998753
 20
246.3167954381
 30
0.0
  0
VERTEX
  5
708
 67
     1
  8
0
  6
HIDDEN
 62
     7
 10
158.0418910934
 20
246.2930689615
 30
0.0
  0
VERTEX
  5
709
 67
     1
  8
0
  6
HIDDEN
 62
     7
 10
158.0081479217
 20
246.2613729502
 30
0.0
  0
VERTEX
  5
70A
 67
     1
  8
0
  6
HIDDEN
 62
     7
 10
157.99752382
 20
246.239046489
 30
0.0
  0
VERTEX
  5
70B
 67
     1
  8
0
  6
HIDDEN
 62
     7
 10
157.995276749
 20
246.2226461686
 30
0.0
  0
SEQEND
  5
8BA
 67
     1
  8
0
  6
HIDDEN
 62
     7
  0
LINE
  5
45B
 67
     1
  8
0
  6
HIDDEN
 62
     7
 10
158.2161824417
 20
250.7836690412
 30
0.0
 11
158.2161824417
 21
246.3318007841
 31
0.0
  0
LINE
  5
45C
 67
     1
  8
0
  6
HIDDEN
 62
     7
 10
157.995276749
 20
250.95197484
 30
0.0
 11
157.995276749
 21
246.2226461686
 31
0.0
  0
ARC
  5
45D
 67
     1
  8
0
  6
HIDDEN
 62
     7
 10
160.6164110697
 20
250.6158932557
 30
0.0
 40
0.3808598934013711
 50
5.865845007
 51
99.5130708994
  0
POLYLINE
  5
45E
 67
     1
  8
0
  6
HIDDEN
 62
     7
 66
     1
 10
0.0
 20
0.0
 30
0.0
 70
   128
  0
VERTEX
  5
70C
 67
     1
  8
0
  6
HIDDEN
 62
     7
 10
160.995276749
 20
246.4153677111
 30
0.0
  0
VERTEX
  5
70D
 67
     1
  8
0
  6
HIDDEN
 62
     7
 10
160.9929998831
 20
246.3919535169
 30
0.0
  0
VERTEX
  5
70E
 67
     1
  8
0
  6
HIDDEN
 62
     7
 10
160.9558169837
 20
246.3202247333
 30
0.0
  0
VERTEX
  5
70F
 67
     1
  8
0
  6
HIDDEN
 62
     7
 10
160.8771697707
 20
246.2595493995
 30
0.0
  0
VERTEX
  5
710
 67
     1
  8
0
  6
HIDDEN
 62
     7
 10
160.7666789374
 20
246.2169629111
 30
0.0
  0
VERTEX
  5
711
 67
     1
  8
0
  6
HIDDEN
 62
     7
 10
160.6870162973
 20
246.2016480044
 30
0.0
  0
VERTEX
  5
712
 67
     1
  8
0
  6
HIDDEN
 62
     7
 10
160.5539724034
 20
246.1969730288
 30
0.0
  0
VERTEX
  5
713
 67
     1
  8
0
  6
HIDDEN
 62
     7
 10
160.5534653637
 20
246.197002077
 30
0.0
  0
SEQEND
  5
8BB
 67
     1
  8
0
  6
HIDDEN
 62
     7
  0
LINE
  5
45F
 67
     1
  8
0
  6
HIDDEN
 62
     7
 10
160.995276749
 20
250.6548169689
 30
0.0
 11
160.995276749
 21
246.4153677111
 31
0.0
  0
LINE
  5
460
 67
     1
  8
0
  6
HIDDEN
 62
     7
 10
160.5534653637
 20
250.9915155347
 30
0.0
 11
160.5534653637
 21
246.197002077
 31
0.0
  0
LINE
  5
461
 67
     1
  8
0
  6
HIDDEN
 62
     7
 10
160.995276749
 20
251.19894943
 30
0.0
 11
160.995276749
 21
250.6683440457
 31
0.0
  0
LINE
  5
462
 67
     1
  8
0
  6
HIDDEN
 62
     7
 10
160.995276749
 20
250.1242115846
 30
0.0
 11
160.995276749
 21
250.6548169689
 31
0.0
  0
POLYLINE
  5
463
 67
     1
  8
0
  6
HIDDEN
 62
     7
 66
     1
 10
0.0
 20
0.0
 30
0.0
 70
   128
  0
VERTEX
  5
714
 67
     1
  8
0
  6
HIDDEN
 62
     7
 10
158.2161824417
 20
250.7836690412
 30
0.0
  0
VERTEX
  5
715
 67
     1
  8
0
  6
HIDDEN
 62
     7
 10
158.7747234528
 20
250.8333588187
 30
0.0
  0
VERTEX
  5
716
 67
     1
  8
0
  6
HIDDEN
 62
     7
 10
160.5534653637
 20
250.9915155347
 30
0.0
  0
SEQEND
  5
8BC
 67
     1
  8
0
  6
HIDDEN
 62
     7
  0
LINE
  5
464
 67
     1
  8
0
  6
HIDDEN
 62
     7
 10
160.995276749
 20
245.9204921617
 30
0.0
 11
160.995276749
 21
245.5763683876
 31
0.0
  0
LINE
  5
465
 67
     1
  8
0
  6
HIDDEN
 62
     7
 10
160.995276749
 20
246.4153677111
 30
0.0
 11
160.995276749
 21
246.7594914852
 31
0.0
  0
POLYLINE
  5
466
 67
     1
  8
0
  6
HIDDEN
 62
     7
 66
     1
 10
0.0
 20
0.0
 30
0.0
 70
   128
  0
VERTEX
  5
717
 67
     1
  8
0
  6
HIDDEN
 62
     7
 10
160.5534653637
 20
246.197002077
 30
0.0
  0
VERTEX
  5
718
 67
     1
  8
0
  6
HIDDEN
 62
     7
 10
158.7747234528
 20
246.2995745115
 30
0.0
  0
VERTEX
  5
719
 67
     1
  8
0
  6
HIDDEN
 62
     7
 10
158.2161824417
 20
246.3318007841
 30
0.0
  0
SEQEND
  5
8BD
 67
     1
  8
0
  6
HIDDEN
 62
     7
  0
LINE
  5
467
 67
     1
  8
0
  6
HIDDEN
 62
     7
 10
160.245276749
 20
157.4357594172
 30
0.0
 11
160.245276749
 21
163.4357594172
 31
0.0
  0
LINE
  5
468
 67
     1
  8
0
  6
HIDDEN
 62
     7
 10
157.995276749
 20
155.1917058864
 30
0.0
 11
157.995276749
 21
165.6798129479
 31
0.0
  0
LINE
  5
469
 67
     1
  8
0
  6
HIDDEN
 62
     7
 10
160.245276749
 20
227.4357594172
 30
0.0
 11
160.245276749
 21
233.4357594172
 31
0.0
  0
LINE
  5
46A
 67
     1
  8
0
  6
HIDDEN
 62
     7
 10
157.995276749
 20
225.1917058864
 30
0.0
 11
157.995276749
 21
235.6798129479
 31
0.0
  0
LINE
  5
46B
 67
     1
  8
0
  6
HIDDEN
 62
     7
 10
161.995276749
 20
163.4298396024
 30
0.0
 11
161.995276749
 21
157.4416792319
 31
0.0
  0
LINE
  5
46C
 67
     1
  8
0
  6
HIDDEN
 62
     7
 10
161.995276749
 20
233.4298396024
 30
0.0
 11
161.995276749
 21
227.4416792319
 31
0.0
  0
LINE
  5
46D
 67
     1
  8
0
  6
HIDDEN
 62
     7
 10
160.245276749
 20
192.4357594172
 30
0.0
 11
160.245276749
 21
198.4357594172
 31
0.0
  0
LINE
  5
46E
 67
     1
  8
0
  6
HIDDEN
 62
     7
 10
157.995276749
 20
190.1917058864
 30
0.0
 11
157.995276749
 21
200.6798129479
 31
0.0
  0
LINE
  5
46F
 67
     1
  8
0
  6
HIDDEN
 62
     7
 10
157.995276749
 20
146.9357594172
 30
0.0
 11
157.995276749
 21
138.9592075885
 31
0.0
  0
LINE
  5
470
 67
     1
  8
0
  6
HIDDEN
 62
     7
 10
161.995276749
 20
146.9298930726
 30
0.0
 11
161.995276749
 21
138.9416257617
 31
0.0
  0
LINE
  5
471
 67
     1
  8
0
  6
HIDDEN
 62
     7
 10
157.995276749
 20
251.9357594172
 30
0.0
 11
157.995276749
 21
243.9592075885
 31
0.0
  0
LINE
  5
472
 67
     1
  8
0
  6
HIDDEN
 62
     7
 10
161.995276749
 20
251.9298930726
 30
0.0
 11
161.995276749
 21
243.9416257617
 31
0.0
  0
LINE
  5
473
 67
     1
  8
0
  6
HIDDEN
 62
     7
 10
161.995276749
 20
198.4298396024
 30
0.0
 11
161.995276749
 21
192.4416792319
 31
0.0
  0
LINE
  5
474
 67
     1
  8
0
  6
HIDDEN
 62
     7
 10
160.245276749
 20
122.4357594172
 30
0.0
 11
160.245276749
 21
128.4357594172
 31
0.0
  0
LINE
  5
475
 67
     1
  8
0
  6
HIDDEN
 62
     7
 10
157.995276749
 20
120.1917058864
 30
0.0
 11
157.995276749
 21
130.6798129479
 31
0.0
  0
LINE
  5
476
 67
     1
  8
0
  6
HIDDEN
 62
     7
 10
160.245276749
 20
262.4357594172
 30
0.0
 11
160.245276749
 21
268.4357594172
 31
0.0
  0
LINE
  5
477
 67
     1
  8
0
  6
HIDDEN
 62
     7
 10
157.995276749
 20
260.1917058864
 30
0.0
 11
157.995276749
 21
270.6798129479
 31
0.0
  0
LINE
  5
478
 67
     1
  8
0
  6
HIDDEN
 62
     7
 10
161.995276749
 20
128.4298396024
 30
0.0
 11
161.995276749
 21
122.4416792319
 31
0.0
  0
LINE
  5
479
 67
     1
  8
0
  6
HIDDEN
 62
     7
 10
161.995276749
 20
268.4298396024
 30
0.0
 11
161.995276749
 21
262.4416792319
 31
0.0
  0
LINE
  5
47A
 67
     1
  8
0
  6
HIDDEN
 62
     7
 10
150.095276749
 20
137.6857594172
 30
0.0
 11
152.345276749
 21
139.9357594172
 31
0.0
  0
LINE
  5
47B
 67
     1
  8
0
  6
HIDDEN
 62
     7
 10
152.345276749
 20
145.9357594172
 30
0.0
 11
150.095276749
 21
148.1857594172
 31
0.0
  0
LINE
  5
47C
 67
     1
  8
0
  6
HIDDEN
 62
     7
 10
150.095276749
 20
242.6857594172
 30
0.0
 11
152.345276749
 21
244.9357594172
 31
0.0
  0
LINE
  5
47D
 67
     1
  8
0
  6
HIDDEN
 62
     7
 10
152.345276749
 20
250.9357594172
 30
0.0
 11
150.095276749
 21
253.1857594172
 31
0.0
  0
LINE
  5
47E
 67
     1
  8
0
  6
HIDDEN
 62
     7
 10
152.345276749
 20
139.9357594172
 30
0.0
 11
152.595276749
 21
139.9357594172
 31
0.0
  0
LINE
  5
47F
 67
     1
  8
0
  6
HIDDEN
 62
     7
 10
152.595276749
 20
145.9357594172
 30
0.0
 11
152.345276749
 21
145.9357594172
 31
0.0
  0
LINE
  5
480
 67
     1
  8
0
  6
HIDDEN
 62
     7
 10
152.345276749
 20
244.9357594172
 30
0.0
 11
152.595276749
 21
244.9357594172
 31
0.0
  0
LINE
  5
481
 67
     1
  8
0
  6
HIDDEN
 62
     7
 10
152.595276749
 20
250.9357594172
 30
0.0
 11
152.345276749
 21
250.9357594172
 31
0.0
  0
ARC
  5
482
 67
     1
  8
0
  6
HIDDEN
 62
     7
 10
160.595276749
 20
146.5357594172
 30
0.0
 40
0.3999999999999964
 50
0.0
 51
96.0
  0
LINE
  5
483
 67
     1
  8
0
  6
HIDDEN
 62
     7
 10
160.5534653637
 20
146.9335681753
 30
0.0
 11
158.2161824417
 21
146.6879098412
 31
0.0
  0
LINE
  5
484
 67
     1
  8
0
  6
HIDDEN
 62
     7
 10
152.7964743538
 20
139.9119570219
 30
0.0
 11
160.995276749
 21
139.9607594172
 31
0.0
  0
LINE
  5
485
 67
     1
  8
0
  6
HIDDEN
 62
     7
 10
160.995276749
 20
145.9107594172
 30
0.0
 11
152.7964743538
 21
145.9595618124
 31
0.0
  0
ARC
  5
486
 67
     1
  8
0
  6
HIDDEN
 62
     7
 10
158.195276749
 20
146.8868142203
 30
0.0
 40
0.2000000000000079
 50
180.0
 51
276.0
  0
ARC
  5
487
 67
     1
  8
0
  6
HIDDEN
 62
     7
 10
160.595276749
 20
139.3357594172
 30
0.0
 40
0.4000000000000217
 50
264.0
 51
0.0
  0
LINE
  5
488
 67
     1
  8
0
  6
HIDDEN
 62
     7
 10
158.2161824417
 20
139.1836089931
 30
0.0
 11
160.5534653637
 21
138.937950659
 31
0.0
  0
ARC
  5
489
 67
     1
  8
0
  6
HIDDEN
 62
     7
 10
158.195276749
 20
138.9847046141
 30
0.0
 40
0.2000000000000171
 50
84.0
 51
180.0
  0
LINE
  5
48A
 67
     1
  8
0
  6
HIDDEN
 62
     7
 10
152.7964743538
 20
244.9119570219
 30
0.0
 11
160.995276749
 21
244.9607594172
 31
0.0
  0
LINE
  5
48B
 67
     1
  8
0
  6
HIDDEN
 62
     7
 10
160.995276749
 20
250.9107594172
 30
0.0
 11
152.7964743538
 21
250.9595618124
 31
0.0
  0
ARC
  5
48C
 67
     1
  8
0
  6
HIDDEN
 62
     7
 10
160.595276749
 20
251.5357594172
 30
0.0
 40
0.4000000000000217
 50
0.0
 51
96.0
  0
LINE
  5
48D
 67
     1
  8
0
  6
HIDDEN
 62
     7
 10
160.5534653637
 20
251.9335681753
 30
0.0
 11
158.2161824417
 21
251.6879098412
 31
0.0
  0
ARC
  5
48E
 67
     1
  8
0
  6
HIDDEN
 62
     7
 10
158.195276749
 20
251.8868142203
 30
0.0
 40
0.1999999999999886
 50
180.0
 51
276.0
  0
ARC
  5
48F
 67
     1
  8
0
  6
HIDDEN
 62
     7
 10
160.595276749
 20
244.3357594172
 30
0.0
 40
0.3999999999999934
 50
264.0
 51
0.0
  0
LINE
  5
490
 67
     1
  8
0
  6
HIDDEN
 62
     7
 10
158.2161824417
 20
244.1836089931
 30
0.0
 11
160.5534653637
 21
243.937950659
 31
0.0
  0
ARC
  5
491
 67
     1
  8
0
  6
HIDDEN
 62
     7
 10
158.195276749
 20
243.9847046141
 30
0.0
 40
0.2000000000000049
 50
84.0
 51
180.0
  0
LINE
  5
492
 67
     1
  8
0
  6
HIDDEN
 62
     7
 10
157.995276749
 20
155.1857594172
 30
0.0
 11
160.245276749
 21
157.4357594172
 31
0.0
  0
LINE
  5
493
 67
     1
  8
0
  6
HIDDEN
 62
     7
 10
160.245276749
 20
163.4357594172
 30
0.0
 11
157.995276749
 21
165.6857594172
 31
0.0
  0
LINE
  5
494
 67
     1
  8
0
  6
HIDDEN
 62
     7
 10
157.995276749
 20
225.1857594172
 30
0.0
 11
160.245276749
 21
227.4357594172
 31
0.0
  0
LINE
  5
495
 67
     1
  8
0
  6
HIDDEN
 62
     7
 10
160.245276749
 20
233.4357594172
 30
0.0
 11
157.995276749
 21
235.6857594172
 31
0.0
  0
LINE
  5
496
 67
     1
  8
0
  6
HIDDEN
 62
     7
 10
160.245276749
 20
157.4357594172
 30
0.0
 11
161.995276749
 21
157.4357594172
 31
0.0
  0
LINE
  5
497
 67
     1
  8
0
  6
HIDDEN
 62
     7
 10
161.995276749
 20
163.4357594172
 30
0.0
 11
160.245276749
 21
163.4357594172
 31
0.0
  0
LINE
  5
498
 67
     1
  8
0
  6
HIDDEN
 62
     7
 10
160.245276749
 20
227.4357594172
 30
0.0
 11
161.995276749
 21
227.4357594172
 31
0.0
  0
LINE
  5
499
 67
     1
  8
0
  6
HIDDEN
 62
     7
 10
161.995276749
 20
233.4357594172
 30
0.0
 11
160.245276749
 21
233.4357594172
 31
0.0
  0
LINE
  5
49A
 67
     1
  8
0
  6
HIDDEN
 62
     7
 10
157.995276749
 20
190.1857594172
 30
0.0
 11
160.245276749
 21
192.4357594172
 31
0.0
  0
LINE
  5
49B
 67
     1
  8
0
  6
HIDDEN
 62
     7
 10
160.245276749
 20
198.4357594172
 30
0.0
 11
157.995276749
 21
200.6857594172
 31
0.0
  0
LINE
  5
49C
 67
     1
  8
0
  6
HIDDEN
 62
     7
 10
157.995276749
 20
138.9357594172
 30
0.0
 11
161.995276749
 21
138.9357594172
 31
0.0
  0
LINE
  5
49D
 67
     1
  8
0
  6
HIDDEN
 62
     7
 10
161.995276749
 20
146.9357594172
 30
0.0
 11
157.995276749
 21
146.9357594172
 31
0.0
  0
LINE
  5
49E
 67
     1
  8
0
  6
HIDDEN
 62
     7
 10
157.995276749
 20
243.9357594172
 30
0.0
 11
161.995276749
 21
243.9357594172
 31
0.0
  0
LINE
  5
49F
 67
     1
  8
0
  6
HIDDEN
 62
     7
 10
161.995276749
 20
251.9357594172
 30
0.0
 11
157.995276749
 21
251.9357594172
 31
0.0
  0
LINE
  5
4A0
 67
     1
  8
0
  6
HIDDEN
 62
     7
 10
160.245276749
 20
192.4357594172
 30
0.0
 11
161.995276749
 21
192.4357594172
 31
0.0
  0
LINE
  5
4A1
 67
     1
  8
0
  6
HIDDEN
 62
     7
 10
161.995276749
 20
198.4357594172
 30
0.0
 11
160.245276749
 21
198.4357594172
 31
0.0
  0
LINE
  5
4A2
 67
     1
  8
0
  6
HIDDEN
 62
     7
 10
157.995276749
 20
120.1857594172
 30
0.0
 11
160.245276749
 21
122.4357594172
 31
0.0
  0
LINE
  5
4A3
 67
     1
  8
0
  6
HIDDEN
 62
     7
 10
160.245276749
 20
128.4357594172
 30
0.0
 11
157.995276749
 21
130.6857594172
 31
0.0
  0
LINE
  5
4A4
 67
     1
  8
0
  6
HIDDEN
 62
     7
 10
157.995276749
 20
260.1857594172
 30
0.0
 11
160.245276749
 21
262.4357594172
 31
0.0
  0
LINE
  5
4A5
 67
     1
  8
0
  6
HIDDEN
 62
     7
 10
160.245276749
 20
268.4357594172
 30
0.0
 11
157.995276749
 21
270.6857594172
 31
0.0
  0
LINE
  5
4A6
 67
     1
  8
0
  6
HIDDEN
 62
     7
 10
160.245276749
 20
122.4357594172
 30
0.0
 11
161.995276749
 21
122.4357594172
 31
0.0
  0
LINE
  5
4A7
 67
     1
  8
0
  6
HIDDEN
 62
     7
 10
161.995276749
 20
128.4357594172
 30
0.0
 11
160.245276749
 21
128.4357594172
 31
0.0
  0
LINE
  5
4A8
 67
     1
  8
0
  6
HIDDEN
 62
     7
 10
160.245276749
 20
262.4357594172
 30
0.0
 11
161.995276749
 21
262.4357594172
 31
0.0
  0
LINE
  5
4A9
 67
     1
  8
0
  6
HIDDEN
 62
     7
 10
161.995276749
 20
268.4357594172
 30
0.0
 11
160.245276749
 21
268.4357594172
 31
0.0
  0
DIMENSION
  5
4AA
 67
     1
  8
0
  6
CONTINUOUS
 62
     7
  2
_D_10
 10
71.3062272193
 20
167.4357594171
 30
0.0
 11
71.3062272193
 21
195.4357594171
 31
0.0
 70
   160
  1
<>
  3
SLDDIMSTYLE0
 13
90.0251586025
 23
223.4357594171
 33
0.0
 14
89.9211819386
 24
167.4357594171
 34
0.0
 50
90.0
  0
DIMENSION
  5
4B4
 67
     1
  8
0
  6
CONTINUOUS
 62
     7
  2
_D_11
 10
64.8976973644
 20
156.1857594171
 30
0.0
 11
64.8976973644
 21
195.4357594171
 31
0.0
 70
   160
  1
<>
  3
SLDDIMSTYLE0
 13
85.495276749
 23
234.6857594171
 33
0.0
 14
85.495276749
 24
156.1857594171
 34
0.0
 50
90.0
  0
DIMENSION
  5
4BE
 67
     1
  8
0
  6
CONTINUOUS
 62
     7
  2
_D_12
 10
89.495276749
 20
198.9357594171
 30
0.0
 11
76.224401294
 21
195.4357594171
 31
0.0
 70
   162
  1
<>
  3
SLDDIMSTYLE3
 13
89.495276749
 23
191.9357594171
 33
0.0
 14
83.495276749
 24
191.410827436
 34
0.0
 15
83.495276749
 25
199.4606913983
 35
0.0
 16
76.224401294
 26
195.4357594171
 36
0.0
  0
DIMENSION
  5
4CB
 67
     1
  8
0
  6
CONTINUOUS
 62
     7
  2
_D_13
 10
107.6330913703
 20
216.4357594172
 30
0.0
 11
107.6330913703
 21
223.4357594172
 31
0.0
 70
   160
  1
<>
  3
SLDDIMSTYLE1
 13
98.495276749
 23
230.4357594171
 33
0.0
 14
98.495276749
 24
216.4357594171
 34
0.0
 50
90.0
  0
DIMENSION
  5
4D7
 67
     1
  8
0
  6
CONTINUOUS
 62
     7
  2
_D_14
 10
89.495276749
 20
241.8736482755
 30
0.0
 11
95.495276749
 21
241.8736482755
 31
0.0
 70
   160
  1
<>
  3
SLDDIMSTYLE1
 13
101.495276749
 23
227.4357594171
 33
0.0
 14
89.495276749
 24
227.4357594171
 34
0.0
 50
0.0
  0
DIMENSION
  5
4E3
 67
     1
  8
0
  6
CONTINUOUS
 62
     7
  2
_D_15
 10
92.495276749
 20
219.4357594171
 30
0.0
 11
86.2129176911
 21
211.1061262573
 31
0.0
 70
   164
  1
<>
  3
SLDDIMSTYLE4
 15
90.6888171345
 25
217.0406177384
 35
0.0
 40
0.0
  0
DIMENSION
  5
4EC
 67
     1
  8
0
  6
CONTINUOUS
 62
     7
  2
_D_16
 10
95.495276749
 20
146.9488404128
 30
0.0
 11
89.495276749
 21
146.9488404128
 31
0.0
 70
   160
  1
<>
  3
SLDDIMSTYLE1
 13
83.495276749
 23
158.1857594171
 33
0.0
 14
95.495276749
 24
159.6236654482
 34
0.0
 50
0.0
  0
LINE
  5
4F8
 67
     1
  8
0
  6
CENTERX2
 62
     7
 10
123.995276749
 20
275.2857594172
 30
0.0
 11
123.995276749
 21
116.5857594172
 31
0.0
  0
LINE
  5
4F9
 67
     1
  8
0
  6
CENTERX2
 62
     7
 10
103.6461015688
 20
223.4357594171
 30
0.0
 11
90.0251586025
 21
223.4357594171
 31
0.0
  0
LINE
  5
4FA
 67
     1
  8
0
  6
CENTERX2
 62
     7
 10
163.3896848681
 20
195.4357594172
 30
0.0
 11
82.4960176773
 21
195.4357594171
 31
0.0
  0
LINE
  5
4FB
 67
     1
  8
0
  6
CENTERX2
 62
     7
 10
104.1659848882
 20
167.4357594171
 30
0.0
 11
89.9211819386
 21
167.4357594171
 31
0.0
  0
LINE
  5
4FC
 67
     1
  8
0
  6
CENTERX2
 62
     7
 10
95.495276749
 20
215.7710639354
 30
0.0
 11
95.495276749
 21
231.4715401791
 31
0.0
  0
LINE
  5
4FD
 67
     1
  8
0
  6
CENTERX2
 62
     7
 10
95.495276749
 20
187.8013413557
 30
0.0
 11
95.495276749
 21
203.0859109439
 31
0.0
  0
LINE
  5
4FE
 67
     1
  8
0
  6
CENTERX2
 62
     7
 10
95.495276749
 20
159.6236654482
 30
0.0
 11
95.495276749
 21
175.1161883641
 31
0.0
  0
LINE
  5
4FF
 67
     1
  8
0
  6
CENTERX2
 62
     7
 10
150.595276749
 20
247.9357594172
 30
0.0
 11
159.795276749
 21
247.9357594172
 31
0.0
  0
LINE
  5
500
 67
     1
  8
0
  6
CENTERX2
 62
     7
 10
150.595276749
 20
142.9357594172
 30
0.0
 11
159.795276749
 21
142.9357594172
 31
0.0
  0
LINE
  5
501
 67
     1
  8
0
  6
CONTINUOUS
 62
     7
 10
99.495276749
 20
44.8491692339
 30
0.0
 11
99.495276749
 21
39.6491692339
 31
0.0
  0
LINE
  5
502
 67
     1
  8
0
  6
CONTINUOUS
 62
     7
 10
111.495276749
 20
39.6491692339
 30
0.0
 11
111.495276749
 21
44.8491692339
 31
0.0
  0
LINE
  5
503
 67
     1
  8
0
  6
CONTINUOUS
 62
     7
 10
99.495276749
 20
39.6491692339
 30
0.0
 11
99.695276749
 21
39.4491692339
 31
0.0
  0
LINE
  5
504
 67
     1
  8
0
  6
CONTINUOUS
 62
     7
 10
111.295276749
 20
39.4491692339
 30
0.0
 11
111.495276749
 21
39.6491692339
 31
0.0
  0
LINE
  5
505
 67
     1
  8
0
  6
CONTINUOUS
 62
     7
 10
120.4635111697
 20
65.4436004288
 30
0.0
 11
120.1975549522
 21
65.5662884689
 31
0.0
  0
LINE
  5
506
 67
     1
  8
0
  6
CONTINUOUS
 62
     7
 10
118.843430463
 20
66.3766180785
 30
0.0
 11
118.335379694
 21
66.7762339482
 31
0.0
  0
POLYLINE
  5
507
 67
     1
  8
0
  6
CONTINUOUS
 62
     7
 66
     1
 10
0.0
 20
0.0
 30
0.0
 70
   128
  0
VERTEX
  5
71A
 67
     1
  8
0
  6
CONTINUOUS
 62
     7
 10
118.889162699
 20
66.0378536079
 30
0.0
  0
VERTEX
  5
71B
 67
     1
  8
0
  6
CONTINUOUS
 62
     7
 10
118.6690392404
 20
66.1944332634
 30
0.0
  0
VERTEX
  5
71C
 67
     1
  8
0
  6
CONTINUOUS
 62
     7
 10
118.4209398024
 20
66.3832816317
 30
0.0
  0
SEQEND
  5
8BE
 67
     1
  8
0
  6
CONTINUOUS
 62
     7
  0
LINE
  5
508
 67
     1
  8
0
  6
CONTINUOUS
 62
     7
 10
118.9778678311
 20
67.0121196185
 30
0.0
 11
119.1020738535
 21
67.2196776476
 31
0.0
  0
ARC
  5
509
 67
     1
  8
0
  6
CONTINUOUS
 62
     7
 10
118.6730278334
 20
67.476425603
 30
0.0
 40
0.5000000000000193
 50
329.1030275335
 51
48.2961046587
  0
ARC
  5
50A
 67
     1
  8
0
  6
CONTINUOUS
 62
     7
 10
123.995276749
 20
73.4491692339
 30
0.0
 40
7.500000000000101
 50
249.9099504084
 51
228.2961046587
  0
ARC
  5
50B
 67
     1
  8
0
  6
CONTINUOUS
 62
     7
 10
121.2473039542
 20
65.9359378705
 30
0.0
 40
0.5000000000000332
 50
69.9099504084
 51
149.1030275335
  0
LINE
  5
50C
 67
     1
  8
0
  6
CONTINUOUS
 62
     7
 10
120.818257934
 20
66.1926858259
 30
0.0
 11
120.7776213514
 21
66.1247789014
 31
0.0
  0
LINE
  5
50D
 67
     1
  8
0
  6
CONTINUOUS
 62
     7
 10
120.7258708985
 20
66.0382998257
 30
0.0
 11
120.6940519116
 21
65.9851277969
 31
0.0
  0
ARC
  5
50E
 67
     1
  8
0
  6
CONTINUOUS
 62
     7
 10
119.8359598713
 20
66.4986237077
 30
0.0
 40
1.000000000000022
 50
149.1030275335
 51
329.1030275335
  0
LINE
  5
50F
 67
     1
  8
0
  6
CONTINUOUS
 62
     7
 10
124.9269312279
 20
62.5388750155
 30
0.0
 11
119.3614863142
 21
62.0636291992
 31
0.0
  0
LINE
  5
510
 67
     1
  8
0
  6
CONTINUOUS
 62
     7
 10
115.3424910377
 20
61.7204381839
 30
0.0
 11
112.3780711831
 21
61.4672997277
 31
0.0
  0
LINE
  5
511
 67
     1
  8
0
  6
CONTINUOUS
 62
     7
 10
112.0377407799
 20
65.4527953326
 30
0.0
 11
112.3780711831
 21
61.4672997277
 31
0.0
  0
LINE
  5
512
 67
     1
  8
0
  6
CONTINUOUS
 62
     7
 10
118.889162699
 20
66.0378536079
 30
0.0
 11
118.5033260008
 21
66.0049061474
 31
0.0
  0
LINE
  5
513
 67
     1
  8
0
  6
CONTINUOUS
 62
     7
 10
114.4843307243
 20
65.6617151321
 30
0.0
 11
112.0377407799
 21
65.4527953326
 31
0.0
  0
LINE
  5
514
 67
     1
  8
0
  6
CONTINUOUS
 62
     7
 10
118.889162699
 20
66.0378536079
 30
0.0
 11
118.985698419
 21
65.9722631253
 31
0.0
  0
POLYLINE
  5
515
 67
     1
  8
0
  6
CONTINUOUS
 62
     7
 66
     1
 10
0.0
 20
0.0
 30
0.0
 70
   128
  0
VERTEX
  5
71D
 67
     1
  8
0
  6
CONTINUOUS
 62
     7
 10
119.77397365
 20
65.5005467025
 30
0.0
  0
VERTEX
  5
71E
 67
     1
  8
0
  6
CONTINUOUS
 62
     7
 10
120.2339269154
 20
65.2728468681
 30
0.0
  0
VERTEX
  5
71F
 67
     1
  8
0
  6
CONTINUOUS
 62
     7
 10
120.3626035818
 20
65.2148698915
 30
0.0
  0
SEQEND
  5
8BF
 67
     1
  8
0
  6
CONTINUOUS
 62
     7
  0
LINE
  5
516
 67
     1
  8
0
  6
CONTINUOUS
 62
     7
 10
111.952658179
 20
61.4491692339
 30
0.0
 11
111.952658179
 21
65.4491692339
 31
0.0
  0
LINE
  5
517
 67
     1
  8
0
  6
CONTINUOUS
 62
     7
 10
111.952658179
 20
61.4491692339
 30
0.0
 11
85.495276749
 21
61.4491692339
 31
0.0
  0
LINE
  5
518
 67
     1
  8
0
  6
CONTINUOUS
 62
     7
 10
85.495276749
 20
65.4491692339
 30
0.0
 11
85.495276749
 21
61.4491692339
 31
0.0
  0
LINE
  5
519
 67
     1
  8
0
  6
CONTINUOUS
 62
     7
 10
111.952658179
 20
65.4491692339
 30
0.0
 11
85.495276749
 21
65.4491692339
 31
0.0
  0
ARC
  5
51A
 67
     1
  8
0
  6
CONTINUOUS
 62
     7
 10
111.952658179
 20
66.4491692339
 30
0.0
 40
5.0
 50
270.0
 51
274.8807747545
  0
ARC
  5
51B
 67
     1
  8
0
  6
CONTINUOUS
 62
     7
 10
111.952658179
 20
66.4491692339
 30
0.0
 40
1.000000000000005
 50
270.0
 51
274.8807747545
  0
LINE
  5
51C
 67
     1
  8
0
  6
CONTINUOUS
 62
     7
 10
83.495276749
 20
61.4491692339
 30
0.0
 11
83.495276749
 21
65.4491692339
 31
0.0
  0
LINE
  5
51D
 67
     1
  8
0
  6
CONTINUOUS
 62
     7
 10
85.495276749
 20
61.4491692339
 30
0.0
 11
83.495276749
 21
61.4491692339
 31
0.0
  0
LINE
  5
51E
 67
     1
  8
0
  6
CONTINUOUS
 62
     7
 10
83.495276749
 20
65.4491692339
 30
0.0
 11
85.495276749
 21
65.4491692339
 31
0.0
  0
LINE
  5
51F
 67
     1
  8
0
  6
CONTINUOUS
 62
     7
 10
107.495276749
 20
47.3491692339
 30
0.0
 11
107.495276749
 21
44.8491692339
 31
0.0
  0
LINE
  5
520
 67
     1
  8
0
  6
CONTINUOUS
 62
     7
 10
112.995276749
 20
47.3491692339
 30
0.0
 11
112.995276749
 21
44.8491692339
 31
0.0
  0
LINE
  5
521
 67
     1
  8
0
  6
CONTINUOUS
 62
     7
 10
107.495276749
 20
47.3491692339
 30
0.0
 11
112.995276749
 21
47.3491692339
 31
0.0
  0
LINE
  5
522
 67
     1
  8
0
  6
CONTINUOUS
 62
     7
 10
107.495276749
 20
44.8491692339
 30
0.0
 11
112.995276749
 21
44.8491692339
 31
0.0
  0
LINE
  5
523
 67
     1
  8
0
  6
CONTINUOUS
 62
     7
 10
101.495276749
 20
47.3491692339
 30
0.0
 11
101.495276749
 21
44.8491692339
 31
0.0
  0
LINE
  5
524
 67
     1
  8
0
  6
CONTINUOUS
 62
     7
 10
101.495276749
 20
47.3491692339
 30
0.0
 11
107.495276749
 21
47.3491692339
 31
0.0
  0
LINE
  5
525
 67
     1
  8
0
  6
CONTINUOUS
 62
     7
 10
101.495276749
 20
44.8491692339
 30
0.0
 11
107.495276749
 21
44.8491692339
 31
0.0
  0
LINE
  5
526
 67
     1
  8
0
  6
CONTINUOUS
 62
     7
 10
89.495276749
 20
47.3491692339
 30
0.0
 11
89.495276749
 21
44.8491692339
 31
0.0
  0
LINE
  5
527
 67
     1
  8
0
  6
CONTINUOUS
 62
     7
 10
89.495276749
 20
47.3491692339
 30
0.0
 11
101.495276749
 21
47.3491692339
 31
0.0
  0
LINE
  5
528
 67
     1
  8
0
  6
CONTINUOUS
 62
     7
 10
89.495276749
 20
44.8491692339
 30
0.0
 11
101.495276749
 21
44.8491692339
 31
0.0
  0
LINE
  5
529
 67
     1
  8
0
  6
CONTINUOUS
 62
     7
 10
100.4612808083
 20
39.6491692339
 30
0.0
 11
111.495276749
 21
39.6491692339
 31
0.0
  0
LINE
  5
52A
 67
     1
  8
0
  6
CONTINUOUS
 62
     7
 10
99.495276749
 20
39.6491692339
 30
0.0
 11
100.4612808083
 21
39.6491692339
 31
0.0
  0
LINE
  5
52B
 67
     1
  8
0
  6
CONTINUOUS
 62
     7
 10
116.1784265794
 20
71.7471547141
 30
0.0
 11
113.2959630793
 21
71.11953686
 31
0.0
  0
LINE
  5
52C
 67
     1
  8
0
  6
CONTINUOUS
 62
     7
 10
120.7662339337
 20
66.1297920406
 30
0.0
 11
119.5755243955
 21
63.4307717006
 31
0.0
  0
ARC
  5
52D
 67
     1
  8
0
  6
CONTINUOUS
 62
     7
 10
123.995276749
 20
73.4491692339
 30
0.0
 40
7.999999999999996
 50
246.1946736179
 51
192.283664565
  0
ARC
  5
52E
 67
     1
  8
0
  6
CONTINUOUS
 62
     7
 10
123.995276749
 20
73.4491692339
 30
0.0
 40
10.95
 50
246.1946736179
 51
192.283664565
  0
LINE
  5
52F
 67
     1
  8
0
  6
CONTINUOUS
 62
     7
 10
115.4723830202
 20
61.1238826589
 30
0.0
 11
119.380808105
 21
61.9748899188
 31
0.0
  0
LINE
  5
530
 67
     1
  8
0
  6
CONTINUOUS
 62
     7
 10
113.2959630793
 20
71.11953686
 30
0.0
 11
115.4723830202
 21
61.1238826589
 31
0.0
  0
LINE
  5
531
 67
     1
  8
0
  6
CONTINUOUS
 62
     7
 10
118.0473123586
 20
68.099242168
 30
0.0
 11
119.380808105
 21
61.9748899188
 31
0.0
  0
ARC
  5
532
 67
     1
  8
0
  6
CONTINUOUS
 62
     7
 10
123.995276749
 20
73.4491692339
 30
0.0
 40
7.999999999999993
 50
192.283664565
 51
221.9699597963
  0
ARC
  5
533
 67
     1
  8
0
  6
CONTINUOUS
 62
     7
 10
114.495276749
 20
60.911130844
 30
0.0
 40
0.9999999999999929
 50
1.7127036866
 51
12.283664565
  0
LINE
  5
534
 67
     1
  8
0
  6
CONTINUOUS
 62
     7
 10
119.4930430386
 20
61.0605701786
 30
0.0
 11
115.4948300069
 21
60.9410187109
 31
0.0
  0
ARC
  5
535
 67
     1
  8
0
  6
CONTINUOUS
 62
     7
 10
114.495276749
 20
60.911130844
 30
0.0
 40
4.999999999999992
 50
1.7127036866
 51
12.283664565
  0
LINE
  5
536
 67
     1
  8
0
  6
CONTINUOUS
 62
     7
 10
107.295276749
 20
35.4491692339
 30
0.0
 11
114.495276749
 21
35.4491692339
 31
0.0
  0
LINE
  5
537
 67
     1
  8
0
  6
CONTINUOUS
 62
     7
 10
107.295276749
 20
39.4491692339
 30
0.0
 11
107.295276749
 21
35.4491692339
 31
0.0
  0
LINE
  5
538
 67
     1
  8
0
  6
CONTINUOUS
 62
     7
 10
114.495276749
 20
39.4491692339
 30
0.0
 11
114.495276749
 21
35.4491692339
 31
0.0
  0
LINE
  5
539
 67
     1
  8
0
  6
CONTINUOUS
 62
     7
 10
114.495276749
 20
39.4491692339
 30
0.0
 11
107.295276749
 21
39.4491692339
 31
0.0
  0
LINE
  5
53A
 67
     1
  8
0
  6
CONTINUOUS
 62
     7
 10
101.495276749
 20
39.4491692339
 30
0.0
 11
101.495276749
 21
35.4491692339
 31
0.0
  0
LINE
  5
53B
 67
     1
  8
0
  6
CONTINUOUS
 62
     7
 10
101.495276749
 20
35.4491692339
 30
0.0
 11
107.295276749
 21
35.4491692339
 31
0.0
  0
LINE
  5
53C
 67
     1
  8
0
  6
CONTINUOUS
 62
     7
 10
107.295276749
 20
39.4491692339
 30
0.0
 11
101.495276749
 21
39.4491692339
 31
0.0
  0
LINE
  5
53D
 67
     1
  8
0
  6
CONTINUOUS
 62
     7
 10
89.495276749
 20
39.4491692339
 30
0.0
 11
89.495276749
 21
35.4491692339
 31
0.0
  0
LINE
  5
53E
 67
     1
  8
0
  6
CONTINUOUS
 62
     7
 10
89.495276749
 20
35.4491692339
 30
0.0
 11
101.495276749
 21
35.4491692339
 31
0.0
  0
LINE
  5
53F
 67
     1
  8
0
  6
CONTINUOUS
 62
     7
 10
101.495276749
 20
39.4491692339
 30
0.0
 11
89.495276749
 21
39.4491692339
 31
0.0
  0
LINE
  5
540
 67
     1
  8
0
  6
CONTINUOUS
 62
     7
 10
114.495276749
 20
39.4491692339
 30
0.0
 11
114.6633935024
 21
39.4634021431
 31
0.0
  0
LINE
  5
541
 67
     1
  8
0
  6
CONTINUOUS
 62
     7
 10
115.3358605158
 20
35.52033378
 30
0.0
 11
114.6633935024
 21
39.4634021431
 31
0.0
  0
LINE
  5
542
 67
     1
  8
0
  6
CONTINUOUS
 62
     7
 10
114.495276749
 20
35.4491692339
 30
0.0
 11
115.3358605158
 21
35.52033378
 31
0.0
  0
LINE
  5
543
 67
     1
  8
0
  6
CONTINUOUS
 62
     7
 10
117.8041634163
 20
69.2159534702
 30
0.0
 11
118.0473123586
 21
68.099242168
 31
0.0
  0
LINE
  5
544
 67
     1
  8
0
  6
CONTINUOUS
 62
     7
 10
119.495276749
 20
60.911130844
 30
0.0
 11
117.995276749
 21
60.911130844
 31
0.0
  0
ARC
  5
545
 67
     1
  8
0
  6
CONTINUOUS
 62
     7
 10
114.495276749
 20
60.911130844
 30
0.0
 40
3.499999999999875
 50
0.0
 51
1.7127036866
  0
ARC
  5
546
 67
     1
  8
0
  6
CONTINUOUS
 62
     7
 10
114.495276749
 20
60.911130844
 30
0.0
 40
5.000000000000014
 50
0.0
 51
1.7127036866
  0
ARC
  5
547
 67
     1
  8
0
  6
CONTINUOUS
 62
     7
 10
114.495276749
 20
40.4491692339
 30
0.0
 40
3.499999999999886
 50
279.678341134
 51
0.0
  0
LINE
  5
548
 67
     1
  8
0
  6
CONTINUOUS
 62
     7
 10
119.495276749
 20
40.4491692339
 30
0.0
 11
117.995276749
 21
40.4491692339
 31
0.0
  0
ARC
  5
549
 67
     1
  8
0
  6
CONTINUOUS
 62
     7
 10
114.495276749
 20
40.4491692339
 30
0.0
 40
5.000000000000014
 50
279.678341134
 51
0.0
  0
LINE
  5
54A
 67
     1
  8
0
  6
CONTINUOUS
 62
     7
 10
115.495276749
 20
60.911130844
 30
0.0
 11
117.995276749
 21
60.911130844
 31
0.0
  0
ARC
  5
54B
 67
     1
  8
0
  6
CONTINUOUS
 62
     7
 10
114.495276749
 20
60.911130844
 30
0.0
 40
1.000000000000014
 50
0.0
 51
1.7127036866
  0
LINE
  5
54C
 67
     1
  8
0
  6
CONTINUOUS
 62
     7
 10
115.495276749
 20
60.911130844
 30
0.0
 11
115.495276749
 21
40.4491692339
 31
0.0
  0
LINE
  5
54D
 67
     1
  8
0
  6
CONTINUOUS
 62
     7
 10
117.995276749
 20
40.4491692339
 30
0.0
 11
117.995276749
 21
60.911130844
 31
0.0
  0
LINE
  5
54E
 67
     1
  8
0
  6
CONTINUOUS
 62
     7
 10
117.995276749
 20
40.4491692339
 30
0.0
 11
115.495276749
 21
40.4491692339
 31
0.0
  0
LINE
  5
54F
 67
     1
  8
0
  6
CONTINUOUS
 62
     7
 10
119.495276749
 20
60.911130844
 30
0.0
 11
119.495276749
 21
40.4491692339
 31
0.0
  0
ARC
  5
550
 67
     1
  8
0
  6
CONTINUOUS
 62
     7
 10
114.495276749
 20
40.4491692339
 30
0.0
 40
1.000000000000014
 50
279.678341134
 51
0.0
  0
LINE
  5
551
 67
     1
  8
0
  6
CONTINUOUS
 62
     8
 10
118.2638836584
 20
67.1045941306
 30
0.0
 11
118.844000245
 21
66.6251784382
 31
0.0
  0
LINE
  5
552
 67
     1
  8
0
  6
CONTINUOUS
 62
     8
 10
120.416330337
 20
65.6842711289
 30
0.0
 11
120.5442372401
 21
65.6265848586
 31
0.0
  0
DIMENSION
  5
553
 67
     1
  8
0
  6
CONTINUOUS
 62
     7
  2
_D_17
 10
66.495276749
 20
73.4491692339
 30
0.0
 11
66.495276749
 21
67.4491692339
 31
0.0
 70
   160
  1
<>
  3
SLDDIMSTYLE1
 13
83.495276749
 23
61.4491692339
 33
0.0
 14
110.545276749
 24
73.4491692339
 34
0.0
 50
90.0
  0
DIMENSION
  5
55F
 67
     1
  8
0
  6
CONTINUOUS
 62
     7
  2
_D_18
 10
73.495276749
 20
65.4491692339
 30
0.0
 11
73.495276749
 21
63.4491692339
 31
0.0
 70
   160
  1
<>
  3
SLDDIMSTYLE1
 13
83.495276749
 23
61.4491692339
 33
0.0
 14
83.495276749
 24
65.4491692339
 34
0.0
 50
90.0
  0
DIMENSION
  5
56B
 67
     1
  8
0
  6
CONTINUOUS
 62
     7
  2
_D_19
 10
123.995276749
 20
94.3579607615
 30
0.0
 11
103.745276749
 21
94.3579607615
 31
0.0
 70
   160
  1
<>
  3
SLDDIMSTYLE0
 13
83.495276749
 23
65.4491692339
 33
0.0
 14
123.995276749
 24
86.8991692339
 34
0.0
  0
DIMENSION
  5
575
 67
     1
  8
0
  6
CONTINUOUS
 62
     7
  2
_D_20
 10
144.2727999509
 20
35.4491692339
 30
0.0
 11
144.2727999509
 21
54.4491692339
 31
0.0
 70
   160
  1
<>
  3
SLDDIMSTYLE0
 13
137.445276749
 23
73.4491692339
 33
0.0
 14
114.495276749
 24
35.4491692339
 34
0.0
 50
90.0
  0
DIMENSION
  5
57F
 67
     1
  8
0
  6
CONTINUOUS
 62
     7
  2
_D_21
 10
79.1346557363
 20
35.4491692339
 30
0.0
 11
79.1346557363
 21
41.3991692339
 31
0.0
 70
   160
  1
<>
  3
SLDDIMSTYLE1
 13
89.495276749
 23
47.3491692339
 33
0.0
 14
89.495276749
 24
35.4491692339
 34
0.0
 50
90.0
  0
DIMENSION
  5
58B
 67
     1
  8
0
  6
CONTINUOUS
 62
     7
  2
_D_22
 10
119.495276749
 20
25.4391442339
 30
0.0
 11
104.495276749
 21
25.4391442339
 31
0.0
 70
   160
  1
<>
  3
SLDDIMSTYLE0
 13
89.495276749
 23
35.4491692339
 33
0.0
 14
119.495276749
 24
40.4491692339
 34
0.0
 50
0.0
  0
DIMENSION
  5
595
 67
     1
  8
0
  6
CONTINUOUS
 62
     7
  2
_D_23
 10
89.495276749
 20
18.4391442339
 30
0.0
 11
106.745276749
 21
18.4391442339
 31
0.0
 70
   160
  1
<>
  3
SLDDIMSTYLE0
 13
123.995276749
 23
59.9991692339
 33
0.0
 14
89.495276749
 24
35.4491692339
 34
0.0
  0
DIMENSION
  5
59F
 67
     1
  8
0
  6
CONTINUOUS
 62
     7
  2
_D_24
 10
114.5122985776
 20
67.9741692339
 30
0.0
 11
141.6254931915
 21
83.6279836693
 31
0.0
 70
   163
  1
<>
  3
SLDDIMSTYLE5
 15
133.4782549205
 25
78.9241692339
 35
0.0
 40
0.0
  0
INSERT
  5
5B7
 67
     1
  8
0
  6
CONTINUOUS
 62
     7
  2
SW_CENTERMARKSYMBOL_1
 10
123.995276749
 20
73.4491692339
 30
0.0
  0
LINE
  5
5B8
 67
     1
  8
0
  6
CENTERX2
 62
     7
 10
105.495276749
 20
39.6491692339
 30
0.0
 11
105.495276749
 21
46.8491692339
 31
0.0
  0
LINE
  5
5B9
 67
     1
  8
0
  6
CENTERX2
 62
     7
 10
105.495276749
 20
39.6491692339
 30
0.0
 11
105.495276749
 21
37.4491692339
 31
0.0
  0
LINE
  5
5BA
 67
     1
  8
0
  6
CENTERX2
 62
     7
 10
101.495276749
 20
41.4491692339
 30
0.0
 11
101.495276749
 21
33.4491692339
 31
0.0
  0
LINE
  5
5BB
 67
     1
  8
0
  6
CENTERX2
 62
     7
 10
107.295276749
 20
41.4491692339
 30
0.0
 11
107.295276749
 21
33.4491692339
 31
0.0
  0
LINE
  5
5BC
 67
     1
  8
0
  6
CENTERX2
 62
     7
 10
101.495276749
 20
49.3491692339
 30
0.0
 11
101.495276749
 21
42.8491692339
 31
0.0
  0
LINE
  5
5BD
 67
     1
  8
0
  6
CENTERX2
 62
     7
 10
107.495276749
 20
49.3491692339
 30
0.0
 11
107.495276749
 21
42.8491692339
 31
0.0
  0
LINE
  5
5BE
 67
     1
  8
0
  6
CONTINUOUS
 62
     7
 10
388.148181982
 20
107.0079717562
 30
0.0
 11
387.8097999883
 21
106.3870872049
 31
0.0
  0
LINE
  5
5BF
 67
     1
  8
0
  6
CONTINUOUS
 62
     7
 10
394.6147909768
 20
102.6783680667
 30
0.0
 11
394.9531729706
 21
103.2992526181
 31
0.0
  0
LINE
  5
5C0
 67
     1
  8
0
  6
CONTINUOUS
 62
     7
 10
382.9243091842
 20
77.8844648821
 30
0.0
 11
391.7786380206
 21
94.1309439754
 31
0.0
  0
LINE
  5
5C1
 67
     1
  8
0
  6
CONTINUOUS
 62
     7
 10
382.1638443013
 20
99.3710052094
 30
0.0
 11
373.3095154649
 21
83.124526116
 31
0.0
  0
LINE
  5
5C2
 67
     1
  8
0
  6
CONTINUOUS
 62
     7
 10
385.83228476
 20
115.6217976742
 30
0.0
 11
383.9936659212
 21
115.203424251
 31
0.0
  0
LINE
  5
5C3
 67
     1
  8
0
  6
CONTINUOUS
 62
     7
 10
398.3843466785
 20
121.4788386438
 30
0.0
 11
397.2352099042
 21
121.2173552543
 31
0.0
  0
LINE
  5
5C4
 67
     1
  8
0
  6
CONTINUOUS
 62
     7
 10
386.777118816
 20
107.8357312592
 30
0.0
 11
382.2822779991
 21
99.5883148023
 31
0.0
  0
LINE
  5
5C5
 67
     1
  8
0
  6
CONTINUOUS
 62
     7
 10
391.8970717184
 20
94.3482535684
 30
0.0
 11
396.3919125353
 21
102.5956700253
 31
0.0
  0
LINE
  5
5C6
 67
     1
  8
0
  6
CONTINUOUS
 62
     7
 10
390.8189591893
 20
81.2247989494
 30
0.0
 11
405.9333549101
 21
108.9576422424
 31
0.0
  0
LINE
  5
5C7
 67
     1
  8
0
  6
CONTINUOUS
 62
     7
 10
402.7220200494
 20
122.4930604158
 30
0.0
 11
400.8834012106
 21
122.0746869927
 31
0.0
  0
LINE
  5
5C8
 67
     1
  8
0
  6
CONTINUOUS
 62
     7
 10
406.1471818544
 20
110.2503862971
 30
0.0
 11
405.9884562456
 21
111.2562789699
 31
0.0
  0
LINE
  5
5C9
 67
     1
  8
0
  6
CONTINUOUS
 62
     7
 10
373.1910817671
 20
82.9072165231
 30
0.0
 11
368.6962409501
 21
74.6598000661
 31
0.0
  0
LINE
  5
5CA
 67
     1
  8
0
  6
CONTINUOUS
 62
     7
 10
378.3110346694
 20
69.4197388322
 30
0.0
 11
382.8058754864
 21
77.6671552891
 31
0.0
  0
LINE
  5
5CB
 67
     1
  8
0
  6
CONTINUOUS
 62
     7
 10
388.9170846606
 20
79.9326533541
 30
0.0
 11
389.8484491549
 21
80.3444470731
 31
0.0
  0
POLYLINE
  5
5CC
 67
     1
  8
0
  6
CONTINUOUS
 62
     7
 66
     1
 10
0.0
 20
0.0
 30
0.0
 70
   128
  0
VERTEX
  5
720
 67
     1
  8
0
  6
CONTINUOUS
 62
     7
 10
394.8032036924
 20
103.0529011413
 30
0.0
  0
VERTEX
  5
721
 67
     1
  8
0
  6
CONTINUOUS
 62
     7
 10
395.0931190579
 20
103.5926409224
 30
0.0
  0
VERTEX
  5
722
 67
     1
  8
0
  6
CONTINUOUS
 62
     7
 10
395.2691774362
 20
104.1825516043
 30
0.0
  0
VERTEX
  5
723
 67
     1
  8
0
  6
CONTINUOUS
 62
     7
 10
395.3257201663
 20
104.8036729724
 30
0.0
  0
VERTEX
  5
724
 67
     1
  8
0
  6
CONTINUOUS
 62
     7
 10
395.2609299181
 20
105.4360416748
 30
0.0
  0
VERTEX
  5
725
 67
     1
  8
0
  6
CONTINUOUS
 62
     7
 10
395.0768891037
 20
106.059332861
 30
0.0
  0
VERTEX
  5
726
 67
     1
  8
0
  6
CONTINUOUS
 62
     7
 10
394.7795129462
 20
106.6535134396
 30
0.0
  0
VERTEX
  5
727
 67
     1
  8
0
  6
CONTINUOUS
 62
     7
 10
394.37835936
 20
107.1994859578
 30
0.0
  0
VERTEX
  5
728
 67
     1
  8
0
  6
CONTINUOUS
 62
     7
 10
393.8863217514
 20
107.6797024096
 30
0.0
  0
VERTEX
  5
729
 67
     1
  8
0
  6
CONTINUOUS
 62
     7
 10
393.3192146141
 20
108.0787282432
 30
0.0
  0
VERTEX
  5
72A
 67
     1
  8
0
  6
CONTINUOUS
 62
     7
 10
392.695265238
 20
108.38373844
 30
0.0
  0
VERTEX
  5
72B
 67
     1
  8
0
  6
CONTINUOUS
 62
     7
 10
392.0345278694
 20
108.5849297213
 30
0.0
  0
VERTEX
  5
72C
 67
     1
  8
0
  6
CONTINUOUS
 62
     7
 10
391.3582391511
 20
108.6758356337
 30
0.0
  0
VERTEX
  5
72D
 67
     1
  8
0
  6
CONTINUOUS
 62
     7
 10
390.688135559
 20
108.6535343864
 30
0.0
  0
VERTEX
  5
72E
 67
     1
  8
0
  6
CONTINUOUS
 62
     7
 10
390.0457547737
 20
108.51874276
 30
0.0
  0
VERTEX
  5
72F
 67
     1
  8
0
  6
CONTINUOUS
 62
     7
 10
389.4517434424
 20
108.275793068
 30
0.0
  0
VERTEX
  5
730
 67
     1
  8
0
  6
CONTINUOUS
 62
     7
 10
388.9251935779
 20
107.9324939136
 30
0.0
  0
VERTEX
  5
731
 67
     1
  8
0
  6
CONTINUOUS
 62
     7
 10
388.4830289262
 20
107.4998792141
 30
0.0
  0
VERTEX
  5
732
 67
     1
  8
0
  6
CONTINUOUS
 62
     7
 10
388.1394610229
 20
106.9918535618
 30
0.0
  0
VERTEX
  5
733
 67
     1
  8
0
  6
CONTINUOUS
 62
     7
 10
387.9055324232
 20
106.4247453192
 30
0.0
  0
VERTEX
  5
734
 67
     1
  8
0
  6
CONTINUOUS
 62
     7
 10
387.7887617848
 20
105.8167818118
 30
0.0
  0
VERTEX
  5
735
 67
     1
  8
0
  6
CONTINUOUS
 62
     7
 10
387.792902212
 20
105.1875034871
 30
0.0
  0
VERTEX
  5
736
 67
     1
  8
0
  6
CONTINUOUS
 62
     7
 10
387.9178206281
 20
104.5571358681
 30
0.0
  0
VERTEX
  5
737
 67
     1
  8
0
  6
CONTINUOUS
 62
     7
 10
388.1595020524
 20
103.9459394887
 30
0.0
  0
VERTEX
  5
738
 67
     1
  8
0
  6
CONTINUOUS
 62
     7
 10
388.5101786452
 20
103.3735587036
 30
0.0
  0
VERTEX
  5
739
 67
     1
  8
0
  6
CONTINUOUS
 62
     7
 10
388.958579372
 20
102.8583903021
 30
0.0
  0
VERTEX
  5
73A
 67
     1
  8
0
  6
CONTINUOUS
 62
     7
 10
389.4902922648
 20
102.4169922204
 30
0.0
  0
VERTEX
  5
73B
 67
     1
  8
0
  6
CONTINUOUS
 62
     7
 10
390.0882276335
 20
102.0635513562
 30
0.0
  0
VERTEX
  5
73C
 67
     1
  8
0
  6
CONTINUOUS
 62
     7
 10
390.7331673435
 20
101.8094275896
 30
0.0
  0
VERTEX
  5
73D
 67
     1
  8
0
  6
CONTINUOUS
 62
     7
 10
391.4043825018
 20
101.6627886676
 30
0.0
  0
VERTEX
  5
73E
 67
     1
  8
0
  6
CONTINUOUS
 62
     7
 10
392.080299701
 20
101.6283476858
 30
0.0
  0
VERTEX
  5
73F
 67
     1
  8
0
  6
CONTINUOUS
 62
     7
 10
392.739194406
 20
101.7072116056
 30
0.0
  0
VERTEX
  5
740
 67
     1
  8
0
  6
CONTINUOUS
 62
     7
 10
393.3598891991
 20
101.8968456758
 30
0.0
  0
VERTEX
  5
741
 67
     1
  8
0
  6
CONTINUOUS
 62
     7
 10
393.9224344387
 20
102.1911549014
 30
0.0
  0
VERTEX
  5
742
 67
     1
  8
0
  6
CONTINUOUS
 62
     7
 10
394.4087494581
 20
102.5806799416
 30
0.0
  0
VERTEX
  5
743
 67
     1
  8
0
  6
CONTINUOUS
 62
     7
 10
394.8032036924
 20
103.0529011413
 30
0.0
  0
SEQEND
  5
8C0
 67
     1
  8
0
  6
CONTINUOUS
 62
     7
  0
LINE
  5
5CD
 67
     1
  8
0
  6
CONTINUOUS
 62
     7
 10
390.8368524604
 20
104.098096186
 30
0.0
 11
392.2429669735
 21
103.9482054621
 31
0.0
  0
LINE
  5
5CE
 67
     1
  8
0
  6
CONTINUOUS
 62
     7
 10
392.2429669735
 20
103.9482054621
 30
0.0
 11
392.9567919895
 21
105.0037214632
 31
0.0
  0
LINE
  5
5CF
 67
     1
  8
0
  6
CONTINUOUS
 62
     7
 10
392.9567919895
 20
105.0037214632
 30
0.0
 11
392.2645024922
 21
106.2091281882
 31
0.0
  0
LINE
  5
5D0
 67
     1
  8
0
  6
CONTINUOUS
 62
     7
 10
392.2645024922
 20
106.2091281882
 30
0.0
 11
390.8583879791
 21
106.3590189122
 31
0.0
  0
LINE
  5
5D1
 67
     1
  8
0
  6
CONTINUOUS
 62
     7
 10
390.8583879791
 20
106.3590189122
 30
0.0
 11
390.1445629632
 21
105.3035029111
 31
0.0
  0
LINE
  5
5D2
 67
     1
  8
0
  6
CONTINUOUS
 62
     7
 10
390.1445629632
 20
105.3035029111
 30
0.0
 11
390.8368524604
 21
104.098096186
 31
0.0
  0
LINE
  5
5D3
 67
     1
  8
0
  6
CONTINUOUS
 62
     7
 10
394.5638261316
 20
102.5885514047
 30
0.0
 11
394.6147909768
 21
102.6783680667
 31
0.0
  0
POLYLINE
  5
5D4
 67
     1
  8
0
  6
CONTINUOUS
 62
     7
 66
     1
 10
0.0
 20
0.0
 30
0.0
 70
   128
  0
VERTEX
  5
744
 67
     1
  8
0
  6
CONTINUOUS
 62
     7
 10
387.8097999883
 20
106.3870872049
 30
0.0
  0
VERTEX
  5
745
 67
     1
  8
0
  6
CONTINUOUS
 62
     7
 10
387.8010790292
 20
106.3709690105
 30
0.0
  0
VERTEX
  5
746
 67
     1
  8
0
  6
CONTINUOUS
 62
     7
 10
387.7619419101
 20
106.2955773553
 30
0.0
  0
SEQEND
  5
8C1
 67
     1
  8
0
  6
CONTINUOUS
 62
     7
  0
LINE
  5
5D5
 67
     1
  8
0
  6
CONTINUOUS
 62
     7
 10
390.6891969822
 20
106.0485766365
 30
0.0
 11
390.8583879791
 21
106.3590189122
 31
0.0
  0
LINE
  5
5D6
 67
     1
  8
0
  6
CONTINUOUS
 62
     7
 10
390.6891969822
 20
106.0485766365
 30
0.0
 11
390.1632791488
 21
105.270914498
 31
0.0
  0
LINE
  5
5D7
 67
     1
  8
0
  6
CONTINUOUS
 62
     7
 10
392.0953114954
 20
105.8986859126
 30
0.0
 11
390.6891969822
 21
106.0485766365
 31
0.0
  0
LINE
  5
5D8
 67
     1
  8
0
  6
CONTINUOUS
 62
     7
 10
392.7688848069
 20
104.7258676006
 30
0.0
 11
392.0953114954
 21
105.8986859126
 31
0.0
  0
LINE
  5
5D9
 67
     1
  8
0
  6
CONTINUOUS
 62
     7
 10
392.0953114954
 20
105.8986859126
 30
0.0
 11
392.2645024922
 21
106.2091281882
 31
0.0
  0
POLYLINE
  5
5DA
 67
     1
  8
0
  6
CONTINUOUS
 62
     7
 66
     1
 10
0.0
 20
0.0
 30
0.0
 70
   128
  0
VERTEX
  5
747
 67
     1
  8
0
  6
CONTINUOUS
 62
     7
 10
373.3095154649
 20
83.124526116
 30
0.0
  0
VERTEX
  5
748
 67
     1
  8
0
  6
CONTINUOUS
 62
     7
 10
373.2512783228
 20
83.0138304101
 30
0.0
  0
VERTEX
  5
749
 67
     1
  8
0
  6
CONTINUOUS
 62
     7
 10
372.9755774828
 20
82.3299292501
 30
0.0
  0
VERTEX
  5
74A
 67
     1
  8
0
  6
CONTINUOUS
 62
     7
 10
372.8194258271
 20
81.6035820867
 30
0.0
  0
VERTEX
  5
74B
 67
     1
  8
0
  6
CONTINUOUS
 62
     7
 10
372.7864542811
 20
80.8516783492
 30
0.0
  0
VERTEX
  5
74C
 67
     1
  8
0
  6
CONTINUOUS
 62
     7
 10
372.8774295176
 20
80.0917017224
 30
0.0
  0
VERTEX
  5
74D
 67
     1
  8
0
  6
CONTINUOUS
 62
     7
 10
373.0902361298
 20
79.3413236067
 30
0.0
  0
VERTEX
  5
74E
 67
     1
  8
0
  6
CONTINUOUS
 62
     7
 10
373.4199258195
 20
78.6179922124
 30
0.0
  0
VERTEX
  5
74F
 67
     1
  8
0
  6
CONTINUOUS
 62
     7
 10
373.8588324583
 20
77.9385268444
 30
0.0
  0
VERTEX
  5
750
 67
     1
  8
0
  6
CONTINUOUS
 62
     7
 10
374.3967503443
 20
77.3187268102
 30
0.0
  0
VERTEX
  5
751
 67
     1
  8
0
  6
CONTINUOUS
 62
     7
 10
375.0211715109
 20
76.7730040459
 30
0.0
  0
VERTEX
  5
752
 67
     1
  8
0
  6
CONTINUOUS
 62
     7
 10
375.717576569
 20
76.3140480013
 30
0.0
  0
VERTEX
  5
753
 67
     1
  8
0
  6
CONTINUOUS
 62
     7
 10
376.4697723199
 20
75.9525305785
 30
0.0
  0
VERTEX
  5
754
 67
     1
  8
0
  6
CONTINUOUS
 62
     7
 10
377.2602682886
 20
75.696857982
 30
0.0
  0
VERTEX
  5
755
 67
     1
  8
0
  6
CONTINUOUS
 62
     7
 10
378.070683422
 20
75.5529752536
 30
0.0
  0
VERTEX
  5
756
 67
     1
  8
0
  6
CONTINUOUS
 62
     7
 10
378.8821734956
 20
75.5242280347
 30
0.0
  0
VERTEX
  5
757
 67
     1
  8
0
  6
CONTINUOUS
 62
     7
 10
379.6758692898
 20
75.6112847718
 30
0.0
  0
VERTEX
  5
758
 67
     1
  8
0
  6
CONTINUOUS
 62
     7
 10
380.4333153474
 20
75.812121173
 30
0.0
  0
VERTEX
  5
759
 67
     1
  8
0
  6
CONTINUOUS
 62
     7
 10
381.1368991104
 20
76.1220672783
 30
0.0
  0
VERTEX
  5
75A
 67
     1
  8
0
  6
CONTINUOUS
 62
     7
 10
381.7702604568
 20
76.5339160481
 30
0.0
  0
VERTEX
  5
75B
 67
     1
  8
0
  6
CONTINUOUS
 62
     7
 10
382.3186721154
 20
77.0380909452
 30
0.0
  0
VERTEX
  5
75C
 67
     1
  8
0
  6
CONTINUOUS
 62
     7
 10
382.7693821127
 20
77.6228686137
 30
0.0
  0
VERTEX
  5
75D
 67
     1
  8
0
  6
CONTINUOUS
 62
     7
 10
382.9243091842
 20
77.8844648821
 30
0.0
  0
SEQEND
  5
8C2
 67
     1
  8
0
  6
CONTINUOUS
 62
     7
  0
POLYLINE
  5
5DB
 67
     1
  8
0
  6
CONTINUOUS
 62
     7
 66
     1
 10
0.0
 20
0.0
 30
0.0
 70
   128
  0
VERTEX
  5
75E
 67
     1
  8
0
  6
CONTINUOUS
 62
     7
 10
391.8362759004
 20
94.2404593098
 30
0.0
  0
VERTEX
  5
75F
 67
     1
  8
0
  6
CONTINUOUS
 62
     7
 10
391.623710949
 20
93.869347707
 30
0.0
  0
VERTEX
  5
760
 67
     1
  8
0
  6
CONTINUOUS
 62
     7
 10
391.1730009518
 20
93.2845700385
 30
0.0
  0
VERTEX
  5
761
 67
     1
  8
0
  6
CONTINUOUS
 62
     7
 10
390.6245892932
 20
92.7803951415
 30
0.0
  0
VERTEX
  5
762
 67
     1
  8
0
  6
CONTINUOUS
 62
     7
 10
389.9912279468
 20
92.3685463717
 30
0.0
  0
VERTEX
  5
763
 67
     1
  8
0
  6
CONTINUOUS
 62
     7
 10
389.2876441838
 20
92.0586002663
 30
0.0
  0
VERTEX
  5
764
 67
     1
  8
0
  6
CONTINUOUS
 62
     7
 10
388.5301981262
 20
91.8577638651
 30
0.0
  0
VERTEX
  5
765
 67
     1
  8
0
  6
CONTINUOUS
 62
     7
 10
387.736502332
 20
91.7707071281
 30
0.0
  0
VERTEX
  5
766
 67
     1
  8
0
  6
CONTINUOUS
 62
     7
 10
386.9250122584
 20
91.7994543469
 30
0.0
  0
VERTEX
  5
767
 67
     1
  8
0
  6
CONTINUOUS
 62
     7
 10
386.114597125
 20
91.9433370753
 30
0.0
  0
VERTEX
  5
768
 67
     1
  8
0
  6
CONTINUOUS
 62
     7
 10
385.3241011563
 20
92.1990096718
 30
0.0
  0
VERTEX
  5
769
 67
     1
  8
0
  6
CONTINUOUS
 62
     7
 10
384.5719054054
 20
92.5605270946
 30
0.0
  0
VERTEX
  5
76A
 67
     1
  8
0
  6
CONTINUOUS
 62
     7
 10
383.8755003473
 20
93.0194831392
 30
0.0
  0
VERTEX
  5
76B
 67
     1
  8
0
  6
CONTINUOUS
 62
     7
 10
383.2510791807
 20
93.5652059035
 30
0.0
  0
VERTEX
  5
76C
 67
     1
  8
0
  6
CONTINUOUS
 62
     7
 10
382.7131612947
 20
94.1850059377
 30
0.0
  0
VERTEX
  5
76D
 67
     1
  8
0
  6
CONTINUOUS
 62
     7
 10
382.2742546559
 20
94.8644713057
 30
0.0
  0
VERTEX
  5
76E
 67
     1
  8
0
  6
CONTINUOUS
 62
     7
 10
381.9445649662
 20
95.5878027001
 30
0.0
  0
VERTEX
  5
76F
 67
     1
  8
0
  6
CONTINUOUS
 62
     7
 10
381.731758354
 20
96.3381808157
 30
0.0
  0
VERTEX
  5
770
 67
     1
  8
0
  6
CONTINUOUS
 62
     7
 10
381.6407831175
 20
97.0981574425
 30
0.0
  0
VERTEX
  5
771
 67
     1
  8
0
  6
CONTINUOUS
 62
     7
 10
381.6737546635
 20
97.85006118
 30
0.0
  0
VERTEX
  5
772
 67
     1
  8
0
  6
CONTINUOUS
 62
     7
 10
381.8299063192
 20
98.5764083434
 30
0.0
  0
VERTEX
  5
773
 67
     1
  8
0
  6
CONTINUOUS
 62
     7
 10
382.1056071592
 20
99.2603095034
 30
0.0
  0
VERTEX
  5
774
 67
     1
  8
0
  6
CONTINUOUS
 62
     7
 10
382.2510100236
 20
99.5233818557
 30
0.0
  0
SEQEND
  5
8C3
 67
     1
  8
0
  6
CONTINUOUS
 62
     7
  0
LINE
  5
5DC
 67
     1
  8
0
  6
CONTINUOUS
 62
     7
 10
386.8635149731
 20
107.9868241927
 30
0.0
 11
384.4411299304
 21
114.6422723986
 31
0.0
  0
LINE
  5
5DD
 67
     1
  8
0
  6
CONTINUOUS
 62
     7
 10
386.2797487693
 20
115.0606458217
 30
0.0
 11
384.4411299304
 21
114.6422723986
 31
0.0
  0
LINE
  5
5DE
 67
     1
  8
0
  6
CONTINUOUS
 62
     7
 10
388.3196055231
 20
109.4561854518
 30
0.0
 11
386.2797487693
 21
115.0606458217
 31
0.0
  0
LINE
  5
5DF
 67
     1
  8
0
  6
CONTINUOUS
 62
     7
 10
378.0075642218
 20
91.7448012739
 30
0.0
 11
375.5868010941
 21
98.3957933052
 31
0.0
  0
ARC
  5
5E0
 67
     1
  8
0
  6
CONTINUOUS
 62
     7
 10
377.3910708589
 20
99.1838010588
 30
0.0
 40
1.968843722548836
 50
164.9309440897
 51
203.5931111895
  0
LINE
  5
5E1
 67
     1
  8
0
  6
CONTINUOUS
 62
     7
 10
375.4899294063
 20
99.6956670387
 30
0.0
 11
376.0792857176
 21
100.7770550429
 31
0.0
  0
LINE
  5
5E2
 67
     1
  8
0
  6
CONTINUOUS
 62
     7
 10
376.0792857176
 20
100.7770550429
 30
0.0
 11
377.105873945
 21
98.2278436645
 31
0.0
  0
LINE
  5
5E3
 67
     1
  8
0
  6
CONTINUOUS
 62
     7
 10
377.105873945
 20
98.2278436645
 30
0.0
 11
377.0494769461
 21
98.1243629059
 31
0.0
  0
ARC
  5
5E4
 67
     1
  8
0
  6
CONTINUOUS
 62
     7
 10
379.9011891246
 20
97.356563936
 30
0.0
 40
2.953265583584081
 50
164.9309440881
 51
203.5931111911
  0
LINE
  5
5E5
 67
     1
  8
0
  6
CONTINUOUS
 62
     7
 10
377.1947844776
 20
96.1745523057
 30
0.0
 11
378.1621635282
 21
93.5167002081
 31
0.0
  0
ARC
  5
5E6
 67
     1
  8
0
  6
CONTINUOUS
 62
     7
 10
380.0656806097
 20
94.1077945276
 30
0.0
 40
1.993180818192252
 50
197.2510035428
 51
221.5731554485
  0
ARC
  5
5E7
 67
     1
  8
0
  6
CONTINUOUS
 62
     7
 10
375.6596280621
 20
94.9417501875
 30
0.0
 40
4.339109744155077
 50
5.5455456372
 51
19.8363562166
  0
LINE
  5
5E8
 67
     1
  8
0
  6
CONTINUOUS
 62
     7
 10
379.7412794991
 20
96.4141614477
 30
0.0
 11
378.7739004484
 21
99.0720135453
 31
0.0
  0
POLYLINE
  5
5E9
 67
     1
  8
0
  6
CONTINUOUS
 62
     7
 66
     1
 10
0.0
 20
0.0
 30
0.0
 70
   128
  0
VERTEX
  5
775
 67
     1
  8
0
  6
CONTINUOUS
 62
     7
 10
377.9518289294
 20
99.7800550428
 30
0.0
  0
VERTEX
  5
776
 67
     1
  8
0
  6
CONTINUOUS
 62
     7
 10
378.0271379401
 20
99.8756486685
 30
0.0
  0
VERTEX
  5
777
 67
     1
  8
0
  6
CONTINUOUS
 62
     7
 10
378.118140785
 20
99.9164988019
 30
0.0
  0
VERTEX
  5
778
 67
     1
  8
0
  6
CONTINUOUS
 62
     7
 10
378.2213402757
 20
99.9010355954
 30
0.0
  0
VERTEX
  5
779
 67
     1
  8
0
  6
CONTINUOUS
 62
     7
 10
378.3327705138
 20
99.8298532914
 30
0.0
  0
VERTEX
  5
77A
 67
     1
  8
0
  6
CONTINUOUS
 62
     7
 10
378.4481492975
 20
99.7056873858
 30
0.0
  0
VERTEX
  5
77B
 67
     1
  8
0
  6
CONTINUOUS
 62
     7
 10
378.5630426851
 20
99.5333095047
 30
0.0
  0
VERTEX
  5
77C
 67
     1
  8
0
  6
CONTINUOUS
 62
     7
 10
378.673035388
 20
99.3193440335
 30
0.0
  0
VERTEX
  5
77D
 67
     1
  8
0
  6
CONTINUOUS
 62
     7
 10
378.7739004484
 20
99.0720135453
 30
0.0
  0
SEQEND
  5
8C4
 67
     1
  8
0
  6
CONTINUOUS
 62
     7
  0
LINE
  5
5EA
 67
     1
  8
0
  6
CONTINUOUS
 62
     7
 10
377.9518289294
 20
99.7800550428
 30
0.0
 11
377.8954319304
 21
99.6765742842
 31
0.0
  0
LINE
  5
5EB
 67
     1
  8
0
  6
CONTINUOUS
 62
     7
 10
377.8954319304
 20
99.6765742842
 30
0.0
 11
376.9872620566
 21
102.4430671011
 31
0.0
  0
LINE
  5
5EC
 67
     1
  8
0
  6
CONTINUOUS
 62
     7
 10
376.9872620566
 20
102.4430671011
 30
0.0
 11
379.2375176593
 21
106.571977522
 31
0.0
  0
LINE
  5
5ED
 67
     1
  8
0
  6
CONTINUOUS
 62
     7
 10
379.2375176593
 20
106.571977522
 30
0.0
 11
380.2641058867
 21
104.0227661436
 31
0.0
  0
LINE
  5
5EE
 67
     1
  8
0
  6
CONTINUOUS
 62
     7
 10
380.2641058867
 20
104.0227661436
 30
0.0
 11
380.2077088877
 21
103.919285385
 31
0.0
  0
ARC
  5
5EF
 67
     1
  8
0
  6
CONTINUOUS
 62
     7
 10
383.0594210662
 20
103.1514864152
 30
0.0
 40
2.953265583583515
 50
164.9309440881
 51
203.5931111911
  0
LINE
  5
5F0
 67
     1
  8
0
  6
CONTINUOUS
 62
     7
 10
380.3530164193
 20
101.9694747849
 30
0.0
 11
381.3203954699
 21
99.3116226873
 31
0.0
  0
ARC
  5
5F1
 67
     1
  8
0
  6
CONTINUOUS
 62
     7
 10
383.2239125514
 20
99.9027170067
 30
0.0
 40
1.993180818193925
 50
197.2510035428
 51
221.5731554485
  0
ARC
  5
5F2
 67
     1
  8
0
  6
CONTINUOUS
 62
     7
 10
378.8178600038
 20
100.7366726666
 30
0.0
 40
4.33910974415882
 50
5.5455456372
 51
19.8363562166
  0
LINE
  5
5F3
 67
     1
  8
0
  6
CONTINUOUS
 62
     7
 10
382.8995114407
 20
102.2090839268
 30
0.0
 11
381.9321323901
 21
104.8669360245
 31
0.0
  0
POLYLINE
  5
5F4
 67
     1
  8
0
  6
CONTINUOUS
 62
     7
 66
     1
 10
0.0
 20
0.0
 30
0.0
 70
   128
  0
VERTEX
  5
77E
 67
     1
  8
0
  6
CONTINUOUS
 62
     7
 10
381.110060871
 20
105.5749775219
 30
0.0
  0
VERTEX
  5
77F
 67
     1
  8
0
  6
CONTINUOUS
 62
     7
 10
381.1853698818
 20
105.6705711476
 30
0.0
  0
VERTEX
  5
780
 67
     1
  8
0
  6
CONTINUOUS
 62
     7
 10
381.2763727266
 20
105.711421281
 30
0.0
  0
VERTEX
  5
781
 67
     1
  8
0
  6
CONTINUOUS
 62
     7
 10
381.3795722174
 20
105.6959580746
 30
0.0
  0
VERTEX
  5
782
 67
     1
  8
0
  6
CONTINUOUS
 62
     7
 10
381.4910024554
 20
105.6247757705
 30
0.0
  0
VERTEX
  5
783
 67
     1
  8
0
  6
CONTINUOUS
 62
     7
 10
381.6063812392
 20
105.5006098649
 30
0.0
  0
VERTEX
  5
784
 67
     1
  8
0
  6
CONTINUOUS
 62
     7
 10
381.7212746268
 20
105.3282319839
 30
0.0
  0
VERTEX
  5
785
 67
     1
  8
0
  6
CONTINUOUS
 62
     7
 10
381.8312673297
 20
105.1142665127
 30
0.0
  0
VERTEX
  5
786
 67
     1
  8
0
  6
CONTINUOUS
 62
     7
 10
381.9321323901
 20
104.8669360245
 30
0.0
  0
SEQEND
  5
8C5
 67
     1
  8
0
  6
CONTINUOUS
 62
     7
  0
LINE
  5
5F5
 67
     1
  8
0
  6
CONTINUOUS
 62
     7
 10
381.110060871
 20
105.5749775219
 30
0.0
 11
381.0536638721
 21
105.4714967634
 31
0.0
  0
LINE
  5
5F6
 67
     1
  8
0
  6
CONTINUOUS
 62
     7
 10
381.0536638721
 20
105.4714967634
 30
0.0
 11
380.1454939982
 21
108.2379895802
 31
0.0
  0
LINE
  5
5F7
 67
     1
  8
0
  6
CONTINUOUS
 62
     7
 10
380.1454939982
 20
108.2379895802
 30
0.0
 11
382.3957496009
 21
112.3669000012
 31
0.0
  0
LINE
  5
5F8
 67
     1
  8
0
  6
CONTINUOUS
 62
     7
 10
382.3957496009
 20
112.3669000012
 30
0.0
 11
383.4223378283
 21
109.8176886227
 31
0.0
  0
LINE
  5
5F9
 67
     1
  8
0
  6
CONTINUOUS
 62
     7
 10
383.4223378283
 20
109.8176886227
 30
0.0
 11
383.3659408294
 21
109.7142078642
 31
0.0
  0
ARC
  5
5FA
 67
     1
  8
0
  6
CONTINUOUS
 62
     7
 10
386.2176530079
 20
108.9464088943
 30
0.0
 40
2.953265583584751
 50
164.9309440881
 51
203.5931111911
  0
LINE
  5
5FB
 67
     1
  8
0
  6
CONTINUOUS
 62
     7
 10
383.5112483609
 20
107.764397264
 30
0.0
 11
384.4786274116
 21
105.1065451664
 31
0.0
  0
ARC
  5
5FC
 67
     1
  8
0
  6
CONTINUOUS
 62
     7
 10
386.3821444931
 20
105.6976394859
 30
0.0
 40
1.993180818242984
 50
197.251003543
 51
221.5731554474
  0
ARC
  5
5FD
 67
     1
  8
0
  6
CONTINUOUS
 62
     7
 10
381.9760919454
 20
106.5315951458
 30
0.0
 40
4.339109744172227
 50
5.5455456378
 51
19.8363562166
  0
LINE
  5
5FE
 67
     1
  8
0
  6
CONTINUOUS
 62
     7
 10
386.0577433824
 20
108.004006406
 30
0.0
 11
385.0903643318
 21
110.6618585036
 31
0.0
  0
POLYLINE
  5
5FF
 67
     1
  8
0
  6
CONTINUOUS
 62
     7
 66
     1
 10
0.0
 20
0.0
 30
0.0
 70
   128
  0
VERTEX
  5
787
 67
     1
  8
0
  6
CONTINUOUS
 62
     7
 10
384.2682928127
 20
111.3699000011
 30
0.0
  0
VERTEX
  5
788
 67
     1
  8
0
  6
CONTINUOUS
 62
     7
 10
384.3436018234
 20
111.4654936267
 30
0.0
  0
VERTEX
  5
789
 67
     1
  8
0
  6
CONTINUOUS
 62
     7
 10
384.4346046683
 20
111.5063437602
 30
0.0
  0
VERTEX
  5
78A
 67
     1
  8
0
  6
CONTINUOUS
 62
     7
 10
384.537804159
 20
111.4908805537
 30
0.0
  0
VERTEX
  5
78B
 67
     1
  8
0
  6
CONTINUOUS
 62
     7
 10
384.6492343971
 20
111.4196982497
 30
0.0
  0
VERTEX
  5
78C
 67
     1
  8
0
  6
CONTINUOUS
 62
     7
 10
384.7646131809
 20
111.2955323441
 30
0.0
  0
VERTEX
  5
78D
 67
     1
  8
0
  6
CONTINUOUS
 62
     7
 10
384.8795065684
 20
111.123154463
 30
0.0
  0
VERTEX
  5
78E
 67
     1
  8
0
  6
CONTINUOUS
 62
     7
 10
384.9894992714
 20
110.9091889918
 30
0.0
  0
VERTEX
  5
78F
 67
     1
  8
0
  6
CONTINUOUS
 62
     7
 10
385.0903643318
 20
110.6618585036
 30
0.0
  0
SEQEND
  5
8C6
 67
     1
  8
0
  6
CONTINUOUS
 62
     7
  0
LINE
  5
600
 67
     1
  8
0
  6
CONTINUOUS
 62
     7
 10
384.2682928127
 20
111.3699000011
 30
0.0
 11
384.2118958137
 21
111.2664192425
 31
0.0
  0
LINE
  5
601
 67
     1
  8
0
  6
CONTINUOUS
 62
     7
 10
384.2118958137
 20
111.2664192425
 30
0.0
 11
383.3037259399
 21
114.0329120594
 31
0.0
  0
LINE
  5
602
 67
     1
  8
0
  6
CONTINUOUS
 62
     7
 10
383.3037259399
 20
114.0329120594
 30
0.0
 11
383.8930822511
 21
115.1143000635
 31
0.0
  0
POLYLINE
  5
603
 67
     1
  8
0
  6
CONTINUOUS
 62
     7
 66
     1
 10
0.0
 20
0.0
 30
0.0
 70
   128
  0
VERTEX
  5
790
 67
     1
  8
0
  6
CONTINUOUS
 62
     7
 10
384.4411299304
 20
114.6422723986
 30
0.0
  0
VERTEX
  5
791
 67
     1
  8
0
  6
CONTINUOUS
 62
     7
 10
384.3738865569
 20
114.8071593907
 30
0.0
  0
VERTEX
  5
792
 67
     1
  8
0
  6
CONTINUOUS
 62
     7
 10
384.3005580882
 20
114.9498030382
 30
0.0
  0
VERTEX
  5
793
 67
     1
  8
0
  6
CONTINUOUS
 62
     7
 10
384.2239624965
 20
115.0647216255
 30
0.0
  0
VERTEX
  5
794
 67
     1
  8
0
  6
CONTINUOUS
 62
     7
 10
384.1470433073
 20
115.1474988959
 30
0.0
  0
VERTEX
  5
795
 67
     1
  8
0
  6
CONTINUOUS
 62
     7
 10
384.072756482
 20
115.1949537653
 30
0.0
  0
VERTEX
  5
796
 67
     1
  8
0
  6
CONTINUOUS
 62
     7
 10
384.0039568215
 20
115.2052625696
 30
0.0
  0
VERTEX
  5
797
 67
     1
  8
0
  6
CONTINUOUS
 62
     7
 10
383.9432882582
 20
115.1780291473
 30
0.0
  0
VERTEX
  5
798
 67
     1
  8
0
  6
CONTINUOUS
 62
     7
 10
383.8930822511
 20
115.1143000635
 30
0.0
  0
SEQEND
  5
8C7
 67
     1
  8
0
  6
CONTINUOUS
 62
     7
  0
POLYLINE
  5
604
 67
     1
  8
0
  6
CONTINUOUS
 62
     7
 66
     1
 10
0.0
 20
0.0
 30
0.0
 70
   128
  0
VERTEX
  5
799
 67
     1
  8
0
  6
CONTINUOUS
 62
     7
 10
385.83228476
 20
115.6217976742
 30
0.0
  0
VERTEX
  5
79A
 67
     1
  8
0
  6
CONTINUOUS
 62
     7
 10
385.8425756603
 20
115.6236359928
 30
0.0
  0
VERTEX
  5
79B
 67
     1
  8
0
  6
CONTINUOUS
 62
     7
 10
385.9113753208
 20
115.6133271885
 30
0.0
  0
VERTEX
  5
79C
 67
     1
  8
0
  6
CONTINUOUS
 62
     7
 10
385.9856621462
 20
115.5658723191
 30
0.0
  0
VERTEX
  5
79D
 67
     1
  8
0
  6
CONTINUOUS
 62
     7
 10
386.0625813354
 20
115.4830950487
 30
0.0
  0
VERTEX
  5
79E
 67
     1
  8
0
  6
CONTINUOUS
 62
     7
 10
386.1391769271
 20
115.3681764613
 30
0.0
  0
VERTEX
  5
79F
 67
     1
  8
0
  6
CONTINUOUS
 62
     7
 10
386.2125053957
 20
115.2255328139
 30
0.0
  0
VERTEX
  5
7A0
 67
     1
  8
0
  6
CONTINUOUS
 62
     7
 10
386.2797487693
 20
115.0606458217
 30
0.0
  0
SEQEND
  5
8C8
 67
     1
  8
0
  6
CONTINUOUS
 62
     7
  0
LINE
  5
605
 67
     1
  8
0
  6
CONTINUOUS
 62
     7
 10
384.6949859725
 20
111.37634528
 30
0.0
 11
384.2118958137
 21
111.2664192425
 31
0.0
  0
LINE
  5
606
 67
     1
  8
0
  6
CONTINUOUS
 62
     7
 10
385.3498671997
 20
108.1827706872
 30
0.0
 11
383.5112483609
 21
107.764397264
 31
0.0
  0
LINE
  5
607
 67
     1
  8
0
  6
CONTINUOUS
 62
     7
 10
383.3659408294
 20
109.7142078642
 30
0.0
 11
385.2045596682
 21
110.1325812874
 31
0.0
  0
ARC
  5
608
 67
     1
  8
0
  6
CONTINUOUS
 62
     7
 10
388.0562718469
 20
109.3647823175
 30
0.0
 40
2.953265583821629
 50
164.9309440897
 51
203.5931111895
  0
LINE
  5
609
 67
     1
  8
0
  6
CONTINUOUS
 62
     7
 10
385.2465359041
 20
110.232780635
 30
0.0
 11
383.4223378283
 21
109.8176886227
 31
0.0
  0
LINE
  5
60A
 67
     1
  8
0
  6
CONTINUOUS
 62
     7
 10
385.2515941735
 20
110.2188831541
 30
0.0
 11
385.2045596682
 21
110.1325812874
 31
0.0
  0
LINE
  5
60B
 67
     1
  8
0
  6
CONTINUOUS
 62
     7
 10
383.7495121378
 20
112.6749455051
 30
0.0
 11
382.3957496009
 21
112.3669000012
 31
0.0
  0
LINE
  5
60C
 67
     1
  8
0
  6
CONTINUOUS
 62
     7
 10
384.9928122333
 20
110.9019150369
 30
0.0
 11
385.0986266658
 21
110.6391579274
 31
0.0
  0
LINE
  5
60D
 67
     1
  8
0
  6
CONTINUOUS
 62
     7
 10
385.3498671997
 20
108.1827706872
 30
0.0
 11
385.997102068
 21
106.4045075015
 31
0.0
  0
LINE
  5
60E
 67
     1
  8
0
  6
CONTINUOUS
 62
     7
 10
381.5367540308
 20
105.5814228009
 30
0.0
 11
381.0536638721
 21
105.4714967634
 31
0.0
  0
LINE
  5
60F
 67
     1
  8
0
  6
CONTINUOUS
 62
     7
 10
382.1916352581
 20
102.3878482081
 30
0.0
 11
380.3530164193
 21
101.9694747849
 31
0.0
  0
LINE
  5
610
 67
     1
  8
0
  6
CONTINUOUS
 62
     7
 10
380.2077088877
 20
103.919285385
 30
0.0
 11
382.0463277265
 21
104.3376588082
 31
0.0
  0
ARC
  5
611
 67
     1
  8
0
  6
CONTINUOUS
 62
     7
 10
384.8980399053
 20
103.5698598384
 30
0.0
 40
2.953265583822439
 50
164.9309440897
 51
203.5931111895
  0
LINE
  5
612
 67
     1
  8
0
  6
CONTINUOUS
 62
     7
 10
382.0883039625
 20
104.4378581558
 30
0.0
 11
380.2641058867
 21
104.0227661436
 31
0.0
  0
LINE
  5
613
 67
     1
  8
0
  6
CONTINUOUS
 62
     7
 10
382.0933622318
 20
104.423960675
 30
0.0
 11
382.0463277265
 21
104.3376588082
 31
0.0
  0
LINE
  5
614
 67
     1
  8
0
  6
CONTINUOUS
 62
     7
 10
380.5912801961
 20
106.8800230259
 30
0.0
 11
379.2375176593
 21
106.571977522
 31
0.0
  0
LINE
  5
615
 67
     1
  8
0
  6
CONTINUOUS
 62
     7
 10
381.8345802917
 20
105.1069925577
 30
0.0
 11
381.9403947241
 21
104.8442354482
 31
0.0
  0
LINE
  5
616
 67
     1
  8
0
  6
CONTINUOUS
 62
     7
 10
382.1916352581
 20
102.3878482081
 30
0.0
 11
382.8388701264
 21
100.6095850224
 31
0.0
  0
LINE
  5
617
 67
     1
  8
0
  6
CONTINUOUS
 62
     7
 10
378.3785220891
 20
99.7865003217
 30
0.0
 11
377.8954319304
 21
99.6765742842
 31
0.0
  0
LINE
  5
618
 67
     1
  8
0
  6
CONTINUOUS
 62
     7
 10
379.0334033164
 20
96.5929257289
 30
0.0
 11
377.1947844776
 21
96.1745523057
 31
0.0
  0
LINE
  5
619
 67
     1
  8
0
  6
CONTINUOUS
 62
     7
 10
377.0494769461
 20
98.1243629059
 30
0.0
 11
378.8880957849
 21
98.5427363291
 31
0.0
  0
ARC
  5
61A
 67
     1
  8
0
  6
CONTINUOUS
 62
     7
 10
381.7398079636
 20
97.7749373592
 30
0.0
 40
2.953265583822756
 50
164.9309440897
 51
203.5931111895
  0
LINE
  5
61B
 67
     1
  8
0
  6
CONTINUOUS
 62
     7
 10
377.4330482545
 20
101.0851005468
 30
0.0
 11
376.0792857176
 21
100.7770550429
 31
0.0
  0
LINE
  5
61C
 67
     1
  8
0
  6
CONTINUOUS
 62
     7
 10
378.9300720208
 20
98.6429356767
 30
0.0
 11
377.105873945
 21
98.2278436645
 31
0.0
  0
LINE
  5
61D
 67
     1
  8
0
  6
CONTINUOUS
 62
     7
 10
378.67634835
 20
99.3120700786
 30
0.0
 11
378.7821627825
 21
99.0493129691
 31
0.0
  0
LINE
  5
61E
 67
     1
  8
0
  6
CONTINUOUS
 62
     7
 10
378.9351302902
 20
98.6290381958
 30
0.0
 11
378.8880957849
 21
98.5427363291
 31
0.0
  0
LINE
  5
61F
 67
     1
  8
0
  6
CONTINUOUS
 62
     7
 10
379.0334033164
 20
96.5929257289
 30
0.0
 11
379.6806381847
 21
94.8146625432
 31
0.0
  0
LINE
  5
620
 67
     1
  8
0
  6
CONTINUOUS
 62
     7
 10
400.8873730105
 20
115.1925920419
 30
0.0
 11
399.9199939599
 21
117.8504441395
 31
0.0
  0
ARC
  5
621
 67
     1
  8
0
  6
CONTINUOUS
 62
     7
 10
384.5385802337
 20
109.2991456573
 30
0.0
 40
17.37859993056469
 50
10.5464953441
 51
19.8233233794
  0
LINE
  5
622
 67
     1
  8
0
  6
CONTINUOUS
 62
     7
 10
400.1426420867
 20
109.7626579462
 30
0.0
 11
401.6235982669
 21
112.480009432
 31
0.0
  0
LINE
  5
623
 67
     1
  8
0
  6
CONTINUOUS
 62
     7
 10
396.6317078836
 20
120.6826101294
 30
0.0
 11
390.9179677317
 21
110.198680558
 31
0.0
  0
POLYLINE
  5
624
 67
     1
  8
0
  6
CONTINUOUS
 62
     7
 66
     1
 10
0.0
 20
0.0
 30
0.0
 70
   128
  0
VERTEX
  5
7A1
 67
     1
  8
0
  6
CONTINUOUS
 62
     7
 10
399.9199939599
 20
117.8504441395
 30
0.0
  0
VERTEX
  5
7A2
 67
     1
  8
0
  6
CONTINUOUS
 62
     7
 10
399.6308722104
 20
118.5816688844
 30
0.0
  0
VERTEX
  5
7A3
 67
     1
  8
0
  6
CONTINUOUS
 62
     7
 10
399.3200822197
 20
119.2474503262
 30
0.0
  0
VERTEX
  5
7A4
 67
     1
  8
0
  6
CONTINUOUS
 62
     7
 10
398.9939507758
 20
119.8342350748
 30
0.0
  0
VERTEX
  5
7A5
 67
     1
  8
0
  6
CONTINUOUS
 62
     7
 10
398.6591169742
 20
120.3300778848
 30
0.0
  0
VERTEX
  5
7A6
 67
     1
  8
0
  6
CONTINUOUS
 62
     7
 10
398.3223970657
 20
120.7248848265
 30
0.0
  0
VERTEX
  5
7A7
 67
     1
  8
0
  6
CONTINUOUS
 62
     7
 10
397.9906456965
 20
121.0106187691
 30
0.0
  0
VERTEX
  5
7A8
 67
     1
  8
0
  6
CONTINUOUS
 62
     7
 10
397.6706163679
 20
121.1814629934
 30
0.0
  0
VERTEX
  5
7A9
 67
     1
  8
0
  6
CONTINUOUS
 62
     7
 10
397.3688239541
 20
121.2339396039
 30
0.0
  0
VERTEX
  5
7AA
 67
     1
  8
0
  6
CONTINUOUS
 62
     7
 10
397.0914120782
 20
121.1669803279
 30
0.0
  0
VERTEX
  5
7AB
 67
     1
  8
0
  6
CONTINUOUS
 62
     7
 10
396.8440280463
 20
120.9819482634
 30
0.0
  0
VERTEX
  5
7AC
 67
     1
  8
0
  6
CONTINUOUS
 62
     7
 10
396.6317078836
 20
120.6826101294
 30
0.0
  0
SEQEND
  5
8C9
 67
     1
  8
0
  6
CONTINUOUS
 62
     7
  0
POLYLINE
  5
625
 67
     1
  8
0
  6
CONTINUOUS
 62
     7
 66
     1
 10
0.0
 20
0.0
 30
0.0
 70
   128
  0
VERTEX
  5
7AD
 67
     1
  8
0
  6
CONTINUOUS
 62
     7
 10
396.9991455101
 20
109.047362641
 30
0.0
  0
VERTEX
  5
7AE
 67
     1
  8
0
  6
CONTINUOUS
 62
     7
 10
396.8878289949
 20
109.3315972832
 30
0.0
  0
VERTEX
  5
7AF
 67
     1
  8
0
  6
CONTINUOUS
 62
     7
 10
396.7197104023
 20
109.8569398519
 30
0.0
  0
VERTEX
  5
7B0
 67
     1
  8
0
  6
CONTINUOUS
 62
     7
 10
396.5871419886
 20
110.4085237611
 30
0.0
  0
VERTEX
  5
7B1
 67
     1
  8
0
  6
CONTINUOUS
 62
     7
 10
396.4963225056
 20
110.9605575603
 30
0.0
  0
VERTEX
  5
7B2
 67
     1
  8
0
  6
CONTINUOUS
 62
     7
 10
396.4514985712
 20
111.4872287627
 30
0.0
  0
VERTEX
  5
7B3
 67
     1
  8
0
  6
CONTINUOUS
 62
     7
 10
396.4547661029
 20
111.9639108081
 30
0.0
  0
VERTEX
  5
7B4
 67
     1
  8
0
  6
CONTINUOUS
 62
     7
 10
396.5059723146
 20
112.368314574
 30
0.0
  0
VERTEX
  5
7B5
 67
     1
  8
0
  6
CONTINUOUS
 62
     7
 10
396.6027228606
 20
112.6815305896
 30
0.0
  0
VERTEX
  5
7B6
 67
     1
  8
0
  6
CONTINUOUS
 62
     7
 10
396.740493793
 20
112.8889132222
 30
0.0
  0
VERTEX
  5
7B7
 67
     1
  8
0
  6
CONTINUOUS
 62
     7
 10
396.912843096
 20
112.9807654904
 30
0.0
  0
VERTEX
  5
7B8
 67
     1
  8
0
  6
CONTINUOUS
 62
     7
 10
397.1117119079
 20
112.9527924843
 30
0.0
  0
VERTEX
  5
7B9
 67
     1
  8
0
  6
CONTINUOUS
 62
     7
 10
397.3278013441
 20
112.8063021904
 30
0.0
  0
VERTEX
  5
7BA
 67
     1
  8
0
  6
CONTINUOUS
 62
     7
 10
397.5510073025
 20
112.5481443321
 30
0.0
  0
VERTEX
  5
7BB
 67
     1
  8
0
  6
CONTINUOUS
 62
     7
 10
397.7708929208
 20
112.190390084
 30
0.0
  0
VERTEX
  5
7BC
 67
     1
  8
0
  6
CONTINUOUS
 62
     7
 10
397.9771765917
 20
111.7497676371
 30
0.0
  0
VERTEX
  5
7BD
 67
     1
  8
0
  6
CONTINUOUS
 62
     7
 10
398.1602127202
 20
111.2468800073
 30
0.0
  0
VERTEX
  5
7BE
 67
     1
  8
0
  6
CONTINUOUS
 62
     7
 10
398.3114427402
 20
110.7052416611
 30
0.0
  0
VERTEX
  5
7BF
 67
     1
  8
0
  6
CONTINUOUS
 62
     7
 10
398.4237953041
 20
110.1501790058
 30
0.0
  0
VERTEX
  5
7C0
 67
     1
  8
0
  6
CONTINUOUS
 62
     7
 10
398.4920169309
 20
109.6076461542
 30
0.0
  0
VERTEX
  5
7C1
 67
     1
  8
0
  6
CONTINUOUS
 62
     7
 10
398.5066316915
 20
109.3903876012
 30
0.0
  0
SEQEND
  5
8CA
 67
     1
  8
0
  6
CONTINUOUS
 62
     7
  0
LINE
  5
626
 67
     1
  8
0
  6
CONTINUOUS
 62
     7
 10
401.6235982669
 20
112.480009432
 30
0.0
 11
402.7727350411
 21
112.7414928215
 31
0.0
  0
LINE
  5
627
 67
     1
  8
0
  6
CONTINUOUS
 62
     7
 10
400.8873730105
 20
115.1925920419
 30
0.0
 11
402.0365097848
 21
115.4540754314
 31
0.0
  0
ARC
  5
628
 67
     1
  8
0
  6
CONTINUOUS
 62
     7
 10
385.687717008
 20
109.5606290468
 30
0.0
 40
17.37859993057043
 50
10.5464953441
 51
19.8233233794
  0
LINE
  5
629
 67
     1
  8
0
  6
CONTINUOUS
 62
     7
 10
401.291778861
 20
110.0241413357
 30
0.0
 11
402.7727350411
 21
112.7414928215
 31
0.0
  0
LINE
  5
62A
 67
     1
  8
0
  6
CONTINUOUS
 62
     7
 10
399.9199939599
 20
117.8504441395
 30
0.0
 11
401.0691307341
 21
118.111927529
 31
0.0
  0
LINE
  5
62B
 67
     1
  8
0
  6
CONTINUOUS
 62
     7
 10
402.0365097848
 20
115.4540754314
 30
0.0
 11
401.0691307341
 21
118.111927529
 31
0.0
  0
POLYLINE
  5
62C
 67
     1
  8
0
  6
CONTINUOUS
 62
     7
 66
     1
 10
0.0
 20
0.0
 30
0.0
 70
   128
  0
VERTEX
  5
7C2
 67
     1
  8
0
  6
CONTINUOUS
 62
     7
 10
401.0691307341
 20
118.111927529
 30
0.0
  0
VERTEX
  5
7C3
 67
     1
  8
0
  6
CONTINUOUS
 62
     7
 10
400.7800089847
 20
118.8431522739
 30
0.0
  0
VERTEX
  5
7C4
 67
     1
  8
0
  6
CONTINUOUS
 62
     7
 10
400.469218994
 20
119.5089337157
 30
0.0
  0
VERTEX
  5
7C5
 67
     1
  8
0
  6
CONTINUOUS
 62
     7
 10
400.14308755
 20
120.0957184643
 30
0.0
  0
VERTEX
  5
7C6
 67
     1
  8
0
  6
CONTINUOUS
 62
     7
 10
399.8082537485
 20
120.5915612743
 30
0.0
  0
VERTEX
  5
7C7
 67
     1
  8
0
  6
CONTINUOUS
 62
     7
 10
399.4715338399
 20
120.986368216
 30
0.0
  0
VERTEX
  5
7C8
 67
     1
  8
0
  6
CONTINUOUS
 62
     7
 10
399.1397824708
 20
121.2721021585
 30
0.0
  0
VERTEX
  5
7C9
 67
     1
  8
0
  6
CONTINUOUS
 62
     7
 10
398.8197531422
 20
121.4429463829
 30
0.0
  0
VERTEX
  5
7CA
 67
     1
  8
0
  6
CONTINUOUS
 62
     7
 10
398.5179607283
 20
121.4954229934
 30
0.0
  0
VERTEX
  5
7CB
 67
     1
  8
0
  6
CONTINUOUS
 62
     7
 10
398.3843466785
 20
121.4788386438
 30
0.0
  0
SEQEND
  5
8CB
 67
     1
  8
0
  6
CONTINUOUS
 62
     7
  0
ARC
  5
62D
 67
     1
  8
0
  6
CONTINUOUS
 62
     7
 10
400.2132149577
 20
110.6800733281
 30
0.0
 40
2.137786166450498
 50
197.63024054
 51
217.0945616463
  0
ARC
  5
62E
 67
     1
  8
0
  6
CONTINUOUS
 62
     7
 10
401.385789318
 20
111.3146037573
 30
0.0
 40
3.456490739609943
 50
172.1469535199
 51
201.7710546884
  0
ARC
  5
62F
 67
     1
  8
0
  6
CONTINUOUS
 62
     7
 10
401.9588549419
 20
111.4333338993
 30
0.0
 40
3.91720236987714
 50
177.8601970429
 51
200.5430525031
  0
POLYLINE
  5
630
 67
     1
  8
0
  6
CONTINUOUS
 62
     7
 66
     1
 10
0.0
 20
0.0
 30
0.0
 70
   128
  0
VERTEX
  5
7CC
 67
     1
  8
0
  6
CONTINUOUS
 62
     7
 10
398.4913647186
 20
109.6152554828
 30
0.0
  0
VERTEX
  5
7CD
 67
     1
  8
0
  6
CONTINUOUS
 62
     7
 10
398.4483556174
 20
109.6946204155
 30
0.0
  0
VERTEX
  5
7CE
 67
     1
  8
0
  6
CONTINUOUS
 62
     7
 10
398.2907522645
 20
110.0587440862
 30
0.0
  0
SEQEND
  5
8CC
 67
     1
  8
0
  6
CONTINUOUS
 62
     7
  0
ARC
  5
631
 67
     1
  8
0
  6
CONTINUOUS
 62
     7
 10
393.7691411078
 20
109.5573726479
 30
0.0
 40
8.439029730381057
 50
4.5485257099
 51
12.2752548983
  0
ARC
  5
632
 67
     1
  8
0
  6
CONTINUOUS
 62
     7
 10
394.2208529811
 20
109.6534879169
 30
0.0
 40
8.038292244891538
 50
4.1799881352
 51
12.7909206157
  0
ARC
  5
633
 67
     1
  8
0
  6
CONTINUOUS
 62
     7
 10
402.255400249
 20
111.5047769956
 30
0.0
 40
4.130310180015181
 50
182.224044865
 51
203.4144435792
  0
POLYLINE
  5
634
 67
     1
  8
0
  6
CONTINUOUS
 62
     7
 66
     1
 10
0.0
 20
0.0
 30
0.0
 70
   128
  0
VERTEX
  5
7CF
 67
     1
  8
0
  6
CONTINUOUS
 62
     7
 10
382.2822779991
 20
99.5883148023
 30
0.0
  0
VERTEX
  5
7D0
 67
     1
  8
0
  6
CONTINUOUS
 62
     7
 10
382.1350733761
 20
99.2912548607
 30
0.0
  0
VERTEX
  5
7D1
 67
     1
  8
0
  6
CONTINUOUS
 62
     7
 10
381.8923335592
 20
98.5938100678
 30
0.0
  0
VERTEX
  5
7D2
 67
     1
  8
0
  6
CONTINUOUS
 62
     7
 10
381.7704452201
 20
97.8585676409
 30
0.0
  0
VERTEX
  5
7D3
 67
     1
  8
0
  6
CONTINUOUS
 62
     7
 10
381.7722425743
 20
97.1026238466
 30
0.0
  0
VERTEX
  5
7D4
 67
     1
  8
0
  6
CONTINUOUS
 62
     7
 10
381.8976838288
 20
96.3435563116
 30
0.0
  0
VERTEX
  5
7D5
 67
     1
  8
0
  6
CONTINUOUS
 62
     7
 10
382.1438521537
 20
95.5990152975
 30
0.0
  0
VERTEX
  5
7D6
 67
     1
  8
0
  6
CONTINUOUS
 62
     7
 10
382.5050235057
 20
94.886313287
 30
0.0
  0
VERTEX
  5
7D7
 67
     1
  8
0
  6
CONTINUOUS
 62
     7
 10
382.9727997272
 20
94.2220224246
 30
0.0
  0
VERTEX
  5
7D8
 67
     1
  8
0
  6
CONTINUOUS
 62
     7
 10
383.5363038247
 20
93.621589172
 30
0.0
  0
VERTEX
  5
7D9
 67
     1
  8
0
  6
CONTINUOUS
 62
     7
 10
384.1824328867
 20
93.0989751378
 30
0.0
  0
VERTEX
  5
7DA
 67
     1
  8
0
  6
CONTINUOUS
 62
     7
 10
384.8961627601
 20
92.666332435
 30
0.0
  0
VERTEX
  5
7DB
 67
     1
  8
0
  6
CONTINUOUS
 62
     7
 10
385.6608973998
 20
92.3337211129
 30
0.0
  0
VERTEX
  5
7DC
 67
     1
  8
0
  6
CONTINUOUS
 62
     7
 10
386.4588547696
 20
92.1088752354
 30
0.0
  0
VERTEX
  5
7DD
 67
     1
  8
0
  6
CONTINUOUS
 62
     7
 10
387.2714803198
 20
91.9970230443
 30
0.0
  0
VERTEX
  5
7DE
 67
     1
  8
0
  6
CONTINUOUS
 62
     7
 10
388.0798784281
 20
92.000765389
 30
0.0
  0
VERTEX
  5
7DF
 67
     1
  8
0
  6
CONTINUOUS
 62
     7
 10
388.8652517709
 20
92.1200152505
 30
0.0
  0
VERTEX
  5
7E0
 67
     1
  8
0
  6
CONTINUOUS
 62
     7
 10
389.6093384093
 20
92.3519997645
 30
0.0
  0
VERTEX
  5
7E1
 67
     1
  8
0
  6
CONTINUOUS
 62
     7
 10
390.294836426
 20
92.6913246978
 30
0.0
  0
VERTEX
  5
7E2
 67
     1
  8
0
  6
CONTINUOUS
 62
     7
 10
390.9058062388
 20
93.1300998777
 30
0.0
  0
VERTEX
  5
7E3
 67
     1
  8
0
  6
CONTINUOUS
 62
     7
 10
391.428041237
 20
93.6581226592
 30
0.0
  0
VERTEX
  5
7E4
 67
     1
  8
0
  6
CONTINUOUS
 62
     7
 10
391.8493981213
 20
94.2631151622
 30
0.0
  0
VERTEX
  5
7E5
 67
     1
  8
0
  6
CONTINUOUS
 62
     7
 10
391.8970717184
 20
94.3482535684
 30
0.0
  0
SEQEND
  5
8CD
 67
     1
  8
0
  6
CONTINUOUS
 62
     7
  0
POLYLINE
  5
635
 67
     1
  8
0
  6
CONTINUOUS
 62
     7
 66
     1
 10
0.0
 20
0.0
 30
0.0
 70
   128
  0
VERTEX
  5
7E6
 67
     1
  8
0
  6
CONTINUOUS
 62
     7
 10
395.476923313
 20
108.2213998039
 30
0.0
  0
VERTEX
  5
7E7
 67
     1
  8
0
  6
CONTINUOUS
 62
     7
 10
395.9861470125
 20
107.581984443
 30
0.0
  0
VERTEX
  5
7E8
 67
     1
  8
0
  6
CONTINUOUS
 62
     7
 10
396.393021526
 20
106.8875469318
 30
0.0
  0
VERTEX
  5
7E9
 67
     1
  8
0
  6
CONTINUOUS
 62
     7
 10
396.6880859804
 20
106.1542347185
 30
0.0
  0
VERTEX
  5
7EA
 67
     1
  8
0
  6
CONTINUOUS
 62
     7
 10
396.8644793725
 20
105.3990991876
 30
0.0
  0
VERTEX
  5
7EB
 67
     1
  8
0
  6
CONTINUOUS
 62
     7
 10
396.9181001048
 20
104.6396991714
 30
0.0
  0
VERTEX
  5
7EC
 67
     1
  8
0
  6
CONTINUOUS
 62
     7
 10
396.8477013581
 20
103.8936926626
 30
0.0
  0
VERTEX
  5
7ED
 67
     1
  8
0
  6
CONTINUOUS
 62
     7
 10
396.6549200833
 20
103.1784262205
 30
0.0
  0
VERTEX
  5
7EE
 67
     1
  8
0
  6
CONTINUOUS
 62
     7
 10
396.3442389382
 20
102.5105316191
 30
0.0
  0
VERTEX
  5
7EF
 67
     1
  8
0
  6
CONTINUOUS
 62
     7
 10
395.922882054
 20
101.9055391161
 30
0.0
  0
VERTEX
  5
7F0
 67
     1
  8
0
  6
CONTINUOUS
 62
     7
 10
395.4006470557
 20
101.3775163346
 30
0.0
  0
VERTEX
  5
7F1
 67
     1
  8
0
  6
CONTINUOUS
 62
     7
 10
394.7896772429
 20
100.9387411547
 30
0.0
  0
VERTEX
  5
7F2
 67
     1
  8
0
  6
CONTINUOUS
 62
     7
 10
394.1041792262
 20
100.5994162214
 30
0.0
  0
VERTEX
  5
7F3
 67
     1
  8
0
  6
CONTINUOUS
 62
     7
 10
393.3600925878
 20
100.3674317074
 30
0.0
  0
VERTEX
  5
7F4
 67
     1
  8
0
  6
CONTINUOUS
 62
     7
 10
392.574719245
 20
100.2481818459
 30
0.0
  0
VERTEX
  5
7F5
 67
     1
  8
0
  6
CONTINUOUS
 62
     7
 10
391.7663211367
 20
100.2444395012
 30
0.0
  0
VERTEX
  5
7F6
 67
     1
  8
0
  6
CONTINUOUS
 62
     7
 10
390.9536955865
 20
100.3562916923
 30
0.0
  0
VERTEX
  5
7F7
 67
     1
  8
0
  6
CONTINUOUS
 62
     7
 10
390.1557382167
 20
100.5811375698
 30
0.0
  0
VERTEX
  5
7F8
 67
     1
  8
0
  6
CONTINUOUS
 62
     7
 10
389.391003577
 20
100.9137488919
 30
0.0
  0
VERTEX
  5
7F9
 67
     1
  8
0
  6
CONTINUOUS
 62
     7
 10
388.6772737037
 20
101.3463915947
 30
0.0
  0
VERTEX
  5
7FA
 67
     1
  8
0
  6
CONTINUOUS
 62
     7
 10
388.0311446417
 20
101.8690056289
 30
0.0
  0
VERTEX
  5
7FB
 67
     1
  8
0
  6
CONTINUOUS
 62
     7
 10
387.4676405442
 20
102.4694388815
 30
0.0
  0
VERTEX
  5
7FC
 67
     1
  8
0
  6
CONTINUOUS
 62
     7
 10
386.9998643227
 20
103.1337297439
 30
0.0
  0
VERTEX
  5
7FD
 67
     1
  8
0
  6
CONTINUOUS
 62
     7
 10
386.6386929706
 20
103.8464317544
 30
0.0
  0
VERTEX
  5
7FE
 67
     1
  8
0
  6
CONTINUOUS
 62
     7
 10
386.3925246458
 20
104.5909727685
 30
0.0
  0
VERTEX
  5
7FF
 67
     1
  8
0
  6
CONTINUOUS
 62
     7
 10
386.2670833913
 20
105.3500403035
 30
0.0
  0
VERTEX
  5
800
 67
     1
  8
0
  6
CONTINUOUS
 62
     7
 10
386.265286037
 20
106.1059840978
 30
0.0
  0
VERTEX
  5
801
 67
     1
  8
0
  6
CONTINUOUS
 62
     7
 10
386.3871743761
 20
106.8412265248
 30
0.0
  0
VERTEX
  5
802
 67
     1
  8
0
  6
CONTINUOUS
 62
     7
 10
386.629914193
 20
107.5386713176
 30
0.0
  0
VERTEX
  5
803
 67
     1
  8
0
  6
CONTINUOUS
 62
     7
 10
386.9878611661
 20
108.182101101
 30
0.0
  0
VERTEX
  5
804
 67
     1
  8
0
  6
CONTINUOUS
 62
     7
 10
387.4526921128
 20
108.7565544871
 30
0.0
  0
VERTEX
  5
805
 67
     1
  8
0
  6
CONTINUOUS
 62
     7
 10
388.0135985247
 20
109.2486739653
 30
0.0
  0
VERTEX
  5
806
 67
     1
  8
0
  6
CONTINUOUS
 62
     7
 10
388.6575378933
 20
109.6470164991
 30
0.0
  0
VERTEX
  5
807
 67
     1
  8
0
  6
CONTINUOUS
 62
     7
 10
389.3695369812
 20
109.9423196059
 30
0.0
  0
VERTEX
  5
808
 67
     1
  8
0
  6
CONTINUOUS
 62
     7
 10
390.1330399887
 20
110.1277167331
 30
0.0
  0
VERTEX
  5
809
 67
     1
  8
0
  6
CONTINUOUS
 62
     7
 10
390.9302935182
 20
110.1988969234
 30
0.0
  0
SEQEND
  5
8CE
 67
     1
  8
0
  6
CONTINUOUS
 62
     7
  0
LINE
  5
636
 67
     1
  8
0
  6
CONTINUOUS
 62
     7
 10
394.4282838125
 20
107.4116452353
 30
0.0
 11
395.476923313
 21
108.2213998039
 31
0.0
  0
LINE
  5
637
 67
     1
  8
0
  6
CONTINUOUS
 62
     7
 10
390.9302935182
 20
110.1988969234
 30
0.0
 11
391.1065451497
 21
108.8563919892
 31
0.0
  0
POLYLINE
  5
638
 67
     1
  8
0
  6
CONTINUOUS
 62
     7
 66
     1
 10
0.0
 20
0.0
 30
0.0
 70
   128
  0
VERTEX
  5
80A
 67
     1
  8
0
  6
CONTINUOUS
 62
     7
 10
391.1065451497
 20
108.8563919892
 30
0.0
  0
VERTEX
  5
80B
 67
     1
  8
0
  6
CONTINUOUS
 62
     7
 10
390.4290370189
 20
108.7875467568
 30
0.0
  0
VERTEX
  5
80C
 67
     1
  8
0
  6
CONTINUOUS
 62
     7
 10
389.7880733538
 20
108.6057343077
 30
0.0
  0
VERTEX
  5
80D
 67
     1
  8
0
  6
CONTINUOUS
 62
     7
 10
389.2039259911
 20
108.3167048468
 30
0.0
  0
VERTEX
  5
80E
 67
     1
  8
0
  6
CONTINUOUS
 62
     7
 10
388.6950698313
 20
107.9295995443
 30
0.0
  0
VERTEX
  5
80F
 67
     1
  8
0
  6
CONTINUOUS
 62
     7
 10
388.2775985308
 20
107.4566614272
 30
0.0
  0
VERTEX
  5
810
 67
     1
  8
0
  6
CONTINUOUS
 62
     7
 10
387.9647155057
 20
106.9128481676
 30
0.0
  0
VERTEX
  5
811
 67
     1
  8
0
  6
CONTINUOUS
 62
     7
 10
387.7663163461
 20
106.3153590144
 30
0.0
  0
VERTEX
  5
812
 67
     1
  8
0
  6
CONTINUOUS
 62
     7
 10
387.6886758465
 20
105.6830908305
 30
0.0
  0
VERTEX
  5
813
 67
     1
  8
0
  6
CONTINUOUS
 62
     7
 10
387.7342495526
 20
105.0360404397
 30
0.0
  0
VERTEX
  5
814
 67
     1
  8
0
  6
CONTINUOUS
 62
     7
 10
387.9015960992
 20
104.3946721841
 30
0.0
  0
VERTEX
  5
815
 67
     1
  8
0
  6
CONTINUOUS
 62
     7
 10
388.1854227965
 20
103.7792706967
 30
0.0
  0
VERTEX
  5
816
 67
     1
  8
0
  6
CONTINUOUS
 62
     7
 10
388.5767530225
 20
103.2092993559
 30
0.0
  0
VERTEX
  5
817
 67
     1
  8
0
  6
CONTINUOUS
 62
     7
 10
389.0632101281
 20
102.7027847155
 30
0.0
  0
VERTEX
  5
818
 67
     1
  8
0
  6
CONTINUOUS
 62
     7
 10
389.6294088745
 20
102.2757463763
 30
0.0
  0
VERTEX
  5
819
 67
     1
  8
0
  6
CONTINUOUS
 62
     7
 10
390.2574420243
 20
101.9416903325
 30
0.0
  0
VERTEX
  5
81A
 67
     1
  8
0
  6
CONTINUOUS
 62
     7
 10
390.9274466958
 20
101.7111818157
 30
0.0
  0
VERTEX
  5
81B
 67
     1
  8
0
  6
CONTINUOUS
 62
     7
 10
391.6182325687
 20
101.591511147
 30
0.0
  0
VERTEX
  5
81C
 67
     1
  8
0
  6
CONTINUOUS
 62
     7
 10
392.3079520734
 20
101.5864631655
 30
0.0
  0
VERTEX
  5
81D
 67
     1
  8
0
  6
CONTINUOUS
 62
     7
 10
392.974791366
 20
101.6961975243
 30
0.0
  0
VERTEX
  5
81E
 67
     1
  8
0
  6
CONTINUOUS
 62
     7
 10
393.5976602384
 20
101.9172436412
 30
0.0
  0
VERTEX
  5
81F
 67
     1
  8
0
  6
CONTINUOUS
 62
     7
 10
394.1568591399
 20
102.2426104637
 30
0.0
  0
VERTEX
  5
820
 67
     1
  8
0
  6
CONTINUOUS
 62
     7
 10
394.6347022181
 20
102.6620075751
 30
0.0
  0
VERTEX
  5
821
 67
     1
  8
0
  6
CONTINUOUS
 62
     7
 10
395.0160766712
 20
103.1621706514
 30
0.0
  0
VERTEX
  5
822
 67
     1
  8
0
  6
CONTINUOUS
 62
     7
 10
395.2889207224
 20
103.7272809734
 30
0.0
  0
VERTEX
  5
823
 67
     1
  8
0
  6
CONTINUOUS
 62
     7
 10
395.4446050993
 20
104.3394657274
 30
0.0
  0
VERTEX
  5
824
 67
     1
  8
0
  6
CONTINUOUS
 62
     7
 10
395.478205953
 20
104.9793632709
 30
0.0
  0
VERTEX
  5
825
 67
     1
  8
0
  6
CONTINUOUS
 62
     7
 10
395.3886605852
 20
105.6267354856
 30
0.0
  0
VERTEX
  5
826
 67
     1
  8
0
  6
CONTINUOUS
 62
     7
 10
395.1788010582
 20
106.2611078506
 30
0.0
  0
VERTEX
  5
827
 67
     1
  8
0
  6
CONTINUOUS
 62
     7
 10
394.8552646251
 20
106.8624169933
 30
0.0
  0
VERTEX
  5
828
 67
     1
  8
0
  6
CONTINUOUS
 62
     7
 10
394.4282838125
 20
107.4116452353
 30
0.0
  0
SEQEND
  5
8CF
 67
     1
  8
0
  6
CONTINUOUS
 62
     7
  0
LINE
  5
639
 67
     1
  8
0
  6
CONTINUOUS
 62
     7
 10
393.0846454906
 20
108.4100690726
 30
0.0
 11
392.9979764852
 21
108.251043334
 31
0.0
  0
LINE
  5
63A
 67
     1
  8
0
  6
CONTINUOUS
 62
     7
 10
388.2060217484
 20
107.1093756579
 30
0.0
 11
387.8968408186
 21
106.7490121656
 31
0.0
  0
POLYLINE
  5
63B
 67
     1
  8
0
  6
CONTINUOUS
 62
     7
 66
     1
 10
0.0
 20
0.0
 30
0.0
 70
   128
  0
VERTEX
  5
829
 67
     1
  8
0
  6
CONTINUOUS
 62
     7
 10
394.8717718402
 20
102.9476757332
 30
0.0
  0
VERTEX
  5
82A
 67
     1
  8
0
  6
CONTINUOUS
 62
     7
 10
394.8920275364
 20
103.002303199
 30
0.0
  0
VERTEX
  5
82B
 67
     1
  8
0
  6
CONTINUOUS
 62
     7
 10
395.0070426447
 20
103.4028202194
 30
0.0
  0
SEQEND
  5
8D0
 67
     1
  8
0
  6
CONTINUOUS
 62
     7
  0
LINE
  5
63C
 67
     1
  8
0
  6
CONTINUOUS
 62
     7
 10
394.4282838125
 20
107.4116452353
 30
0.0
 11
394.3377258059
 21
107.2454837127
 31
0.0
  0
ARC
  5
63D
 67
     1
  8
0
  6
CONTINUOUS
 62
     7
 10
391.1582957019
 20
104.4791245561
 30
0.0
 40
4.377573334739326
 50
63.8929484054
 51
90.6773518268
  0
LINE
  5
63E
 67
     1
  8
0
  6
CONTINUOUS
 62
     7
 10
393.0846454906
 20
108.4100690726
 30
0.0
 11
396.1147321541
 21
108.459929882
 31
0.0
  0
LINE
  5
63F
 67
     1
  8
0
  6
CONTINUOUS
 62
     7
 10
390.9302935182
 20
110.1988969234
 30
0.0
 11
395.875746891
 21
110.2802755554
 31
0.0
  0
LINE
  5
640
 67
     1
  8
0
  6
CONTINUOUS
 62
     7
 10
396.1147321541
 20
108.459929882
 30
0.0
 11
395.875746891
 21
110.2802755554
 31
0.0
  0
ARC
  5
641
 67
     1
  8
0
  6
CONTINUOUS
 62
     7
 10
396.0762102066
 20
110.9433224365
 30
0.0
 40
2.483691309379735
 50
270.8886907559
 51
281.0700000649
  0
LINE
  5
642
 67
     1
  8
0
  6
CONTINUOUS
 62
     7
 10
396.5530991494
 20
108.5058443429
 30
0.0
 11
396.0213383365
 21
107.5301361793
 31
0.0
  0
ARC
  5
643
 67
     1
  8
0
  6
CONTINUOUS
 62
     7
 10
395.8680425016
 20
110.7769540663
 30
0.0
 40
0.4967382618749439
 50
270.8886907559
 51
281.0700000649
  0
LINE
  5
644
 67
     1
  8
0
  6
CONTINUOUS
 62
     7
 10
396.5530991494
 20
108.5058443429
 30
0.0
 11
395.9634202901
 21
110.2894584476
 31
0.0
  0
LINE
  5
645
 67
     1
  8
0
  6
CONTINUOUS
 62
     7
 10
396.0807987736
 20
107.6392379267
 30
0.0
 11
404.8664709624
 21
109.6383971167
 31
0.0
  0
LINE
  5
646
 67
     1
  8
0
  6
CONTINUOUS
 62
     7
 10
404.8664709624
 20
109.6383971167
 30
0.0
 11
404.5443457355
 21
107.9391265067
 31
0.0
  0
LINE
  5
647
 67
     1
  8
0
  6
CONTINUOUS
 62
     7
 10
404.5443457355
 20
107.9391265067
 30
0.0
 11
396.6889071479
 21
106.1516398003
 31
0.0
  0
LINE
  5
648
 67
     1
  8
0
  6
CONTINUOUS
 62
     7
 10
396.417802371
 20
108.9150793672
 30
0.0
 11
404.463396358
 21
110.7458354907
 31
0.0
  0
LINE
  5
649
 67
     1
  8
0
  6
CONTINUOUS
 62
     7
 10
404.463396358
 20
110.7458354907
 30
0.0
 11
404.8664709624
 21
109.6383971167
 31
0.0
  0
ARC
  5
64A
 67
     1
  8
0
  6
CONTINUOUS
 62
     7
 10
388.0530890953
 20
110.2154724076
 30
0.0
 40
17.484064791851
 50
7.3505856004
 51
19.8018483969
  0
LINE
  5
64B
 67
     1
  8
0
  6
CONTINUOUS
 62
     7
 10
404.5033183485
 20
116.1385188501
 30
0.0
 11
406.3419371874
 21
116.5568922733
 31
0.0
  0
ARC
  5
64C
 67
     1
  8
0
  6
CONTINUOUS
 62
     7
 10
389.8917079341
 20
110.6338458308
 30
0.0
 40
17.48406479185489
 50
7.3505856004
 51
19.8018483969
  0
LINE
  5
64D
 67
     1
  8
0
  6
CONTINUOUS
 62
     7
 10
407.2320864531
 20
112.8707621151
 30
0.0
 11
405.3934676143
 21
112.4523886919
 31
0.0
  0
LINE
  5
64E
 67
     1
  8
0
  6
CONTINUOUS
 62
     7
 10
400.27989919
 20
121.5399418678
 30
0.0
 11
399.7819045269
 21
120.6261899581
 31
0.0
  0
POLYLINE
  5
64F
 67
     1
  8
0
  6
CONTINUOUS
 62
     7
 66
     1
 10
0.0
 20
0.0
 30
0.0
 70
   128
  0
VERTEX
  5
82C
 67
     1
  8
0
  6
CONTINUOUS
 62
     7
 10
403.5681852663
 20
118.7077758779
 30
0.0
  0
VERTEX
  5
82D
 67
     1
  8
0
  6
CONTINUOUS
 62
     7
 10
403.2790635168
 20
119.4390006227
 30
0.0
  0
VERTEX
  5
82E
 67
     1
  8
0
  6
CONTINUOUS
 62
     7
 10
402.9682735261
 20
120.1047820646
 30
0.0
  0
VERTEX
  5
82F
 67
     1
  8
0
  6
CONTINUOUS
 62
     7
 10
402.6421420821
 20
120.6915668132
 30
0.0
  0
VERTEX
  5
830
 67
     1
  8
0
  6
CONTINUOUS
 62
     7
 10
402.3073082806
 20
121.1874096232
 30
0.0
  0
VERTEX
  5
831
 67
     1
  8
0
  6
CONTINUOUS
 62
     7
 10
401.9705883721
 20
121.5822165648
 30
0.0
  0
VERTEX
  5
832
 67
     1
  8
0
  6
CONTINUOUS
 62
     7
 10
401.6388370029
 20
121.8679505074
 30
0.0
  0
VERTEX
  5
833
 67
     1
  8
0
  6
CONTINUOUS
 62
     7
 10
401.3188076743
 20
122.0387947318
 30
0.0
  0
VERTEX
  5
834
 67
     1
  8
0
  6
CONTINUOUS
 62
     7
 10
401.0170152604
 20
122.0912713422
 30
0.0
  0
VERTEX
  5
835
 67
     1
  8
0
  6
CONTINUOUS
 62
     7
 10
400.7396033846
 20
122.0243120663
 30
0.0
  0
VERTEX
  5
836
 67
     1
  8
0
  6
CONTINUOUS
 62
     7
 10
400.4922193527
 20
121.8392800017
 30
0.0
  0
VERTEX
  5
837
 67
     1
  8
0
  6
CONTINUOUS
 62
     7
 10
400.27989919
 20
121.5399418678
 30
0.0
  0
SEQEND
  5
8D1
 67
     1
  8
0
  6
CONTINUOUS
 62
     7
  0
LINE
  5
650
 67
     1
  8
0
  6
CONTINUOUS
 62
     7
 10
404.5033183485
 20
116.1385188501
 30
0.0
 11
403.5681852663
 21
118.7077758779
 31
0.0
  0
POLYLINE
  5
651
 67
     1
  8
0
  6
CONTINUOUS
 62
     7
 66
     1
 10
0.0
 20
0.0
 30
0.0
 70
   128
  0
VERTEX
  5
838
 67
     1
  8
0
  6
CONTINUOUS
 62
     7
 10
404.4153108488
 20
111.2117126741
 30
0.0
  0
VERTEX
  5
839
 67
     1
  8
0
  6
CONTINUOUS
 62
     7
 10
404.2682224415
 20
111.0325086967
 30
0.0
  0
VERTEX
  5
83A
 67
     1
  8
0
  6
CONTINUOUS
 62
     7
 10
404.0884323515
 20
110.9704275319
 30
0.0
  0
VERTEX
  5
83B
 67
     1
  8
0
  6
CONTINUOUS
 62
     7
 10
403.8843473637
 20
111.0283720261
 30
0.0
  0
VERTEX
  5
83C
 67
     1
  8
0
  6
CONTINUOUS
 62
     7
 10
403.6655102652
 20
111.203632759
 30
0.0
  0
VERTEX
  5
83D
 67
     1
  8
0
  6
CONTINUOUS
 62
     7
 10
403.4421536356
 20
111.4880147336
 30
0.0
  0
VERTEX
  5
83E
 67
     1
  8
0
  6
CONTINUOUS
 62
     7
 10
403.2247213827
 20
111.8682205648
 30
0.0
  0
VERTEX
  5
83F
 67
     1
  8
0
  6
CONTINUOUS
 62
     7
 10
403.0233803968
 20
112.3264722506
 30
0.0
  0
VERTEX
  5
840
 67
     1
  8
0
  6
CONTINUOUS
 62
     7
 10
402.8475451587
 20
112.8413424513
 30
0.0
  0
VERTEX
  5
841
 67
     1
  8
0
  6
CONTINUOUS
 62
     7
 10
402.7054375288
 20
113.3887564087
 30
0.0
  0
VERTEX
  5
842
 67
     1
  8
0
  6
CONTINUOUS
 62
     7
 10
402.6037023018
 20
113.9431176545
 30
0.0
  0
VERTEX
  5
843
 67
     1
  8
0
  6
CONTINUOUS
 62
     7
 10
402.547096504
 20
114.478504873
 30
0.0
  0
VERTEX
  5
844
 67
     1
  8
0
  6
CONTINUOUS
 62
     7
 10
402.5382669595
 20
114.9698839529
 30
0.0
  0
VERTEX
  5
845
 67
     1
  8
0
  6
CONTINUOUS
 62
     7
 10
402.5776265279
 20
115.3942785545
 30
0.0
  0
VERTEX
  5
846
 67
     1
  8
0
  6
CONTINUOUS
 62
     7
 10
402.6633347997
 20
115.731844458
 30
0.0
  0
VERTEX
  5
847
 67
     1
  8
0
  6
CONTINUOUS
 62
     7
 10
402.7913841512
 20
115.9667974568
 30
0.0
  0
VERTEX
  5
848
 67
     1
  8
0
  6
CONTINUOUS
 62
     7
 10
402.9557871372
 20
116.08815141
 30
0.0
  0
VERTEX
  5
849
 67
     1
  8
0
  6
CONTINUOUS
 62
     7
 10
403.1488564567
 20
116.0902319414
 30
0.0
  0
VERTEX
  5
84A
 67
     1
  8
0
  6
CONTINUOUS
 62
     7
 10
403.3615644029
 20
115.9729417679
 30
0.0
  0
VERTEX
  5
84B
 67
     1
  8
0
  6
CONTINUOUS
 62
     7
 10
403.5839649887
 20
115.7417652474
 30
0.0
  0
VERTEX
  5
84C
 67
     1
  8
0
  6
CONTINUOUS
 62
     7
 10
403.8056590099
 20
115.4075119373
 30
0.0
  0
VERTEX
  5
84D
 67
     1
  8
0
  6
CONTINUOUS
 62
     7
 10
404.0162803003
 20
114.9858111507
 30
0.0
  0
VERTEX
  5
84E
 67
     1
  8
0
  6
CONTINUOUS
 62
     7
 10
404.2059804427
 20
114.4963811479
 30
0.0
  0
VERTEX
  5
84F
 67
     1
  8
0
  6
CONTINUOUS
 62
     7
 10
404.3658892691
 20
113.9621071316
 30
0.0
  0
VERTEX
  5
850
 67
     1
  8
0
  6
CONTINUOUS
 62
     7
 10
404.4885296205
 20
113.4079711612
 30
0.0
  0
VERTEX
  5
851
 67
     1
  8
0
  6
CONTINUOUS
 62
     7
 10
404.5681669705
 20
112.8598840188
 30
0.0
  0
VERTEX
  5
852
 67
     1
  8
0
  6
CONTINUOUS
 62
     7
 10
404.601077565
 20
112.3434736499
 30
0.0
  0
VERTEX
  5
853
 67
     1
  8
0
  6
CONTINUOUS
 62
     7
 10
404.5857225412
 20
111.8828868294
 30
0.0
  0
VERTEX
  5
854
 67
     1
  8
0
  6
CONTINUOUS
 62
     7
 10
404.522819883
 20
111.4996600853
 30
0.0
  0
VERTEX
  5
855
 67
     1
  8
0
  6
CONTINUOUS
 62
     7
 10
404.4153108488
 20
111.2117126741
 30
0.0
  0
SEQEND
  5
8D2
 67
     1
  8
0
  6
CONTINUOUS
 62
     7
  0
ARC
  5
652
 67
     1
  8
0
  6
CONTINUOUS
 62
     7
 10
404.1521349544
 20
109.9225263592
 30
0.0
 40
2.021807179656739
 50
281.1857399846
 51
9.3323984869
  0
LINE
  5
653
 67
     1
  8
0
  6
CONTINUOUS
 62
     7
 10
406.1392861441
 20
110.297168807
 30
0.0
 11
407.2902139418
 21
112.4089634724
 31
0.0
  0
LINE
  5
654
 67
     1
  8
0
  6
CONTINUOUS
 62
     7
 10
407.2902139418
 20
112.4089634724
 30
0.0
 11
407.2320864531
 21
112.8707621151
 31
0.0
  0
ARC
  5
655
 67
     1
  8
0
  6
CONTINUOUS
 62
     7
 10
389.0093923708
 20
82.2362163299
 30
0.0
 40
2.073040565979392
 50
281.7048365134
 51
330.7979572502
  0
LINE
  5
656
 67
     1
  8
0
  6
CONTINUOUS
 62
     7
 10
404.5443457355
 20
107.9391265067
 30
0.0
 11
389.4299500148
 21
80.2062832137
 31
0.0
  0
LINE
  5
657
 67
     1
  8
0
  6
CONTINUOUS
 62
     7
 10
405.3693422478
 20
112.2944310306
 30
0.0
 11
405.3934676143
 21
112.4523886919
 31
0.0
  0
LINE
  5
658
 67
     1
  8
0
  6
CONTINUOUS
 62
     7
 10
404.7823844397
 20
111.2174439507
 30
0.0
 11
405.3693422478
 21
112.2944310306
 31
0.0
  0
ARC
  5
659
 67
     1
  8
0
  6
CONTINUOUS
 62
     7
 10
404.3848261182
 20
111.142662422
 30
0.0
 40
0.4045304636761859
 50
281.1994986431
 51
10.6529741217
  0
LINE
  5
65A
 67
     1
  8
0
  6
CONTINUOUS
 62
     7
 10
407.2902139418
 20
112.4089634724
 30
0.0
 11
405.3693422478
 21
112.2944310306
 31
0.0
  0
LINE
  5
65B
 67
     1
  8
0
  6
CONTINUOUS
 62
     7
 10
405.9829292484
 20
111.2890267269
 30
0.0
 11
404.7823844397
 21
111.2174439507
 31
0.0
  0
LINE
  5
65C
 67
     1
  8
0
  6
CONTINUOUS
 62
     7
 10
403.5681852663
 20
118.7077758779
 30
0.0
 11
405.4068041051
 21
119.126149301
 31
0.0
  0
LINE
  5
65D
 67
     1
  8
0
  6
CONTINUOUS
 62
     7
 10
405.4068041051
 20
119.126149301
 30
0.0
 11
406.3419371874
 21
116.5568922733
 31
0.0
  0
LINE
  5
65E
 67
     1
  8
0
  6
CONTINUOUS
 62
     7
 10
383.4478374613
 20
78.8450674717
 30
0.0
 11
389.4299500148
 21
80.2062832137
 31
0.0
  0
POLYLINE
  5
65F
 67
     1
  8
0
  6
CONTINUOUS
 62
     7
 66
     1
 10
0.0
 20
0.0
 30
0.0
 70
   128
  0
VERTEX
  5
856
 67
     1
  8
0
  6
CONTINUOUS
 62
     7
 10
402.7220200494
 20
122.4930604158
 30
0.0
  0
VERTEX
  5
857
 67
     1
  8
0
  6
CONTINUOUS
 62
     7
 10
402.8556340993
 20
122.5096447654
 30
0.0
  0
VERTEX
  5
858
 67
     1
  8
0
  6
CONTINUOUS
 62
     7
 10
403.1574265131
 20
122.457168155
 30
0.0
  0
VERTEX
  5
859
 67
     1
  8
0
  6
CONTINUOUS
 62
     7
 10
403.4774558417
 20
122.2863239306
 30
0.0
  0
VERTEX
  5
85A
 67
     1
  8
0
  6
CONTINUOUS
 62
     7
 10
403.8092072109
 20
122.000589988
 30
0.0
  0
VERTEX
  5
85B
 67
     1
  8
0
  6
CONTINUOUS
 62
     7
 10
404.1459271194
 20
121.6057830463
 30
0.0
  0
VERTEX
  5
85C
 67
     1
  8
0
  6
CONTINUOUS
 62
     7
 10
404.480760921
 20
121.1099402363
 30
0.0
  0
VERTEX
  5
85D
 67
     1
  8
0
  6
CONTINUOUS
 62
     7
 10
404.806892365
 20
120.5231554878
 30
0.0
  0
VERTEX
  5
85E
 67
     1
  8
0
  6
CONTINUOUS
 62
     7
 10
405.1176823557
 20
119.8573740459
 30
0.0
  0
VERTEX
  5
85F
 67
     1
  8
0
  6
CONTINUOUS
 62
     7
 10
405.4068041051
 20
119.126149301
 30
0.0
  0
SEQEND
  5
8D3
 67
     1
  8
0
  6
CONTINUOUS
 62
     7
  0
POLYLINE
  5
660
 67
     1
  8
0
  6
CONTINUOUS
 62
     7
 66
     1
 10
0.0
 20
0.0
 30
0.0
 70
   128
  0
VERTEX
  5
860
 67
     1
  8
0
  6
CONTINUOUS
 62
     7
 10
404.2646952826
 20
113.1517837587
 30
0.0
  0
VERTEX
  5
861
 67
     1
  8
0
  6
CONTINUOUS
 62
     7
 10
404.4222986355
 20
112.7876600879
 30
0.0
  0
VERTEX
  5
862
 67
     1
  8
0
  6
CONTINUOUS
 62
     7
 10
404.5953793205
 20
112.5118017467
 30
0.0
  0
SEQEND
  5
8D4
 67
     1
  8
0
  6
CONTINUOUS
 62
     7
  0
ARC
  5
661
 67
     1
  8
0
  6
CONTINUOUS
 62
     7
 10
407.4746460136
 20
114.4337917687
 30
0.0
 40
3.456490739624766
 50
172.1469535201
 51
201.7710546884
  0
ARC
  5
662
 67
     1
  8
0
  6
CONTINUOUS
 62
     7
 10
404.5914751231
 20
111.0272913765
 30
0.0
 40
1.415856622866178
 50
281.1994986431
 51
10.6529741217
  0
POLYLINE
  5
663
 67
     1
  8
0
  6
CONTINUOUS
 62
     7
 66
     1
 10
0.0
 20
0.0
 30
0.0
 70
   128
  0
VERTEX
  5
863
 67
     1
  8
0
  6
CONTINUOUS
 62
     7
 10
382.8635133661
 20
77.7766706235
 30
0.0
  0
VERTEX
  5
864
 67
     1
  8
0
  6
CONTINUOUS
 62
     7
 10
382.7582018893
 20
77.5820168829
 30
0.0
  0
VERTEX
  5
865
 67
     1
  8
0
  6
CONTINUOUS
 62
     7
 10
382.336845005
 20
76.97702438
 30
0.0
  0
VERTEX
  5
866
 67
     1
  8
0
  6
CONTINUOUS
 62
     7
 10
381.8146100068
 20
76.4490015985
 30
0.0
  0
VERTEX
  5
867
 67
     1
  8
0
  6
CONTINUOUS
 62
     7
 10
381.2036401939
 20
76.0102264185
 30
0.0
  0
VERTEX
  5
868
 67
     1
  8
0
  6
CONTINUOUS
 62
     7
 10
380.5181421773
 20
75.6709014853
 30
0.0
  0
VERTEX
  5
869
 67
     1
  8
0
  6
CONTINUOUS
 62
     7
 10
379.7740555389
 20
75.4389169713
 30
0.0
  0
VERTEX
  5
86A
 67
     1
  8
0
  6
CONTINUOUS
 62
     7
 10
378.9886821961
 20
75.3196671098
 30
0.0
  0
VERTEX
  5
86B
 67
     1
  8
0
  6
CONTINUOUS
 62
     7
 10
378.1802840878
 20
75.315924765
 30
0.0
  0
VERTEX
  5
86C
 67
     1
  8
0
  6
CONTINUOUS
 62
     7
 10
377.3676585375
 20
75.4277769561
 30
0.0
  0
VERTEX
  5
86D
 67
     1
  8
0
  6
CONTINUOUS
 62
     7
 10
376.5697011678
 20
75.6526228336
 30
0.0
  0
VERTEX
  5
86E
 67
     1
  8
0
  6
CONTINUOUS
 62
     7
 10
375.8049665281
 20
75.9852341557
 30
0.0
  0
VERTEX
  5
86F
 67
     1
  8
0
  6
CONTINUOUS
 62
     7
 10
375.0912366547
 20
76.4178768585
 30
0.0
  0
VERTEX
  5
870
 67
     1
  8
0
  6
CONTINUOUS
 62
     7
 10
374.4451075927
 20
76.9404908927
 30
0.0
  0
VERTEX
  5
871
 67
     1
  8
0
  6
CONTINUOUS
 62
     7
 10
373.8816034952
 20
77.5409241454
 30
0.0
  0
VERTEX
  5
872
 67
     1
  8
0
  6
CONTINUOUS
 62
     7
 10
373.4138272737
 20
78.2052150077
 30
0.0
  0
VERTEX
  5
873
 67
     1
  8
0
  6
CONTINUOUS
 62
     7
 10
373.0526559217
 20
78.9179170182
 30
0.0
  0
VERTEX
  5
874
 67
     1
  8
0
  6
CONTINUOUS
 62
     7
 10
372.8064875968
 20
79.6624580323
 30
0.0
  0
VERTEX
  5
875
 67
     1
  8
0
  6
CONTINUOUS
 62
     7
 10
372.6810463423
 20
80.4215255673
 30
0.0
  0
VERTEX
  5
876
 67
     1
  8
0
  6
CONTINUOUS
 62
     7
 10
372.679248988
 20
81.1774693616
 30
0.0
  0
VERTEX
  5
877
 67
     1
  8
0
  6
CONTINUOUS
 62
     7
 10
372.8011373272
 20
81.9127117886
 30
0.0
  0
VERTEX
  5
878
 67
     1
  8
0
  6
CONTINUOUS
 62
     7
 10
373.0438771441
 20
82.6101565814
 30
0.0
  0
VERTEX
  5
879
 67
     1
  8
0
  6
CONTINUOUS
 62
     7
 10
373.2518775851
 20
83.0150107816
 30
0.0
  0
SEQEND
  5
8D5
 67
     1
  8
0
  6
CONTINUOUS
 62
     7
  0
POLYLINE
  5
664
 67
     1
  8
0
  6
CONTINUOUS
 62
     7
 66
     1
 10
0.0
 20
0.0
 30
0.0
 70
   128
  0
VERTEX
  5
87A
 67
     1
  8
0
  6
CONTINUOUS
 62
     7
 10
368.6962409501
 20
74.6598000661
 30
0.0
  0
VERTEX
  5
87B
 67
     1
  8
0
  6
CONTINUOUS
 62
     7
 10
368.5490363271
 20
74.3627401245
 30
0.0
  0
VERTEX
  5
87C
 67
     1
  8
0
  6
CONTINUOUS
 62
     7
 10
368.3062965102
 20
73.6652953317
 30
0.0
  0
VERTEX
  5
87D
 67
     1
  8
0
  6
CONTINUOUS
 62
     7
 10
368.1844081711
 20
72.9300529047
 30
0.0
  0
VERTEX
  5
87E
 67
     1
  8
0
  6
CONTINUOUS
 62
     7
 10
368.1862055253
 20
72.1741091104
 30
0.0
  0
VERTEX
  5
87F
 67
     1
  8
0
  6
CONTINUOUS
 62
     7
 10
368.3116467799
 20
71.4150415754
 30
0.0
  0
VERTEX
  5
880
 67
     1
  8
0
  6
CONTINUOUS
 62
     7
 10
368.5578151047
 20
70.6705005613
 30
0.0
  0
VERTEX
  5
881
 67
     1
  8
0
  6
CONTINUOUS
 62
     7
 10
368.9189864567
 20
69.9577985508
 30
0.0
  0
VERTEX
  5
882
 67
     1
  8
0
  6
CONTINUOUS
 62
     7
 10
369.3867626783
 20
69.2935076885
 30
0.0
  0
VERTEX
  5
883
 67
     1
  8
0
  6
CONTINUOUS
 62
     7
 10
369.9502667758
 20
68.6930744358
 30
0.0
  0
VERTEX
  5
884
 67
     1
  8
0
  6
CONTINUOUS
 62
     7
 10
370.5963958378
 20
68.1704604016
 30
0.0
  0
VERTEX
  5
885
 67
     1
  8
0
  6
CONTINUOUS
 62
     7
 10
371.3101257111
 20
67.7378176988
 30
0.0
  0
VERTEX
  5
886
 67
     1
  8
0
  6
CONTINUOUS
 62
     7
 10
372.0748603508
 20
67.4052063767
 30
0.0
  0
VERTEX
  5
887
 67
     1
  8
0
  6
CONTINUOUS
 62
     7
 10
372.8728177206
 20
67.1803604992
 30
0.0
  0
VERTEX
  5
888
 67
     1
  8
0
  6
CONTINUOUS
 62
     7
 10
373.6854432708
 20
67.0685083081
 30
0.0
  0
VERTEX
  5
889
 67
     1
  8
0
  6
CONTINUOUS
 62
     7
 10
374.4938413791
 20
67.0722506528
 30
0.0
  0
VERTEX
  5
88A
 67
     1
  8
0
  6
CONTINUOUS
 62
     7
 10
375.2792147219
 20
67.1915005143
 30
0.0
  0
VERTEX
  5
88B
 67
     1
  8
0
  6
CONTINUOUS
 62
     7
 10
376.0233013603
 20
67.4234850284
 30
0.0
  0
VERTEX
  5
88C
 67
     1
  8
0
  6
CONTINUOUS
 62
     7
 10
376.708799377
 20
67.7628099616
 30
0.0
  0
VERTEX
  5
88D
 67
     1
  8
0
  6
CONTINUOUS
 62
     7
 10
377.3197691898
 20
68.2015851415
 30
0.0
  0
VERTEX
  5
88E
 67
     1
  8
0
  6
CONTINUOUS
 62
     7
 10
377.842004188
 20
68.729607923
 30
0.0
  0
VERTEX
  5
88F
 67
     1
  8
0
  6
CONTINUOUS
 62
     7
 10
378.2633610723
 20
69.334600426
 30
0.0
  0
VERTEX
  5
890
 67
     1
  8
0
  6
CONTINUOUS
 62
     7
 10
378.3110346694
 20
69.4197388322
 30
0.0
  0
SEQEND
  5
8D6
 67
     1
  8
0
  6
CONTINUOUS
 62
     7
  0
LINE
  5
665
 67
     1
  8
0
  6
CONTINUOUS
 62
     7
 10
389.4299500148
 20
80.2062832137
 30
0.0
 11
388.6241352625
 21
79.8359386525
 31
0.0
  0
LINE
  5
666
 67
     1
  8
0
  6
CONTINUOUS
 62
     7
 10
388.6241352625
 20
79.8359386525
 30
0.0
 11
383.3315047737
 21
78.6316129443
 31
0.0
  0
POLYLINE
  5
667
 67
     1
  8
0
  6
CONTINUOUS
 62
     7
 66
     1
 10
0.0
 20
0.0
 30
0.0
 70
   128
  0
VERTEX
  5
891
 67
     1
  8
0
  6
CONTINUOUS
 62
     7
 10
388.9170846606
 20
79.9326533541
 30
0.0
  0
VERTEX
  5
892
 67
     1
  8
0
  6
CONTINUOUS
 62
     7
 10
388.895968768
 20
79.9235037624
 30
0.0
  0
VERTEX
  5
893
 67
     1
  8
0
  6
CONTINUOUS
 62
     7
 10
388.6241352625
 20
79.8359386525
 30
0.0
  0
SEQEND
  5
8D7
 67
     1
  8
0
  6
CONTINUOUS
 62
     7
  0
LINE
  5
668
 67
     1
  8
0
  6
CONTINUOUS
 62
     8
 10
384.6130338448
 20
111.4483450179
 30
0.0
 11
384.2682928127
 21
111.3699000011
 31
0.0
  0
LINE
  5
669
 67
     1
  8
0
  6
CONTINUOUS
 62
     8
 10
384.4786274116
 20
105.1065451664
 30
0.0
 11
385.4045381587
 21
105.3172339947
 31
0.0
  0
LINE
  5
66A
 67
     1
  8
0
  6
CONTINUOUS
 62
     8
 10
381.4548019031
 20
105.6534225387
 30
0.0
 11
381.110060871
 21
105.5749775219
 31
0.0
  0
LINE
  5
66B
 67
     1
  8
0
  6
CONTINUOUS
 62
     8
 10
381.3203954699
 20
99.3116226873
 30
0.0
 11
382.247155649
 21
99.5225048018
 31
0.0
  0
LINE
  5
66C
 67
     1
  8
0
  6
CONTINUOUS
 62
     8
 10
378.2965699615
 20
99.8585000596
 30
0.0
 11
377.9518289294
 21
99.7800550428
 31
0.0
  0
LINE
  5
66D
 67
     1
  8
0
  6
CONTINUOUS
 62
     8
 10
378.1621635282
 20
93.5167002081
 30
0.0
 11
379.0880742754
 21
93.7273890364
 31
0.0
  0
LINE
  5
66E
 67
     1
  8
0
  6
CONTINUOUS
 62
     8
 10
396.1147321541
 20
108.459929882
 30
0.0
 11
395.785662529
 21
107.8561322501
 31
0.0
  0
LINE
  5
66F
 67
     1
  8
0
  6
CONTINUOUS
 62
     8
 10
405.3934676143
 20
112.4523886919
 30
0.0
 11
404.463396358
 21
110.7458354907
 31
0.0
  0
LINE
  5
670
 67
     1
  8
0
  6
CENTERX2
 62
     7
 10
390.2552066727
 20
102.7766009291
 30
0.0
 11
392.5077662862
 21
106.9097388939
 31
0.0
  0
ENDSEC
  0
EOF
