  0
SECTION
  2
HEADER
  9
$ACADVER
  1
AC1009
  9
$DWGCODEPAGE
  3
ansi_1252
  9
$INSBASE
 10
0.0
 20
0.0
 30
0.0
  9
$EXTMIN
 10
0.0
 20
0.0
 30
0.0
  9
$EXTMAX
 10
420.0
 20
297.0
 30
0.0
  9
$LIMMIN
 10
0.0
 20
0.0
  9
$LIMMAX
 10
420.0
 20
297.0
  9
$ORTHOMODE
 70
     0
  9
$REGENMODE
 70
     1
  9
$FILLMODE
 70
     1
  9
$QTEXTMODE
 70
     0
  9
$MIRRTEXT
 70
     1
  9
$DRAGMODE
 70
     2
  9
$LTSCALE
 40
1.0
  9
$OSMODE
 70
    37
  9
$ATTMODE
 70
     1
  9
$TEXTSIZE
 40
3.5
  9
$TRACEWID
 40
1.0
  9
$TEXTSTYLE
  7
STANDARD
  9
$CLAYER
  8
0
  9
$CELTYPE
  6
BYLAYER
  9
$CECOLOR
 62
   256
  9
$DIMSCALE
 40
1.0
  9
$DIMASZ
 40
3.3
  9
$DIMEXO
 40
1.0
  9
$DIMDLI
 40
3.75
  9
$DIMRND
 40
0.0
  9
$DIMDLE
 40
0.0
  9
$DIMEXE
 40
1.0
  9
$DIMTP
 40
0.0
  9
$DIMTM
 40
0.0
  9
$DIMTXT
 40
3.5277777778
  9
$DIMCEN
 40
2.5
  9
$DIMTSZ
 40
0.0
  9
$DIMTOL
 70
     0
  9
$DIMLIM
 70
     0
  9
$DIMTIH
 70
     1
  9
$DIMTOH
 70
     1
  9
$DIMSE1
 70
     0
  9
$DIMSE2
 70
     0
  9
$DIMTAD
 70
     1
  9
$DIMZIN
 70
     0
  9
$DIMBLK
  1

  9
$DIMASO
 70
     1
  9
$DIMSHO
 70
     1
  9
$DIMPOST
  1

  9
$DIMAPOST
  1

  9
$DIMALT
 70
     0
  9
$DIMALTD
 70
     3
  9
$DIMALTF
 40
0.0393700787
  9
$DIMLFAC
 40
1.0
  9
$DIMTOFL
 70
     1
  9
$DIMTVP
 40
0.0
  9
$DIMTIX
 70
     0
  9
$DIMSOXD
 70
     0
  9
$DIMSAH
 70
     0
  9
$DIMBLK1
  1

  9
$DIMBLK2
  1

  9
$DIMSTYLE
  2
ISO-25
  9
$DIMCLRD
 70
     0
  9
$DIMCLRE
 70
     0
  9
$DIMCLRT
 70
     0
  9
$DIMTFAC
 40
1.0
  9
$DIMGAP
 40
1.524
  9
$LUNITS
 70
     2
  9
$LUPREC
 70
     2
  9
$SKETCHINC
 40
1.0
  9
$FILLETRAD
 40
10.0
  9
$AUNITS
 70
     0
  9
$AUPREC
 70
     2
  9
$MENU
  1
.
  9
$ELEVATION
 40
0.0
  9
$PELEVATION
 40
0.0
  9
$THICKNESS
 40
0.0
  9
$LIMCHECK
 70
     0
  9
$CHAMFERA
 40
0.0
  9
$CHAMFERB
 40
0.0
  9
$SKPOLY
 70
     0
  9
$TDCREATE
 40
2459641.677024201
  9
$TDUPDATE
 40
2459641.677120856
  9
$TDINDWG
 40
0.0000000116
  9
$TDUSRTIMER
 40
0.0000000116
  9
$USRTIMER
 70
     1
  9
$ANGBASE
 50
0.0
  9
$ANGDIR
 70
     0
  9
$PDMODE
 70
     0
  9
$PDSIZE
 40
-1.0
  9
$PLINEWID
 40
0.0
  9
$COORDS
 70
     1
  9
$SPLFRAME
 70
     0
  9
$SPLINETYPE
 70
     6
  9
$SPLINESEGS
 70
     8
  9
$ATTDIA
 70
     0
  9
$ATTREQ
 70
     1
  9
$HANDLING
 70
     1
  9
$HANDSEED
  5
3DA
  9
$SURFTAB1
 70
     6
  9
$SURFTAB2
 70
     6
  9
$SURFTYPE
 70
     6
  9
$SURFU
 70
     6
  9
$SURFV
 70
     6
  9
$UCSNAME
  2

  9
$UCSORG
 10
0.0
 20
0.0
 30
0.0
  9
$UCSXDIR
 10
1.0
 20
0.0
 30
0.0
  9
$UCSYDIR
 10
0.0
 20
1.0
 30
0.0
  9
$PUCSNAME
  2

  9
$PUCSORG
 10
0.0
 20
0.0
 30
0.0
  9
$PUCSXDIR
 10
1.0
 20
0.0
 30
0.0
  9
$PUCSYDIR
 10
0.0
 20
1.0
 30
0.0
  9
$USERI1
 70
     0
  9
$USERI2
 70
     0
  9
$USERI3
 70
     0
  9
$USERI4
 70
     0
  9
$USERI5
 70
     0
  9
$USERR1
 40
0.0
  9
$USERR2
 40
0.0
  9
$USERR3
 40
0.0
  9
$USERR4
 40
0.0
  9
$USERR5
 40
0.0
  9
$WORLDVIEW
 70
     1
  9
$SHADEDGE
 70
     3
  9
$SHADEDIF
 70
    70
  9
$TILEMODE
 70
     1
  9
$MAXACTVP
 70
    64
  9
$PLIMCHECK
 70
     0
  9
$PEXTMIN
 10
1.0000000000E+20
 20
1.0000000000E+20
 30
1.0000000000E+20
  9
$PEXTMAX
 10
-1.0000000000E+20
 20
-1.0000000000E+20
 30
-1.0000000000E+20
  9
$PLIMMIN
 10
0.0
 20
0.0
  9
$PLIMMAX
 10
420.0
 20
297.0
  9
$UNITMODE
 70
     0
  9
$VISRETAIN
 70
     1
  9
$PLINEGEN
 70
     0
  9
$PSLTSCALE
 70
     1
  0
ENDSEC
  0
SECTION
  2
TABLES
  0
TABLE
  2
VPORT
 70
     1
  0
VPORT
  2
*ACTIVE
 70
     0
 10
0.0
 20
0.0
 11
1.0
 21
1.0
 12
210.0
 22
148.5
 13
0.0
 23
0.0
 14
10.0
 24
10.0
 15
10.0
 25
10.0
 16
0.0
 26
0.0
 36
1.0
 17
0.0
 27
0.0
 37
0.0
 40
297.0
 41
1.4141414141
 42
50.0
 43
0.0
 44
0.0
 50
0.0
 51
0.0
 71
     0
 72
  2000
 73
     1
 74
     3
 75
     0
 76
     0
 77
     0
 78
     0
  0
ENDTAB
  0
TABLE
  2
LTYPE
 70
     6
  0
LTYPE
  2
CONTINUOUS
 70
     0
  3
Solid line
 72
    65
 73
     0
 40
0.0
  0
LTYPE
  2
HIDDEN
 70
     0
  3
Hidden __ __ __ __ __ __ __ __ __ __ __ __ __ __
 72
    65
 73
     2
 40
1.905
 49
1.27
 49
-0.635
  0
LTYPE
  2
PHANTOM
 70
     0
  3
Phantom ______  __  __  ______  __  __  ______
 72
    65
 73
     6
 40
12.7
 49
6.35
 49
-1.27
 49
1.27
 49
-1.27
 49
1.27
 49
-1.27
  0
LTYPE
  2
CENTER
 70
     0
  3
Center ____ _ ____ _ ____ _ ____ _ ____ _ ____
 72
    65
 73
     4
 40
10.16
 49
6.35
 49
-1.27
 49
1.27
 49
-1.27
  0
LTYPE
  2
CENTERX2
 70
     0
  3
Center (2x) ________  __  ________  __  _____
 72
    65
 73
     4
 40
20.32
 49
12.7
 49
-2.54
 49
2.54
 49
-2.54
  0
LTYPE
  2
DOT2
 70
     0
  3
Dot (.5x) ........................................
 72
    65
 73
     2
 40
0.635
 49
0.0
 49
-0.635
  0
ENDTAB
  0
TABLE
  2
LAYER
 70
     1
  0
LAYER
  2
0
 70
     0
 62
     7
  6
CONTINUOUS
  0
ENDTAB
  0
TABLE
  2
STYLE
 70
     1
  0
STYLE
  2
STANDARD
 70
     0
 40
0.0
 41
1.0
 50
0.0
 71
     0
 42
3.5
  3
txt
  4

  0
ENDTAB
  0
TABLE
  2
VIEW
 70
     0
  0
ENDTAB
  0
TABLE
  2
UCS
 70
     0
  0
ENDTAB
  0
TABLE
  2
APPID
 70
     1
  0
APPID
  2
ACAD
 70
     0
  0
ENDTAB
  0
TABLE
  2
DIMSTYLE
 70
     5
  0
DIMSTYLE
  2
ISO-25
 70
     0
  3

  4

  5

  6

  7

 40
1.0
 41
2.5
 42
0.625
 43
3.75
 44
1.25
 45
0.0
 46
0.0
 47
0.0
 48
0.0
140
2.5
141
2.5
142
0.0
143
0.0393700787
144
1.0
145
0.0
146
1.0
147
0.625
 71
     0
 72
     0
 73
     0
 74
     0
 75
     0
 76
     0
 77
     1
 78
     8
170
     0
171
     3
172
     1
173
     0
174
     0
175
     0
176
     0
177
     0
178
     0
  0
DIMSTYLE
  2
SLDDIMSTYLE0
 70
     0
  3

  4

  5

  6

  7

 40
1.0
 41
3.3
 42
0.0625
 43
0.38
 44
0.0
 45
0.000000001
 46
0.0
 47
0.0
 48
0.0
140
2.5683186849
141
0.09
142
0.0
143
25.4
144
1.0
145
0.0
146
1.0
147
0.6420796712
 71
     0
 72
     0
 73
     0
 74
     0
 75
     0
 76
     0
 77
     1
 78
    12
170
     0
171
     2
172
     0
173
     1
174
     0
175
     0
176
     0
177
     0
178
     0
  0
DIMSTYLE
  2
SLDDIMSTYLE1
 70
     0
  3

  4

  5

  6

  7

 40
1.0
 41
3.3
 42
0.0625
 43
0.38
 44
0.0
 45
0.000000001
 46
0.0
 47
0.0
 48
0.0
140
2.5683186849
141
0.09
142
0.0
143
25.4
144
1.0
145
0.0
146
1.0
147
0.6420796712
 71
     0
 72
     0
 73
     0
 74
     0
 75
     0
 76
     0
 77
     1
 78
    12
170
     0
171
     2
172
     1
173
     1
174
     0
175
     0
176
     0
177
     0
178
     0
  0
DIMSTYLE
  2
SLDDIMSTYLE2
 70
     0
  3

  4

  5

  6

  7

 40
1.0
 41
3.3
 42
0.0625
 43
0.38
 44
0.0
 45
0.000000001
 46
0.0
 47
0.0
 48
0.0
140
2.5683186849
141
0.0
142
0.0
143
25.4
144
1.0
145
0.0
146
1.0
147
0.6420796712
 71
     0
 72
     0
 73
     0
 74
     0
 75
     0
 76
     0
 77
     1
 78
    12
170
     0
171
     2
172
     0
173
     1
174
     0
175
     0
176
     0
177
     0
178
     0
  0
DIMSTYLE
  2
SLDDIMSTYLE3
 70
     0
  3

  4

  5

  6
NONE
  7

 40
1.0
 41
3.3
 42
0.0625
 43
0.38
 44
0.0
 45
0.000000001
 46
0.0
 47
0.0
 48
0.0
140
2.5683186849
141
0.0
142
0.0
143
25.4
144
1.0
145
0.0
146
1.0
147
0.6420796712
 71
     0
 72
     0
 73
     0
 74
     0
 75
     0
 76
     0
 77
     1
 78
    12
170
     0
171
     2
172
     1
173
     1
174
     0
175
     0
176
     0
177
     0
178
     0
  0
ENDTAB
  0
ENDSEC
  0
SECTION
  2
BLOCKS
  0
BLOCK
  8
0
  2
$MODEL_SPACE
 70
     0
 10
0.0
 20
0.0
 30
0.0
  3
$MODEL_SPACE
  1

  0
ENDBLK
  5
21
  8
0
  0
BLOCK
 67
     1
  8
0
  2
$PAPER_SPACE
 70
     0
 10
0.0
 20
0.0
 30
0.0
  3
$PAPER_SPACE
  1

  0
ENDBLK
  5
1D
 67
     1
  8
0
  0
BLOCK
  8
0
  2
SW_NOTE_0
 70
     0
 10
0.0
 20
0.0
 30
0.0
  3
SW_NOTE_0
  1

  0
TEXT
  5
D0
  8
0
  6
CONTINUOUS
 62
     0
 10
0.0
 20
0.8831501548
 30
0.0
 40
2.5
  1
Maßstab:      
 41
0.55
 11
0.0
 21
0.0
 31
0.0
 73
     1
  0
TEXT
  5
D1
  8
0
  6
CONTINUOUS
 62
     0
 10
19.7052955627
 20
0.9475215793
 30
0.0
 40
3.5
  1
1:1
 41
0.7
 11
19.7052955627
 21
-0.2888886374
 31
0.0
 73
     1
  0
ENDBLK
  5
CF
  8
0
  0
BLOCK
  8
0
  2
SW_NOTE_0_1
 70
     0
 10
0.0
 20
0.0
 30
0.0
  3
SW_NOTE_0_1
  1

  0
TEXT
  5
E1
  8
0
  6
CONTINUOUS
 62
     0
 10
0.0
 20
0.8831501548
 30
0.0
 40
2.5
  1
Breuer & Schmitz
 41
0.65625
 11
0.0
 21
0.0
 31
0.0
 73
     1
  0
TEXT
  5
E2
  8
0
  6
CONTINUOUS
 62
     0
 10
0.6718747318
 20
-2.6168499532
 30
0.0
 40
2.5
  1
GmbH & Co. KG
 41
0.6192307692
 11
0.6718747318
 21
-3.500000108
 31
0.0
 73
     1
  0
TEXT
  5
E3
  8
0
  6
CONTINUOUS
 62
     0
 10
1.2413188815
 20
-6.1168500613
 30
0.0
 40
2.5
  1
Solingen - Wald
 41
0.6533333333
 11
1.2413188815
 21
-7.0000002161
 31
0.0
 73
     1
  0
TEXT
  5
E4
  8
0
  6
CONTINUOUS
 62
     0
 10
-0.7673613727
 20
-9.6168501693
 30
0.0
 40
2.5
  1
Baubeschlagfabrik
 41
0.7
 11
-0.7673613727
 21
-10.5000003241
 31
0.0
 73
     1
  0
ENDBLK
  5
E0
  8
0
  0
BLOCK
  8
0
  2
SW_NOTE_0_2
 70
     0
 10
0.0
 20
0.0
 30
0.0
  3
SW_NOTE_0_2
  1

  0
TEXT
  5
E9
  8
0
  6
CONTINUOUS
 62
     0
 10
0.0
 20
0.5608003483
 30
0.0
 40
1.5875
  1
Diese Zeichung ist unser Eigentum und darf weder
 41
0.6489583333
 11
0.0
 21
0.0
 31
0.0
 73
     1
  0
TEXT
  5
EA
  8
0
  6
CONTINUOUS
 62
     0
 10
0.0
 20
-1.5558662928
 30
0.0
 40
1.5875
  1
verwertet, vervielfältigt noch Dritten zugänglich 
 41
0.665
 11
0.0
 21
-2.1166666411
 31
0.0
 73
     1
  0
TEXT
  5
EB
  8
0
  6
CONTINUOUS
 62
     0
 10
0.0
 20
-3.6725329339
 30
0.0
 40
1.5875
  1
gemacht werden.
 41
0.7
 11
0.0
 21
-4.2333332822
 31
0.0
 73
     1
  0
TEXT
  5
EC
  8
0
  6
CONTINUOUS
 62
     0
 10
0.0
 20
-7.905866216
 30
0.0
 40
1.5875
  1
This drawing is our property and cannot either be 
 41
0.637
 11
0.0
 21
-8.4666665643
 31
0.0
 73
     1
  0
TEXT
  5
ED
  8
0
  6
CONTINUOUS
 62
     0
 10
0.0
 20
-10.0225328571
 30
0.0
 40
1.5875
  1
utilized for an other purpose or copied nor made 
 41
0.6357142857
 11
0.0
 21
-10.5833332054
 31
0.0
 73
     1
  0
TEXT
  5
EE
  8
0
  6
CONTINUOUS
 62
     0
 10
0.0
 20
-12.1391994982
 30
0.0
 40
1.5875
  1
available to a third.
 41
0.65
 11
0.0
 21
-12.6999998465
 31
0.0
 73
     1
  0
ENDBLK
  5
E8
  8
0
  0
BLOCK
  8
0
  2
_D
 70
     0
 10
0.0
 20
0.0
 30
0.0
  3
_D
  1

  0
SOLID
  5
14E
  8
0
  6
CONTINUOUS
 62
     7
 10
84.7137410482
 20
258.1594588283
 30
0.0
 11
84.2137410482
 21
254.8594588283
 31
0.0
 12
85.2137410482
 22
254.8594588283
 32
0.0
 13
85.2137410482
 23
254.8594588283
 33
0.0
  0
SOLID
  5
14F
  8
0
  6
CONTINUOUS
 62
     7
 10
84.7137410482
 20
97.8594588283
 30
0.0
 11
85.2137410482
 21
101.1594588283
 31
0.0
 12
84.2137410482
 22
101.1594588283
 32
0.0
 13
84.2137410482
 23
101.1594588283
 33
0.0
  0
LINE
  5
150
  8
0
  6
CONTINUOUS
 62
     7
 10
129.7637410482
 20
258.1594588283
 30
0.0
 11
83.7137410482
 21
258.1594588283
 31
0.0
  0
LINE
  5
151
  8
0
  6
CONTINUOUS
 62
     7
 10
129.7637410482
 20
97.8594588283
 30
0.0
 11
83.7137410482
 21
97.8594588283
 31
0.0
  0
LINE
  5
152
  8
0
  6
CONTINUOUS
 62
     7
 10
84.7137410482
 20
258.1594588283
 30
0.0
 11
84.7137410482
 21
97.8594588283
 31
0.0
  0
TEXT
  5
153
  8
0
  6
CONTINUOUS
 62
     7
 10
83.7790736264
 20
173.5997367758
 30
2.5
 40
2.6458333333
  1
160,3
 50
90.0
 41
0.7
 11
84.7137408735
 21
173.5997367758
 31
2.5
 73
     1
  0
ENDBLK
  5
14D
  8
0
  0
BLOCK
  8
0
  2
_D_1
 70
     0
 10
0.0
 20
0.0
 30
0.0
  3
_D_1
  1

  0
SOLID
  5
158
  8
0
  6
CONTINUOUS
 62
     7
 10
98.7137410482
 20
248.0094588283
 30
0.0
 11
98.2137410482
 21
244.7094588283
 31
0.0
 12
99.2137410482
 22
244.7094588283
 32
0.0
 13
99.2137410482
 23
244.7094588283
 33
0.0
  0
SOLID
  5
159
  8
0
  6
CONTINUOUS
 62
     7
 10
98.7137410482
 20
213.0094588283
 30
0.0
 11
99.2137410482
 21
216.3094588283
 31
0.0
 12
98.2137410482
 22
216.3094588283
 32
0.0
 13
98.2137410482
 23
216.3094588283
 33
0.0
  0
LINE
  5
15A
  8
0
  6
CONTINUOUS
 62
     7
 10
121.7137410482
 20
248.0094588283
 30
0.0
 11
97.7137410482
 21
248.0094588283
 31
0.0
  0
LINE
  5
15B
  8
0
  6
CONTINUOUS
 62
     7
 10
115.2137410482
 20
213.0094588283
 30
0.0
 11
97.7137410482
 21
213.0094588283
 31
0.0
  0
LINE
  5
15C
  8
0
  6
CONTINUOUS
 62
     7
 10
98.7137410482
 20
248.0094588283
 30
0.0
 11
98.7137410482
 21
213.0094588283
 31
0.0
  0
TEXT
  5
15D
  8
0
  6
CONTINUOUS
 62
     7
 10
97.7790736264
 20
228.5495822053
 30
2.5
 40
2.6458333333
  1
35
 50
90.0
 41
0.7
 11
98.7137408735
 21
228.5495822053
 31
2.5
 73
     1
  0
ENDBLK
  5
157
  8
0
  0
BLOCK
  8
0
  2
_D_2
 70
     0
 10
0.0
 20
0.0
 30
0.0
  3
_D_2
  1

  0
SOLID
  5
162
  8
0
  6
CONTINUOUS
 62
     7
 10
98.7137410482
 20
213.0094588283
 30
0.0
 11
98.2137410482
 21
209.7094588283
 31
0.0
 12
99.2137410482
 22
209.7094588283
 32
0.0
 13
99.2137410482
 23
209.7094588283
 33
0.0
  0
SOLID
  5
163
  8
0
  6
CONTINUOUS
 62
     7
 10
98.7137410482
 20
178.0094588283
 30
0.0
 11
99.2137410482
 21
181.3094588283
 31
0.0
 12
98.2137410482
 22
181.3094588283
 32
0.0
 13
98.2137410482
 23
181.3094588283
 33
0.0
  0
LINE
  5
164
  8
0
  6
CONTINUOUS
 62
     7
 10
115.2137410482
 20
213.0094588283
 30
0.0
 11
97.7137410482
 21
213.0094588283
 31
0.0
  0
LINE
  5
165
  8
0
  6
CONTINUOUS
 62
     7
 10
117.7137410482
 20
178.0094588283
 30
0.0
 11
97.7137410482
 21
178.0094588283
 31
0.0
  0
LINE
  5
166
  8
0
  6
CONTINUOUS
 62
     7
 10
98.7137410482
 20
213.0094588283
 30
0.0
 11
98.7137410482
 21
178.0094588283
 31
0.0
  0
TEXT
  5
167
  8
0
  6
CONTINUOUS
 62
     7
 10
97.7790736264
 20
193.5495822053
 30
2.5
 40
2.6458333333
  1
35
 50
90.0
 41
0.7
 11
98.7137408735
 21
193.5495822053
 31
2.5
 73
     1
  0
ENDBLK
  5
161
  8
0
  0
BLOCK
  8
0
  2
_D_3
 70
     0
 10
0.0
 20
0.0
 30
0.0
  3
_D_3
  1

  0
SOLID
  5
16C
  8
0
  6
CONTINUOUS
 62
     7
 10
98.7137410482
 20
178.0094588283
 30
0.0
 11
98.2137410482
 21
174.7094588283
 31
0.0
 12
99.2137410482
 22
174.7094588283
 32
0.0
 13
99.2137410482
 23
174.7094588283
 33
0.0
  0
SOLID
  5
16D
  8
0
  6
CONTINUOUS
 62
     7
 10
98.7137410482
 20
143.0094588283
 30
0.0
 11
99.2137410482
 21
146.3094588283
 31
0.0
 12
98.2137410482
 22
146.3094588283
 32
0.0
 13
98.2137410482
 23
146.3094588283
 33
0.0
  0
LINE
  5
16E
  8
0
  6
CONTINUOUS
 62
     7
 10
117.7137410482
 20
178.0094588283
 30
0.0
 11
97.7137410482
 21
178.0094588283
 31
0.0
  0
LINE
  5
16F
  8
0
  6
CONTINUOUS
 62
     7
 10
115.2137410482
 20
143.0094588283
 30
0.0
 11
97.7137410482
 21
143.0094588283
 31
0.0
  0
LINE
  5
170
  8
0
  6
CONTINUOUS
 62
     7
 10
98.7137410482
 20
178.0094588283
 30
0.0
 11
98.7137410482
 21
143.0094588283
 31
0.0
  0
TEXT
  5
171
  8
0
  6
CONTINUOUS
 62
     7
 10
97.7790736264
 20
158.5495822053
 30
2.5
 40
2.6458333333
  1
35
 50
90.0
 41
0.7
 11
98.7137408735
 21
158.5495822053
 31
2.5
 73
     1
  0
ENDBLK
  5
16B
  8
0
  0
BLOCK
  8
0
  2
_D_4
 70
     0
 10
0.0
 20
0.0
 30
0.0
  3
_D_4
  1

  0
SOLID
  5
176
  8
0
  6
CONTINUOUS
 62
     7
 10
98.7137410482
 20
143.0094588283
 30
0.0
 11
98.2137410482
 21
139.7094588283
 31
0.0
 12
99.2137410482
 22
139.7094588283
 32
0.0
 13
99.2137410482
 23
139.7094588283
 33
0.0
  0
SOLID
  5
177
  8
0
  6
CONTINUOUS
 62
     7
 10
98.7137410482
 20
108.0094588283
 30
0.0
 11
99.2137410482
 21
111.3094588283
 31
0.0
 12
98.2137410482
 22
111.3094588283
 32
0.0
 13
98.2137410482
 23
111.3094588283
 33
0.0
  0
LINE
  5
178
  8
0
  6
CONTINUOUS
 62
     7
 10
115.2137410482
 20
143.0094588283
 30
0.0
 11
97.7137410482
 21
143.0094588283
 31
0.0
  0
LINE
  5
179
  8
0
  6
CONTINUOUS
 62
     7
 10
121.7137410482
 20
108.0094588283
 30
0.0
 11
97.7137410482
 21
108.0094588283
 31
0.0
  0
LINE
  5
17A
  8
0
  6
CONTINUOUS
 62
     7
 10
98.7137410482
 20
143.0094588283
 30
0.0
 11
98.7137410482
 21
108.0094588283
 31
0.0
  0
TEXT
  5
17B
  8
0
  6
CONTINUOUS
 62
     7
 10
97.7790736264
 20
123.5495822053
 30
2.5
 40
2.6458333333
  1
35
 50
90.0
 41
0.7
 11
98.7137408735
 21
123.5495822053
 31
2.5
 73
     1
  0
ENDBLK
  5
175
  8
0
  0
BLOCK
  8
0
  2
_D_5
 70
     0
 10
0.0
 20
0.0
 30
0.0
  3
_D_5
  1

  0
SOLID
  5
181
  8
0
  6
CONTINUOUS
 62
     7
 10
122.7137410482
 20
277.3338492831
 30
0.0
 11
126.0137410482
 21
276.8338492831
 31
0.0
 12
126.0137410482
 22
277.8338492831
 32
0.0
 13
126.0137410482
 23
277.8338492831
 33
0.0
  0
SOLID
  5
182
  8
0
  6
CONTINUOUS
 62
     7
 10
108.7137410482
 20
277.3338492831
 30
0.0
 11
105.4137410482
 21
277.8338492831
 31
0.0
 12
105.4137410482
 22
276.8338492831
 32
0.0
 13
105.4137410482
 23
276.8338492831
 33
0.0
  0
LINE
  5
183
  8
0
  6
CONTINUOUS
 62
     7
 10
122.7137410482
 20
249.0094588283
 30
0.0
 11
122.7137410482
 21
278.3338492831
 31
0.0
  0
LINE
  5
184
  8
0
  6
CONTINUOUS
 62
     7
 10
108.7137410482
 20
247.0094588283
 30
0.0
 11
108.7137410482
 21
278.3338492831
 31
0.0
  0
LINE
  5
185
  8
0
  6
CONTINUOUS
 62
     7
 10
122.7137410482
 20
277.3338492831
 30
0.0
 11
128.9637410482
 21
277.3338492831
 31
0.0
  0
LINE
  5
186
  8
0
  6
CONTINUOUS
 62
     7
 10
122.7137410482
 20
277.3338492831
 30
0.0
 11
108.7137410482
 21
277.3338492831
 31
0.0
  0
LINE
  5
187
  8
0
  6
CONTINUOUS
 62
     7
 10
108.7137410482
 20
277.3338492831
 30
0.0
 11
102.4637410482
 21
277.3338492831
 31
0.0
  0
TEXT
  5
188
  8
0
  6
CONTINUOUS
 62
     7
 10
113.7538644252
 20
278.2685167049
 30
2.5
 40
2.6458333333
  1
14
 50
0.0
 41
0.7
 11
113.7538644252
 21
277.3338494577
 31
2.5
 73
     1
  0
ENDBLK
  5
180
  8
0
  0
BLOCK
  8
0
  2
_D_6
 70
     0
 10
0.0
 20
0.0
 30
0.0
  3
_D_6
  1

  0
SOLID
  5
18D
  8
0
  6
CONTINUOUS
 62
     7
 10
116.2137410482
 20
266.4283533073
 30
0.0
 11
119.5137410482
 21
265.9283533073
 31
0.0
 12
119.5137410482
 22
266.9283533073
 32
0.0
 13
119.5137410482
 23
266.9283533073
 33
0.0
  0
SOLID
  5
18E
  8
0
  6
CONTINUOUS
 62
     7
 10
108.7137410482
 20
266.4283533073
 30
0.0
 11
105.4137410482
 21
266.9283533073
 31
0.0
 12
105.4137410482
 22
265.9283533073
 32
0.0
 13
105.4137410482
 23
265.9283533073
 33
0.0
  0
LINE
  5
18F
  8
0
  6
CONTINUOUS
 62
     7
 10
116.2137410482
 20
214.0094588283
 30
0.0
 11
116.2137410482
 21
267.4283533073
 31
0.0
  0
LINE
  5
190
  8
0
  6
CONTINUOUS
 62
     7
 10
108.7137410482
 20
247.0094588283
 30
0.0
 11
108.7137410482
 21
267.4283533073
 31
0.0
  0
LINE
  5
191
  8
0
  6
CONTINUOUS
 62
     7
 10
116.2137410482
 20
266.4283533073
 30
0.0
 11
122.4637410482
 21
266.4283533073
 31
0.0
  0
LINE
  5
192
  8
0
  6
CONTINUOUS
 62
     7
 10
116.2137410482
 20
266.4283533073
 30
0.0
 11
108.7137410482
 21
266.4283533073
 31
0.0
  0
LINE
  5
193
  8
0
  6
CONTINUOUS
 62
     7
 10
108.7137410482
 20
266.4283533073
 30
0.0
 11
102.4637410482
 21
266.4283533073
 31
0.0
  0
TEXT
  5
194
  8
0
  6
CONTINUOUS
 62
     7
 10
110.013895153
 20
267.363020729
 30
2.5
 40
2.6458333333
  1
7,5
 50
0.0
 41
0.7
 11
110.013895153
 21
266.4283534819
 31
2.5
 73
     1
  0
ENDBLK
  5
18C
  8
0
  0
BLOCK
  8
0
  2
_D_7
 70
     0
 10
0.0
 20
0.0
 30
0.0
  3
_D_7
  1

  0
SOLID
  5
199
  8
0
  6
CONTINUOUS
 62
     7
 10
118.7137410482
 20
272.4087865843
 30
0.0
 11
122.0137410482
 21
271.9087865843
 31
0.0
 12
122.0137410482
 22
272.9087865843
 32
0.0
 13
122.0137410482
 23
272.9087865843
 33
0.0
  0
SOLID
  5
19A
  8
0
  6
CONTINUOUS
 62
     7
 10
108.7137410482
 20
272.4087865843
 30
0.0
 11
105.4137410482
 21
272.9087865843
 31
0.0
 12
105.4137410482
 22
271.9087865843
 32
0.0
 13
105.4137410482
 23
271.9087865843
 33
0.0
  0
LINE
  5
19B
  8
0
  6
CONTINUOUS
 62
     7
 10
118.7137410482
 20
179.0094588283
 30
0.0
 11
118.7137410482
 21
273.4087865843
 31
0.0
  0
LINE
  5
19C
  8
0
  6
CONTINUOUS
 62
     7
 10
108.7137410482
 20
247.0094588283
 30
0.0
 11
108.7137410482
 21
273.4087865843
 31
0.0
  0
LINE
  5
19D
  8
0
  6
CONTINUOUS
 62
     7
 10
118.7137410482
 20
272.4087865843
 30
0.0
 11
124.9637410482
 21
272.4087865843
 31
0.0
  0
LINE
  5
19E
  8
0
  6
CONTINUOUS
 62
     7
 10
118.7137410482
 20
272.4087865843
 30
0.0
 11
108.7137410482
 21
272.4087865843
 31
0.0
  0
LINE
  5
19F
  8
0
  6
CONTINUOUS
 62
     7
 10
108.7137410482
 20
272.4087865843
 30
0.0
 11
102.4637410482
 21
272.4087865843
 31
0.0
  0
TEXT
  5
1A0
  8
0
  6
CONTINUOUS
 62
     7
 10
111.7538644252
 20
273.3434540061
 30
2.5
 40
2.6458333333
  1
10
 50
0.0
 41
0.7
 11
111.7538644252
 21
272.408786759
 31
2.5
 73
     1
  0
ENDBLK
  5
198
  8
0
  0
BLOCK
  8
0
  2
_D_8
 70
     0
 10
0.0
 20
0.0
 30
0.0
  3
_D_8
  1

  0
SOLID
  5
1A5
  8
0
  6
CONTINUOUS
 62
     7
 10
119.7137410482
 20
89.8048987219
 30
0.0
 11
116.4137410482
 21
90.3048987219
 31
0.0
 12
116.4137410482
 22
89.3048987219
 32
0.0
 13
116.4137410482
 23
89.3048987219
 33
0.0
  0
SOLID
  5
1A6
  8
0
  6
CONTINUOUS
 62
     7
 10
125.7137410482
 20
89.8048987219
 30
0.0
 11
129.0137410482
 21
89.3048987219
 31
0.0
 12
129.0137410482
 22
90.3048987219
 32
0.0
 13
129.0137410482
 23
90.3048987219
 33
0.0
  0
LINE
  5
1A7
  8
0
  6
CONTINUOUS
 62
     7
 10
119.7137410482
 20
107.0094588283
 30
0.0
 11
119.7137410482
 21
88.8048987219
 31
0.0
  0
LINE
  5
1A8
  8
0
  6
CONTINUOUS
 62
     7
 10
125.7137410482
 20
107.0094588283
 30
0.0
 11
125.7137410482
 21
88.8048987219
 31
0.0
  0
LINE
  5
1A9
  8
0
  6
CONTINUOUS
 62
     7
 10
119.7137410482
 20
89.8048987219
 30
0.0
 11
113.4637410482
 21
89.8048987219
 31
0.0
  0
LINE
  5
1AA
  8
0
  6
CONTINUOUS
 62
     7
 10
119.7137410482
 20
89.8048987219
 30
0.0
 11
125.7137410482
 21
89.8048987219
 31
0.0
  0
LINE
  5
1AB
  8
0
  6
CONTINUOUS
 62
     7
 10
125.7137410482
 20
89.8048987219
 30
0.0
 11
131.9637410482
 21
89.8048987219
 31
0.0
  0
TEXT
  5
1AC
  8
0
  6
CONTINUOUS
 62
     7
 10
119.8602832322
 20
90.7395659108
 30
2.5
 40
2.6458333333
  1
%%c
 41
0.7
 11
119.8602832322
 21
89.8048986637
 31
2.5
 73
     1
  0
TEXT
  5
1AD
  8
0
  6
CONTINUOUS
 62
     7
 10
123.6073222411
 20
90.7395659108
 30
2.5
 40
2.6458333333
  1
6
 41
0.7
 11
123.6073222411
 21
89.8048986637
 31
2.5
 73
     1
  0
ENDBLK
  5
1A4
  8
0
  0
BLOCK
  8
0
  2
_D_9
 70
     0
 10
0.0
 20
0.0
 30
0.0
  3
_D_9
  1

  0
SOLID
  5
1B2
  8
0
  6
CONTINUOUS
 62
     7
 10
117.4637410482
 20
82.1717180853
 30
0.0
 11
114.1637410482
 21
82.6717180853
 31
0.0
 12
114.1637410482
 22
81.6717180853
 32
0.0
 13
114.1637410482
 23
81.6717180853
 33
0.0
  0
SOLID
  5
1B3
  8
0
  6
CONTINUOUS
 62
     7
 10
127.9637410482
 20
82.1717180853
 30
0.0
 11
131.2637410482
 21
81.6717180853
 31
0.0
 12
131.2637410482
 22
82.6717180853
 32
0.0
 13
131.2637410482
 23
82.6717180853
 33
0.0
  0
LINE
  5
1B4
  8
0
  6
CONTINUOUS
 62
     7
 10
117.4637410482
 20
107.0094588283
 30
0.0
 11
117.4637410482
 21
81.1717180853
 31
0.0
  0
LINE
  5
1B5
  8
0
  6
CONTINUOUS
 62
     7
 10
127.9637410482
 20
107.0094588283
 30
0.0
 11
127.9637410482
 21
81.1717180853
 31
0.0
  0
LINE
  5
1B6
  8
0
  6
CONTINUOUS
 62
     7
 10
117.4637410482
 20
82.1717180853
 30
0.0
 11
111.2137410482
 21
82.1717180853
 31
0.0
  0
LINE
  5
1B7
  8
0
  6
CONTINUOUS
 62
     7
 10
117.4637410482
 20
82.1717180853
 30
0.0
 11
127.9637410482
 21
82.1717180853
 31
0.0
  0
LINE
  5
1B8
  8
0
  6
CONTINUOUS
 62
     7
 10
127.9637410482
 20
82.1717180853
 30
0.0
 11
134.2137410482
 21
82.1717180853
 31
0.0
  0
TEXT
  5
1B9
  8
0
  6
CONTINUOUS
 62
     7
 10
113.863060384
 20
83.1063852743
 30
2.5
 40
2.6458333333
  1
%%c
 41
0.7
 11
113.863060384
 21
82.1717180271
 31
2.5
 73
     1
  0
TEXT
  5
1BA
  8
0
  6
CONTINUOUS
 62
     7
 10
117.6100993929
 20
83.1063852743
 30
2.5
 40
2.6458333333
  1
10,5
 41
0.7
 11
117.6100993929
 21
82.1717180271
 31
2.5
 73
     1
  0
TEXT
  5
1BB
  8
0
  6
CONTINUOUS
 62
     7
 10
124.4696678062
 20
83.1063852743
 30
2.5
 40
2.6458333333
  1
x90°
 41
0.7
 11
124.4696678062
 21
82.1717180271
 31
2.5
 73
     1
  0
ENDBLK
  5
1B1
  8
0
  0
BLOCK
  8
0
  2
_D_10
 70
     0
 10
0.0
 20
0.0
 30
0.0
  3
_D_10
  1

  0
SOLID
  5
1C1
  8
0
  6
CONTINUOUS
 62
     7
 10
111.5431417806
 20
102.2699427534
 30
0.0
 11
108.6987471456
 21
100.5236841356
 31
0.0
 12
109.3437068185
 22
99.75946753
 32
0.0
 13
109.3437068185
 23
99.75946753
 33
0.0
  0
LINE
  5
1C2
  8
0
  6
CONTINUOUS
 62
     7
 10
111.5431417806
 20
102.2699427534
 30
0.0
 11
94.3492139978
 21
87.7591483568
 31
0.0
  0
LINE
  5
1C3
  8
0
  6
CONTINUOUS
 62
     7
 10
111.5431417806
 20
102.2699427534
 30
0.0
 11
120.7137410482
 21
110.0094588283
 31
0.0
  0
TEXT
  5
1C4
  8
0
  6
CONTINUOUS
 62
     7
 10
93.7489041554
 20
88.470459109
 30
2.5
 40
2.6458333333
  1
R12
 50
40.1626519501
 41
0.7
 11
94.3517268374
 21
87.756170878
 31
2.5
 73
     1
  0
ENDBLK
  5
1C0
  8
0
  0
BLOCK
  8
0
  2
_D_11
 70
     0
 10
0.0
 20
0.0
 30
0.0
  3
_D_11
  1

  0
SOLID
  5
1C9
  8
0
  6
CONTINUOUS
 62
     7
 10
162.7137410482
 20
272.4087865843
 30
0.0
 11
159.4137410482
 21
272.9087865843
 31
0.0
 12
159.4137410482
 22
271.9087865843
 32
0.0
 13
159.4137410482
 23
271.9087865843
 33
0.0
  0
SOLID
  5
1CA
  8
0
  6
CONTINUOUS
 62
     7
 10
172.7137410482
 20
272.4087865843
 30
0.0
 11
176.0137410482
 21
271.9087865843
 31
0.0
 12
176.0137410482
 22
272.9087865843
 32
0.0
 13
176.0137410482
 23
272.9087865843
 33
0.0
  0
LINE
  5
1CB
  8
0
  6
CONTINUOUS
 62
     7
 10
162.7137410482
 20
254.5094588283
 30
0.0
 11
162.7137410482
 21
273.4087865843
 31
0.0
  0
LINE
  5
1CC
  8
0
  6
CONTINUOUS
 62
     7
 10
172.7137410482
 20
247.1594588283
 30
0.0
 11
172.7137410482
 21
273.4087865843
 31
0.0
  0
LINE
  5
1CD
  8
0
  6
CONTINUOUS
 62
     7
 10
162.7137410482
 20
272.4087865843
 30
0.0
 11
156.4637410482
 21
272.4087865843
 31
0.0
  0
LINE
  5
1CE
  8
0
  6
CONTINUOUS
 62
     7
 10
162.7137410482
 20
272.4087865843
 30
0.0
 11
172.7137410482
 21
272.4087865843
 31
0.0
  0
LINE
  5
1CF
  8
0
  6
CONTINUOUS
 62
     7
 10
172.7137410482
 20
272.4087865843
 30
0.0
 11
178.9637410482
 21
272.4087865843
 31
0.0
  0
TEXT
  5
1D0
  8
0
  6
CONTINUOUS
 62
     7
 10
165.7538644252
 20
273.3434540061
 30
2.5
 40
2.6458333333
  1
10
 50
0.0
 41
0.7
 11
165.7538644252
 21
272.4087867589
 31
2.5
 73
     1
  0
ENDBLK
  5
1C8
  8
0
  0
BLOCK
  8
0
  2
_D_12
 70
     0
 10
0.0
 20
0.0
 30
0.0
  3
_D_12
  1

  0
SOLID
  5
1D5
  8
0
  6
CONTINUOUS
 62
     7
 10
165.2137410482
 20
266.4283533073
 30
0.0
 11
161.9137410482
 21
266.9283533073
 31
0.0
 12
161.9137410482
 22
265.9283533073
 32
0.0
 13
161.9137410482
 23
265.9283533073
 33
0.0
  0
SOLID
  5
1D6
  8
0
  6
CONTINUOUS
 62
     7
 10
172.7137410482
 20
266.4283533073
 30
0.0
 11
176.0137410482
 21
265.9283533073
 31
0.0
 12
176.0137410482
 22
266.9283533073
 32
0.0
 13
176.0137410482
 23
266.9283533073
 33
0.0
  0
LINE
  5
1D7
  8
0
  6
CONTINUOUS
 62
     7
 10
165.2137410482
 20
219.5094588283
 30
0.0
 11
165.2137410482
 21
267.4283533073
 31
0.0
  0
LINE
  5
1D8
  8
0
  6
CONTINUOUS
 62
     7
 10
172.7137410482
 20
247.1594588283
 30
0.0
 11
172.7137410482
 21
267.4283533073
 31
0.0
  0
LINE
  5
1D9
  8
0
  6
CONTINUOUS
 62
     7
 10
165.2137410482
 20
266.4283533073
 30
0.0
 11
158.9637410482
 21
266.4283533073
 31
0.0
  0
LINE
  5
1DA
  8
0
  6
CONTINUOUS
 62
     7
 10
165.2137410482
 20
266.4283533073
 30
0.0
 11
172.7137410482
 21
266.4283533073
 31
0.0
  0
LINE
  5
1DB
  8
0
  6
CONTINUOUS
 62
     7
 10
172.7137410482
 20
266.4283533073
 30
0.0
 11
178.9637410482
 21
266.4283533073
 31
0.0
  0
TEXT
  5
1DC
  8
0
  6
CONTINUOUS
 62
     7
 10
166.513895153
 20
267.363020729
 30
2.5
 40
2.6458333333
  1
7,5
 50
0.0
 41
0.7
 11
166.513895153
 21
266.4283534819
 31
2.5
 73
     1
  0
ENDBLK
  5
1D4
  8
0
  0
BLOCK
  8
0
  2
SW_CENTERMARKSYMBOL_0
 70
     0
 10
0.0
 20
0.0
 30
0.0
  3
SW_CENTERMARKSYMBOL_0
  1

  0
LINE
  5
1E0
  8
0
  6
CONTINUOUS
 62
     0
 10
0.0
 20
0.0
 30
0.0
 11
0.0
 21
2.5
 31
0.0
  0
LINE
  5
1E1
  8
0
  6
CONTINUOUS
 62
     0
 10
0.0
 20
0.0
 30
0.0
 11
-2.5
 21
0.0
 31
0.0
  0
LINE
  5
1E2
  8
0
  6
CONTINUOUS
 62
     0
 10
0.0
 20
0.0
 30
0.0
 11
0.0
 21
-2.5
 31
0.0
  0
LINE
  5
1E3
  8
0
  6
CONTINUOUS
 62
     0
 10
0.0
 20
0.0
 30
0.0
 11
2.5
 21
0.0
 31
0.0
  0
LINE
  5
1E4
  8
0
  6
CONTINUOUS
 62
     0
 10
0.0
 20
5.0
 30
0.0
 11
0.0
 21
5.5
 31
0.0
  0
LINE
  5
1E5
  8
0
  6
CONTINUOUS
 62
     0
 10
-5.0
 20
0.0
 30
0.0
 11
-5.5
 21
0.0
 31
0.0
  0
LINE
  5
1E6
  8
0
  6
CONTINUOUS
 62
     0
 10
0.0
 20
-5.0
 30
0.0
 11
0.0
 21
-5.5
 31
0.0
  0
LINE
  5
1E7
  8
0
  6
CONTINUOUS
 62
     0
 10
5.0
 20
0.0
 30
0.0
 11
5.5
 21
0.0
 31
0.0
  0
ENDBLK
  5
1DF
  8
0
  0
BLOCK
  8
0
  2
SW_CENTERMARKSYMBOL_1
 70
     0
 10
0.0
 20
0.0
 30
0.0
  3
SW_CENTERMARKSYMBOL_1
  1

  0
LINE
  5
1EC
  8
0
  6
CONTINUOUS
 62
     0
 10
0.0
 20
0.0
 30
0.0
 11
0.0
 21
2.5
 31
0.0
  0
LINE
  5
1ED
  8
0
  6
CONTINUOUS
 62
     0
 10
0.0
 20
0.0
 30
0.0
 11
-2.5
 21
0.0
 31
0.0
  0
LINE
  5
1EE
  8
0
  6
CONTINUOUS
 62
     0
 10
0.0
 20
0.0
 30
0.0
 11
0.0
 21
-2.5
 31
0.0
  0
LINE
  5
1EF
  8
0
  6
CONTINUOUS
 62
     0
 10
0.0
 20
0.0
 30
0.0
 11
2.5
 21
0.0
 31
0.0
  0
LINE
  5
1F0
  8
0
  6
CONTINUOUS
 62
     0
 10
0.0
 20
5.0
 30
0.0
 11
0.0
 21
5.5
 31
0.0
  0
LINE
  5
1F1
  8
0
  6
CONTINUOUS
 62
     0
 10
-5.0
 20
0.0
 30
0.0
 11
-5.5
 21
0.0
 31
0.0
  0
LINE
  5
1F2
  8
0
  6
CONTINUOUS
 62
     0
 10
0.0
 20
-5.0
 30
0.0
 11
0.0
 21
-5.5
 31
0.0
  0
LINE
  5
1F3
  8
0
  6
CONTINUOUS
 62
     0
 10
5.0
 20
0.0
 30
0.0
 11
5.5
 21
0.0
 31
0.0
  0
ENDBLK
  5
1EB
  8
0
  0
BLOCK
  8
0
  2
SW_CENTERMARKSYMBOL_2
 70
     0
 10
0.0
 20
0.0
 30
0.0
  3
SW_CENTERMARKSYMBOL_2
  1

  0
LINE
  5
1F8
  8
0
  6
CONTINUOUS
 62
     0
 10
0.0
 20
0.0
 30
0.0
 11
0.0
 21
2.5
 31
0.0
  0
LINE
  5
1F9
  8
0
  6
CONTINUOUS
 62
     0
 10
0.0
 20
0.0
 30
0.0
 11
-2.5
 21
0.0
 31
0.0
  0
LINE
  5
1FA
  8
0
  6
CONTINUOUS
 62
     0
 10
0.0
 20
0.0
 30
0.0
 11
0.0
 21
-2.5
 31
0.0
  0
LINE
  5
1FB
  8
0
  6
CONTINUOUS
 62
     0
 10
0.0
 20
0.0
 30
0.0
 11
2.5
 21
0.0
 31
0.0
  0
LINE
  5
1FC
  8
0
  6
CONTINUOUS
 62
     0
 10
0.0
 20
5.0
 30
0.0
 11
0.0
 21
5.5
 31
0.0
  0
LINE
  5
1FD
  8
0
  6
CONTINUOUS
 62
     0
 10
-5.0
 20
0.0
 30
0.0
 11
-5.5
 21
0.0
 31
0.0
  0
LINE
  5
1FE
  8
0
  6
CONTINUOUS
 62
     0
 10
0.0
 20
-5.0
 30
0.0
 11
0.0
 21
-5.5
 31
0.0
  0
LINE
  5
1FF
  8
0
  6
CONTINUOUS
 62
     0
 10
5.0
 20
0.0
 30
0.0
 11
5.5
 21
0.0
 31
0.0
  0
ENDBLK
  5
1F7
  8
0
  0
BLOCK
  8
0
  2
SW_CENTERMARKSYMBOL_3
 70
     0
 10
0.0
 20
0.0
 30
0.0
  3
SW_CENTERMARKSYMBOL_3
  1

  0
LINE
  5
204
  8
0
  6
CONTINUOUS
 62
     0
 10
0.0
 20
0.0
 30
0.0
 11
0.0
 21
2.5
 31
0.0
  0
LINE
  5
205
  8
0
  6
CONTINUOUS
 62
     0
 10
0.0
 20
0.0
 30
0.0
 11
-2.5
 21
0.0
 31
0.0
  0
LINE
  5
206
  8
0
  6
CONTINUOUS
 62
     0
 10
0.0
 20
0.0
 30
0.0
 11
0.0
 21
-2.5
 31
0.0
  0
LINE
  5
207
  8
0
  6
CONTINUOUS
 62
     0
 10
0.0
 20
0.0
 30
0.0
 11
2.5
 21
0.0
 31
0.0
  0
LINE
  5
208
  8
0
  6
CONTINUOUS
 62
     0
 10
0.0
 20
5.0
 30
0.0
 11
0.0
 21
5.5
 31
0.0
  0
LINE
  5
209
  8
0
  6
CONTINUOUS
 62
     0
 10
-5.0
 20
0.0
 30
0.0
 11
-5.5
 21
0.0
 31
0.0
  0
LINE
  5
20A
  8
0
  6
CONTINUOUS
 62
     0
 10
0.0
 20
-5.0
 30
0.0
 11
0.0
 21
-5.5
 31
0.0
  0
LINE
  5
20B
  8
0
  6
CONTINUOUS
 62
     0
 10
5.0
 20
0.0
 30
0.0
 11
5.5
 21
0.0
 31
0.0
  0
ENDBLK
  5
203
  8
0
  0
BLOCK
  8
0
  2
SW_CENTERMARKSYMBOL_4
 70
     0
 10
0.0
 20
0.0
 30
0.0
  3
SW_CENTERMARKSYMBOL_4
  1

  0
LINE
  5
210
  8
0
  6
CONTINUOUS
 62
     0
 10
0.0
 20
0.0
 30
0.0
 11
0.0
 21
2.5
 31
0.0
  0
LINE
  5
211
  8
0
  6
CONTINUOUS
 62
     0
 10
0.0
 20
0.0
 30
0.0
 11
-2.5
 21
0.0
 31
0.0
  0
LINE
  5
212
  8
0
  6
CONTINUOUS
 62
     0
 10
0.0
 20
0.0
 30
0.0
 11
0.0
 21
-2.5
 31
0.0
  0
LINE
  5
213
  8
0
  6
CONTINUOUS
 62
     0
 10
0.0
 20
0.0
 30
0.0
 11
2.5
 21
0.0
 31
0.0
  0
LINE
  5
214
  8
0
  6
CONTINUOUS
 62
     0
 10
0.0
 20
5.0
 30
0.0
 11
0.0
 21
5.5
 31
0.0
  0
LINE
  5
215
  8
0
  6
CONTINUOUS
 62
     0
 10
-5.0
 20
0.0
 30
0.0
 11
-5.5
 21
0.0
 31
0.0
  0
LINE
  5
216
  8
0
  6
CONTINUOUS
 62
     0
 10
0.0
 20
-5.0
 30
0.0
 11
0.0
 21
-5.5
 31
0.0
  0
LINE
  5
217
  8
0
  6
CONTINUOUS
 62
     0
 10
5.0
 20
0.0
 30
0.0
 11
5.5
 21
0.0
 31
0.0
  0
ENDBLK
  5
20F
  8
0
  0
BLOCK
  8
0
  2
SW_CENTERMARKSYMBOL_5
 70
     0
 10
0.0
 20
0.0
 30
0.0
  3
SW_CENTERMARKSYMBOL_5
  1

  0
LINE
  5
21C
  8
0
  6
CONTINUOUS
 62
     0
 10
0.0
 20
0.0
 30
0.0
 11
0.0
 21
2.5
 31
0.0
  0
LINE
  5
21D
  8
0
  6
CONTINUOUS
 62
     0
 10
0.0
 20
0.0
 30
0.0
 11
-2.5
 21
0.0
 31
0.0
  0
LINE
  5
21E
  8
0
  6
CONTINUOUS
 62
     0
 10
0.0
 20
0.0
 30
0.0
 11
0.0
 21
-2.5
 31
0.0
  0
LINE
  5
21F
  8
0
  6
CONTINUOUS
 62
     0
 10
0.0
 20
0.0
 30
0.0
 11
2.5
 21
0.0
 31
0.0
  0
LINE
  5
220
  8
0
  6
CONTINUOUS
 62
     0
 10
0.0
 20
5.0
 30
0.0
 11
0.0
 21
5.5
 31
0.0
  0
LINE
  5
221
  8
0
  6
CONTINUOUS
 62
     0
 10
-5.0
 20
0.0
 30
0.0
 11
-5.5
 21
0.0
 31
0.0
  0
LINE
  5
222
  8
0
  6
CONTINUOUS
 62
     0
 10
0.0
 20
-5.0
 30
0.0
 11
0.0
 21
-5.5
 31
0.0
  0
LINE
  5
223
  8
0
  6
CONTINUOUS
 62
     0
 10
5.0
 20
0.0
 30
0.0
 11
5.5
 21
0.0
 31
0.0
  0
ENDBLK
  5
21B
  8
0
  0
BLOCK
  8
0
  2
SW_CENTERMARKSYMBOL_6
 70
     0
 10
0.0
 20
0.0
 30
0.0
  3
SW_CENTERMARKSYMBOL_6
  1

  0
LINE
  5
228
  8
0
  6
CONTINUOUS
 62
     0
 10
0.0
 20
0.0
 30
0.0
 11
0.0
 21
2.5
 31
0.0
  0
LINE
  5
229
  8
0
  6
CONTINUOUS
 62
     0
 10
0.0
 20
0.0
 30
0.0
 11
-2.5
 21
0.0
 31
0.0
  0
LINE
  5
22A
  8
0
  6
CONTINUOUS
 62
     0
 10
0.0
 20
0.0
 30
0.0
 11
0.0
 21
-2.5
 31
0.0
  0
LINE
  5
22B
  8
0
  6
CONTINUOUS
 62
     0
 10
0.0
 20
0.0
 30
0.0
 11
2.5
 21
0.0
 31
0.0
  0
LINE
  5
22C
  8
0
  6
CONTINUOUS
 62
     0
 10
0.0
 20
5.0
 30
0.0
 11
0.0
 21
5.5
 31
0.0
  0
LINE
  5
22D
  8
0
  6
CONTINUOUS
 62
     0
 10
-5.0
 20
0.0
 30
0.0
 11
-5.5
 21
0.0
 31
0.0
  0
LINE
  5
22E
  8
0
  6
CONTINUOUS
 62
     0
 10
0.0
 20
-5.0
 30
0.0
 11
0.0
 21
-5.5
 31
0.0
  0
LINE
  5
22F
  8
0
  6
CONTINUOUS
 62
     0
 10
5.0
 20
0.0
 30
0.0
 11
5.5
 21
0.0
 31
0.0
  0
ENDBLK
  5
227
  8
0
  0
BLOCK
  8
0
  2
SW_CENTERMARKSYMBOL_7
 70
     0
 10
0.0
 20
0.0
 30
0.0
  3
SW_CENTERMARKSYMBOL_7
  1

  0
LINE
  5
234
  8
0
  6
CONTINUOUS
 62
     0
 10
0.0
 20
0.0
 30
0.0
 11
0.0
 21
2.5
 31
0.0
  0
LINE
  5
235
  8
0
  6
CONTINUOUS
 62
     0
 10
0.0
 20
0.0
 30
0.0
 11
-2.5
 21
0.0
 31
0.0
  0
LINE
  5
236
  8
0
  6
CONTINUOUS
 62
     0
 10
0.0
 20
0.0
 30
0.0
 11
0.0
 21
-2.5
 31
0.0
  0
LINE
  5
237
  8
0
  6
CONTINUOUS
 62
     0
 10
0.0
 20
0.0
 30
0.0
 11
2.5
 21
0.0
 31
0.0
  0
LINE
  5
238
  8
0
  6
CONTINUOUS
 62
     0
 10
0.0
 20
5.0
 30
0.0
 11
0.0
 21
5.5
 31
0.0
  0
LINE
  5
239
  8
0
  6
CONTINUOUS
 62
     0
 10
-5.0
 20
0.0
 30
0.0
 11
-5.5
 21
0.0
 31
0.0
  0
LINE
  5
23A
  8
0
  6
CONTINUOUS
 62
     0
 10
0.0
 20
-5.0
 30
0.0
 11
0.0
 21
-5.5
 31
0.0
  0
LINE
  5
23B
  8
0
  6
CONTINUOUS
 62
     0
 10
5.0
 20
0.0
 30
0.0
 11
5.5
 21
0.0
 31
0.0
  0
ENDBLK
  5
233
  8
0
  0
BLOCK
  8
0
  2
SW_CENTERMARKSYMBOL_8
 70
     0
 10
0.0
 20
0.0
 30
0.0
  3
SW_CENTERMARKSYMBOL_8
  1

  0
LINE
  5
240
  8
0
  6
CONTINUOUS
 62
     0
 10
0.0
 20
0.0
 30
0.0
 11
0.0
 21
2.5
 31
0.0
  0
LINE
  5
241
  8
0
  6
CONTINUOUS
 62
     0
 10
0.0
 20
0.0
 30
0.0
 11
-2.5
 21
0.0
 31
0.0
  0
LINE
  5
242
  8
0
  6
CONTINUOUS
 62
     0
 10
0.0
 20
0.0
 30
0.0
 11
0.0
 21
-2.5
 31
0.0
  0
LINE
  5
243
  8
0
  6
CONTINUOUS
 62
     0
 10
0.0
 20
0.0
 30
0.0
 11
2.5
 21
0.0
 31
0.0
  0
LINE
  5
244
  8
0
  6
CONTINUOUS
 62
     0
 10
0.0
 20
5.0
 30
0.0
 11
0.0
 21
5.5
 31
0.0
  0
LINE
  5
245
  8
0
  6
CONTINUOUS
 62
     0
 10
-5.0
 20
0.0
 30
0.0
 11
-5.5
 21
0.0
 31
0.0
  0
LINE
  5
246
  8
0
  6
CONTINUOUS
 62
     0
 10
0.0
 20
-5.0
 30
0.0
 11
0.0
 21
-5.5
 31
0.0
  0
LINE
  5
247
  8
0
  6
CONTINUOUS
 62
     0
 10
5.0
 20
0.0
 30
0.0
 11
5.5
 21
0.0
 31
0.0
  0
ENDBLK
  5
23F
  8
0
  0
BLOCK
  8
0
  2
SW_CENTERMARKSYMBOL_9
 70
     0
 10
0.0
 20
0.0
 30
0.0
  3
SW_CENTERMARKSYMBOL_9
  1

  0
LINE
  5
24C
  8
0
  6
CONTINUOUS
 62
     0
 10
0.0
 20
0.0
 30
0.0
 11
0.0
 21
2.5
 31
0.0
  0
LINE
  5
24D
  8
0
  6
CONTINUOUS
 62
     0
 10
0.0
 20
0.0
 30
0.0
 11
-2.5
 21
0.0
 31
0.0
  0
LINE
  5
24E
  8
0
  6
CONTINUOUS
 62
     0
 10
0.0
 20
0.0
 30
0.0
 11
0.0
 21
-2.5
 31
0.0
  0
LINE
  5
24F
  8
0
  6
CONTINUOUS
 62
     0
 10
0.0
 20
0.0
 30
0.0
 11
2.5
 21
0.0
 31
0.0
  0
LINE
  5
250
  8
0
  6
CONTINUOUS
 62
     0
 10
0.0
 20
5.0
 30
0.0
 11
0.0
 21
5.5
 31
0.0
  0
LINE
  5
251
  8
0
  6
CONTINUOUS
 62
     0
 10
-5.0
 20
0.0
 30
0.0
 11
-5.5
 21
0.0
 31
0.0
  0
LINE
  5
252
  8
0
  6
CONTINUOUS
 62
     0
 10
0.0
 20
-5.0
 30
0.0
 11
0.0
 21
-5.5
 31
0.0
  0
LINE
  5
253
  8
0
  6
CONTINUOUS
 62
     0
 10
5.0
 20
0.0
 30
0.0
 11
5.5
 21
0.0
 31
0.0
  0
ENDBLK
  5
24B
  8
0
  0
BLOCK
  8
0
  2
_NONE
 70
     0
 10
0.0
 20
0.0
 30
0.0
  3
_NONE
  1

  0
ENDBLK
  5
298
  8
0
  0
BLOCK
  8
0
  2
_D_13
 70
     0
 10
0.0
 20
0.0
 30
0.0
  3
_D_13
  1

  0
SOLID
  5
29C
  8
0
  6
CONTINUOUS
 62
     7
 10
140.7137410482
 20
59.3840164817
 30
0.0
 11
141.2137410482
 21
62.6840164817
 31
0.0
 12
140.2137410482
 22
62.6840164817
 32
0.0
 13
140.2137410482
 23
62.6840164817
 33
0.0
  0
LINE
  5
29D
  8
0
  6
CONTINUOUS
 62
     7
 10
140.7137410482
 20
59.3840164817
 30
0.0
 11
140.7137410482
 21
74.7263648884
 31
0.0
  0
LINE
  5
29E
  8
0
  6
CONTINUOUS
 62
     7
 10
140.7137410482
 20
59.3840164817
 30
0.0
 11
140.7137410482
 21
39.4840164817
 31
0.0
  0
TEXT
  5
29F
  8
0
  6
CONTINUOUS
 62
     7
 10
139.7895155602
 20
67.0595726335
 30
0.0
 40
2.6458333333
  1
%%c
 50
90.0
 41
0.7
 11
140.7241828073
 21
67.0595726335
 31
0.0
 73
     1
  0
TEXT
  5
2A0
  8
0
  6
CONTINUOUS
 62
     7
 10
139.7895155602
 20
70.8066116424
 30
0.0
 40
2.6458333333
  1
20
 50
90.0
 41
0.7
 11
140.7241828073
 21
70.8066116424
 31
0.0
 73
     1
  0
ENDBLK
  5
29B
  8
0
  0
BLOCK
  8
0
  2
_D_14
 70
     0
 10
0.0
 20
0.0
 30
0.0
  3
_D_14
  1

  0
SOLID
  5
2A5
  8
0
  6
CONTINUOUS
 62
     7
 10
140.7137410482
 20
66.5697660096
 30
0.0
 11
144.0137410482
 21
66.0697660096
 31
0.0
 12
144.0137410482
 22
67.0697660096
 32
0.0
 13
144.0137410482
 23
67.0697660096
 33
0.0
  0
SOLID
  5
2A6
  8
0
  6
CONTINUOUS
 62
     7
 10
172.7137410482
 20
66.5697660096
 30
0.0
 11
169.4137410482
 21
67.0697660096
 31
0.0
 12
169.4137410482
 22
66.0697660096
 32
0.0
 13
169.4137410482
 23
66.0697660096
 33
0.0
  0
LINE
  5
2A7
  8
0
  6
CONTINUOUS
 62
     7
 10
140.7137410482
 20
50.4340164817
 30
0.0
 11
140.7137410482
 21
67.5697660096
 31
0.0
  0
LINE
  5
2A8
  8
0
  6
CONTINUOUS
 62
     7
 10
172.7137410482
 20
29.9340164817
 30
0.0
 11
172.7137410482
 21
67.5697660096
 31
0.0
  0
LINE
  5
2A9
  8
0
  6
CONTINUOUS
 62
     7
 10
140.7137410482
 20
66.5697660096
 30
0.0
 11
172.7137410482
 21
66.5697660096
 31
0.0
  0
TEXT
  5
2AA
  8
0
  6
CONTINUOUS
 62
     7
 10
154.7538644252
 20
67.5044334314
 30
0.0
 40
2.6458333333
  1
32
 50
360.0
 41
0.7
 11
154.7538644252
 21
66.5697661842
 31
0.0
 73
     1
  0
ENDBLK
  5
2A4
  8
0
  0
BLOCK
  8
0
  2
_D_15
 70
     0
 10
0.0
 20
0.0
 30
0.0
  3
_D_15
  1

  0
SOLID
  5
2AF
  8
0
  6
CONTINUOUS
 62
     7
 10
121.0423967726
 20
49.4340164817
 30
0.0
 11
120.5423967726
 21
46.1340164817
 31
0.0
 12
121.5423967726
 22
46.1340164817
 32
0.0
 13
121.5423967726
 23
46.1340164817
 33
0.0
  0
SOLID
  5
2B0
  8
0
  6
CONTINUOUS
 62
     7
 10
121.0423967726
 20
28.9340164817
 30
0.0
 11
121.5423967726
 21
32.2340164817
 31
0.0
 12
120.5423967726
 22
32.2340164817
 32
0.0
 13
120.5423967726
 23
32.2340164817
 33
0.0
  0
LINE
  5
2B1
  8
0
  6
CONTINUOUS
 62
     7
 10
139.7137410482
 20
49.4340164817
 30
0.0
 11
120.0423967726
 21
49.4340164817
 31
0.0
  0
LINE
  5
2B2
  8
0
  6
CONTINUOUS
 62
     7
 10
154.8137410482
 20
28.9340164817
 30
0.0
 11
120.0423967726
 21
28.9340164817
 31
0.0
  0
LINE
  5
2B3
  8
0
  6
CONTINUOUS
 62
     7
 10
121.0423967726
 20
49.4340164817
 30
0.0
 11
121.0423967726
 21
28.9340164817
 31
0.0
  0
TEXT
  5
2B4
  8
0
  6
CONTINUOUS
 62
     7
 10
120.1077293508
 20
35.754232275
 30
0.0
 40
2.6458333333
  1
20,5
 50
90.0
 41
0.7
 11
121.042396598
 21
35.754232275
 31
0.0
 73
     1
  0
ENDBLK
  5
2AE
  8
0
  0
BLOCK
  8
0
  2
_D_16
 70
     0
 10
0.0
 20
0.0
 30
0.0
  3
_D_16
  1

  0
SOLID
  5
2B9
  8
0
  6
CONTINUOUS
 62
     7
 10
178.8731876358
 20
28.9340164817
 30
0.0
 11
179.3731876358
 21
32.2340164817
 31
0.0
 12
178.3731876358
 22
32.2340164817
 32
0.0
 13
178.3731876358
 23
32.2340164817
 33
0.0
  0
SOLID
  5
2BA
  8
0
  6
CONTINUOUS
 62
     7
 10
178.8731876358
 20
25.9340164817
 30
0.0
 11
178.3731876358
 21
22.6340164817
 31
0.0
 12
179.3731876358
 22
22.6340164817
 32
0.0
 13
179.3731876358
 23
22.6340164817
 33
0.0
  0
LINE
  5
2BB
  8
0
  6
CONTINUOUS
 62
     7
 10
173.7137410482
 20
28.9340164817
 30
0.0
 11
179.8731876358
 21
28.9340164817
 31
0.0
  0
LINE
  5
2BC
  8
0
  6
CONTINUOUS
 62
     7
 10
173.7137410482
 20
25.9340164817
 30
0.0
 11
179.8731876358
 21
25.9340164817
 31
0.0
  0
LINE
  5
2BD
  8
0
  6
CONTINUOUS
 62
     7
 10
178.8731876358
 20
28.9340164817
 30
0.0
 11
178.8731876358
 21
35.1840164817
 31
0.0
  0
LINE
  5
2BE
  8
0
  6
CONTINUOUS
 62
     7
 10
178.8731876358
 20
28.9340164817
 30
0.0
 11
178.8731876358
 21
25.9340164817
 31
0.0
  0
LINE
  5
2BF
  8
0
  6
CONTINUOUS
 62
     7
 10
178.8731876358
 20
25.9340164817
 30
0.0
 11
178.8731876358
 21
19.6840164817
 31
0.0
  0
TEXT
  5
2C0
  8
0
  6
CONTINUOUS
 62
     7
 10
177.938520214
 20
26.4540781702
 30
0.0
 40
2.6458333333
  1
3
 50
90.0
 41
0.7
 11
178.8731874612
 21
26.4540781702
 31
0.0
 73
     1
  0
ENDBLK
  5
2B8
  8
0
  0
BLOCK
  8
0
  2
SW_CENTERMARKSYMBOL_10
 70
     0
 10
0.0
 20
0.0
 30
0.0
  3
SW_CENTERMARKSYMBOL_10
  1

  0
LINE
  5
2C4
  8
0
  6
CONTINUOUS
 62
     0
 10
0.0
 20
0.0
 30
0.0
 11
0.0
 21
2.5
 31
0.0
  0
LINE
  5
2C5
  8
0
  6
CONTINUOUS
 62
     0
 10
0.0
 20
0.0
 30
0.0
 11
-2.5
 21
0.0
 31
0.0
  0
LINE
  5
2C6
  8
0
  6
CONTINUOUS
 62
     0
 10
0.0
 20
0.0
 30
0.0
 11
0.0
 21
-2.5
 31
0.0
  0
LINE
  5
2C7
  8
0
  6
CONTINUOUS
 62
     0
 10
0.0
 20
0.0
 30
0.0
 11
2.5
 21
0.0
 31
0.0
  0
LINE
  5
2C8
  8
0
  6
CONTINUOUS
 62
     0
 10
0.0
 20
5.0
 30
0.0
 11
0.0
 21
10.0
 31
0.0
  0
LINE
  5
2C9
  8
0
  6
CONTINUOUS
 62
     0
 10
-5.0
 20
0.0
 30
0.0
 11
-10.0
 21
0.0
 31
0.0
  0
LINE
  5
2CA
  8
0
  6
CONTINUOUS
 62
     0
 10
0.0
 20
-5.0
 30
0.0
 11
0.0
 21
-10.0
 31
0.0
  0
LINE
  5
2CB
  8
0
  6
CONTINUOUS
 62
     0
 10
5.0
 20
0.0
 30
0.0
 11
10.0
 21
0.0
 31
0.0
  0
ENDBLK
  5
2C3
  8
0
  0
BLOCK
  8
0
  2
_D_17
 70
     0
 10
0.0
 20
0.0
 30
0.0
  3
_D_17
  1

  0
SOLID
  5
37A
  8
0
  6
CONTINUOUS
 62
     7
 10
257.7531220792
 20
184.2460342736
 30
0.0
 11
257.2531220792
 21
180.9460342736
 31
0.0
 12
258.2531220792
 22
180.9460342736
 32
0.0
 13
258.2531220792
 23
180.9460342736
 33
0.0
  0
SOLID
  5
37B
  8
0
  6
CONTINUOUS
 62
     7
 10
257.7531220792
 20
186.2460342736
 30
0.0
 11
258.2531220792
 21
189.5460342736
 31
0.0
 12
257.2531220792
 22
189.5460342736
 32
0.0
 13
257.2531220792
 23
189.5460342736
 33
0.0
  0
LINE
  5
37C
  8
0
  6
CONTINUOUS
 62
     7
 10
294.7531220792
 20
184.2460342736
 30
0.0
 11
256.7531220792
 21
184.2460342736
 31
0.0
  0
LINE
  5
37D
  8
0
  6
CONTINUOUS
 62
     7
 10
294.7531220792
 20
186.2460342736
 30
0.0
 11
256.7531220792
 21
186.2460342736
 31
0.0
  0
LINE
  5
37E
  8
0
  6
CONTINUOUS
 62
     7
 10
257.7531220792
 20
184.2460342736
 30
0.0
 11
257.7531220792
 21
177.9960342736
 31
0.0
  0
LINE
  5
37F
  8
0
  6
CONTINUOUS
 62
     7
 10
257.7531220792
 20
184.2460342736
 30
0.0
 11
257.7531220792
 21
186.2460342736
 31
0.0
  0
LINE
  5
380
  8
0
  6
CONTINUOUS
 62
     7
 10
257.7531220792
 20
186.2460342736
 30
0.0
 11
257.7531220792
 21
192.4960342736
 31
0.0
  0
TEXT
  5
381
  8
0
  6
CONTINUOUS
 62
     7
 10
256.8184546574
 20
184.2660959621
 30
0.0
 40
2.6458333333
  1
2
 50
90.0
 41
0.7
 11
257.7531219046
 21
184.2660959621
 31
0.0
 73
     1
  0
ENDBLK
  5
379
  8
0
  0
BLOCK
  8
0
  2
_D_18
 70
     0
 10
0.0
 20
0.0
 30
0.0
  3
_D_18
  1

  0
SOLID
  5
386
  8
0
  6
CONTINUOUS
 62
     7
 10
327.7531220792
 20
235.3245330193
 30
0.0
 11
331.0531220792
 21
234.8245330193
 31
0.0
 12
331.0531220792
 22
235.8245330193
 32
0.0
 13
331.0531220792
 23
235.8245330193
 33
0.0
  0
SOLID
  5
387
  8
0
  6
CONTINUOUS
 62
     7
 10
315.7531220792
 20
235.3245330193
 30
0.0
 11
312.4531220792
 21
235.8245330193
 31
0.0
 12
312.4531220792
 22
234.8245330193
 32
0.0
 13
312.4531220792
 23
234.8245330193
 33
0.0
  0
LINE
  5
388
  8
0
  6
CONTINUOUS
 62
     7
 10
327.7531220792
 20
210.7460342736
 30
0.0
 11
327.7531220792
 21
236.3245330193
 31
0.0
  0
LINE
  5
389
  8
0
  6
CONTINUOUS
 62
     7
 10
315.7531220792
 20
233.7460342736
 30
0.0
 11
315.7531220792
 21
236.3245330193
 31
0.0
  0
LINE
  5
38A
  8
0
  6
CONTINUOUS
 62
     7
 10
327.7531220792
 20
235.3245330193
 30
0.0
 11
334.0031220792
 21
235.3245330193
 31
0.0
  0
LINE
  5
38B
  8
0
  6
CONTINUOUS
 62
     7
 10
327.7531220792
 20
235.3245330193
 30
0.0
 11
315.7531220792
 21
235.3245330193
 31
0.0
  0
LINE
  5
38C
  8
0
  6
CONTINUOUS
 62
     7
 10
315.7531220792
 20
235.3245330193
 30
0.0
 11
309.5031220792
 21
235.3245330193
 31
0.0
  0
TEXT
  5
38D
  8
0
  6
CONTINUOUS
 62
     7
 10
319.7932454562
 20
236.259200441
 30
0.0
 40
2.6458333333
  1
12
 50
0.0
 41
0.7
 11
319.7932454562
 21
235.3245331939
 31
0.0
 73
     1
  0
ENDBLK
  5
385
  8
0
  0
BLOCK
  8
0
  2
_D_19
 70
     0
 10
0.0
 20
0.0
 30
0.0
  3
_D_19
  1

  0
SOLID
  5
392
  8
0
  6
CONTINUOUS
 62
     7
 10
343.4424696983
 20
197.7460342736
 30
0.0
 11
343.9424696983
 21
201.0460342736
 31
0.0
 12
342.9424696983
 22
201.0460342736
 32
0.0
 13
342.9424696983
 23
201.0460342736
 33
0.0
  0
SOLID
  5
393
  8
0
  6
CONTINUOUS
 62
     7
 10
343.4424696983
 20
181.2460342736
 30
0.0
 11
342.9424696983
 21
177.9460342736
 31
0.0
 12
343.9424696983
 22
177.9460342736
 32
0.0
 13
343.9424696983
 23
177.9460342736
 33
0.0
  0
LINE
  5
394
  8
0
  6
CONTINUOUS
 62
     7
 10
334.2531220792
 20
197.7460342736
 30
0.0
 11
344.4424696983
 21
197.7460342736
 31
0.0
  0
LINE
  5
395
  8
0
  6
CONTINUOUS
 62
     7
 10
316.7531220792
 20
181.2460342736
 30
0.0
 11
344.4424696983
 21
181.2460342736
 31
0.0
  0
LINE
  5
396
  8
0
  6
CONTINUOUS
 62
     7
 10
343.4424696983
 20
197.7460342736
 30
0.0
 11
343.4424696983
 21
203.9960342736
 31
0.0
  0
LINE
  5
397
  8
0
  6
CONTINUOUS
 62
     7
 10
343.4424696983
 20
197.7460342736
 30
0.0
 11
343.4424696983
 21
181.2460342736
 31
0.0
  0
LINE
  5
398
  8
0
  6
CONTINUOUS
 62
     7
 10
343.4424696983
 20
181.2460342736
 30
0.0
 11
343.4424696983
 21
174.9960342736
 31
0.0
  0
TEXT
  5
399
  8
0
  6
CONTINUOUS
 62
     7
 10
342.5078022765
 20
186.066250067
 30
0.0
 40
2.6458333333
  1
16,5
 50
90.0
 41
0.7
 11
343.4424695237
 21
186.066250067
 31
0.0
 73
     1
  0
ENDBLK
  5
391
  8
0
  0
BLOCK
  8
0
  2
_D_20
 70
     0
 10
0.0
 20
0.0
 30
0.0
  3
_D_20
  1

  0
SOLID
  5
39E
  8
0
  6
CONTINUOUS
 62
     7
 10
295.7531220792
 20
175.2792909247
 30
0.0
 11
299.0531220792
 21
174.7792909247
 31
0.0
 12
299.0531220792
 22
175.7792909247
 32
0.0
 13
299.0531220792
 23
175.7792909247
 33
0.0
  0
SOLID
  5
39F
  8
0
  6
CONTINUOUS
 62
     7
 10
319.7531220792
 20
175.2792909247
 30
0.0
 11
316.4531220792
 21
175.7792909247
 31
0.0
 12
316.4531220792
 22
174.7792909247
 32
0.0
 13
316.4531220792
 23
174.7792909247
 33
0.0
  0
LINE
  5
3A0
  8
0
  6
CONTINUOUS
 62
     7
 10
295.7531220792
 20
180.2460342736
 30
0.0
 11
295.7531220792
 21
174.2792909247
 31
0.0
  0
LINE
  5
3A1
  8
0
  6
CONTINUOUS
 62
     7
 10
319.7531220792
 20
180.2460342736
 30
0.0
 11
319.7531220792
 21
174.2792909247
 31
0.0
  0
LINE
  5
3A2
  8
0
  6
CONTINUOUS
 62
     7
 10
295.7531220792
 20
175.2792909247
 30
0.0
 11
319.7531220792
 21
175.2792909247
 31
0.0
  0
TEXT
  5
3A3
  8
0
  6
CONTINUOUS
 62
     7
 10
305.7932454562
 20
176.2139583465
 30
0.0
 40
2.6458333333
  1
24
 50
0.0
 41
0.7
 11
305.7932454562
 21
175.2792910994
 31
0.0
 73
     1
  0
ENDBLK
  5
39D
  8
0
  0
BLOCK
  8
0
  2
SW_CENTERMARKSYMBOL_11
 70
     0
 10
0.0
 20
0.0
 30
0.0
  3
SW_CENTERMARKSYMBOL_11
  1

  0
LINE
  5
3A7
  8
0
  6
CONTINUOUS
 62
     0
 10
0.0
 20
0.0
 30
0.0
 11
2.5
 21
0.0
 31
0.0
  0
LINE
  5
3A8
  8
0
  6
CONTINUOUS
 62
     0
 10
0.0
 20
0.0
 30
0.0
 11
0.0
 21
2.5
 31
0.0
  0
LINE
  5
3A9
  8
0
  6
CONTINUOUS
 62
     0
 10
0.0
 20
0.0
 30
0.0
 11
-2.5
 21
0.0
 31
0.0
  0
LINE
  5
3AA
  8
0
  6
CONTINUOUS
 62
     0
 10
0.0
 20
0.0
 30
0.0
 11
0.0
 21
-2.5
 31
0.0
  0
LINE
  5
3AB
  8
0
  6
CONTINUOUS
 62
     0
 10
5.0
 20
0.0
 30
0.0
 11
7.5
 21
0.0
 31
0.0
  0
LINE
  5
3AC
  8
0
  6
CONTINUOUS
 62
     0
 10
0.0
 20
5.0
 30
0.0
 11
0.0
 21
7.5
 31
0.0
  0
LINE
  5
3AD
  8
0
  6
CONTINUOUS
 62
     0
 10
-5.0
 20
0.0
 30
0.0
 11
-7.5
 21
0.0
 31
0.0
  0
LINE
  5
3AE
  8
0
  6
CONTINUOUS
 62
     0
 10
0.0
 20
-5.0
 30
0.0
 11
0.0
 21
-7.5
 31
0.0
  0
ENDBLK
  5
3A6
  8
0
  0
ENDSEC
  0
SECTION
  2
ENTITIES
  0
LINE
  5
75
  8
0
  6
CONTINUOUS
 62
     7
 10
227.8
 20
60.25
 30
0.0
 11
227.8
 21
5.0
 31
0.0
  0
LINE
  5
76
  8
0
  6
CONTINUOUS
 62
     7
 10
235.42
 20
43.25
 30
0.0
 11
235.42
 21
5.0
 31
0.0
  0
LINE
  5
77
  8
0
  6
CONTINUOUS
 62
     7
 10
260.82
 20
5.0
 30
0.0
 11
260.82
 21
43.25
 31
0.0
  0
LINE
  5
78
  8
0
  6
CONTINUOUS
 62
     7
 10
410.0
 20
287.0
 30
0.0
 11
410.0
 21
60.25
 31
0.0
  0
LINE
  5
79
  8
0
  6
CONTINUOUS
 62
     7
 10
281.14
 20
22.0
 30
0.0
 11
415.0
 21
22.0
 31
0.0
  0
LINE
  5
7A
  8
0
  6
CONTINUOUS
 62
     7
 10
415.0
 20
43.25
 30
0.0
 11
227.8
 21
43.25
 31
0.0
  0
LINE
  5
7B
  8
0
  6
CONTINUOUS
 62
     7
 10
227.8
 20
60.25
 30
0.0
 11
415.0
 21
60.25
 31
0.0
  0
LINE
  5
7C
  8
0
  6
CONTINUOUS
 62
     7
 10
281.14
 20
38.9447711707
 30
0.0
 11
227.8
 21
38.9447711707
 31
0.0
  0
LINE
  5
7D
  8
0
  6
CONTINUOUS
 62
     7
 10
281.14
 20
5.0
 30
0.0
 11
281.14
 21
60.25
 31
0.0
  0
LINE
  5
7E
  8
0
  6
CONTINUOUS
 62
     7
 10
324.32
 20
60.25
 30
0.0
 11
324.32
 21
5.0
 31
0.0
  0
LINE
  5
7F
  8
0
  6
CONTINUOUS
 62
     7
 10
273.52
 20
43.25
 30
0.0
 11
273.52
 21
5.0
 31
0.0
  0
LINE
  5
80
  8
0
  6
CONTINUOUS
 62
     7
 10
290.5491845626
 20
22.0
 30
0.0
 11
290.5491845626
 21
43.25
 31
0.0
  0
LINE
  5
81
  8
0
  6
CONTINUOUS
 62
     7
 10
281.14
 20
13.5
 30
0.0
 11
227.8
 21
13.5
 31
0.0
  0
LINE
  5
82
  8
0
  6
CONTINUOUS
 62
     7
 10
306.6969257405
 20
43.25
 30
0.0
 11
306.6969257405
 21
22.0
 31
0.0
  0
LINE
  5
83
  8
0
  6
CONTINUOUS
 62
     7
 10
368.48
 20
5.0
 30
0.0
 11
368.48
 21
9.25
 31
0.0
  0
LINE
  5
84
  8
0
  6
CONTINUOUS
 62
     7
 10
376.28
 20
53.875
 30
0.0
 11
376.28
 21
60.25
 31
0.0
  0
LINE
  5
85
  8
0
  6
CONTINUOUS
 62
     7
 10
227.8
 20
9.23
 30
0.0
 11
281.14
 21
9.23
 31
0.0
  0
LINE
  5
86
  8
0
  6
CONTINUOUS
 62
     7
 10
399.68
 20
9.25
 30
0.0
 11
399.68
 21
22.0
 31
0.0
  0
LINE
  5
87
  8
0
  6
CONTINUOUS
 62
     7
 10
415.0
 20
53.875
 30
0.0
 11
324.32
 21
53.875
 31
0.0
  0
LINE
  5
88
  8
0
  6
CONTINUOUS
 62
     7
 10
415.0
 20
5.0
 30
0.0
 11
415.0
 21
60.25
 31
0.0
  0
LINE
  5
89
  8
0
  6
CONTINUOUS
 62
     7
 10
227.8
 20
5.0
 30
0.0
 11
415.0
 21
5.0
 31
0.0
  0
LINE
  5
8A
  8
0
  6
CONTINUOUS
 62
     7
 10
281.14
 20
17.75
 30
0.0
 11
227.8
 21
17.75
 31
0.0
  0
LINE
  5
8B
  8
0
  6
CONTINUOUS
 62
     7
 10
281.14
 20
22.0
 30
0.0
 11
227.8
 21
22.0
 31
0.0
  0
LINE
  5
8C
  8
0
  6
CONTINUOUS
 62
     7
 10
324.32
 20
26.25
 30
0.0
 11
227.8
 21
26.25
 31
0.0
  0
LINE
  5
8D
  8
0
  6
CONTINUOUS
 62
     7
 10
324.32
 20
30.5
 30
0.0
 11
227.8
 21
30.5
 31
0.0
  0
LINE
  5
8E
  8
0
  6
CONTINUOUS
 62
     7
 10
324.32
 20
34.75
 30
0.0
 11
227.8
 21
34.75
 31
0.0
  0
LINE
  5
8F
  8
0
  6
CONTINUOUS
 62
     7
 10
324.32
 20
38.9447711707
 30
0.0
 11
281.14
 21
38.9447711707
 31
0.0
  0
LINE
  5
90
  8
0
  6
CONTINUOUS
 62
     7
 10
415.0
 20
13.5
 30
0.0
 11
399.68
 21
13.5
 31
0.0
  0
LINE
  5
91
  8
0
  6
CONTINUOUS
 62
     7
 10
324.32
 20
9.23
 30
0.0
 11
415.0
 21
9.23
 31
0.0
  0
LINE
  5
92
  8
0
  6
CONTINUOUS
 62
     7
 10
222.8
 20
5.0
 30
0.0
 11
227.8
 21
5.0
 31
0.0
  0
LINE
  5
93
  8
0
  6
CONTINUOUS
 62
     7
 10
415.0
 20
292.0
 30
0.0
 11
5.0
 21
292.0
 31
0.0
  0
LINE
  5
94
  8
0
  6
CONTINUOUS
 62
     7
 10
410.0
 20
287.0
 30
0.0
 11
10.0
 21
287.0
 31
0.0
  0
LINE
  5
95
  8
0
  6
CONTINUOUS
 62
     7
 10
5.0
 20
292.0
 30
0.0
 11
5.0
 21
5.0
 31
0.0
  0
LINE
  5
96
  8
0
  6
CONTINUOUS
 62
     7
 10
10.0
 20
287.0
 30
0.0
 11
10.0
 21
10.0
 31
0.0
  0
LINE
  5
97
  8
0
  6
CONTINUOUS
 62
     7
 10
10.0
 20
48.5
 30
0.0
 11
5.0
 21
48.5
 31
0.0
  0
LINE
  5
98
  8
0
  6
CONTINUOUS
 62
     7
 10
5.0
 20
98.5
 30
0.0
 11
10.0
 21
98.5
 31
0.0
  0
LINE
  5
99
  8
0
  6
CONTINUOUS
 62
     7
 10
5.0
 20
198.5
 30
0.0
 11
10.0
 21
198.5
 31
0.0
  0
LINE
  5
9A
  8
0
  6
CONTINUOUS
 62
     7
 10
5.0
 20
148.5
 30
0.0
 11
15.0
 21
148.5
 31
0.0
  0
LINE
  5
9B
  8
0
  6
CONTINUOUS
 62
     7
 10
5.0
 20
5.0
 30
0.0
 11
227.8
 21
5.0
 31
0.0
  0
LINE
  5
9C
  8
0
  6
CONTINUOUS
 62
     7
 10
10.0
 20
10.0
 30
0.0
 11
227.8
 21
10.0
 31
0.0
  0
LINE
  5
9D
  8
0
  6
CONTINUOUS
 62
     7
 10
60.0
 20
5.0
 30
0.0
 11
60.0
 21
10.0
 31
0.0
  0
LINE
  5
9E
  8
0
  6
CONTINUOUS
 62
     7
 10
110.0
 20
10.0
 30
0.0
 11
110.0
 21
5.0
 31
0.0
  0
LINE
  5
9F
  8
0
  6
CONTINUOUS
 62
     7
 10
160.0
 20
5.0
 30
0.0
 11
160.0
 21
10.0
 31
0.0
  0
LINE
  5
A0
  8
0
  6
CONTINUOUS
 62
     7
 10
10.0
 20
248.5
 30
0.0
 11
5.0
 21
248.5
 31
0.0
  0
LINE
  5
A1
  8
0
  6
CONTINUOUS
 62
     7
 10
60.0
 20
287.0
 30
0.0
 11
60.0
 21
292.0
 31
0.0
  0
LINE
  5
A2
  8
0
  6
CONTINUOUS
 62
     7
 10
110.0
 20
292.0
 30
0.0
 11
110.0
 21
287.0
 31
0.0
  0
LINE
  5
A3
  8
0
  6
CONTINUOUS
 62
     7
 10
160.0
 20
287.0
 30
0.0
 11
160.0
 21
292.0
 31
0.0
  0
LINE
  5
A4
  8
0
  6
CONTINUOUS
 62
     7
 10
260.0
 20
287.0
 30
0.0
 11
260.0
 21
292.0
 31
0.0
  0
LINE
  5
A5
  8
0
  6
CONTINUOUS
 62
     7
 10
415.0
 20
60.25
 30
0.0
 11
415.0
 21
292.0
 31
0.0
  0
LINE
  5
A6
  8
0
  6
CONTINUOUS
 62
     7
 10
210.0
 20
5.0
 30
0.0
 11
210.0
 21
15.0
 31
0.0
  0
LINE
  5
A7
  8
0
  6
CONTINUOUS
 62
     7
 10
410.0
 20
198.5
 30
0.0
 11
415.0
 21
198.5
 31
0.0
  0
LINE
  5
A8
  8
0
  6
CONTINUOUS
 62
     7
 10
410.0
 20
98.5
 30
0.0
 11
415.0
 21
98.5
 31
0.0
  0
LINE
  5
A9
  8
0
  6
CONTINUOUS
 62
     7
 10
415.0
 20
148.5
 30
0.0
 11
405.0
 21
148.5
 31
0.0
  0
LINE
  5
AA
  8
0
  6
CONTINUOUS
 62
     7
 10
310.0
 20
292.0
 30
0.0
 11
310.0
 21
287.0
 31
0.0
  0
LINE
  5
AB
  8
0
  6
CONTINUOUS
 62
     7
 10
360.0
 20
287.0
 30
0.0
 11
360.0
 21
292.0
 31
0.0
  0
LINE
  5
AC
  8
0
  6
CONTINUOUS
 62
     7
 10
210.0
 20
292.0
 30
0.0
 11
210.0
 21
282.0
 31
0.0
  0
LINE
  5
AD
  8
0
  6
CONTINUOUS
 62
     7
 10
415.0
 20
248.5
 30
0.0
 11
410.0
 21
248.5
 31
0.0
  0
TEXT
  5
AE
  8
0
  6
CONTINUOUS
 62
     7
 10
292.5258939578
 20
35.8070078056
 30
0.0
 40
2.1166666667
  1
09.11.21
 41
0.7
 11
292.5258939578
 21
35.0592740079
 31
0.0
 73
     1
  0
TEXT
  5
AF
  8
0
  6
CONTINUOUS
 62
     7
 10
310.0227313697
 20
35.6182970793
 30
0.0
 40
2.1166666667
  1
Hammad
 41
0.7
 11
310.0227313697
 21
34.8705632816
 31
0.0
 73
     1
  0
TEXT
  5
B0
  8
0
  6
CONTINUOUS
 62
     7
 10
346.0914326979
 20
38.3042642017
 30
0.0
 40
3.5
  1
060-5-160
 41
0.7
 11
346.0914326979
 21
37.067853985
 31
0.0
 73
     1
  0
TEXT
  5
B1
  8
0
  6
CONTINUOUS
 62
     7
 10
6.6666666667
 20
122.9348266002
 30
0.0
 40
1.8520833333
  1
D
 41
0.7
 11
6.6666666667
 21
122.2805595272
 31
0.0
 73
     1
  0
TEXT
  5
B2
  8
0
  6
CONTINUOUS
 62
     7
 10
6.6666666667
 20
72.9348266002
 30
0.0
 40
1.8520833333
  1
E
 41
0.7
 11
6.6666666667
 21
72.2805595272
 31
0.0
 73
     1
  0
TEXT
  5
B3
  8
0
  6
CONTINUOUS
 62
     7
 10
6.6666666667
 20
22.9348266002
 30
0.0
 40
1.8520833333
  1
F
 41
0.7
 11
6.6666666667
 21
22.2805595272
 31
0.0
 73
     1
  0
TEXT
  5
B4
  8
0
  6
CONTINUOUS
 62
     7
 10
6.6666666667
 20
172.9348266002
 30
0.0
 40
1.8520833333
  1
C
 41
0.7
 11
6.6666666667
 21
172.2805595272
 31
0.0
 73
     1
  0
TEXT
  5
B5
  8
0
  6
CONTINUOUS
 62
     7
 10
34.5833333333
 20
6.9348306002
 30
0.0
 40
1.8520833333
  1
1
 41
0.7
 11
34.5833333333
 21
6.2805635272
 31
0.0
 73
     1
  0
TEXT
  5
B6
  8
0
  6
CONTINUOUS
 62
     7
 10
84.1666666667
 20
6.9348306002
 30
0.0
 40
1.8520833333
  1
2
 41
0.7
 11
84.1666666667
 21
6.2805635272
 31
0.0
 73
     1
  0
TEXT
  5
B7
  8
0
  6
CONTINUOUS
 62
     7
 10
134.1666666667
 20
6.9348306002
 30
0.0
 40
1.8520833333
  1
3
 41
0.7
 11
134.1666666667
 21
6.2805635272
 31
0.0
 73
     1
  0
TEXT
  5
B8
  8
0
  6
CONTINUOUS
 62
     7
 10
184.1666666667
 20
6.9348306002
 30
0.0
 40
1.8520833333
  1
4
 41
0.7
 11
184.1666666667
 21
6.2805635272
 31
0.0
 73
     1
  0
TEXT
  5
B9
  8
0
  6
CONTINUOUS
 62
     7
 10
6.6666666667
 20
222.9348266002
 30
0.0
 40
1.8520833333
  1
B
 41
0.7
 11
6.6666666667
 21
222.2805595272
 31
0.0
 73
     1
  0
TEXT
  5
BA
  8
0
  6
CONTINUOUS
 62
     7
 10
6.6666666667
 20
272.9348266002
 30
0.0
 40
1.8520833333
  1
A
 41
0.7
 11
6.6666666667
 21
272.2805595272
 31
0.0
 73
     1
  0
TEXT
  5
BB
  8
0
  6
CONTINUOUS
 62
     7
 10
134.1666666667
 20
288.9348306002
 30
0.0
 40
1.8520833333
  1
3
 41
0.7
 11
134.1666666667
 21
288.2805635272
 31
0.0
 73
     1
  0
TEXT
  5
BC
  8
0
  6
CONTINUOUS
 62
     7
 10
84.1666666667
 20
288.9348306002
 30
0.0
 40
1.8520833333
  1
2
 41
0.7
 11
84.1666666667
 21
288.2805635272
 31
0.0
 73
     1
  0
TEXT
  5
BD
  8
0
  6
CONTINUOUS
 62
     7
 10
34.5833333333
 20
288.9348306002
 30
0.0
 40
1.8520833333
  1
1
 41
0.7
 11
34.5833333333
 21
288.2805635272
 31
0.0
 73
     1
  0
TEXT
  5
BE
  8
0
  6
CONTINUOUS
 62
     7
 10
234.1666666667
 20
288.9348306002
 30
0.0
 40
1.8520833333
  1
5
 41
0.7
 11
234.1666666667
 21
288.2805635272
 31
0.0
 73
     1
  0
TEXT
  5
BF
  8
0
  6
CONTINUOUS
 62
     7
 10
411.6666666667
 20
172.9348266002
 30
0.0
 40
1.8520833333
  1
C
 41
0.7
 11
411.6666666667
 21
172.2805595272
 31
0.0
 73
     1
  0
TEXT
  5
C0
  8
0
  6
CONTINUOUS
 62
     7
 10
411.6666666667
 20
122.9348266002
 30
0.0
 40
1.8520833333
  1
D
 41
0.7
 11
411.6666666667
 21
122.2805595272
 31
0.0
 73
     1
  0
TEXT
  5
C1
  8
0
  6
CONTINUOUS
 62
     7
 10
184.1666666667
 20
288.9348306002
 30
0.0
 40
1.8520833333
  1
4
 41
0.7
 11
184.1666666667
 21
288.2805635272
 31
0.0
 73
     1
  0
TEXT
  5
C2
  8
0
  6
CONTINUOUS
 62
     7
 10
284.1666666667
 20
288.9348306002
 30
0.0
 40
1.8520833333
  1
6
 41
0.7
 11
284.1666666667
 21
288.2805635272
 31
0.0
 73
     1
  0
TEXT
  5
C3
  8
0
  6
CONTINUOUS
 62
     7
 10
334.1666666667
 20
288.9348306002
 30
0.0
 40
1.8520833333
  1
7
 41
0.7
 11
334.1666666667
 21
288.2805635272
 31
0.0
 73
     1
  0
TEXT
  5
C4
  8
0
  6
CONTINUOUS
 62
     7
 10
384.1666666667
 20
288.9348306002
 30
0.0
 40
1.8520833333
  1
8
 41
0.7
 11
384.1666666667
 21
288.2805635272
 31
0.0
 73
     1
  0
TEXT
  5
C5
  8
0
  6
CONTINUOUS
 62
     7
 10
411.6666666667
 20
272.9348266002
 30
0.0
 40
1.8520833333
  1
A
 41
0.7
 11
411.6666666667
 21
272.2805595272
 31
0.0
 73
     1
  0
TEXT
  5
C6
  8
0
  6
CONTINUOUS
 62
     7
 10
411.6666666667
 20
222.9348266002
 30
0.0
 40
1.8520833333
  1
B
 41
0.7
 11
411.6666666667
 21
222.2805595272
 31
0.0
 73
     1
  0
TEXT
  5
C7
  8
0
  6
CONTINUOUS
 62
     7
 10
228.6542475233
 20
5.8405442472
 30
0.0
 40
2.0
  1
Zust.
 41
0.7
 11
228.6542475233
 21
5.1340241233
 31
0.0
 73
     1
  0
TEXT
  5
C8
  8
0
  6
CONTINUOUS
 62
     7
 10
242.3236265502
 20
5.8405442472
 30
0.0
 40
2.0
  1
Änderung
 41
0.7
 11
242.3236265502
 21
5.1340241233
 31
0.0
 73
     1
  0
TEXT
  5
C9
  8
0
  6
CONTINUOUS
 62
     7
 10
273.7487245318
 20
5.8293213552
 30
0.0
 40
2.0
  1
Name
 41
0.7
 11
273.7487245318
 21
5.1228012314
 31
0.0
 73
     1
  0
TEXT
  5
CA
  8
0
  6
CONTINUOUS
 62
     7
 10
281.9346052427
 20
36.0024961334
 30
0.0
 40
2.0
  1
Bearb.
 41
0.7
 11
281.9346052427
 21
35.2959760096
 31
0.0
 73
     1
  0
TEXT
  5
CB
  8
0
  6
CONTINUOUS
 62
     7
 10
282.5538425523
 20
31.8123005822
 30
0.0
 40
2.0
  1
Gepr.
 41
0.7
 11
282.5538425523
 21
31.1057804584
 31
0.0
 73
     1
  0
TEXT
  5
CC
  8
0
  6
CONTINUOUS
 62
     7
 10
282.568021583
 20
27.5024931334
 30
0.0
 40
2.0
  1
Norm
 41
0.7
 11
282.568021583
 21
26.7959730096
 31
0.0
 73
     1
  0
INSERT
  5
D2
  8
0
  6
CONTINUOUS
 62
     7
  2
SW_NOTE_0
 10
326.1421941634
 20
54.7004161895
 30
0.0
  0
TEXT
  5
D3
  8
0
  6
CONTINUOUS
 62
     7
 10
293.8208978724
 20
40.2378571451
 30
0.0
 40
2.0
  1
Datum
 41
0.7
 11
293.8208978724
 21
39.5313370213
 31
0.0
 73
     1
  0
TEXT
  5
D4
  8
0
  6
CONTINUOUS
 62
     7
 10
310.9758605414
 20
40.2399684874
 30
0.0
 40
2.0
  1
Name
 41
0.7
 11
310.9758605414
 21
39.5334483635
 31
0.0
 73
     1
  0
TEXT
  5
D5
  8
0
  6
CONTINUOUS
 62
     7
 10
400.679992
 20
18.8834825574
 30
0.0
 40
2.5
  1
Blatt
 41
0.7
 11
400.679992
 21
18.0003324026
 31
0.0
 73
     1
  0
TEXT
  5
D6
  8
0
  6
CONTINUOUS
 62
     7
 10
401.6114022462
 20
14.9434680153
 30
0.0
 40
2.0
  1
1 (A3)
 41
0.7
 11
401.6114022462
 21
14.2369478915
 31
0.0
 73
     1
  0
TEXT
  5
D7
  8
0
  6
CONTINUOUS
 62
     7
 10
401.6114022462
 20
10.7163935227
 30
0.0
 40
2.0
  1
1 von 1
 41
0.6
 11
401.6114022462
 21
10.0098733989
 31
0.0
 73
     1
  0
TEXT
  5
D8
  8
0
  6
CONTINUOUS
 62
     7
 10
325.769379396
 20
6.0126746831
 30
0.0
 40
2.0
  1
Ers. für:
 41
0.7
 11
325.769379396
 21
5.3061545592
 31
0.0
 73
     1
  0
TEXT
  5
D9
  8
0
  6
CONTINUOUS
 62
     7
 10
369.3744127484
 20
6.1456631557
 30
0.0
 40
2.0
  1
Ers. durch: 
 41
0.6416666667
 11
369.3744127484
 21
5.4391430318
 31
0.0
 73
     1
  0
TEXT
  5
DA
  8
0
  6
CONTINUOUS
 62
     7
 10
325.8260642912
 20
38.8860690348
 30
0.0
 40
2.5
  1
Benennung:
 41
0.7
 11
325.8260642912
 21
38.00291888
 31
0.0
 73
     1
  0
TEXT
  5
DB
  8
0
  6
CONTINUOUS
 62
     7
 10
326.3720674831
 20
17.4450861174
 30
0.0
 40
2.5
  1
ZEICHNUNGSNR.   ZK 4866
 41
0.6391304348
 11
326.3720674831
 21
16.5619359626
 31
0.0
 73
     1
  0
TEXT
  5
DC
  8
0
  6
CONTINUOUS
 62
     7
 10
326.4245832263
 20
11.7244404863
 30
0.0
 40
2.5
  1
TEILENUMMER   
 41
0.625
 11
326.4245832263
 21
10.8412903315
 31
0.0
 73
     1
  0
TEXT
  5
DD
  8
0
  6
CONTINUOUS
 62
     7
 10
263.2346620132
 20
5.8293213552
 30
0.0
 40
2.0
  1
Datum
 41
0.7
 11
263.2346620132
 21
5.1228012314
 31
0.0
 73
     1
  0
INSERT
  5
E5
  8
0
  6
CONTINUOUS
 62
     7
  2
SW_NOTE_0_1
 10
290.4226877706
 20
16.7269093507
 30
0.0
  0
INSERT
  5
EF
  8
0
  6
CONTINUOUS
 62
     7
  2
SW_NOTE_0_2
 10
230.3638616607
 20
56.9426173561
 30
0.0
  0
TEXT
  5
F0
  8
0
  6
CONTINUOUS
 62
     7
 10
380.8494930471
 20
55.6933776061
 30
0.0
 40
3.5
  1
ISO2768-m-K
 41
0.7
 11
380.8494930471
 21
54.4569673894
 31
0.0
 73
     1
  0
TEXT
  5
F1
  8
0
  6
CONTINUOUS
 62
     7
 10
326.1548865668
 20
50.1794325104
 30
0.0
 40
2.5
  1
Material:
 41
0.7
 11
326.1548865668
 21
49.2962823556
 31
0.0
 73
     1
  0
ARC
  5
F2
  8
0
  6
CONTINUOUS
 62
     7
 10
132.1637410482
 20
217.8094588283
 30
0.0
 40
0.2000000000000171
 50
90.0
 51
180.0
  0
ARC
  5
F3
  8
0
  6
CONTINUOUS
 62
     7
 10
149.2637410482
 20
217.8094588283
 30
0.0
 40
0.2000000000000171
 50
0.0
 51
90.0
  0
LINE
  5
F4
  8
0
  6
CONTINUOUS
 62
     7
 10
149.4637410482
 20
217.2594588283
 30
0.0
 11
149.4637410482
 21
217.8094588283
 31
0.0
  0
LINE
  5
F5
  8
0
  6
CONTINUOUS
 62
     7
 10
131.9637410482
 20
217.8094588283
 30
0.0
 11
131.9637410482
 21
217.2594588283
 31
0.0
  0
LINE
  5
F6
  8
0
  6
CONTINUOUS
 62
     7
 10
149.4637410482
 20
138.7094588283
 30
0.0
 11
149.4637410482
 21
138.7594588283
 31
0.0
  0
LINE
  5
F7
  8
0
  6
CONTINUOUS
 62
     7
 10
131.9637410482
 20
138.7594588283
 30
0.0
 11
131.9637410482
 21
138.7094588283
 31
0.0
  0
ARC
  5
F8
  8
0
  6
CONTINUOUS
 62
     7
 10
132.1637410482
 20
138.7094588283
 30
0.0
 40
0.2000000000000171
 50
180.0
 51
270.0
  0
ARC
  5
F9
  8
0
  6
CONTINUOUS
 62
     7
 10
149.2637410482
 20
138.7094588283
 30
0.0
 40
0.2000000000000171
 50
270.0
 51
0.0
  0
LINE
  5
FA
  8
0
  6
CONTINUOUS
 62
     7
 10
150.6637410482
 20
138.7594588283
 30
0.0
 11
150.6637410482
 21
217.2594588283
 31
0.0
  0
LINE
  5
FB
  8
0
  6
CONTINUOUS
 62
     7
 10
130.7637410482
 20
258.1594588283
 30
0.0
 11
130.7637410482
 21
218.3094588283
 31
0.0
  0
LINE
  5
FC
  8
0
  6
CONTINUOUS
 62
     7
 10
130.7637410482
 20
137.7094588283
 30
0.0
 11
130.7637410482
 21
97.8594588283
 31
0.0
  0
LINE
  5
FD
  8
0
  6
CONTINUOUS
 62
     7
 10
136.2137410482
 20
218.3094588283
 30
0.0
 11
136.2137410482
 21
218.0094588283
 31
0.0
  0
LINE
  5
FE
  8
0
  6
CONTINUOUS
 62
     7
 10
136.2137410482
 20
138.5094588283
 30
0.0
 11
136.2137410482
 21
137.7094588283
 31
0.0
  0
LINE
  5
FF
  8
0
  6
CONTINUOUS
 62
     7
 10
145.2137410482
 20
137.7094588283
 30
0.0
 11
145.2137410482
 21
138.5094588283
 31
0.0
  0
LINE
  5
100
  8
0
  6
CONTINUOUS
 62
     7
 10
145.2137410482
 20
218.0094588283
 30
0.0
 11
145.2137410482
 21
218.3094588283
 31
0.0
  0
LINE
  5
101
  8
0
  6
CONTINUOUS
 62
     7
 10
132.1637410482
 20
218.0094588283
 30
0.0
 11
149.2637410482
 21
218.0094588283
 31
0.0
  0
LINE
  5
102
  8
0
  6
CONTINUOUS
 62
     7
 10
149.2637410482
 20
138.5094588283
 30
0.0
 11
132.1637410482
 21
138.5094588283
 31
0.0
  0
LINE
  5
103
  8
0
  6
CONTINUOUS
 62
     7
 10
130.7941949555
 20
217.2594588283
 30
0.0
 11
130.7941949555
 21
138.7594588283
 31
0.0
  0
LINE
  5
104
  8
0
  6
CONTINUOUS
 62
     7
 10
150.6637410482
 20
217.2594588283
 30
0.0
 11
130.7941949555
 21
217.2594588283
 31
0.0
  0
LINE
  5
105
  8
0
  6
CONTINUOUS
 62
     7
 10
130.7941949555
 20
138.7594588283
 30
0.0
 11
150.6637410482
 21
138.7594588283
 31
0.0
  0
LINE
  5
106
  8
0
  6
CONTINUOUS
 62
     7
 10
129.725983825
 20
138.7594588283
 30
0.0
 11
130.7941949555
 21
138.7594588283
 31
0.0
  0
LINE
  5
107
  8
0
  6
CONTINUOUS
 62
     7
 10
129.725983825
 20
217.2594588283
 30
0.0
 11
129.725983825
 21
138.7594588283
 31
0.0
  0
LINE
  5
108
  8
0
  6
CONTINUOUS
 62
     7
 10
130.7941949555
 20
217.2594588283
 30
0.0
 11
129.725983825
 21
217.2594588283
 31
0.0
  0
LINE
  5
109
  8
0
  6
CONTINUOUS
 62
     7
 10
129.7137410482
 20
217.2594588283
 30
0.0
 11
129.7137410482
 21
138.7594588283
 31
0.0
  0
LINE
  5
10A
  8
0
  6
CONTINUOUS
 62
     7
 10
129.7137410482
 20
138.7594588283
 30
0.0
 11
129.725983825
 21
138.7594588283
 31
0.0
  0
LINE
  5
10B
  8
0
  6
CONTINUOUS
 62
     7
 10
129.725983825
 20
217.2594588283
 30
0.0
 11
129.7137410482
 21
217.2594588283
 31
0.0
  0
LINE
  5
10C
  8
0
  6
CONTINUOUS
 62
     7
 10
129.7137410482
 20
251.5094588283
 30
0.0
 11
130.7637410482
 21
251.5094588283
 31
0.0
  0
LINE
  5
10D
  8
0
  6
CONTINUOUS
 62
     7
 10
132.7137410482
 20
218.0094588283
 30
0.0
 11
132.7137410482
 21
218.3094588283
 31
0.0
  0
LINE
  5
10E
  8
0
  6
CONTINUOUS
 62
     7
 10
129.7137410482
 20
217.2594588283
 30
0.0
 11
129.7137410482
 21
251.5094588283
 31
0.0
  0
LINE
  5
10F
  8
0
  6
CONTINUOUS
 62
     7
 10
129.7137410482
 20
104.5094588283
 30
0.0
 11
130.7637410482
 21
104.5094588283
 31
0.0
  0
LINE
  5
110
  8
0
  6
CONTINUOUS
 62
     7
 10
132.7137410482
 20
137.7094588283
 30
0.0
 11
132.7137410482
 21
138.5094588283
 31
0.0
  0
LINE
  5
111
  8
0
  6
CONTINUOUS
 62
     7
 10
129.7137410482
 20
104.5094588283
 30
0.0
 11
129.7137410482
 21
138.7594588283
 31
0.0
  0
LINE
  5
112
  8
0
  6
CONTINUOUS
 62
     7
 10
128.7137410482
 20
251.5094588283
 30
0.0
 11
128.7137410482
 21
104.5094588283
 31
0.0
  0
LINE
  5
113
  8
0
  6
CONTINUOUS
 62
     7
 10
128.7137410482
 20
104.5094588283
 30
0.0
 11
129.7137410482
 21
104.5094588283
 31
0.0
  0
LINE
  5
114
  8
0
  6
CONTINUOUS
 62
     7
 10
129.7137410482
 20
251.5094588283
 30
0.0
 11
128.7137410482
 21
251.5094588283
 31
0.0
  0
LINE
  5
115
  8
0
  6
CONTINUOUS
 62
     7
 10
128.2137410482
 20
251.5094588283
 30
0.0
 11
128.2137410482
 21
255.3769558259
 31
0.0
  0
LINE
  5
116
  8
0
  6
CONTINUOUS
 62
     7
 10
128.7137410482
 20
251.5094588283
 30
0.0
 11
128.2137410482
 21
251.5094588283
 31
0.0
  0
LINE
  5
117
  8
0
  6
CONTINUOUS
 62
     7
 10
128.2137410482
 20
104.5094588283
 30
0.0
 11
128.7137410482
 21
104.5094588283
 31
0.0
  0
LINE
  5
118
  8
0
  6
CONTINUOUS
 62
     7
 10
128.2137410482
 20
100.6419618307
 30
0.0
 11
128.2137410482
 21
104.5094588283
 31
0.0
  0
ARC
  5
119
  8
0
  6
CONTINUOUS
 62
     7
 10
120.7137410482
 20
110.0094588283
 30
0.0
 40
12.0
 50
180.0
 51
308.6821874535
  0
LINE
  5
11A
  8
0
  6
CONTINUOUS
 62
     7
 10
108.7137410482
 20
246.0094588283
 30
0.0
 11
108.7137410482
 21
110.0094588283
 31
0.0
  0
ARC
  5
11B
  8
0
  6
CONTINUOUS
 62
     7
 10
120.7137410482
 20
246.0094588283
 30
0.0
 40
12.00000000000003
 50
51.3178125465
 51
180.0
  0
CIRCLE
  5
11C
  8
0
  6
CONTINUOUS
 62
     7
 10
122.7137410482
 20
248.0094588283
 30
0.0
 40
5.250000000000014
  0
CIRCLE
  5
11D
  8
0
  6
CONTINUOUS
 62
     7
 10
116.2137410482
 20
213.0094588283
 30
0.0
 40
5.25
  0
CIRCLE
  5
11E
  8
0
  6
CONTINUOUS
 62
     7
 10
118.7137410482
 20
178.0094588283
 30
0.0
 40
5.25
  0
CIRCLE
  5
11F
  8
0
  6
CONTINUOUS
 62
     7
 10
116.2137410482
 20
143.0094588283
 30
0.0
 40
5.25
  0
CIRCLE
  5
120
  8
0
  6
CONTINUOUS
 62
     7
 10
122.7137410482
 20
108.0094588283
 30
0.0
 40
5.25
  0
CIRCLE
  5
121
  8
0
  6
CONTINUOUS
 62
     7
 10
116.2137410482
 20
143.0094588283
 30
0.0
 40
3.0
  0
CIRCLE
  5
122
  8
0
  6
CONTINUOUS
 62
     7
 10
122.7137410482
 20
248.0094588283
 30
0.0
 40
3.0
  0
CIRCLE
  5
123
  8
0
  6
CONTINUOUS
 62
     7
 10
118.7137410482
 20
178.0094588283
 30
0.0
 40
3.0
  0
CIRCLE
  5
124
  8
0
  6
CONTINUOUS
 62
     7
 10
122.7137410482
 20
108.0094588283
 30
0.0
 40
2.999999999999986
  0
CIRCLE
  5
125
  8
0
  6
CONTINUOUS
 62
     7
 10
116.2137410482
 20
213.0094588283
 30
0.0
 40
3.0
  0
LINE
  5
126
  8
0
  6
CONTINUOUS
 62
     7
 10
155.8137410482
 20
97.8594588283
 30
0.0
 11
155.8137410482
 21
258.1594588283
 31
0.0
  0
LINE
  5
127
  8
0
  6
CONTINUOUS
 62
     7
 10
160.7137410482
 20
258.1594588283
 30
0.0
 11
155.8137410482
 21
258.1594588283
 31
0.0
  0
ARC
  5
128
  8
0
  6
CONTINUOUS
 62
     7
 10
160.7137410482
 20
246.1594588283
 30
0.0
 40
12.0
 50
0.0
 51
90.0
  0
LINE
  5
129
  8
0
  6
CONTINUOUS
 62
     7
 10
172.7137410482
 20
246.1594588283
 30
0.0
 11
172.7137410482
 21
109.8594588283
 31
0.0
  0
LINE
  5
12A
  8
0
  6
CONTINUOUS
 62
     7
 10
155.8137410482
 20
97.8594588283
 30
0.0
 11
160.7137410482
 21
97.8594588283
 31
0.0
  0
CIRCLE
  5
12B
  8
0
  6
CONTINUOUS
 62
     7
 10
162.7137410482
 20
248.0094588283
 30
0.0
 40
3.0
  0
CIRCLE
  5
12C
  8
0
  6
CONTINUOUS
 62
     7
 10
165.2137410482
 20
213.0094588283
 30
0.0
 40
3.0
  0
CIRCLE
  5
12D
  8
0
  6
CONTINUOUS
 62
     7
 10
162.7137410482
 20
178.0094588283
 30
0.0
 40
3.0
  0
CIRCLE
  5
12E
  8
0
  6
CONTINUOUS
 62
     7
 10
165.2137410482
 20
143.0094588283
 30
0.0
 40
3.0
  0
CIRCLE
  5
12F
  8
0
  6
CONTINUOUS
 62
     7
 10
162.7137410482
 20
108.0094588283
 30
0.0
 40
3.0
  0
ARC
  5
130
  8
0
  6
CONTINUOUS
 62
     7
 10
160.7137410482
 20
109.8594588283
 30
0.0
 40
12.0
 50
270.0
 51
0.0
  0
LINE
  5
131
  8
0
  6
CONTINUOUS
 62
     7
 10
152.7137410482
 20
97.8594588283
 30
0.0
 11
152.7137410482
 21
258.1594588283
 31
0.0
  0
LINE
  5
132
  8
0
  6
CONTINUOUS
 62
     7
 10
155.8137410482
 20
97.8594588283
 30
0.0
 11
152.7137410482
 21
97.8594588283
 31
0.0
  0
LINE
  5
133
  8
0
  6
CONTINUOUS
 62
     7
 10
152.7137410482
 20
258.1594588283
 30
0.0
 11
155.8137410482
 21
258.1594588283
 31
0.0
  0
LINE
  5
134
  8
0
  6
CONTINUOUS
 62
     7
 10
152.6559258644
 20
258.1594588283
 30
0.0
 11
152.6559258644
 21
97.8594588283
 31
0.0
  0
LINE
  5
135
  8
0
  6
CONTINUOUS
 62
     7
 10
152.6559258644
 20
258.1594588283
 30
0.0
 11
152.7137410482
 21
258.1594588283
 31
0.0
  0
LINE
  5
136
  8
0
  6
CONTINUOUS
 62
     7
 10
152.7137410482
 20
97.8594588283
 30
0.0
 11
152.6559258644
 21
97.8594588283
 31
0.0
  0
LINE
  5
137
  8
0
  6
CONTINUOUS
 62
     7
 10
148.4808420474
 20
137.7094588283
 30
0.0
 11
151.6120086728
 21
137.7094588283
 31
0.0
  0
POLYLINE
  5
138
  8
0
  6
CONTINUOUS
 62
     7
 66
     1
 10
0.0
 20
0.0
 30
0.0
 70
   128
  0
VERTEX
  5
3B0
  8
0
  6
CONTINUOUS
 62
     7
 10
152.1146491876
 20
139.2094588283
 30
0.0
  0
VERTEX
  5
3B1
  8
0
  6
CONTINUOUS
 62
     7
 10
152.1049910911
 20
138.9168233453
 30
0.0
  0
VERTEX
  5
3B2
  8
0
  6
CONTINUOUS
 62
     7
 10
152.0763879567
 20
138.6354336797
 30
0.0
  0
VERTEX
  5
3B3
  8
0
  6
CONTINUOUS
 62
     7
 10
152.0299389868
 20
138.3761034788
 30
0.0
  0
VERTEX
  5
3B4
  8
0
  6
CONTINUOUS
 62
     7
 10
151.9674291893
 20
138.1487986565
 30
0.0
  0
VERTEX
  5
3B5
  8
0
  6
CONTINUOUS
 62
     7
 10
151.8912607808
 20
137.9622544098
 30
0.0
  0
VERTEX
  5
3B6
  8
0
  6
CONTINUOUS
 62
     7
 10
151.8043608703
 20
137.8236395295
 30
0.0
  0
VERTEX
  5
3B7
  8
0
  6
CONTINUOUS
 62
     7
 10
151.7100689727
 20
137.7382809077
 30
0.0
  0
VERTEX
  5
3B8
  8
0
  6
CONTINUOUS
 62
     7
 10
151.6120086728
 20
137.7094588283
 30
0.0
  0
SEQEND
  5
3D4
  8
0
  6
CONTINUOUS
 62
     7
  0
LINE
  5
139
  8
0
  6
CONTINUOUS
 62
     7
 10
152.1146491876
 20
139.2094588283
 30
0.0
 11
152.1146491876
 21
216.8094588283
 31
0.0
  0
POLYLINE
  5
13A
  8
0
  6
CONTINUOUS
 62
     7
 66
     1
 10
0.0
 20
0.0
 30
0.0
 70
   128
  0
VERTEX
  5
3B9
  8
0
  6
CONTINUOUS
 62
     7
 10
151.6120086728
 20
218.3094588283
 30
0.0
  0
VERTEX
  5
3BA
  8
0
  6
CONTINUOUS
 62
     7
 10
151.7100689727
 20
218.2806367489
 30
0.0
  0
VERTEX
  5
3BB
  8
0
  6
CONTINUOUS
 62
     7
 10
151.8043608703
 20
218.1952781271
 30
0.0
  0
VERTEX
  5
3BC
  8
0
  6
CONTINUOUS
 62
     7
 10
151.8912607808
 20
218.0566632467
 30
0.0
  0
VERTEX
  5
3BD
  8
0
  6
CONTINUOUS
 62
     7
 10
151.9674291893
 20
217.8701190001
 30
0.0
  0
VERTEX
  5
3BE
  8
0
  6
CONTINUOUS
 62
     7
 10
152.0299389868
 20
217.6428141778
 30
0.0
  0
VERTEX
  5
3BF
  8
0
  6
CONTINUOUS
 62
     7
 10
152.0763879567
 20
217.3834839768
 30
0.0
  0
VERTEX
  5
3C0
  8
0
  6
CONTINUOUS
 62
     7
 10
152.1049910911
 20
217.1020943113
 30
0.0
  0
VERTEX
  5
3C1
  8
0
  6
CONTINUOUS
 62
     7
 10
152.1146491876
 20
216.8094588283
 30
0.0
  0
SEQEND
  5
3D5
  8
0
  6
CONTINUOUS
 62
     7
  0
LINE
  5
13B
  8
0
  6
CONTINUOUS
 62
     7
 10
151.6120086728
 20
218.3094588283
 30
0.0
 11
148.4808420474
 21
218.3094588283
 31
0.0
  0
LINE
  5
13C
  8
0
  6
CONTINUOUS
 62
     7
 10
149.3295962203
 20
258.1594588283
 30
0.0
 11
152.6559258644
 21
258.1594588283
 31
0.0
  0
LINE
  5
13D
  8
0
  6
CONTINUOUS
 62
     7
 10
149.3295962203
 20
97.8594588283
 30
0.0
 11
152.6559258644
 21
97.8594588283
 31
0.0
  0
LINE
  5
13E
  8
0
  6
CONTINUOUS
 62
     7
 10
149.3295962203
 20
219.8094588283
 30
0.0
 11
149.3295962203
 21
258.1594588283
 31
0.0
  0
POLYLINE
  5
13F
  8
0
  6
CONTINUOUS
 62
     7
 66
     1
 10
0.0
 20
0.0
 30
0.0
 70
   128
  0
VERTEX
  5
3C2
  8
0
  6
CONTINUOUS
 62
     7
 10
148.4808420474
 20
218.3094588283
 30
0.0
  0
VERTEX
  5
3C3
  8
0
  6
CONTINUOUS
 62
     7
 10
148.7812726367
 20
218.3925575432
 30
0.0
  0
VERTEX
  5
3C4
  8
0
  6
CONTINUOUS
 62
     7
 10
149.0316479379
 20
218.6344425054
 30
0.0
  0
VERTEX
  5
3C5
  8
0
  6
CONTINUOUS
 62
     7
 10
149.2106356784
 20
219.0063579297
 30
0.0
  0
VERTEX
  5
3C6
  8
0
  6
CONTINUOUS
 62
     7
 10
149.3099506638
 20
219.4690233726
 30
0.0
  0
VERTEX
  5
3C7
  8
0
  6
CONTINUOUS
 62
     7
 10
149.3295962203
 20
219.8094588283
 30
0.0
  0
SEQEND
  5
3D6
  8
0
  6
CONTINUOUS
 62
     7
  0
LINE
  5
140
  8
0
  6
CONTINUOUS
 62
     7
 10
149.3295962203
 20
258.1594588283
 30
0.0
 11
130.7637410482
 21
258.1594588283
 31
0.0
  0
LINE
  5
141
  8
0
  6
CONTINUOUS
 62
     7
 10
130.7637410482
 20
218.3094588283
 30
0.0
 11
148.4808420474
 21
218.3094588283
 31
0.0
  0
LINE
  5
142
  8
0
  6
CONTINUOUS
 62
     7
 10
130.7637410482
 20
97.8594588283
 30
0.0
 11
149.3295962203
 21
97.8594588283
 31
0.0
  0
POLYLINE
  5
143
  8
0
  6
CONTINUOUS
 62
     7
 66
     1
 10
0.0
 20
0.0
 30
0.0
 70
   128
  0
VERTEX
  5
3C8
  8
0
  6
CONTINUOUS
 62
     7
 10
149.3295962203
 20
136.2094588283
 30
0.0
  0
VERTEX
  5
3C9
  8
0
  6
CONTINUOUS
 62
     7
 10
149.2870079671
 20
136.7058693405
 30
0.0
  0
VERTEX
  5
3CA
  8
0
  6
CONTINUOUS
 62
     7
 10
149.1605567476
 20
137.1463258887
 30
0.0
  0
VERTEX
  5
3CB
  8
0
  6
CONTINUOUS
 62
     7
 10
148.9559486761
 20
137.4807406701
 30
0.0
  0
VERTEX
  5
3CC
  8
0
  6
CONTINUOUS
 62
     7
 10
148.6875459462
 20
137.671597345
 30
0.0
  0
VERTEX
  5
3CD
  8
0
  6
CONTINUOUS
 62
     7
 10
148.4808420474
 20
137.7094588283
 30
0.0
  0
SEQEND
  5
3D7
  8
0
  6
CONTINUOUS
 62
     7
  0
LINE
  5
144
  8
0
  6
CONTINUOUS
 62
     7
 10
149.3295962203
 20
97.8594588283
 30
0.0
 11
149.3295962203
 21
136.2094588283
 31
0.0
  0
LINE
  5
145
  8
0
  6
CONTINUOUS
 62
     7
 10
148.4808420474
 20
137.7094588283
 30
0.0
 11
130.7637410482
 21
137.7094588283
 31
0.0
  0
LINE
  5
146
  8
0
  6
CONTINUOUS
 62
     8
 10
149.4637410482
 20
217.8094588283
 30
0.0
 11
131.9637410482
 21
217.8094588283
 31
0.0
  0
LINE
  5
147
  8
0
  6
CONTINUOUS
 62
     8
 10
149.3971814923
 20
138.7094588283
 30
0.0
 11
149.4637410482
 21
138.7094588283
 31
0.0
  0
LINE
  5
148
  8
0
  6
CONTINUOUS
 62
     8
 10
131.9637410482
 20
138.7094588283
 30
0.0
 11
149.3971814923
 21
138.7094588283
 31
0.0
  0
DIMENSION
  5
149
  8
0
  6
CONTINUOUS
 62
     7
  2
_D
 10
84.7137410482
 20
97.8594588283
 30
0.0
 11
84.7137410482
 21
178.0094588283
 31
0.0
 70
   160
  1
<>
  3
SLDDIMSTYLE0
 13
130.7637410482
 23
258.1594588283
 33
0.0
 14
130.7637410482
 24
97.8594588283
 34
0.0
 50
90.0
  0
DIMENSION
  5
154
  8
0
  6
CONTINUOUS
 62
     7
  2
_D_1
 10
98.7137410482
 20
213.0094588283
 30
0.0
 11
98.7137410482
 21
230.5094588283
 31
0.0
 70
   160
  1
<>
  3
SLDDIMSTYLE0
 13
122.7137410482
 23
248.0094588283
 33
0.0
 14
116.2137410482
 24
213.0094588283
 34
0.0
 50
90.0
  0
DIMENSION
  5
15E
  8
0
  6
CONTINUOUS
 62
     7
  2
_D_2
 10
98.7137410482
 20
178.0094588283
 30
0.0
 11
98.7137410482
 21
195.5094588283
 31
0.0
 70
   160
  1
<>
  3
SLDDIMSTYLE0
 13
116.2137410482
 23
213.0094588283
 33
0.0
 14
118.7137410482
 24
178.0094588283
 34
0.0
 50
90.0
  0
DIMENSION
  5
168
  8
0
  6
CONTINUOUS
 62
     7
  2
_D_3
 10
98.7137410482
 20
143.0094588283
 30
0.0
 11
98.7137410482
 21
160.5094588283
 31
0.0
 70
   160
  1
<>
  3
SLDDIMSTYLE0
 13
118.7137410482
 23
178.0094588283
 33
0.0
 14
116.2137410482
 24
143.0094588283
 34
0.0
 50
90.0
  0
DIMENSION
  5
172
  8
0
  6
CONTINUOUS
 62
     7
  2
_D_4
 10
98.7137410482
 20
108.0094588283
 30
0.0
 11
98.7137410482
 21
125.5094588283
 31
0.0
 70
   160
  1
<>
  3
SLDDIMSTYLE0
 13
116.2137410482
 23
143.0094588283
 33
0.0
 14
122.7137410482
 24
108.0094588283
 34
0.0
 50
90.0
  0
DIMENSION
  5
17C
  8
0
  6
CONTINUOUS
 62
     7
  2
_D_5
 10
108.7137410482
 20
277.3338492831
 30
0.0
 11
115.7137410482
 21
277.3338492831
 31
0.0
 70
   160
  1
<>
  3
SLDDIMSTYLE1
 13
122.7137410482
 23
248.0094588283
 33
0.0
 14
108.7137410482
 24
246.0094588283
 34
0.0
  0
DIMENSION
  5
189
  8
0
  6
CONTINUOUS
 62
     7
  2
_D_6
 10
108.7137410482
 20
266.4283533073
 30
0.0
 11
112.4637410482
 21
266.4283533073
 31
0.0
 70
   160
  1
<>
  3
SLDDIMSTYLE1
 13
116.2137410482
 23
213.0094588283
 33
0.0
 14
108.7137410482
 24
246.0094588283
 34
0.0
  0
DIMENSION
  5
195
  8
0
  6
CONTINUOUS
 62
     7
  2
_D_7
 10
108.7137410482
 20
272.4087865843
 30
0.0
 11
113.7137410482
 21
272.4087865843
 31
0.0
 70
   160
  1
<>
  3
SLDDIMSTYLE1
 13
118.7137410482
 23
178.0094588283
 33
0.0
 14
108.7137410482
 24
246.0094588283
 34
0.0
  0
DIMENSION
  5
1A1
  8
0
  6
CONTINUOUS
 62
     7
  2
_D_8
 10
125.7137410482
 20
89.8048987219
 30
0.0
 11
122.7137410482
 21
89.8048987219
 31
0.0
 70
   160
  1
%%c<>
  3
SLDDIMSTYLE1
 13
119.7137410482
 23
108.0094588283
 33
0.0
 14
125.7137410482
 24
108.0094588283
 34
0.0
  0
DIMENSION
  5
1AE
  8
0
  6
CONTINUOUS
 62
     7
  2
_D_9
 10
127.9637410482
 20
82.1717180853
 30
0.0
 11
122.7137410482
 21
82.1717180853
 31
0.0
 70
   160
  1
%%c<>x90°
  3
SLDDIMSTYLE1
 13
117.4637410482
 23
108.0094588283
 33
0.0
 14
127.9637410482
 24
108.0094588283
 34
0.0
  0
DIMENSION
  5
1BC
  8
0
  6
CONTINUOUS
 62
     7
  2
_D_10
 10
120.7137410482
 20
110.0094588283
 30
0.0
 11
96.7732459416
 21
89.8049087219
 31
0.0
 70
   164
  1
<>
  3
SLDDIMSTYLE2
 15
111.5431417806
 25
102.2699427534
 35
0.0
 40
0.0
  0
DIMENSION
  5
1C5
  8
0
  6
CONTINUOUS
 62
     7
  2
_D_11
 10
172.7137410482
 20
272.4087865843
 30
0.0
 11
167.7137410482
 21
272.4087865843
 31
0.0
 70
   160
  1
<>
  3
SLDDIMSTYLE1
 13
162.7137410482
 23
253.5094588283
 33
0.0
 14
172.7137410482
 24
246.1594588283
 34
0.0
  0
DIMENSION
  5
1D1
  8
0
  6
CONTINUOUS
 62
     7
  2
_D_12
 10
172.7137410482
 20
266.4283533073
 30
0.0
 11
168.9637410482
 21
266.4283533073
 31
0.0
 70
   160
  1
<>
  3
SLDDIMSTYLE1
 13
165.2137410482
 23
218.5094588283
 33
0.0
 14
172.7137410482
 24
246.1594588283
 34
0.0
  0
INSERT
  5
1E8
  8
0
  6
CONTINUOUS
 62
     7
  2
SW_CENTERMARKSYMBOL_0
 10
122.7137410482
 20
248.0094588283
 30
0.0
  0
INSERT
  5
1F4
  8
0
  6
CONTINUOUS
 62
     7
  2
SW_CENTERMARKSYMBOL_1
 10
116.2137410482
 20
213.0094588283
 30
0.0
  0
INSERT
  5
200
  8
0
  6
CONTINUOUS
 62
     7
  2
SW_CENTERMARKSYMBOL_2
 10
118.7137410482
 20
178.0094588283
 30
0.0
  0
INSERT
  5
20C
  8
0
  6
CONTINUOUS
 62
     7
  2
SW_CENTERMARKSYMBOL_3
 10
116.2137410482
 20
143.0094588283
 30
0.0
  0
INSERT
  5
218
  8
0
  6
CONTINUOUS
 62
     7
  2
SW_CENTERMARKSYMBOL_4
 10
122.7137410482
 20
108.0094588283
 30
0.0
  0
INSERT
  5
224
  8
0
  6
CONTINUOUS
 62
     7
  2
SW_CENTERMARKSYMBOL_5
 10
162.7137410482
 20
248.0094588283
 30
0.0
  0
INSERT
  5
230
  8
0
  6
CONTINUOUS
 62
     7
  2
SW_CENTERMARKSYMBOL_6
 10
165.2137410482
 20
213.0094588283
 30
0.0
  0
INSERT
  5
23C
  8
0
  6
CONTINUOUS
 62
     7
  2
SW_CENTERMARKSYMBOL_7
 10
162.7137410482
 20
178.0094588283
 30
0.0
  0
INSERT
  5
248
  8
0
  6
CONTINUOUS
 62
     7
  2
SW_CENTERMARKSYMBOL_8
 10
165.2137410482
 20
143.0094588283
 30
0.0
  0
INSERT
  5
254
  8
0
  6
CONTINUOUS
 62
     7
  2
SW_CENTERMARKSYMBOL_9
 10
162.7137410482
 20
108.0094588283
 30
0.0
  0
LINE
  5
255
  8
0
  6
CENTERX2
 62
     7
 10
140.7137410482
 20
96.279265473
 30
0.0
 11
140.7137410482
 21
260.8742455425
 31
0.0
  0
LINE
  5
256
  8
0
  6
CENTERX2
 62
     7
 10
105.7001612067
 20
178.0094588283
 30
0.0
 11
174.8947090803
 21
178.0094588283
 31
0.0
  0
LINE
  5
257
  8
0
  6
CONTINUOUS
 62
     7
 10
148.416126726
 20
45.2824198165
 30
0.0
 11
148.2904981091
 21
45.0573450936
 31
0.0
  0
LINE
  5
258
  8
0
  6
CONTINUOUS
 62
     7
 10
153.2137410482
 20
20.9340164817
 30
0.0
 11
153.2137410482
 21
23.9340164817
 31
0.0
  0
LINE
  5
259
  8
0
  6
CONTINUOUS
 62
     7
 10
172.7137410482
 20
20.9340164817
 30
0.0
 11
172.7137410482
 21
23.9340164817
 31
0.0
  0
LINE
  5
25A
  8
0
  6
CONTINUOUS
 62
     7
 10
172.7137410482
 20
20.9340164817
 30
0.0
 11
153.2137410482
 21
20.9340164817
 31
0.0
  0
LINE
  5
25B
  8
0
  6
CONTINUOUS
 62
     7
 10
172.7137410482
 20
23.9340164817
 30
0.0
 11
153.2137410482
 21
23.9340164817
 31
0.0
  0
LINE
  5
25C
  8
0
  6
CONTINUOUS
 62
     7
 10
151.7137410482
 20
34.8639279186
 30
0.0
 11
151.7137410482
 21
24.9340164817
 31
0.0
  0
LINE
  5
25D
  8
0
  6
CONTINUOUS
 62
     7
 10
151.7137410482
 20
24.9340164817
 30
0.0
 11
150.5335922195
 21
24.9340164817
 31
0.0
  0
LINE
  5
25E
  8
0
  6
CONTINUOUS
 62
     7
 10
150.5335922195
 20
34.8639279186
 30
0.0
 11
150.5335922195
 21
24.9340164817
 31
0.0
  0
LINE
  5
25F
  8
0
  6
CONTINUOUS
 62
     7
 10
151.7137410482
 20
34.8639279186
 30
0.0
 11
150.5335922195
 21
34.8639279186
 31
0.0
  0
LINE
  5
260
  8
0
  6
CONTINUOUS
 62
     7
 10
150.5335922195
 20
24.9340164817
 30
0.0
 11
148.7137410482
 21
24.9340164817
 31
0.0
  0
LINE
  5
261
  8
0
  6
CONTINUOUS
 62
     7
 10
148.7137410482
 20
24.9340164817
 30
0.0
 11
148.7137410482
 21
34.8639279186
 31
0.0
  0
LINE
  5
262
  8
0
  6
CONTINUOUS
 62
     7
 10
148.7137410482
 20
34.8639279186
 30
0.0
 11
150.5335922195
 21
34.8639279186
 31
0.0
  0
LINE
  5
263
  8
0
  6
CONTINUOUS
 62
     7
 10
152.7137410482
 20
22.753867653
 30
0.0
 11
153.2137410482
 21
22.753867653
 31
0.0
  0
LINE
  5
264
  8
0
  6
CONTINUOUS
 62
     7
 10
152.7137410482
 20
22.753867653
 30
0.0
 11
152.7137410482
 21
23.9340164817
 31
0.0
  0
LINE
  5
265
  8
0
  6
CONTINUOUS
 62
     7
 10
152.7137410482
 20
23.9340164817
 30
0.0
 11
153.2137410482
 21
23.9340164817
 31
0.0
  0
ARC
  5
266
  8
0
  6
CONTINUOUS
 62
     7
 10
152.7137410482
 20
24.9340164817
 30
0.0
 40
2.180148828669019
 50
180.0
 51
270.0
  0
LINE
  5
267
  8
0
  6
CONTINUOUS
 62
     7
 10
152.7137410482
 20
22.753867653
 30
0.0
 11
152.7137410482
 21
20.9340164817
 31
0.0
  0
ARC
  5
268
  8
0
  6
CONTINUOUS
 62
     7
 10
152.7137410482
 20
24.9340164817
 30
0.0
 40
4.00000000000006
 50
180.0
 51
270.0
  0
ARC
  5
269
  8
0
  6
CONTINUOUS
 62
     7
 10
152.7137410482
 20
24.9340164817
 30
0.0
 40
0.9999999999999964
 50
180.0
 51
270.0
  0
LINE
  5
26A
  8
0
  6
CONTINUOUS
 62
     7
 10
153.2137410482
 20
20.9340164817
 30
0.0
 11
152.7137410482
 21
20.9340164817
 31
0.0
  0
LINE
  5
26B
  8
0
  6
CONTINUOUS
 62
     7
 10
151.7014982714
 20
36.5901356569
 30
0.0
 11
148.710680354
 21
36.3555974191
 31
0.0
  0
LINE
  5
26C
  8
0
  6
CONTINUOUS
 62
     7
 10
148.199137385
 20
42.878763498
 30
0.0
 11
148.710680354
 21
36.3555974191
 31
0.0
  0
LINE
  5
26D
  8
0
  6
CONTINUOUS
 62
     7
 10
151.4308799791
 20
40.0410443229
 30
0.0
 11
151.7014982714
 21
36.5901356569
 31
0.0
  0
LINE
  5
26E
  8
0
  6
CONTINUOUS
 62
     7
 10
148.5069768823
 20
44.9322973397
 30
0.0
 11
148.7976172003
 21
45.4778887845
 31
0.0
  0
LINE
  5
26F
  8
0
  6
CONTINUOUS
 62
     7
 10
148.7137410482
 20
36.2774180065
 30
0.0
 11
151.7137410482
 21
36.2774180065
 31
0.0
  0
LINE
  5
270
  8
0
  6
CONTINUOUS
 62
     7
 10
148.7137410482
 20
36.2774180065
 30
0.0
 11
148.7137410482
 21
34.8639279186
 31
0.0
  0
LINE
  5
271
  8
0
  6
CONTINUOUS
 62
     7
 10
151.7137410482
 20
36.2774180065
 30
0.0
 11
151.7137410482
 21
34.8639279186
 31
0.0
  0
ARC
  5
272
  8
0
  6
CONTINUOUS
 62
     7
 10
147.7137410482
 20
36.2774180065
 30
0.0
 40
0.9999999999999803
 50
0.0
 51
4.4839259629
  0
ARC
  5
273
  8
0
  6
CONTINUOUS
 62
     7
 10
147.7137410482
 20
36.2774180065
 30
0.0
 40
4.000000000000005
 50
0.0
 51
4.4839259629
  0
ARC
  5
274
  8
0
  6
CONTINUOUS
 62
     7
 10
140.7137410482
 20
49.4340164817
 30
0.0
 40
9.949999999999998
 50
19.5782344646
 51
329.9873616927
  0
LINE
  5
275
  8
0
  6
CONTINUOUS
 62
     7
 10
150.0884799697
 20
52.7681985632
 30
0.0
 11
148.2512195781
 21
52.1147658939
 31
0.0
  0
ARC
  5
276
  8
0
  6
CONTINUOUS
 62
     7
 10
140.7137410482
 20
49.4340164817
 30
0.0
 40
7.999999999999992
 50
19.5782344646
 51
329.9873616927
  0
LINE
  5
277
  8
0
  6
CONTINUOUS
 62
     7
 10
147.6410617896
 20
45.4324883555
 30
0.0
 11
149.3295962203
 21
44.4571158747
 31
0.0
  0
LINE
  5
278
  8
0
  6
CONTINUOUS
 62
     7
 10
152.6559258644
 20
36.5965757662
 30
0.0
 11
155.4824803131
 21
37.6018567958
 31
0.0
  0
LINE
  5
279
  8
0
  6
CONTINUOUS
 62
     7
 10
148.5895690356
 20
48.0299746331
 30
0.0
 11
152.6559258644
 21
36.5965757662
 31
0.0
  0
ARC
  5
27A
  8
0
  6
CONTINUOUS
 62
     7
 10
140.7137410482
 20
49.4340164817
 30
0.0
 40
7.999999999999992
 50
349.8919392332
 51
19.5782344646
  0
LINE
  5
27B
  8
0
  6
CONTINUOUS
 62
     7
 10
150.0884799697
 20
52.7681985632
 30
0.0
 11
155.4824803131
 21
37.6018567958
 31
0.0
  0
LINE
  5
27C
  8
0
  6
CONTINUOUS
 62
     7
 10
172.7137410482
 20
28.9340164817
 30
0.0
 11
172.7137410482
 21
25.9340164817
 31
0.0
  0
LINE
  5
27D
  8
0
  6
CONTINUOUS
 62
     7
 10
172.7137410482
 20
25.9340164817
 30
0.0
 11
160.7137410482
 21
25.9340164817
 31
0.0
  0
LINE
  5
27E
  8
0
  6
CONTINUOUS
 62
     7
 10
160.7137410482
 20
25.9340164817
 30
0.0
 11
160.7137410482
 21
28.9340164817
 31
0.0
  0
LINE
  5
27F
  8
0
  6
CONTINUOUS
 62
     7
 10
160.7137410482
 20
28.9340164817
 30
0.0
 11
172.7137410482
 21
28.9340164817
 31
0.0
  0
LINE
  5
280
  8
0
  6
CONTINUOUS
 62
     7
 10
155.7137410482
 20
36.2614820897
 30
0.0
 11
152.7137410482
 21
36.2614820897
 31
0.0
  0
ARC
  5
281
  8
0
  6
CONTINUOUS
 62
     7
 10
151.7137410482
 20
36.2614820897
 30
0.0
 40
1.0
 50
0.0
 51
19.5782344646
  0
ARC
  5
282
  8
0
  6
CONTINUOUS
 62
     7
 10
151.7137410482
 20
36.2614820897
 30
0.0
 40
4.000000000000009
 50
0.0
 51
19.5782344646
  0
LINE
  5
283
  8
0
  6
CONTINUOUS
 62
     7
 10
152.7137410482
 20
36.2614820897
 30
0.0
 11
152.7137410482
 21
29.0340164817
 31
0.0
  0
LINE
  5
284
  8
0
  6
CONTINUOUS
 62
     7
 10
155.7137410482
 20
36.2614820897
 30
0.0
 11
155.7137410482
 21
29.0340164817
 31
0.0
  0
LINE
  5
285
  8
0
  6
CONTINUOUS
 62
     7
 10
155.7137410482
 20
29.0340164817
 30
0.0
 11
152.7137410482
 21
29.0340164817
 31
0.0
  0
LINE
  5
286
  8
0
  6
CONTINUOUS
 62
     7
 10
155.8137410482
 20
28.9340164817
 30
0.0
 11
155.8137410482
 21
25.9340164817
 31
0.0
  0
LINE
  5
287
  8
0
  6
CONTINUOUS
 62
     7
 10
160.7137410482
 20
25.9340164817
 30
0.0
 11
155.8137410482
 21
25.9340164817
 31
0.0
  0
LINE
  5
288
  8
0
  6
CONTINUOUS
 62
     7
 10
160.7137410482
 20
28.9340164817
 30
0.0
 11
155.8137410482
 21
28.9340164817
 31
0.0
  0
ARC
  5
289
  8
0
  6
CONTINUOUS
 62
     7
 10
155.8137410482
 20
29.0340164817
 30
0.0
 40
0.0999999999999979
 50
180.0
 51
270.0
  0
ARC
  5
28A
  8
0
  6
CONTINUOUS
 62
     7
 10
155.8137410482
 20
29.0340164817
 30
0.0
 40
3.099999999999998
 50
180.0
 51
270.0
  0
LINE
  5
28B
  8
0
  6
CONTINUOUS
 62
     7
 10
148.2065985165
 20
49.1067750427
 30
0.0
 11
148.5895690356
 21
48.0299746331
 31
0.0
  0
LINE
  5
28C
  8
0
  6
CONTINUOUS
 62
     7
 10
147.6186639177
 20
45.3939620061
 30
0.0
 11
147.5458995943
 21
45.4250752748
 31
0.0
  0
ARC
  5
28D
  8
0
  6
CONTINUOUS
 62
     7
 10
147.3493213489
 20
44.9653394882
 30
0.0
 40
0.5000000000000325
 50
66.8489513909
 51
146.0420285161
  0
ARC
  5
28E
  8
0
  6
CONTINUOUS
 62
     7
 10
140.7137410482
 20
49.4340164817
 30
0.0
 40
7.500000000000101
 50
347.6558742658
 51
326.0420285161
  0
ARC
  5
28F
  8
0
  6
CONTINUOUS
 62
     7
 10
148.5287908211
 20
47.7237542076
 30
0.0
 40
0.500000000000045
 50
167.6558742658
 51
246.8489513909
  0
LINE
  5
290
  8
0
  6
CONTINUOUS
 62
     7
 10
148.3322125757
 20
47.264018421
 30
0.0
 11
148.5546172812
 21
47.1689204799
 31
0.0
  0
ARC
  5
291
  8
0
  6
CONTINUOUS
 62
     7
 10
148.1614607905
 20
46.2494489068
 30
0.0
 40
1.000000000000001
 50
254.5854963628
 51
66.8489513909
  0
LINE
  5
292
  8
0
  6
CONTINUOUS
 62
     8
 10
148.1173150906
 20
45.1573832968
 30
0.0
 11
148.1697575627
 21
45.2494833256
 31
0.0
  0
LINE
  5
293
  8
0
  6
CONTINUOUS
 62
     8
 10
148.8901602144
 20
46.9342825724
 30
0.0
 11
148.9306785725
 21
47.0708749876
 31
0.0
  0
DIMENSION
  5
294
  8
0
  6
CONTINUOUS
 62
     7
  2
_D_13
 10
140.7137410482
 20
39.4840164817
 30
0.0
 11
140.7137510482
 21
70.9982603232
 31
0.0
 70
   163
  1
<>
  3
SLDDIMSTYLE3
 15
140.7137410482
 25
59.3840164817
 35
0.0
 40
0.0
  0
DIMENSION
  5
2A1
  8
0
  6
CONTINUOUS
 62
     7
  2
_D_14
 10
172.7137410482
 20
66.5697660096
 30
0.0
 11
156.7137410482
 21
66.5697660096
 31
0.0
 70
   160
  1
<>
  3
SLDDIMSTYLE0
 13
140.7137410482
 23
49.4340164817
 33
0.0
 14
172.7137410482
 24
28.9340164817
 34
0.0
 50
0.0
  0
DIMENSION
  5
2AB
  8
0
  6
CONTINUOUS
 62
     7
  2
_D_15
 10
121.0423967726
 20
28.9340164817
 30
0.0
 11
121.0423967726
 21
39.1840164817
 31
0.0
 70
   160
  1
<>
  3
SLDDIMSTYLE1
 13
140.7137410482
 23
49.4340164817
 33
0.0
 14
155.8137410482
 24
28.9340164817
 34
0.0
 50
90.0
  0
DIMENSION
  5
2B5
  8
0
  6
CONTINUOUS
 62
     7
  2
_D_16
 10
178.8731876358
 20
25.9340164817
 30
0.0
 11
178.8731876358
 21
27.4340164817
 31
0.0
 70
   160
  1
<>
  3
SLDDIMSTYLE1
 13
172.7137410482
 23
28.9340164817
 33
0.0
 14
172.7137410482
 24
25.9340164817
 34
0.0
 50
90.0
  0
INSERT
  5
2CC
  8
0
  6
CONTINUOUS
 62
     7
  2
SW_CENTERMARKSYMBOL_10
 10
140.7137410482
 20
49.4340164817
 30
0.0
  0
LINE
  5
2CD
  8
0
  6
CONTINUOUS
 62
     7
 10
301.8617134133
 20
186.2460342736
 30
0.0
 11
298.8617134133
 21
189.2460342736
 31
0.0
  0
LINE
  5
2CE
  8
0
  6
CONTINUOUS
 62
     7
 10
297.3715853528
 20
186.2460342736
 30
0.0
 11
295.7531220792
 21
187.8644975472
 31
0.0
  0
LINE
  5
2CF
  8
0
  6
CONTINUOUS
 62
     7
 10
315.7531220792
 20
194.8052659104
 30
0.0
 11
312.9023838884
 21
197.6560041013
 31
0.0
  0
LINE
  5
2D0
  8
0
  6
CONTINUOUS
 62
     7
 10
315.7531220792
 20
190.3151378499
 30
0.0
 11
312.7531220792
 21
193.3151378499
 31
0.0
  0
LINE
  5
2D1
  8
0
  6
CONTINUOUS
 62
     7
 10
314.6245091464
 20
186.9536227222
 30
0.0
 11
312.3320975949
 21
189.2460342736
 31
0.0
  0
LINE
  5
2D2
  8
0
  6
CONTINUOUS
 62
     7
 10
310.8419695344
 20
186.2460342736
 30
0.0
 11
308.7531220792
 21
188.3348817288
 31
0.0
  0
LINE
  5
2D3
  8
0
  6
CONTINUOUS
 62
     7
 10
302.3715853528
 20
181.2460342736
 30
0.0
 11
299.3715853528
 21
184.2460342736
 31
0.0
  0
LINE
  5
2D4
  8
0
  6
CONTINUOUS
 62
     7
 10
297.8814572923
 20
181.2460342736
 30
0.0
 11
295.7531220792
 21
183.3743694867
 31
0.0
  0
LINE
  5
2D5
  8
0
  6
CONTINUOUS
 62
     7
 10
336.5226291653
 20
214.4469113692
 30
0.0
 11
332.4539991747
 21
218.5155413597
 31
0.0
  0
LINE
  5
2D6
  8
0
  6
CONTINUOUS
 62
     7
 10
330.2457517042
 20
216.2336607697
 30
0.0
 11
326.8266091142
 21
219.6528033598
 31
0.0
  0
LINE
  5
2D7
  8
0
  6
CONTINUOUS
 62
     7
 10
337.6598911653
 20
208.8195213086
 30
0.0
 11
334.2407485753
 21
212.2386638986
 31
0.0
  0
LINE
  5
2D8
  8
0
  6
CONTINUOUS
 62
     7
 10
325.6265802832
 20
216.3627041301
 30
0.0
 11
323.3302825784
 21
218.659001835
 31
0.0
  0
LINE
  5
2D9
  8
0
  6
CONTINUOUS
 62
     7
 10
336.6660896406
 20
205.3231947728
 30
0.0
 11
334.3697919357
 21
207.6194924777
 31
0.0
  0
LINE
  5
2DA
  8
0
  6
CONTINUOUS
 62
     7
 10
322.83872995
 20
214.6604264029
 30
0.0
 11
320.7174096064
 21
216.7817467464
 31
0.0
  0
LINE
  5
2DB
  8
0
  6
CONTINUOUS
 62
     7
 10
334.788834552
 20
202.7103218008
 30
0.0
 11
332.6675142084
 21
204.8316421444
 31
0.0
  0
LINE
  5
2DC
  8
0
  6
CONTINUOUS
 62
     7
 10
321.1364522227
 20
211.8725760696
 30
0.0
 11
318.8401545178
 21
214.1688737745
 31
0.0
  0
LINE
  5
2DD
  8
0
  6
CONTINUOUS
 62
     7
 10
332.17596158
 20
200.8330667123
 30
0.0
 11
329.8796638752
 21
203.1293644171
 31
0.0
  0
LINE
  5
2DE
  8
0
  6
CONTINUOUS
 62
     7
 10
320.635702377
 20
207.8831978548
 30
0.0
 11
317.8463529931
 21
210.6725472387
 31
0.0
  0
LINE
  5
2DF
  8
0
  6
CONTINUOUS
 62
     7
 10
328.6796350442
 20
199.8392651875
 30
0.0
 11
325.2604924542
 21
203.2584077776
 31
0.0
  0
LINE
  5
2E0
  8
0
  6
CONTINUOUS
 62
     7
 10
320.309193715
 20
203.7195784563
 30
0.0
 11
317.5188041992
 21
206.509967972
 31
0.0
  0
LINE
  5
2E1
  8
0
  6
CONTINUOUS
 62
     7
 10
323.0522449837
 20
200.9765271876
 30
0.0
 11
320.6660322452
 21
203.3627399261
 31
0.0
  0
LINE
  5
2E2
  8
0
  6
CONTINUOUS
 62
     7
 10
319.9826850529
 20
199.5559590578
 30
0.0
 11
317.1922955372
 21
202.3463485735
 31
0.0
  0
LINE
  5
2E3
  8
0
  6
CONTINUOUS
 62
     7
 10
319.7531220792
 20
195.295393971
 30
0.0
 11
316.8657868752
 21
198.182729175
 31
0.0
  0
LINE
  5
2E4
  8
0
  6
CONTINUOUS
 62
     7
 10
319.7531220792
 20
190.8052659104
 30
0.0
 11
316.7531220792
 21
193.8052659104
 31
0.0
  0
LINE
  5
2E5
  8
0
  6
CONTINUOUS
 62
     7
 10
319.7531220792
 20
186.3151378499
 30
0.0
 11
316.7531220792
 21
189.3151378499
 31
0.0
  0
LINE
  5
2E6
  8
0
  6
CONTINUOUS
 62
     7
 10
318.8561835144
 20
182.7219483541
 30
0.0
 11
316.6877430311
 21
184.8903888375
 31
0.0
  0
LINE
  5
2E7
  8
0
  6
CONTINUOUS
 62
     7
 10
315.8410040136
 20
181.2469997945
 30
0.0
 11
312.8419695344
 21
184.2460342736
 31
0.0
  0
LINE
  5
2E8
  8
0
  6
CONTINUOUS
 62
     7
 10
311.3518414739
 20
181.2460342736
 30
0.0
 11
309.6774817765
 21
182.920393971
 31
0.0
  0
LINE
  5
2E9
  8
0
  6
CONTINUOUS
 62
     7
 10
288.7827378976
 20
184.2460342736
 30
0.0
 11
285.2531220792
 21
180.7164184552
 31
0.0
  0
LINE
  5
2EA
  8
0
  6
CONTINUOUS
 62
     7
 10
293.2728659581
 20
184.2460342736
 30
0.0
 11
285.2531220792
 21
176.2262903947
 31
0.0
  0
LINE
  5
2EB
  8
0
  6
CONTINUOUS
 62
     7
 10
295.7531220792
 20
182.2361623342
 30
0.0
 11
285.2531220792
 21
171.7361623342
 31
0.0
  0
LINE
  5
2EC
  8
0
  6
CONTINUOUS
 62
     7
 10
299.2531220792
 20
181.2460342736
 30
0.0
 11
285.2531220792
 21
167.2460342736
 31
0.0
  0
LINE
  5
2ED
  8
0
  6
CONTINUOUS
 62
     7
 10
303.7432501397
 20
181.2460342736
 30
0.0
 11
299.0265067908
 21
176.5292909247
 31
0.0
  0
LINE
  5
2EE
  8
0
  6
CONTINUOUS
 62
     7
 10
320.2432501397
 20
197.7460342736
 30
0.0
 11
319.7531220792
 21
197.2559062131
 31
0.0
  0
LINE
  5
2EF
  8
0
  6
CONTINUOUS
 62
     7
 10
308.2333782003
 20
181.2460342736
 30
0.0
 11
306.2108865377
 21
179.2235426111
 31
0.0
  0
LINE
  5
2F0
  8
0
  6
CONTINUOUS
 62
     7
 10
324.7333782003
 20
197.7460342736
 30
0.0
 11
319.7531220792
 21
192.7657781526
 31
0.0
  0
LINE
  5
2F1
  8
0
  6
CONTINUOUS
 62
     7
 10
312.7235062608
 20
181.2460342736
 30
0.0
 11
310.6929372465
 21
179.2154652594
 31
0.0
  0
LINE
  5
2F2
  8
0
  6
CONTINUOUS
 62
     7
 10
329.2235062608
 20
197.7460342736
 30
0.0
 11
319.7531220792
 21
188.275650092
 31
0.0
  0
LINE
  5
2F3
  8
0
  6
CONTINUOUS
 62
     7
 10
317.2136343213
 20
181.2460342736
 30
0.0
 11
311.7468909724
 21
175.7792909247
 31
0.0
  0
LINE
  5
2F4
  8
0
  6
CONTINUOUS
 62
     7
 10
333.2531220792
 20
197.2855220315
 30
0.0
 11
319.7531220792
 21
183.7855220315
 31
0.0
  0
LINE
  5
2F5
  8
0
  6
CONTINUOUS
 62
     7
 10
333.2531220792
 20
192.795393971
 30
0.0
 11
316.987019033
 21
176.5292909247
 31
0.0
  0
LINE
  5
2F6
  8
0
  6
CONTINUOUS
 62
     7
 10
333.2531220792
 20
188.3052659104
 30
0.0
 11
320.2531220792
 21
175.3052659104
 31
0.0
  0
LINE
  5
2F7
  8
0
  6
CONTINUOUS
 62
     7
 10
333.2531220792
 20
183.8151378499
 30
0.0
 11
287.1840185029
 21
137.7460342736
 31
0.0
  0
LINE
  5
2F8
  8
0
  6
CONTINUOUS
 62
     7
 10
333.2531220792
 20
179.3250097894
 30
0.0
 11
291.6741465635
 21
137.7460342736
 31
0.0
  0
LINE
  5
2F9
  8
0
  6
CONTINUOUS
 62
     7
 10
333.2531220792
 20
174.8348817288
 30
0.0
 11
296.164274624
 21
137.7460342736
 31
0.0
  0
LINE
  5
2FA
  8
0
  6
CONTINUOUS
 62
     7
 10
333.2531220792
 20
170.3447536683
 30
0.0
 11
300.6544026845
 21
137.7460342736
 31
0.0
  0
LINE
  5
2FB
  8
0
  6
CONTINUOUS
 62
     7
 10
333.2531220792
 20
165.8546256078
 30
0.0
 11
305.1445307451
 21
137.7460342736
 31
0.0
  0
LINE
  5
2FC
  8
0
  6
CONTINUOUS
 62
     7
 10
333.2531220792
 20
161.3644975472
 30
0.0
 11
309.6346588056
 21
137.7460342736
 31
0.0
  0
LINE
  5
2FD
  8
0
  6
CONTINUOUS
 62
     7
 10
333.2531220792
 20
156.8743694867
 30
0.0
 11
314.1247868662
 21
137.7460342736
 31
0.0
  0
LINE
  5
2FE
  8
0
  6
CONTINUOUS
 62
     7
 10
333.2531220792
 20
152.3842414262
 30
0.0
 11
318.6149149267
 21
137.7460342736
 31
0.0
  0
LINE
  5
2FF
  8
0
  6
CONTINUOUS
 62
     7
 10
333.2531220792
 20
147.8941133656
 30
0.0
 11
323.1050429872
 21
137.7460342736
 31
0.0
  0
LINE
  5
300
  8
0
  6
CONTINUOUS
 62
     7
 10
333.2531220792
 20
143.4039853051
 30
0.0
 11
327.5951710478
 21
137.7460342736
 31
0.0
  0
LINE
  5
301
  8
0
  6
CONTINUOUS
 62
     7
 10
333.2531220792
 20
138.9138572446
 30
0.0
 11
332.0852991083
 21
137.7460342736
 31
0.0
  0
LINE
  5
302
  8
0
  6
CONTINUOUS
 62
     7
 10
269.9308169896
 20
232.7460342736
 30
0.0
 11
267.7531220792
 21
230.5683393633
 31
0.0
  0
LINE
  5
303
  8
0
  6
CONTINUOUS
 62
     7
 10
274.4209450501
 20
232.7460342736
 30
0.0
 11
267.7531220792
 21
226.0782113027
 31
0.0
  0
LINE
  5
304
  8
0
  6
CONTINUOUS
 62
     7
 10
278.9110731106
 20
232.7460342736
 30
0.0
 11
267.7531220792
 21
221.5880832422
 31
0.0
  0
LINE
  5
305
  8
0
  6
CONTINUOUS
 62
     7
 10
283.4012011712
 20
232.7460342736
 30
0.0
 11
267.7531220792
 21
217.0979551817
 31
0.0
  0
LINE
  5
306
  8
0
  6
CONTINUOUS
 62
     7
 10
287.8913292317
 20
232.7460342736
 30
0.0
 11
267.7531220792
 21
212.6078271211
 31
0.0
  0
LINE
  5
307
  8
0
  6
CONTINUOUS
 62
     7
 10
292.3814572923
 20
232.7460342736
 30
0.0
 11
267.7531220792
 21
208.1176990606
 31
0.0
  0
LINE
  5
308
  8
0
  6
CONTINUOUS
 62
     7
 10
296.8715853528
 20
232.7460342736
 30
0.0
 11
267.7531220792
 21
203.6275710001
 31
0.0
  0
LINE
  5
309
  8
0
  6
CONTINUOUS
 62
     7
 10
301.3617134133
 20
232.7460342736
 30
0.0
 11
267.7531220792
 21
199.1374429395
 31
0.0
  0
LINE
  5
30A
  8
0
  6
CONTINUOUS
 62
     7
 10
305.8518414739
 20
232.7460342736
 30
0.0
 11
267.7531220792
 21
194.647314879
 31
0.0
  0
LINE
  5
30B
  8
0
  6
CONTINUOUS
 62
     7
 10
310.3419695344
 20
232.7460342736
 30
0.0
 11
267.7531220792
 21
190.1571868185
 31
0.0
  0
LINE
  5
30C
  8
0
  6
CONTINUOUS
 62
     7
 10
314.8320975949
 20
232.7460342736
 30
0.0
 11
267.7531220792
 21
185.6670587579
 31
0.0
  0
LINE
  5
30D
  8
0
  6
CONTINUOUS
 62
     7
 10
315.7531220792
 20
229.1769306974
 30
0.0
 11
267.7531220792
 21
181.1769306974
 31
0.0
  0
LINE
  5
30E
  8
0
  6
CONTINUOUS
 62
     7
 10
315.7531220792
 20
224.6868026368
 30
0.0
 11
267.7531220792
 21
176.6868026368
 31
0.0
  0
LINE
  5
30F
  8
0
  6
CONTINUOUS
 62
     7
 10
315.7531220792
 20
220.1966745763
 30
0.0
 11
268.3024817765
 21
172.7460342736
 31
0.0
  0
LINE
  5
310
  8
0
  6
CONTINUOUS
 62
     7
 10
284.2531220792
 20
184.2065465158
 30
0.0
 11
272.7926098371
 21
172.7460342736
 31
0.0
  0
LINE
  5
311
  8
0
  6
CONTINUOUS
 62
     7
 10
315.7531220792
 20
215.7065465158
 30
0.0
 11
286.2926098371
 21
186.2460342736
 31
0.0
  0
LINE
  5
312
  8
0
  6
CONTINUOUS
 62
     7
 10
284.2531220792
 20
179.7164184552
 30
0.0
 11
277.2827378976
 21
172.7460342736
 31
0.0
  0
LINE
  5
313
  8
0
  6
CONTINUOUS
 62
     7
 10
315.7531220792
 20
211.2164184552
 30
0.0
 11
290.7827378976
 21
186.2460342736
 31
0.0
  0
LINE
  5
314
  8
0
  6
CONTINUOUS
 62
     7
 10
284.2531220792
 20
175.2262903947
 30
0.0
 11
281.7728659581
 21
172.7460342736
 31
0.0
  0
LINE
  5
315
  8
0
  6
CONTINUOUS
 62
     7
 10
295.7531220792
 20
186.7262903947
 30
0.0
 11
295.2728659581
 21
186.2460342736
 31
0.0
  0
LINE
  5
316
  8
0
  6
CONTINUOUS
 62
     7
 10
312.7531220792
 20
203.7262903947
 30
0.0
 11
298.2728659581
 21
189.2460342736
 31
0.0
  0
LINE
  5
317
  8
0
  6
CONTINUOUS
 62
     7
 10
312.7531220792
 20
199.2361623342
 30
0.0
 11
302.7629940187
 21
189.2460342736
 31
0.0
  0
LINE
  5
318
  8
0
  6
CONTINUOUS
 62
     7
 10
312.7531220792
 20
194.7460342736
 30
0.0
 11
307.2531220792
 21
189.2460342736
 31
0.0
  0
LINE
  5
319
  8
0
  6
CONTINUOUS
 62
     7
 10
312.7531220792
 20
190.2559062131
 30
0.0
 11
311.7432501397
 21
189.2460342736
 31
0.0
  0
LINE
  5
31A
  8
0
  6
CONTINUOUS
 62
     7
 10
330.9351025945
 20
206.5640537583
 30
0.0
 11
324.5711415639
 21
212.928014789
 31
0.0
  0
LINE
  5
31B
  8
0
  6
CONTINUOUS
 62
     7
 10
327.7629832215
 20
205.2460450783
 30
0.0
 11
323.2531328839
 21
209.7558954159
 31
0.0
  0
LINE
  5
31C
  8
0
  6
CONTINUOUS
 62
     7
 10
333.2249578355
 20
213.2544546384
 30
0.0
 11
331.2615424439
 21
215.21787003
 31
0.0
  0
LINE
  5
31D
  8
0
  6
CONTINUOUS
 62
     7
 10
327.2669432605
 20
214.7223411529
 30
0.0
 11
325.9876141428
 21
216.0016702706
 31
0.0
  0
LINE
  5
31E
  8
0
  6
CONTINUOUS
 62
     7
 10
334.0087580762
 20
207.9805263372
 30
0.0
 11
332.7294289584
 21
209.2598554549
 31
0.0
  0
LINE
  5
31F
  8
0
  6
CONTINUOUS
 62
     7
 10
324.2175881733
 20
213.2815681796
 30
0.0
 11
323.1569280015
 21
214.3422283514
 31
0.0
  0
LINE
  5
320
  8
0
  6
CONTINUOUS
 62
     7
 10
332.3493161569
 20
205.1498401959
 30
0.0
 11
331.2886559851
 21
206.2105003677
 31
0.0
  0
LINE
  5
321
  8
0
  6
CONTINUOUS
 62
     7
 10
322.7768152
 20
210.2322130923
 30
0.0
 11
321.4974860822
 21
211.5115422101
 31
0.0
  0
LINE
  5
322
  8
0
  6
CONTINUOUS
 62
     7
 10
329.5186300156
 20
203.4903982767
 30
0.0
 11
328.2393008979
 21
204.7697273944
 31
0.0
  0
LINE
  5
323
  8
0
  6
CONTINUOUS
 62
     7
 10
324.2447017145
 20
204.2741985173
 30
0.0
 11
322.2812863229
 21
206.2376139089
 31
0.0
  0
LINE
  5
324
  8
0
  6
CONTINUOUS
 62
     7
 10
304.8133069119
 20
177.8259629852
 30
0.0
 11
302.7666348514
 21
175.7792909247
 31
0.0
  0
LINE
  5
325
  8
0
  6
CONTINUOUS
 62
     7
 10
306.2567629119
 20
174.7792909247
 30
0.0
 11
285.2531220792
 21
153.775650092
 31
0.0
  0
LINE
  5
326
  8
0
  6
CONTINUOUS
 62
     7
 10
296.5265067908
 20
174.0292909247
 30
0.0
 11
285.2531220792
 21
162.7559062131
 31
0.0
  0
LINE
  5
327
  8
0
  6
CONTINUOUS
 62
     7
 10
310.7468909724
 20
174.7792909247
 30
0.0
 11
285.2531220792
 21
149.2855220315
 31
0.0
  0
LINE
  5
328
  8
0
  6
CONTINUOUS
 62
     7
 10
315.237019033
 20
174.7792909247
 30
0.0
 11
285.2531220792
 21
144.795393971
 31
0.0
  0
LINE
  5
329
  8
0
  6
CONTINUOUS
 62
     7
 10
318.9771470935
 20
174.0292909247
 30
0.0
 11
285.2531220792
 21
140.3052659104
 31
0.0
  0
LINE
  5
32A
  8
0
  6
CONTINUOUS
 62
     7
 10
301.7666348514
 20
174.7792909247
 30
0.0
 11
285.2531220792
 21
158.2657781526
 31
0.0
  0
CIRCLE
  5
32B
  8
0
  6
CONTINUOUS
 62
     7
 10
327.7531220792
 20
209.7460342736
 30
0.0
 40
6.49999999999998
  0
CIRCLE
  5
32C
  8
0
  6
CONTINUOUS
 62
     7
 10
327.7531220792
 20
209.7460342736
 30
0.0
 40
5.0
  0
CIRCLE
  5
32D
  8
0
  6
CONTINUOUS
 62
     7
 10
327.7531220792
 20
209.7460342736
 30
0.0
 40
4.500000000000018
  0
LINE
  5
32E
  8
0
  6
CONTINUOUS
 62
     7
 10
267.7531220792
 20
172.7460342736
 30
0.0
 11
284.2531220792
 21
172.7460342736
 31
0.0
  0
LINE
  5
32F
  8
0
  6
CONTINUOUS
 62
     7
 10
267.7531220792
 20
232.7460342736
 30
0.0
 11
267.7531220792
 21
172.7460342736
 31
0.0
  0
LINE
  5
330
  8
0
  6
CONTINUOUS
 62
     7
 10
315.7531220792
 20
232.7460342736
 30
0.0
 11
267.7531220792
 21
232.7460342736
 31
0.0
  0
LINE
  5
331
  8
0
  6
CONTINUOUS
 62
     7
 10
315.7531220792
 20
207.2460342736
 30
0.0
 11
315.7531220792
 21
232.7460342736
 31
0.0
  0
LINE
  5
332
  8
0
  6
CONTINUOUS
 62
     7
 10
312.7531220792
 20
207.2460342736
 30
0.0
 11
315.7531220792
 21
207.2460342736
 31
0.0
  0
LINE
  5
333
  8
0
  6
CONTINUOUS
 62
     7
 10
312.7531220792
 20
189.2460342736
 30
0.0
 11
312.7531220792
 21
207.2460342736
 31
0.0
  0
LINE
  5
334
  8
0
  6
CONTINUOUS
 62
     7
 10
312.7531220792
 20
189.2460342736
 30
0.0
 11
295.7531220792
 21
189.2460342736
 31
0.0
  0
LINE
  5
335
  8
0
  6
CONTINUOUS
 62
     7
 10
295.7531220792
 20
186.2460342736
 30
0.0
 11
295.7531220792
 21
189.2460342736
 31
0.0
  0
LINE
  5
336
  8
0
  6
CONTINUOUS
 62
     7
 10
284.2531220792
 20
186.2460342736
 30
0.0
 11
295.7531220792
 21
186.2460342736
 31
0.0
  0
LINE
  5
337
  8
0
  6
CONTINUOUS
 62
     7
 10
284.2531220792
 20
172.7460342736
 30
0.0
 11
284.2531220792
 21
186.2460342736
 31
0.0
  0
LINE
  5
338
  8
0
  6
CONTINUOUS
 62
     7
 10
315.7531220792
 20
207.2460342736
 30
0.0
 11
315.7531220792
 21
205.6987546923
 31
0.0
  0
LINE
  5
339
  8
0
  6
CONTINUOUS
 62
     7
 10
315.7531220792
 20
189.3460342736
 30
0.0
 11
315.7531220792
 21
186.2460342736
 31
0.0
  0
LINE
  5
33A
  8
0
  6
CONTINUOUS
 62
     7
 10
312.6531220792
 20
186.2460342736
 30
0.0
 11
315.7531220792
 21
186.2460342736
 31
0.0
  0
LINE
  5
33B
  8
0
  6
CONTINUOUS
 62
     7
 10
295.7531220792
 20
181.2460342736
 30
0.0
 11
295.7531220792
 21
184.2460342736
 31
0.0
  0
LINE
  5
33C
  8
0
  6
CONTINUOUS
 62
     7
 10
295.7531220792
 20
181.2460342736
 30
0.0
 11
319.7531220792
 21
181.2460342736
 31
0.0
  0
LINE
  5
33D
  8
0
  6
CONTINUOUS
 62
     7
 10
319.7531220792
 20
197.7460342736
 30
0.0
 11
319.7531220792
 21
181.2460342736
 31
0.0
  0
LINE
  5
33E
  8
0
  6
CONTINUOUS
 62
     7
 10
333.2531220792
 20
137.7460342736
 30
0.0
 11
333.2531220792
 21
197.7460342736
 31
0.0
  0
LINE
  5
33F
  8
0
  6
CONTINUOUS
 62
     7
 10
295.7531220792
 20
184.2460342736
 30
0.0
 11
285.2531220792
 21
184.2460342736
 31
0.0
  0
LINE
  5
340
  8
0
  6
CONTINUOUS
 62
     7
 10
285.2531220792
 20
184.2460342736
 30
0.0
 11
285.2531220792
 21
137.7460342736
 31
0.0
  0
LINE
  5
341
  8
0
  6
CONTINUOUS
 62
     7
 10
285.2531220792
 20
137.7460342736
 30
0.0
 11
333.2531220792
 21
137.7460342736
 31
0.0
  0
LINE
  5
342
  8
0
  6
CONTINUOUS
 62
     7
 10
333.2531220792
 20
197.7460342736
 30
0.0
 11
319.7531220792
 21
197.7460342736
 31
0.0
  0
LINE
  5
343
  8
0
  6
CONTINUOUS
 62
     7
 10
316.7531220792
 20
196.5894357984
 30
0.0
 11
316.7531220792
 21
197.7460342736
 31
0.0
  0
LINE
  5
344
  8
0
  6
CONTINUOUS
 62
     7
 10
316.8315415097
 20
197.7460342736
 30
0.0
 11
316.7531220792
 21
197.7460342736
 31
0.0
  0
LINE
  5
345
  8
0
  6
CONTINUOUS
 62
     7
 10
302.7531220792
 20
181.2460342736
 30
0.0
 11
302.7531220792
 21
181.9960342736
 31
0.0
  0
LINE
  5
346
  8
0
  6
CONTINUOUS
 62
     7
 10
308.7531220792
 20
181.9960342736
 30
0.0
 11
302.7531220792
 21
181.9960342736
 31
0.0
  0
LINE
  5
347
  8
0
  6
CONTINUOUS
 62
     7
 10
308.7531220792
 20
181.9960342736
 30
0.0
 11
308.7531220792
 21
181.2460342736
 31
0.0
  0
LINE
  5
348
  8
0
  6
CONTINUOUS
 62
     7
 10
300.5031220792
 20
184.2460342736
 30
0.0
 11
302.7531220792
 21
181.9960342736
 31
0.0
  0
LINE
  5
349
  8
0
  6
CONTINUOUS
 62
     7
 10
300.5031220792
 20
184.2460342736
 30
0.0
 11
311.0031220792
 21
184.2460342736
 31
0.0
  0
LINE
  5
34A
  8
0
  6
CONTINUOUS
 62
     7
 10
308.7531220792
 20
181.9960342736
 30
0.0
 11
311.0031220792
 21
184.2460342736
 31
0.0
  0
LINE
  5
34B
  8
0
  6
CONTINUOUS
 62
     7
 10
295.7531220792
 20
184.2460342736
 30
0.0
 11
300.5031220792
 21
184.2460342736
 31
0.0
  0
LINE
  5
34C
  8
0
  6
CONTINUOUS
 62
     7
 10
295.7531220792
 20
181.2460342736
 30
0.0
 11
302.7531220792
 21
181.2460342736
 31
0.0
  0
LINE
  5
34D
  8
0
  6
CONTINUOUS
 62
     7
 10
319.7561827734
 20
196.667615211
 30
0.0
 11
320.8243939039
 21
210.2893811912
 31
0.0
  0
LINE
  5
34E
  8
0
  6
CONTINUOUS
 62
     7
 10
320.3598945782
 20
203.0870037798
 30
0.0
 11
322.5890083976
 21
205.0947516674
 31
0.0
  0
ARC
  5
34F
  8
0
  6
CONTINUOUS
 62
     7
 10
315.7531220792
 20
185.2460342736
 30
0.0
 40
4.000000000000057
 50
270.0
 51
0.0
  0
ARC
  5
350
  8
0
  6
CONTINUOUS
 62
     7
 10
315.7531220792
 20
185.2460342736
 30
0.0
 40
1.000000000000057
 50
270.0
 51
0.0
  0
LINE
  5
351
  8
0
  6
CONTINUOUS
 62
     7
 10
311.0031220792
 20
184.2460342736
 30
0.0
 11
315.7531220792
 21
184.2460342736
 31
0.0
  0
LINE
  5
352
  8
0
  6
CONTINUOUS
 62
     7
 10
308.7531220792
 20
181.2460342736
 30
0.0
 11
315.7531220792
 21
181.2460342736
 31
0.0
  0
ARC
  5
353
  8
0
  6
CONTINUOUS
 62
     7
 10
320.7531220792
 20
196.5894357984
 30
0.0
 40
4.00000000000003
 50
175.5160740371
 51
180.0
  0
ARC
  5
354
  8
0
  6
CONTINUOUS
 62
     7
 10
327.7531220792
 20
209.7460342736
 30
0.0
 40
6.949999999999995
 50
222.0091515093
 51
175.5160740371
  0
ARC
  5
355
  8
0
  6
CONTINUOUS
 62
     7
 10
327.7531220792
 20
209.7460342736
 30
0.0
 40
9.95000000000001
 50
222.0091515093
 51
175.5160740371
  0
LINE
  5
356
  8
0
  6
CONTINUOUS
 62
     7
 10
316.765364856
 20
196.9021534488
 30
0.0
 11
317.8335759865
 21
210.523919429
 31
0.0
  0
ARC
  5
357
  8
0
  6
CONTINUOUS
 62
     7
 10
320.7531220792
 20
196.5894357984
 30
0.0
 40
1.000000000000008
 50
175.5160740371
 51
180.0
  0
LINE
  5
358
  8
0
  6
CONTINUOUS
 62
     7
 10
319.7531220792
 20
185.2460342736
 30
0.0
 11
319.7531220792
 21
196.5894357984
 31
0.0
  0
LINE
  5
359
  8
0
  6
CONTINUOUS
 62
     7
 10
316.7531220792
 20
185.2460342736
 30
0.0
 11
316.7531220792
 21
196.5894357984
 31
0.0
  0
LINE
  5
35A
  8
0
  6
CONTINUOUS
 62
     7
 10
302.7531220792
 20
186.2460342736
 30
0.0
 11
302.7531220792
 21
189.2460342736
 31
0.0
  0
LINE
  5
35B
  8
0
  6
CONTINUOUS
 62
     7
 10
308.7531220792
 20
189.2460342736
 30
0.0
 11
308.7531220792
 21
186.2460342736
 31
0.0
  0
LINE
  5
35C
  8
0
  6
CONTINUOUS
 62
     7
 10
308.7531220792
 20
186.2460342736
 30
0.0
 11
302.7531220792
 21
186.2460342736
 31
0.0
  0
LINE
  5
35D
  8
0
  6
CONTINUOUS
 62
     7
 10
295.7531220792
 20
186.2460342736
 30
0.0
 11
302.7531220792
 21
186.2460342736
 31
0.0
  0
LINE
  5
35E
  8
0
  6
CONTINUOUS
 62
     7
 10
295.7531220792
 20
189.2460342736
 30
0.0
 11
302.7531220792
 21
189.2460342736
 31
0.0
  0
ARC
  5
35F
  8
0
  6
CONTINUOUS
 62
     7
 10
312.6531220792
 20
189.3460342736
 30
0.0
 40
3.100000000000023
 50
270.0
 51
0.0
  0
ARC
  5
360
  8
0
  6
CONTINUOUS
 62
     7
 10
312.6531220792
 20
189.3460342736
 30
0.0
 40
0.1000000000000227
 50
270.0
 51
0.0
  0
ARC
  5
361
  8
0
  6
CONTINUOUS
 62
     7
 10
316.7531220792
 20
196.5734998816
 30
0.0
 40
1.000000000000033
 50
160.4217655354
 51
180.0
  0
ARC
  5
362
  8
0
  6
CONTINUOUS
 62
     7
 10
316.7531220792
 20
196.5734998816
 30
0.0
 40
4.00000000000007
 50
160.4217655354
 51
180.0
  0
LINE
  5
363
  8
0
  6
CONTINUOUS
 62
     7
 10
315.810937263
 20
196.9085935581
 30
0.0
 11
316.3522139397
 21
198.4305043012
 31
0.0
  0
LINE
  5
364
  8
0
  6
CONTINUOUS
 62
     7
 10
312.9843828142
 20
197.9138745877
 30
0.0
 11
313.525659491
 21
199.4357853308
 31
0.0
  0
LINE
  5
365
  8
0
  6
CONTINUOUS
 62
     7
 10
316.3522139397
 20
198.4305043012
 30
0.0
 11
313.525659491
 21
199.4357853308
 31
0.0
  0
LINE
  5
366
  8
0
  6
CONTINUOUS
 62
     7
 10
315.7531220792
 20
189.3460342736
 30
0.0
 11
315.7531220792
 21
196.5734998816
 31
0.0
  0
LINE
  5
367
  8
0
  6
CONTINUOUS
 62
     7
 10
308.7531220792
 20
186.2460342736
 30
0.0
 11
312.6531220792
 21
186.2460342736
 31
0.0
  0
LINE
  5
368
  8
0
  6
CONTINUOUS
 62
     7
 10
308.7531220792
 20
189.2460342736
 30
0.0
 11
312.6531220792
 21
189.2460342736
 31
0.0
  0
LINE
  5
369
  8
0
  6
CONTINUOUS
 62
     7
 10
312.7531220792
 20
189.3460342736
 30
0.0
 11
312.7531220792
 21
196.5734998816
 31
0.0
  0
LINE
  5
36A
  8
0
  6
CONTINUOUS
 62
     7
 10
314.0283000058
 20
200.8490625551
 30
0.0
 11
316.8548544545
 21
199.8437815255
 31
0.0
  0
LINE
  5
36B
  8
0
  6
CONTINUOUS
 62
     7
 10
316.8548544545
 20
199.8437815255
 30
0.0
 11
316.3522139397
 21
198.4305043012
 31
0.0
  0
LINE
  5
36C
  8
0
  6
CONTINUOUS
 62
     7
 10
313.525659491
 20
199.4357853308
 30
0.0
 11
314.0283000058
 21
200.8490625551
 31
0.0
  0
LINE
  5
36D
  8
0
  6
CONTINUOUS
 62
     7
 10
316.8548544545
 20
199.8437815255
 30
0.0
 11
317.0359831483
 21
200.3530621148
 31
0.0
  0
LINE
  5
36E
  8
0
  6
CONTINUOUS
 62
     7
 10
314.0283000058
 20
200.8490625551
 30
0.0
 11
318.3783831576
 21
213.0802163551
 31
0.0
  0
LINE
  5
36F
  8
0
  6
CONTINUOUS
 62
     7
 10
320.3598945782
 20
203.0870037798
 30
0.0
 11
320.2677257423
 21
203.19078129
 31
0.0
  0
CIRCLE
  5
370
  8
0
  6
CONTINUOUS
 62
     7
 10
327.7531220792
 20
209.7460342736
 30
0.0
 40
4.525000000000056
  0
ARC
  5
371
  8
0
  6
CONTINUOUS
 62
     7
 10
327.7531220792
 20
209.7460342736
 30
0.0
 40
7.000000000000021
 50
182.3683123721
 51
222.3862634235
  0
POLYLINE
  5
372
  8
0
  6
CONTINUOUS
 62
     7
 66
     1
 10
0.0
 20
0.0
 30
0.0
 70
   128
  0
VERTEX
  5
3CE
  8
0
  6
CONTINUOUS
 62
     7
 10
320.4087910877
 20
204.989638339
 30
0.0
  0
VERTEX
  5
3CF
  8
0
  6
CONTINUOUS
 62
     7
 10
320.739505608
 20
204.5142387888
 30
0.0
  0
VERTEX
  5
3D0
  8
0
  6
CONTINUOUS
 62
     7
 10
321.2515401059
 20
203.8901029348
 30
0.0
  0
SEQEND
  5
3D8
  8
0
  6
CONTINUOUS
 62
     7
  0
POLYLINE
  5
373
  8
0
  6
CONTINUOUS
 62
     7
 66
     1
 10
0.0
 20
0.0
 30
0.0
 70
   128
  0
VERTEX
  5
3D1
  8
0
  6
CONTINUOUS
 62
     7
 10
321.065780621
 20
203.7227906109
 30
0.0
  0
VERTEX
  5
3D2
  8
0
  6
CONTINUOUS
 62
     7
 10
320.7671862653
 20
204.0718206009
 30
0.0
  0
VERTEX
  5
3D3
  8
0
  6
CONTINUOUS
 62
     7
 10
320.3773505144
 20
204.5887099844
 30
0.0
  0
SEQEND
  5
3D9
  8
0
  6
CONTINUOUS
 62
     7
  0
LINE
  5
374
  8
0
  6
CONTINUOUS
 62
     8
 10
320.8191744423
 20
204.0084067004
 30
0.0
 11
320.3087206467
 21
203.713545917
 31
0.0
  0
ARC
  5
375
  8
0
  6
CONTINUOUS
 62
     8
 10
327.7531220792
 20
209.7460342736
 30
0.0
 40
7.499999999999963
 50
197.5950428445
 51
222.0091515093
  0
DIMENSION
  5
376
  8
0
  6
CONTINUOUS
 62
     7
  2
_D_17
 10
257.7531220792
 20
186.2460342736
 30
0.0
 11
257.7531220792
 21
185.2460342736
 31
0.0
 70
   160
  1
<>
  3
SLDDIMSTYLE1
 13
295.7531220792
 23
184.2460342736
 33
0.0
 14
295.7531220792
 24
186.2460342736
 34
0.0
 50
90.0
  0
DIMENSION
  5
382
  8
0
  6
CONTINUOUS
 62
     7
  2
_D_18
 10
315.7531220792
 20
235.3245330193
 30
0.0
 11
321.7531220792
 21
235.3245330193
 31
0.0
 70
   160
  1
<>
  3
SLDDIMSTYLE1
 13
327.7531220792
 23
209.7460342736
 33
0.0
 14
315.7531220792
 24
232.7460342736
 34
0.0
 50
0.0
  0
DIMENSION
  5
38E
  8
0
  6
CONTINUOUS
 62
     7
  2
_D_19
 10
343.4424696983
 20
181.2460342736
 30
0.0
 11
343.4424696983
 21
189.4960342736
 31
0.0
 70
   160
  1
<>
  3
SLDDIMSTYLE1
 13
333.2531220792
 23
197.7460342736
 33
0.0
 14
315.7531220792
 24
181.2460342736
 34
0.0
 50
90.0
  0
DIMENSION
  5
39A
  8
0
  6
CONTINUOUS
 62
     7
  2
_D_20
 10
319.7531220792
 20
175.2792909247
 30
0.0
 11
307.7531220792
 21
175.2792909247
 31
0.0
 70
   160
  1
<>
  3
SLDDIMSTYLE0
 13
295.7531220792
 23
181.2460342736
 33
0.0
 14
319.7531220792
 24
181.2460342736
 34
0.0
 50
0.0
  0
INSERT
  5
3AF
  8
0
  6
CONTINUOUS
 62
     7
  2
SW_CENTERMARKSYMBOL_11
 10
327.7531220792
 20
209.7460342736
 30
0.0
  0
ENDSEC
  0
EOF
