  0
SECTION
  2
HEADER
  9
$ACADVER
  1
AC1009
  9
$DWGCODEPAGE
  3
ansi_1252
  9
$INSBASE
 10
0.0
 20
0.0
 30
0.0
  9
$EXTMIN
 10
0.0
 20
0.0
 30
0.0
  9
$EXTMAX
 10
420.0
 20
297.0
 30
0.0
  9
$LIMMIN
 10
0.0
 20
0.0
  9
$LIMMAX
 10
420.0
 20
297.0
  9
$ORTHOMODE
 70
     0
  9
$REGENMODE
 70
     1
  9
$FILLMODE
 70
     1
  9
$QTEXTMODE
 70
     0
  9
$MIRRTEXT
 70
     1
  9
$DRAGMODE
 70
     2
  9
$LTSCALE
 40
1.0
  9
$OSMODE
 70
    37
  9
$ATTMODE
 70
     1
  9
$TEXTSIZE
 40
3.5
  9
$TRACEWID
 40
1.0
  9
$TEXTSTYLE
  7
STANDARD
  9
$CLAYER
  8
0
  9
$CELTYPE
  6
BYLAYER
  9
$CECOLOR
 62
   256
  9
$DIMSCALE
 40
1.0
  9
$DIMASZ
 40
3.3
  9
$DIMEXO
 40
1.0
  9
$DIMDLI
 40
3.75
  9
$DIMRND
 40
0.0
  9
$DIMDLE
 40
0.0
  9
$DIMEXE
 40
1.0
  9
$DIMTP
 40
0.0
  9
$DIMTM
 40
0.0
  9
$DIMTXT
 40
3.5277777778
  9
$DIMCEN
 40
2.5
  9
$DIMTSZ
 40
0.0
  9
$DIMTOL
 70
     0
  9
$DIMLIM
 70
     0
  9
$DIMTIH
 70
     1
  9
$DIMTOH
 70
     1
  9
$DIMSE1
 70
     0
  9
$DIMSE2
 70
     0
  9
$DIMTAD
 70
     1
  9
$DIMZIN
 70
     0
  9
$DIMBLK
  1

  9
$DIMASO
 70
     1
  9
$DIMSHO
 70
     1
  9
$DIMPOST
  1

  9
$DIMAPOST
  1

  9
$DIMALT
 70
     0
  9
$DIMALTD
 70
     3
  9
$DIMALTF
 40
0.0393700787
  9
$DIMLFAC
 40
1.0
  9
$DIMTOFL
 70
     1
  9
$DIMTVP
 40
0.0
  9
$DIMTIX
 70
     0
  9
$DIMSOXD
 70
     0
  9
$DIMSAH
 70
     0
  9
$DIMBLK1
  1

  9
$DIMBLK2
  1

  9
$DIMSTYLE
  2
ISO-25
  9
$DIMCLRD
 70
     0
  9
$DIMCLRE
 70
     0
  9
$DIMCLRT
 70
     0
  9
$DIMTFAC
 40
1.0
  9
$DIMGAP
 40
1.524
  9
$LUNITS
 70
     2
  9
$LUPREC
 70
     2
  9
$SKETCHINC
 40
1.0
  9
$FILLETRAD
 40
10.0
  9
$AUNITS
 70
     0
  9
$AUPREC
 70
     2
  9
$MENU
  1
.
  9
$ELEVATION
 40
0.0
  9
$PELEVATION
 40
0.0
  9
$THICKNESS
 40
0.0
  9
$LIMCHECK
 70
     0
  9
$CHAMFERA
 40
0.0
  9
$CHAMFERB
 40
0.0
  9
$SKPOLY
 70
     0
  9
$TDCREATE
 40
2459611.394540185
  9
$TDUPDATE
 40
2459611.394558541
  9
$TDINDWG
 40
0.0000000116
  9
$TDUSRTIMER
 40
0.0000000116
  9
$USRTIMER
 70
     1
  9
$ANGBASE
 50
0.0
  9
$ANGDIR
 70
     0
  9
$PDMODE
 70
     0
  9
$PDSIZE
 40
-1.0
  9
$PLINEWID
 40
0.0
  9
$COORDS
 70
     1
  9
$SPLFRAME
 70
     0
  9
$SPLINETYPE
 70
     6
  9
$SPLINESEGS
 70
     8
  9
$ATTDIA
 70
     0
  9
$ATTREQ
 70
     1
  9
$HANDLING
 70
     1
  9
$HANDSEED
  5
8BB
  9
$SURFTAB1
 70
     6
  9
$SURFTAB2
 70
     6
  9
$SURFTYPE
 70
     6
  9
$SURFU
 70
     6
  9
$SURFV
 70
     6
  9
$UCSNAME
  2

  9
$UCSORG
 10
0.0
 20
0.0
 30
0.0
  9
$UCSXDIR
 10
1.0
 20
0.0
 30
0.0
  9
$UCSYDIR
 10
0.0
 20
1.0
 30
0.0
  9
$PUCSNAME
  2

  9
$PUCSORG
 10
0.0
 20
0.0
 30
0.0
  9
$PUCSXDIR
 10
1.0
 20
0.0
 30
0.0
  9
$PUCSYDIR
 10
0.0
 20
1.0
 30
0.0
  9
$USERI1
 70
     0
  9
$USERI2
 70
     0
  9
$USERI3
 70
     0
  9
$USERI4
 70
     0
  9
$USERI5
 70
     0
  9
$USERR1
 40
0.0
  9
$USERR2
 40
0.0
  9
$USERR3
 40
0.0
  9
$USERR4
 40
0.0
  9
$USERR5
 40
0.0
  9
$WORLDVIEW
 70
     1
  9
$SHADEDGE
 70
     3
  9
$SHADEDIF
 70
    70
  9
$TILEMODE
 70
     1
  9
$MAXACTVP
 70
    64
  9
$PLIMCHECK
 70
     0
  9
$PEXTMIN
 10
1.0000000000E+20
 20
1.0000000000E+20
 30
1.0000000000E+20
  9
$PEXTMAX
 10
-1.0000000000E+20
 20
-1.0000000000E+20
 30
-1.0000000000E+20
  9
$PLIMMIN
 10
0.0
 20
0.0
  9
$PLIMMAX
 10
420.0
 20
297.0
  9
$UNITMODE
 70
     0
  9
$VISRETAIN
 70
     1
  9
$PLINEGEN
 70
     0
  9
$PSLTSCALE
 70
     1
  0
ENDSEC
  0
SECTION
  2
TABLES
  0
TABLE
  2
VPORT
 70
     1
  0
VPORT
  2
*ACTIVE
 70
     0
 10
0.0
 20
0.0
 11
1.0
 21
1.0
 12
210.0
 22
148.5
 13
0.0
 23
0.0
 14
10.0
 24
10.0
 15
10.0
 25
10.0
 16
0.0
 26
0.0
 36
1.0
 17
0.0
 27
0.0
 37
0.0
 40
297.0
 41
1.4141414141
 42
50.0
 43
0.0
 44
0.0
 50
0.0
 51
0.0
 71
     0
 72
  2000
 73
     1
 74
     3
 75
     0
 76
     0
 77
     0
 78
     0
  0
ENDTAB
  0
TABLE
  2
LTYPE
 70
     6
  0
LTYPE
  2
CONTINUOUS
 70
     0
  3
Solid line
 72
    65
 73
     0
 40
0.0
  0
LTYPE
  2
HIDDEN
 70
     0
  3
Hidden __ __ __ __ __ __ __ __ __ __ __ __ __ __
 72
    65
 73
     2
 40
1.905
 49
1.27
 49
-0.635
  0
LTYPE
  2
PHANTOM
 70
     0
  3
Phantom ______  __  __  ______  __  __  ______
 72
    65
 73
     6
 40
12.7
 49
6.35
 49
-1.27
 49
1.27
 49
-1.27
 49
1.27
 49
-1.27
  0
LTYPE
  2
CENTER
 70
     0
  3
Center ____ _ ____ _ ____ _ ____ _ ____ _ ____
 72
    65
 73
     4
 40
10.16
 49
6.35
 49
-1.27
 49
1.27
 49
-1.27
  0
LTYPE
  2
CENTERX2
 70
     0
  3
Center (2x) ________  __  ________  __  _____
 72
    65
 73
     4
 40
20.32
 49
12.7
 49
-2.54
 49
2.54
 49
-2.54
  0
LTYPE
  2
DOT2
 70
     0
  3
Dot (.5x) ........................................
 72
    65
 73
     2
 40
0.635
 49
0.0
 49
-0.635
  0
ENDTAB
  0
TABLE
  2
LAYER
 70
     1
  0
LAYER
  2
0
 70
     0
 62
     7
  6
CONTINUOUS
  0
ENDTAB
  0
TABLE
  2
STYLE
 70
     1
  0
STYLE
  2
STANDARD
 70
     0
 40
0.0
 41
1.0
 50
0.0
 71
     0
 42
3.5
  3
txt
  4

  0
ENDTAB
  0
TABLE
  2
VIEW
 70
     0
  0
ENDTAB
  0
TABLE
  2
UCS
 70
     0
  0
ENDTAB
  0
TABLE
  2
APPID
 70
     1
  0
APPID
  2
ACAD
 70
     0
  0
ENDTAB
  0
TABLE
  2
DIMSTYLE
 70
     6
  0
DIMSTYLE
  2
ISO-25
 70
     0
  3

  4

  5

  6

  7

 40
1.0
 41
2.5
 42
0.625
 43
3.75
 44
1.25
 45
0.0
 46
0.0
 47
0.0
 48
0.0
140
2.5
141
2.5
142
0.0
143
0.0393700787
144
1.0
145
0.0
146
1.0
147
0.625
 71
     0
 72
     0
 73
     0
 74
     0
 75
     0
 76
     0
 77
     1
 78
     8
170
     0
171
     3
172
     1
173
     0
174
     0
175
     0
176
     0
177
     0
178
     0
  0
DIMSTYLE
  2
SLDDIMSTYLE0
 70
     0
  3

  4

  5

  6

  7

 40
1.0
 41
3.3
 42
0.0625
 43
0.38
 44
0.0
 45
0.000000001
 46
0.0
 47
0.0
 48
0.0
140
2.5683186849
141
0.09
142
0.0
143
25.4
144
1.0
145
0.0
146
1.0
147
0.6420796712
 71
     0
 72
     0
 73
     0
 74
     0
 75
     0
 76
     0
 77
     1
 78
    12
170
     0
171
     2
172
     0
173
     1
174
     0
175
     0
176
     0
177
     0
178
     0
  0
DIMSTYLE
  2
SLDDIMSTYLE1
 70
     0
  3

  4

  5

  6

  7

 40
1.0
 41
3.3
 42
0.0625
 43
0.38
 44
0.0
 45
0.000000001
 46
0.0
 47
0.0
 48
0.0
140
2.5683186849
141
0.09
142
0.0
143
25.4
144
1.0
145
0.0
146
1.0
147
0.6420796712
 71
     0
 72
     0
 73
     0
 74
     0
 75
     0
 76
     0
 77
     1
 78
    12
170
     0
171
     2
172
     1
173
     1
174
     0
175
     0
176
     0
177
     0
178
     0
  0
DIMSTYLE
  2
SLDDIMSTYLE2
 70
     0
  3

  4

  5

  6

  7

 40
1.0
 41
3.3
 42
0.0625
 43
0.38
 44
0.0
 45
0.000000001
 46
0.0
 47
0.0
 48
0.0
140
2.5683186849
141
0.09
142
0.0
143
25.4
144
1.0
145
0.0
146
1.0
147
0.6420796712
 71
     0
 72
     0
 73
     0
 74
     0
 75
     0
 76
     0
 77
     1
 78
    12
170
     0
171
     2
172
     1
173
     1
174
     0
175
     0
176
     0
177
     0
178
     0
  0
DIMSTYLE
  2
SLDDIMSTYLE3
 70
     0
  3

  4

  5

  6

  7

 40
1.0
 41
3.3
 42
0.0625
 43
0.38
 44
0.0
 45
0.000000001
 46
0.0
 47
0.0
 48
0.0
140
2.5683186849
141
0.09
142
0.0
143
25.4
144
1.0
145
0.0
146
1.0
147
0.6420796712
 71
     0
 72
     0
 73
     0
 74
     0
 75
     0
 76
     0
 77
     1
 78
    12
170
     0
171
     2
172
     0
173
     1
174
     0
175
     0
176
     0
177
     0
178
     0
  0
DIMSTYLE
  2
SLDDIMSTYLE4
 70
     0
  3

  4

  5

  6
NONE
  7

 40
1.0
 41
3.3
 42
0.0625
 43
0.38
 44
0.0
 45
0.000000001
 46
0.0
 47
0.0
 48
0.0
140
2.5683186849
141
0.0
142
0.0
143
25.4
144
1.0
145
0.0
146
1.0
147
0.6420796712
 71
     0
 72
     0
 73
     0
 74
     0
 75
     0
 76
     0
 77
     1
 78
    12
170
     0
171
     2
172
     1
173
     1
174
     0
175
     0
176
     0
177
     0
178
     0
  0
ENDTAB
  0
ENDSEC
  0
SECTION
  2
BLOCKS
  0
BLOCK
  8
0
  2
$MODEL_SPACE
 70
     0
 10
0.0
 20
0.0
 30
0.0
  3
$MODEL_SPACE
  1

  0
ENDBLK
  5
21
  8
0
  0
BLOCK
 67
     1
  8
0
  2
$PAPER_SPACE
 70
     0
 10
0.0
 20
0.0
 30
0.0
  3
$PAPER_SPACE
  1

  0
ENDBLK
  5
1D
 67
     1
  8
0
  0
BLOCK
  8
0
  2
SW_NOTE_0
 70
     0
 10
0.0
 20
0.0
 30
0.0
  3
SW_NOTE_0
  1

  0
TEXT
  5
D0
  8
0
  6
CONTINUOUS
 62
     0
 10
0.0
 20
0.8831501548
 30
0.0
 40
2.5
  1
Maßstab:      
 41
0.55
 11
0.0
 21
0.0
 31
0.0
 73
     1
  0
TEXT
  5
D1
  8
0
  6
CONTINUOUS
 62
     0
 10
19.7052955627
 20
0.9475215793
 30
0.0
 40
3.5
  1
1:1
 41
0.7
 11
19.7052955627
 21
-0.2888886374
 31
0.0
 73
     1
  0
ENDBLK
  5
CF
  8
0
  0
BLOCK
  8
0
  2
SW_NOTE_0_1
 70
     0
 10
0.0
 20
0.0
 30
0.0
  3
SW_NOTE_0_1
  1

  0
TEXT
  5
E1
  8
0
  6
CONTINUOUS
 62
     0
 10
0.0
 20
0.8831501548
 30
0.0
 40
2.5
  1
Breuer & Schmitz
 41
0.65625
 11
0.0
 21
0.0
 31
0.0
 73
     1
  0
TEXT
  5
E2
  8
0
  6
CONTINUOUS
 62
     0
 10
0.6718747318
 20
-2.6168499532
 30
0.0
 40
2.5
  1
GmbH & Co. KG
 41
0.6192307692
 11
0.6718747318
 21
-3.500000108
 31
0.0
 73
     1
  0
TEXT
  5
E3
  8
0
  6
CONTINUOUS
 62
     0
 10
1.2413188815
 20
-6.1168500613
 30
0.0
 40
2.5
  1
Solingen - Wald
 41
0.6533333333
 11
1.2413188815
 21
-7.0000002161
 31
0.0
 73
     1
  0
TEXT
  5
E4
  8
0
  6
CONTINUOUS
 62
     0
 10
-0.7673613727
 20
-9.6168501693
 30
0.0
 40
2.5
  1
Baubeschlagfabrik
 41
0.7
 11
-0.7673613727
 21
-10.5000003241
 31
0.0
 73
     1
  0
ENDBLK
  5
E0
  8
0
  0
BLOCK
  8
0
  2
SW_NOTE_0_2
 70
     0
 10
0.0
 20
0.0
 30
0.0
  3
SW_NOTE_0_2
  1

  0
TEXT
  5
E9
  8
0
  6
CONTINUOUS
 62
     0
 10
0.0
 20
0.5608003483
 30
0.0
 40
1.5875
  1
Diese Zeichung ist unser Eigentum und darf weder
 41
0.6489583333
 11
0.0
 21
0.0
 31
0.0
 73
     1
  0
TEXT
  5
EA
  8
0
  6
CONTINUOUS
 62
     0
 10
0.0
 20
-1.5558662928
 30
0.0
 40
1.5875
  1
verwertet, vervielfältigt noch Dritten zugänglich 
 41
0.665
 11
0.0
 21
-2.1166666411
 31
0.0
 73
     1
  0
TEXT
  5
EB
  8
0
  6
CONTINUOUS
 62
     0
 10
0.0
 20
-3.6725329339
 30
0.0
 40
1.5875
  1
gemacht werden.
 41
0.7
 11
0.0
 21
-4.2333332822
 31
0.0
 73
     1
  0
TEXT
  5
EC
  8
0
  6
CONTINUOUS
 62
     0
 10
0.0
 20
-7.905866216
 30
0.0
 40
1.5875
  1
This drawing is our property and cannot either be 
 41
0.637
 11
0.0
 21
-8.4666665643
 31
0.0
 73
     1
  0
TEXT
  5
ED
  8
0
  6
CONTINUOUS
 62
     0
 10
0.0
 20
-10.0225328571
 30
0.0
 40
1.5875
  1
utilized for an other purpose or copied nor made 
 41
0.6357142857
 11
0.0
 21
-10.5833332054
 31
0.0
 73
     1
  0
TEXT
  5
EE
  8
0
  6
CONTINUOUS
 62
     0
 10
0.0
 20
-12.1391994982
 30
0.0
 40
1.5875
  1
available to a third.
 41
0.65
 11
0.0
 21
-12.6999998465
 31
0.0
 73
     1
  0
ENDBLK
  5
E8
  8
0
  0
BLOCK
  8
0
  2
_D
 70
     0
 10
0.0
 20
0.0
 30
0.0
  3
_D
  1

  0
SOLID
  5
2EE
  8
0
  6
CONTINUOUS
 62
     7
 10
102.1334151479
 20
264.5429268611
 30
0.0
 11
105.4334151479
 21
264.0429268611
 31
0.0
 12
105.4334151479
 22
265.0429268611
 32
0.0
 13
105.4334151479
 23
265.0429268611
 33
0.0
  0
SOLID
  5
2EF
  8
0
  6
CONTINUOUS
 62
     7
 10
178.1334151479
 20
264.5429268611
 30
0.0
 11
174.8334151479
 21
265.0429268611
 31
0.0
 12
174.8334151479
 22
264.0429268611
 32
0.0
 13
174.8334151479
 23
264.0429268611
 33
0.0
  0
LINE
  5
2F0
  8
0
  6
CONTINUOUS
 62
     7
 10
102.1334151479
 20
252.5429268611
 30
0.0
 11
102.1334151479
 21
265.5429268611
 31
0.0
  0
LINE
  5
2F1
  8
0
  6
CONTINUOUS
 62
     7
 10
178.1334151479
 20
252.5429268611
 30
0.0
 11
178.1334151479
 21
265.5429268611
 31
0.0
  0
LINE
  5
2F2
  8
0
  6
CONTINUOUS
 62
     7
 10
102.1334151479
 20
264.5429268611
 30
0.0
 11
178.1334151479
 21
264.5429268611
 31
0.0
  0
TEXT
  5
2F3
  8
0
  6
CONTINUOUS
 62
     7
 10
138.1735385249
 20
265.4775942828
 30
-5.052410653
 40
2.6458333333
  1
76
 41
0.7
 11
138.1735385249
 21
264.5429270357
 31
-5.052410653
 73
     1
  0
ENDBLK
  5
2ED
  8
0
  0
BLOCK
  8
0
  2
_D_1
 70
     0
 10
0.0
 20
0.0
 30
0.0
  3
_D_1
  1

  0
SOLID
  5
2F8
  8
0
  6
CONTINUOUS
 62
     7
 10
78.1334151479
 20
251.5429268611
 30
0.0
 11
77.6334151479
 21
248.2429268611
 31
0.0
 12
78.6334151479
 22
248.2429268611
 32
0.0
 13
78.6334151479
 23
248.2429268611
 33
0.0
  0
SOLID
  5
2F9
  8
0
  6
CONTINUOUS
 62
     7
 10
78.1334151479
 20
175.5429268611
 30
0.0
 11
78.6334151479
 21
178.8429268611
 31
0.0
 12
77.6334151479
 22
178.8429268611
 32
0.0
 13
77.6334151479
 23
178.8429268611
 33
0.0
  0
LINE
  5
2FA
  8
0
  6
CONTINUOUS
 62
     7
 10
101.1334151479
 20
251.5429268611
 30
0.0
 11
77.1334151479
 21
251.5429268611
 31
0.0
  0
LINE
  5
2FB
  8
0
  6
CONTINUOUS
 62
     7
 10
101.1334151479
 20
175.5429268611
 30
0.0
 11
77.1334151479
 21
175.5429268611
 31
0.0
  0
LINE
  5
2FC
  8
0
  6
CONTINUOUS
 62
     7
 10
78.1334151479
 20
251.5429268611
 30
0.0
 11
78.1334151479
 21
175.5429268611
 31
0.0
  0
TEXT
  5
2FD
  8
0
  6
CONTINUOUS
 62
     7
 10
77.1987477261
 20
211.583050238
 30
-5.052410653
 40
2.6458333333
  1
76
 50
90.0
 41
0.7
 11
78.1334149733
 21
211.583050238
 31
-5.052410653
 73
     1
  0
ENDBLK
  5
2F7
  8
0
  0
BLOCK
  8
0
  2
_D_2
 70
     0
 10
0.0
 20
0.0
 30
0.0
  3
_D_2
  1

  0
SOLID
  5
302
  8
0
  6
CONTINUOUS
 62
     7
 10
92.1334151479
 20
243.5429268611
 30
0.0
 11
91.6334151479
 21
240.2429268611
 31
0.0
 12
92.6334151479
 22
240.2429268611
 32
0.0
 13
92.6334151479
 23
240.2429268611
 33
0.0
  0
SOLID
  5
303
  8
0
  6
CONTINUOUS
 62
     7
 10
92.1334151479
 20
213.5429268611
 30
0.0
 11
92.6334151479
 21
216.8429268611
 31
0.0
 12
91.6334151479
 22
216.8429268611
 32
0.0
 13
91.6334151479
 23
216.8429268611
 33
0.0
  0
LINE
  5
304
  8
0
  6
CONTINUOUS
 62
     7
 10
108.8834151479
 20
243.5429268611
 30
0.0
 11
91.1334151479
 21
243.5429268611
 31
0.0
  0
LINE
  5
305
  8
0
  6
CONTINUOUS
 62
     7
 10
103.8834151479
 20
213.5429268611
 30
0.0
 11
91.1334151479
 21
213.5429268611
 31
0.0
  0
LINE
  5
306
  8
0
  6
CONTINUOUS
 62
     7
 10
92.1334151479
 20
243.5429268611
 30
0.0
 11
92.1334151479
 21
213.5429268611
 31
0.0
  0
TEXT
  5
307
  8
0
  6
CONTINUOUS
 62
     7
 10
91.1987477261
 20
226.583050238
 30
-5.052410653
 40
2.6458333333
  1
30
 50
90.0
 41
0.7
 11
92.1334149733
 21
226.583050238
 31
-5.052410653
 73
     1
  0
ENDBLK
  5
301
  8
0
  0
BLOCK
  8
0
  2
_D_3
 70
     0
 10
0.0
 20
0.0
 30
0.0
  3
_D_3
  1

  0
SOLID
  5
30C
  8
0
  6
CONTINUOUS
 62
     7
 10
92.1334151479
 20
213.5429268611
 30
0.0
 11
91.6334151479
 21
210.2429268611
 31
0.0
 12
92.6334151479
 22
210.2429268611
 32
0.0
 13
92.6334151479
 23
210.2429268611
 33
0.0
  0
SOLID
  5
30D
  8
0
  6
CONTINUOUS
 62
     7
 10
92.1334151479
 20
183.5429268611
 30
0.0
 11
92.6334151479
 21
186.8429268611
 31
0.0
 12
91.6334151479
 22
186.8429268611
 32
0.0
 13
91.6334151479
 23
186.8429268611
 33
0.0
  0
LINE
  5
30E
  8
0
  6
CONTINUOUS
 62
     7
 10
103.8834151479
 20
213.5429268611
 30
0.0
 11
91.1334151479
 21
213.5429268611
 31
0.0
  0
LINE
  5
30F
  8
0
  6
CONTINUOUS
 62
     7
 10
108.8834151479
 20
183.5429268611
 30
0.0
 11
91.1334151479
 21
183.5429268611
 31
0.0
  0
LINE
  5
310
  8
0
  6
CONTINUOUS
 62
     7
 10
92.1334151479
 20
213.5429268611
 30
0.0
 11
92.1334151479
 21
183.5429268611
 31
0.0
  0
TEXT
  5
311
  8
0
  6
CONTINUOUS
 62
     7
 10
91.1987477261
 20
196.583050238
 30
-5.052410653
 40
2.6458333333
  1
30
 50
90.0
 41
0.7
 11
92.1334149733
 21
196.583050238
 31
-5.052410653
 73
     1
  0
ENDBLK
  5
30B
  8
0
  0
BLOCK
  8
0
  2
_D_4
 70
     0
 10
0.0
 20
0.0
 30
0.0
  3
_D_4
  1

  0
SOLID
  5
316
  8
0
  6
CONTINUOUS
 62
     7
 10
112.1334151479
 20
166.2060371028
 30
0.0
 11
108.8334151479
 21
166.7060371028
 31
0.0
 12
108.8334151479
 22
165.7060371028
 32
0.0
 13
108.8334151479
 23
165.7060371028
 33
0.0
  0
SOLID
  5
317
  8
0
  6
CONTINUOUS
 62
     7
 10
102.1334151479
 20
166.2060371028
 30
0.0
 11
105.4334151479
 21
165.7060371028
 31
0.0
 12
105.4334151479
 22
166.7060371028
 32
0.0
 13
105.4334151479
 23
166.7060371028
 33
0.0
  0
LINE
  5
318
  8
0
  6
CONTINUOUS
 62
     7
 10
112.1334151479
 20
205.2929268611
 30
0.0
 11
112.1334151479
 21
165.2060371028
 31
0.0
  0
LINE
  5
319
  8
0
  6
CONTINUOUS
 62
     7
 10
102.1334151479
 20
174.5429268611
 30
0.0
 11
102.1334151479
 21
165.2060371028
 31
0.0
  0
LINE
  5
31A
  8
0
  6
CONTINUOUS
 62
     7
 10
112.1334151479
 20
166.2060371028
 30
0.0
 11
122.8100098034
 21
166.2060371028
 31
0.0
  0
LINE
  5
31B
  8
0
  6
CONTINUOUS
 62
     7
 10
112.1334151479
 20
166.2060371028
 30
0.0
 11
102.1334151479
 21
166.2060371028
 31
0.0
  0
TEXT
  5
31C
  8
0
  6
CONTINUOUS
 62
     7
 10
118.8902565574
 20
167.1407045246
 30
-5.052410653
 40
2.6458333333
  1
10
 50
0.0
 41
0.7
 11
118.8902565574
 21
166.2060372774
 31
-5.052410653
 73
     1
  0
ENDBLK
  5
315
  8
0
  0
BLOCK
  8
0
  2
_D_5
 70
     0
 10
0.0
 20
0.0
 30
0.0
  3
_D_5
  1

  0
SOLID
  5
321
  8
0
  6
CONTINUOUS
 62
     7
 10
117.1334151479
 20
162.1075553653
 30
0.0
 11
113.8334151479
 21
162.6075553653
 31
0.0
 12
113.8334151479
 22
161.6075553653
 32
0.0
 13
113.8334151479
 23
161.6075553653
 33
0.0
  0
SOLID
  5
322
  8
0
  6
CONTINUOUS
 62
     7
 10
102.1334151479
 20
162.1075553653
 30
0.0
 11
105.4334151479
 21
161.6075553653
 31
0.0
 12
105.4334151479
 22
162.6075553653
 32
0.0
 13
105.4334151479
 23
162.6075553653
 33
0.0
  0
LINE
  5
323
  8
0
  6
CONTINUOUS
 62
     7
 10
117.1334151479
 20
175.2929268611
 30
0.0
 11
117.1334151479
 21
161.1075553653
 31
0.0
  0
LINE
  5
324
  8
0
  6
CONTINUOUS
 62
     7
 10
102.1334151479
 20
174.5429268611
 30
0.0
 11
102.1334151479
 21
161.1075553653
 31
0.0
  0
LINE
  5
325
  8
0
  6
CONTINUOUS
 62
     7
 10
117.1334151479
 20
162.1075553653
 30
0.0
 11
122.8100098034
 21
162.1075553653
 31
0.0
  0
LINE
  5
326
  8
0
  6
CONTINUOUS
 62
     7
 10
117.1334151479
 20
162.1075553653
 30
0.0
 11
102.1334151479
 21
162.1075553653
 31
0.0
  0
TEXT
  5
327
  8
0
  6
CONTINUOUS
 62
     7
 10
118.8902565574
 20
163.0422227871
 30
-5.052410653
 40
2.6458333333
  1
15
 50
0.0
 41
0.7
 11
118.8902565574
 21
162.1075555399
 31
-5.052410653
 73
     1
  0
ENDBLK
  5
320
  8
0
  0
BLOCK
  8
0
  2
_D_6
 70
     0
 10
0.0
 20
0.0
 30
0.0
  3
_D_6
  1

  0
SOLID
  5
32D
  8
0
  6
CONTINUOUS
 62
     7
 10
155.8334151479
 20
166.2060371028
 30
0.0
 11
152.5334151479
 21
166.7060371028
 31
0.0
 12
152.5334151479
 22
165.7060371028
 32
0.0
 13
152.5334151479
 23
165.7060371028
 33
0.0
  0
SOLID
  5
32E
  8
0
  6
CONTINUOUS
 62
     7
 10
178.1334151479
 20
166.2060371028
 30
0.0
 11
181.4334151479
 21
165.7060371028
 31
0.0
 12
181.4334151479
 22
166.7060371028
 32
0.0
 13
181.4334151479
 23
166.7060371028
 33
0.0
  0
LINE
  5
32F
  8
0
  6
CONTINUOUS
 62
     7
 10
155.8334151479
 20
203.0429268611
 30
0.0
 11
155.8334151479
 21
165.2060371028
 31
0.0
  0
LINE
  5
330
  8
0
  6
CONTINUOUS
 62
     7
 10
178.1334151479
 20
174.5429268611
 30
0.0
 11
178.1334151479
 21
165.2060371028
 31
0.0
  0
LINE
  5
331
  8
0
  6
CONTINUOUS
 62
     7
 10
155.8334151479
 20
166.2060371028
 30
0.0
 11
149.5834151479
 21
166.2060371028
 31
0.0
  0
LINE
  5
332
  8
0
  6
CONTINUOUS
 62
     7
 10
155.8334151479
 20
166.2060371028
 30
0.0
 11
178.1334151479
 21
166.2060371028
 31
0.0
  0
LINE
  5
333
  8
0
  6
CONTINUOUS
 62
     7
 10
178.1334151479
 20
166.2060371028
 30
0.0
 11
184.3834151479
 21
166.2060371028
 31
0.0
  0
TEXT
  5
334
  8
0
  6
CONTINUOUS
 62
     7
 10
165.0235385249
 20
167.1407045246
 30
-5.052410653
 40
2.6458333333
  1
22
 41
0.7
 11
165.0235385249
 21
166.2060372774
 31
-5.052410653
 73
     1
  0
ENDBLK
  5
32C
  8
0
  0
BLOCK
  8
0
  2
_D_7
 70
     0
 10
0.0
 20
0.0
 30
0.0
  3
_D_7
  1

  0
SOLID
  5
33A
  8
0
  6
CONTINUOUS
 62
     7
 10
158.3834151479
 20
257.6420665875
 30
0.0
 11
155.0834151479
 21
258.1420665875
 31
0.0
 12
155.0834151479
 22
257.1420665875
 32
0.0
 13
155.0834151479
 23
257.1420665875
 33
0.0
  0
SOLID
  5
33B
  8
0
  6
CONTINUOUS
 62
     7
 10
167.8834151479
 20
257.6420665875
 30
0.0
 11
171.1834151479
 21
257.1420665875
 31
0.0
 12
171.1834151479
 22
258.1420665875
 32
0.0
 13
171.1834151479
 23
258.1420665875
 33
0.0
  0
LINE
  5
33C
  8
0
  6
CONTINUOUS
 62
     7
 10
158.3834151479
 20
244.5429268611
 30
0.0
 11
158.3834151479
 21
258.6420665875
 31
0.0
  0
LINE
  5
33D
  8
0
  6
CONTINUOUS
 62
     7
 10
167.8834151479
 20
244.5429268611
 30
0.0
 11
167.8834151479
 21
258.6420665875
 31
0.0
  0
LINE
  5
33E
  8
0
  6
CONTINUOUS
 62
     7
 10
158.3834151479
 20
257.6420665875
 30
0.0
 11
152.1334151479
 21
257.6420665875
 31
0.0
  0
LINE
  5
33F
  8
0
  6
CONTINUOUS
 62
     7
 10
158.3834151479
 20
257.6420665875
 30
0.0
 11
167.8834151479
 21
257.6420665875
 31
0.0
  0
LINE
  5
340
  8
0
  6
CONTINUOUS
 62
     7
 10
167.8834151479
 20
257.6420665875
 30
0.0
 11
174.1334151479
 21
257.6420665875
 31
0.0
  0
TEXT
  5
341
  8
0
  6
CONTINUOUS
 62
     7
 10
155.2626739594
 20
258.5767337765
 30
-5.052410653
 40
2.6458333333
  1
%%c
 41
0.7
 11
155.2626739594
 21
257.6420665293
 31
-5.052410653
 73
     1
  0
TEXT
  5
342
  8
0
  6
CONTINUOUS
 62
     7
 10
159.0097129683
 20
258.5767337765
 30
-5.052410653
 40
2.6458333333
  1
9,5
 41
0.7
 11
159.0097129683
 21
257.6420665293
 31
-5.052410653
 73
     1
  0
TEXT
  5
343
  8
0
  6
CONTINUOUS
 62
     7
 10
163.9094042929
 20
258.5767337765
 30
-5.052410653
 40
2.6458333333
  1
x90°
 41
0.7
 11
163.9094042929
 21
257.6420665293
 31
-5.052410653
 73
     1
  0
ENDBLK
  5
339
  8
0
  0
BLOCK
  8
0
  2
_D_8
 70
     0
 10
0.0
 20
0.0
 30
0.0
  3
_D_8
  1

  0
SOLID
  5
348
  8
0
  6
CONTINUOUS
 62
     7
 10
148.8334151479
 20
157.5429268611
 30
0.0
 11
145.5334151479
 21
158.0429268611
 31
0.0
 12
145.5334151479
 22
157.0429268611
 32
0.0
 13
145.5334151479
 23
157.0429268611
 33
0.0
  0
SOLID
  5
349
  8
0
  6
CONTINUOUS
 62
     7
 10
162.8334151479
 20
157.5429268611
 30
0.0
 11
166.1334151479
 21
157.0429268611
 31
0.0
 12
166.1334151479
 22
158.0429268611
 32
0.0
 13
166.1334151479
 23
158.0429268611
 33
0.0
  0
LINE
  5
34A
  8
0
  6
CONTINUOUS
 62
     7
 10
148.8334151479
 20
212.5429268611
 30
0.0
 11
148.8334151479
 21
156.5429268611
 31
0.0
  0
LINE
  5
34B
  8
0
  6
CONTINUOUS
 62
     7
 10
162.8334151479
 20
212.5429268611
 30
0.0
 11
162.8334151479
 21
156.5429268611
 31
0.0
  0
LINE
  5
34C
  8
0
  6
CONTINUOUS
 62
     7
 10
148.8334151479
 20
157.5429268611
 30
0.0
 11
142.5834151479
 21
157.5429268611
 31
0.0
  0
LINE
  5
34D
  8
0
  6
CONTINUOUS
 62
     7
 10
148.8334151479
 20
157.5429268611
 30
0.0
 11
162.8334151479
 21
157.5429268611
 31
0.0
  0
LINE
  5
34E
  8
0
  6
CONTINUOUS
 62
     7
 10
162.8334151479
 20
157.5429268611
 30
0.0
 11
169.0834151479
 21
157.5429268611
 31
0.0
  0
TEXT
  5
34F
  8
0
  6
CONTINUOUS
 62
     7
 10
152.0000190205
 20
158.47759405
 30
-5.052410653
 40
2.6458333333
  1
%%c
 41
0.7
 11
152.0000190205
 21
157.5429268028
 31
-5.052410653
 73
     1
  0
TEXT
  5
350
  8
0
  6
CONTINUOUS
 62
     7
 10
155.7470580293
 20
158.47759405
 30
-5.052410653
 40
2.6458333333
  1
14
 41
0.7
 11
155.7470580293
 21
157.5429268028
 31
-5.052410653
 73
     1
  0
ENDBLK
  5
347
  8
0
  0
BLOCK
  8
0
  2
SW_NOTE_0_3
 70
     0
 10
0.0
 20
0.0
 30
0.0
  3
SW_NOTE_0_3
  1

  0
TEXT
  5
354
  8
0
  6
CONTINUOUS
 62
     0
 10
16.7457607783
 20
12.080730628
 30
0.0
 40
3.5
  1
alternativ R10
 41
0.7
 11
16.7457607783
 21
10.8443204113
 31
0.0
 73
     1
  0
LINE
  5
355
  8
0
  6
CONTINUOUS
 62
     0
 10
16.1382194675
 20
13.5339961619
 30
0.0
 11
0.0
 21
0.0
 31
0.0
  0
SOLID
  5
356
  8
0
  6
CONTINUOUS
 62
     0
 10
0.0
 20
0.0
 30
0.0
 11
2.8498194214
 21
1.7373915118
 31
0.0
 12
2.2072429673
 22
2.5036130858
 32
0.0
 13
2.2072429673
 23
2.5036130858
 33
0.0
  0
ENDBLK
  5
353
  8
0
  0
BLOCK
  8
0
  2
SW_CENTERMARKSYMBOL_0
 70
     0
 10
0.0
 20
0.0
 30
0.0
  3
SW_CENTERMARKSYMBOL_0
  1

  0
LINE
  5
35B
  8
0
  6
CONTINUOUS
 62
     0
 10
0.0
 20
0.0
 30
0.0
 11
0.0
 21
2.5
 31
0.0
  0
LINE
  5
35C
  8
0
  6
CONTINUOUS
 62
     0
 10
0.0
 20
0.0
 30
0.0
 11
-2.5
 21
0.0
 31
0.0
  0
LINE
  5
35D
  8
0
  6
CONTINUOUS
 62
     0
 10
0.0
 20
0.0
 30
0.0
 11
0.0
 21
-2.5
 31
0.0
  0
LINE
  5
35E
  8
0
  6
CONTINUOUS
 62
     0
 10
0.0
 20
0.0
 30
0.0
 11
2.5
 21
0.0
 31
0.0
  0
LINE
  5
35F
  8
0
  6
CONTINUOUS
 62
     0
 10
0.0
 20
5.0
 30
0.0
 11
0.0
 21
9.5
 31
0.0
  0
LINE
  5
360
  8
0
  6
CONTINUOUS
 62
     0
 10
-5.0
 20
0.0
 30
0.0
 11
-9.5
 21
0.0
 31
0.0
  0
LINE
  5
361
  8
0
  6
CONTINUOUS
 62
     0
 10
0.0
 20
-5.0
 30
0.0
 11
0.0
 21
-9.5
 31
0.0
  0
LINE
  5
362
  8
0
  6
CONTINUOUS
 62
     0
 10
5.0
 20
0.0
 30
0.0
 11
9.5
 21
0.0
 31
0.0
  0
ENDBLK
  5
35A
  8
0
  0
BLOCK
  8
0
  2
SW_CENTERMARKSYMBOL_1
 70
     0
 10
0.0
 20
0.0
 30
0.0
  3
SW_CENTERMARKSYMBOL_1
  1

  0
LINE
  5
367
  8
0
  6
CONTINUOUS
 62
     0
 10
0.0
 20
0.0
 30
0.0
 11
0.0
 21
2.5
 31
0.0
  0
LINE
  5
368
  8
0
  6
CONTINUOUS
 62
     0
 10
0.0
 20
0.0
 30
0.0
 11
-2.5
 21
0.0
 31
0.0
  0
LINE
  5
369
  8
0
  6
CONTINUOUS
 62
     0
 10
0.0
 20
0.0
 30
0.0
 11
0.0
 21
-2.5
 31
0.0
  0
LINE
  5
36A
  8
0
  6
CONTINUOUS
 62
     0
 10
0.0
 20
0.0
 30
0.0
 11
2.5
 21
0.0
 31
0.0
  0
LINE
  5
36B
  8
0
  6
CONTINUOUS
 62
     0
 10
0.0
 20
5.0
 30
0.0
 11
0.0
 21
9.0
 31
0.0
  0
LINE
  5
36C
  8
0
  6
CONTINUOUS
 62
     0
 10
-5.0
 20
0.0
 30
0.0
 11
-9.0
 21
0.0
 31
0.0
  0
LINE
  5
36D
  8
0
  6
CONTINUOUS
 62
     0
 10
0.0
 20
-5.0
 30
0.0
 11
0.0
 21
-9.0
 31
0.0
  0
LINE
  5
36E
  8
0
  6
CONTINUOUS
 62
     0
 10
5.0
 20
0.0
 30
0.0
 11
9.0
 21
0.0
 31
0.0
  0
ENDBLK
  5
366
  8
0
  0
BLOCK
  8
0
  2
SW_CENTERMARKSYMBOL_2
 70
     0
 10
0.0
 20
0.0
 30
0.0
  3
SW_CENTERMARKSYMBOL_2
  1

  0
LINE
  5
373
  8
0
  6
CONTINUOUS
 62
     0
 10
0.0
 20
0.0
 30
0.0
 11
0.0
 21
2.5
 31
0.0
  0
LINE
  5
374
  8
0
  6
CONTINUOUS
 62
     0
 10
0.0
 20
0.0
 30
0.0
 11
-2.5
 21
0.0
 31
0.0
  0
LINE
  5
375
  8
0
  6
CONTINUOUS
 62
     0
 10
0.0
 20
0.0
 30
0.0
 11
0.0
 21
-2.5
 31
0.0
  0
LINE
  5
376
  8
0
  6
CONTINUOUS
 62
     0
 10
0.0
 20
0.0
 30
0.0
 11
2.5
 21
0.0
 31
0.0
  0
LINE
  5
377
  8
0
  6
CONTINUOUS
 62
     0
 10
0.0
 20
5.0
 30
0.0
 11
0.0
 21
7.25
 31
0.0
  0
LINE
  5
378
  8
0
  6
CONTINUOUS
 62
     0
 10
-5.0
 20
0.0
 30
0.0
 11
-7.25
 21
0.0
 31
0.0
  0
LINE
  5
379
  8
0
  6
CONTINUOUS
 62
     0
 10
0.0
 20
-5.0
 30
0.0
 11
0.0
 21
-7.25
 31
0.0
  0
LINE
  5
37A
  8
0
  6
CONTINUOUS
 62
     0
 10
5.0
 20
0.0
 30
0.0
 11
7.25
 21
0.0
 31
0.0
  0
ENDBLK
  5
372
  8
0
  0
BLOCK
  8
0
  2
SW_CENTERMARKSYMBOL_3
 70
     0
 10
0.0
 20
0.0
 30
0.0
  3
SW_CENTERMARKSYMBOL_3
  1

  0
LINE
  5
37F
  8
0
  6
CONTINUOUS
 62
     0
 10
0.0
 20
0.0
 30
0.0
 11
0.0
 21
2.5
 31
0.0
  0
LINE
  5
380
  8
0
  6
CONTINUOUS
 62
     0
 10
0.0
 20
0.0
 30
0.0
 11
-2.5
 21
0.0
 31
0.0
  0
LINE
  5
381
  8
0
  6
CONTINUOUS
 62
     0
 10
0.0
 20
0.0
 30
0.0
 11
0.0
 21
-2.5
 31
0.0
  0
LINE
  5
382
  8
0
  6
CONTINUOUS
 62
     0
 10
0.0
 20
0.0
 30
0.0
 11
2.5
 21
0.0
 31
0.0
  0
LINE
  5
383
  8
0
  6
CONTINUOUS
 62
     0
 10
0.0
 20
5.0
 30
0.0
 11
0.0
 21
7.25
 31
0.0
  0
LINE
  5
384
  8
0
  6
CONTINUOUS
 62
     0
 10
-5.0
 20
0.0
 30
0.0
 11
-7.25
 21
0.0
 31
0.0
  0
LINE
  5
385
  8
0
  6
CONTINUOUS
 62
     0
 10
0.0
 20
-5.0
 30
0.0
 11
0.0
 21
-7.25
 31
0.0
  0
LINE
  5
386
  8
0
  6
CONTINUOUS
 62
     0
 10
5.0
 20
0.0
 30
0.0
 11
7.25
 21
0.0
 31
0.0
  0
ENDBLK
  5
37E
  8
0
  0
BLOCK
  8
0
  2
SW_CENTERMARKSYMBOL_4
 70
     0
 10
0.0
 20
0.0
 30
0.0
  3
SW_CENTERMARKSYMBOL_4
  1

  0
LINE
  5
38B
  8
0
  6
CONTINUOUS
 62
     0
 10
0.0
 20
0.0
 30
0.0
 11
0.0
 21
2.5
 31
0.0
  0
LINE
  5
38C
  8
0
  6
CONTINUOUS
 62
     0
 10
0.0
 20
0.0
 30
0.0
 11
-2.5
 21
0.0
 31
0.0
  0
LINE
  5
38D
  8
0
  6
CONTINUOUS
 62
     0
 10
0.0
 20
0.0
 30
0.0
 11
0.0
 21
-2.5
 31
0.0
  0
LINE
  5
38E
  8
0
  6
CONTINUOUS
 62
     0
 10
0.0
 20
0.0
 30
0.0
 11
2.5
 21
0.0
 31
0.0
  0
LINE
  5
38F
  8
0
  6
CONTINUOUS
 62
     0
 10
0.0
 20
5.0
 30
0.0
 11
0.0
 21
7.25
 31
0.0
  0
LINE
  5
390
  8
0
  6
CONTINUOUS
 62
     0
 10
-5.0
 20
0.0
 30
0.0
 11
-7.25
 21
0.0
 31
0.0
  0
LINE
  5
391
  8
0
  6
CONTINUOUS
 62
     0
 10
0.0
 20
-5.0
 30
0.0
 11
0.0
 21
-7.25
 31
0.0
  0
LINE
  5
392
  8
0
  6
CONTINUOUS
 62
     0
 10
5.0
 20
0.0
 30
0.0
 11
7.25
 21
0.0
 31
0.0
  0
ENDBLK
  5
38A
  8
0
  0
BLOCK
  8
0
  2
SW_CENTERMARKSYMBOL_5
 70
     0
 10
0.0
 20
0.0
 30
0.0
  3
SW_CENTERMARKSYMBOL_5
  1

  0
LINE
  5
397
  8
0
  6
CONTINUOUS
 62
     0
 10
0.0
 20
0.0
 30
0.0
 11
0.0
 21
2.5
 31
0.0
  0
LINE
  5
398
  8
0
  6
CONTINUOUS
 62
     0
 10
0.0
 20
0.0
 30
0.0
 11
-2.5
 21
0.0
 31
0.0
  0
LINE
  5
399
  8
0
  6
CONTINUOUS
 62
     0
 10
0.0
 20
0.0
 30
0.0
 11
0.0
 21
-2.5
 31
0.0
  0
LINE
  5
39A
  8
0
  6
CONTINUOUS
 62
     0
 10
0.0
 20
0.0
 30
0.0
 11
2.5
 21
0.0
 31
0.0
  0
LINE
  5
39B
  8
0
  6
CONTINUOUS
 62
     0
 10
0.0
 20
5.0
 30
0.0
 11
0.0
 21
7.25
 31
0.0
  0
LINE
  5
39C
  8
0
  6
CONTINUOUS
 62
     0
 10
-5.0
 20
0.0
 30
0.0
 11
-7.25
 21
0.0
 31
0.0
  0
LINE
  5
39D
  8
0
  6
CONTINUOUS
 62
     0
 10
0.0
 20
-5.0
 30
0.0
 11
0.0
 21
-7.25
 31
0.0
  0
LINE
  5
39E
  8
0
  6
CONTINUOUS
 62
     0
 10
5.0
 20
0.0
 30
0.0
 11
7.25
 21
0.0
 31
0.0
  0
ENDBLK
  5
396
  8
0
  0
BLOCK
  8
0
  2
SW_CENTERMARKSYMBOL_6
 70
     0
 10
0.0
 20
0.0
 30
0.0
  3
SW_CENTERMARKSYMBOL_6
  1

  0
LINE
  5
3A3
  8
0
  6
CONTINUOUS
 62
     0
 10
0.0
 20
0.0
 30
0.0
 11
0.0
 21
2.5
 31
0.0
  0
LINE
  5
3A4
  8
0
  6
CONTINUOUS
 62
     0
 10
0.0
 20
0.0
 30
0.0
 11
-2.5
 21
0.0
 31
0.0
  0
LINE
  5
3A5
  8
0
  6
CONTINUOUS
 62
     0
 10
0.0
 20
0.0
 30
0.0
 11
0.0
 21
-2.5
 31
0.0
  0
LINE
  5
3A6
  8
0
  6
CONTINUOUS
 62
     0
 10
0.0
 20
0.0
 30
0.0
 11
2.5
 21
0.0
 31
0.0
  0
LINE
  5
3A7
  8
0
  6
CONTINUOUS
 62
     0
 10
0.0
 20
5.0
 30
0.0
 11
0.0
 21
7.25
 31
0.0
  0
LINE
  5
3A8
  8
0
  6
CONTINUOUS
 62
     0
 10
-5.0
 20
0.0
 30
0.0
 11
-7.25
 21
0.0
 31
0.0
  0
LINE
  5
3A9
  8
0
  6
CONTINUOUS
 62
     0
 10
0.0
 20
-5.0
 30
0.0
 11
0.0
 21
-7.25
 31
0.0
  0
LINE
  5
3AA
  8
0
  6
CONTINUOUS
 62
     0
 10
5.0
 20
0.0
 30
0.0
 11
7.25
 21
0.0
 31
0.0
  0
ENDBLK
  5
3A2
  8
0
  0
BLOCK
  8
0
  2
SW_CENTERMARKSYMBOL_7
 70
     0
 10
0.0
 20
0.0
 30
0.0
  3
SW_CENTERMARKSYMBOL_7
  1

  0
LINE
  5
3AF
  8
0
  6
CONTINUOUS
 62
     0
 10
0.0
 20
0.0
 30
0.0
 11
0.0
 21
2.5
 31
0.0
  0
LINE
  5
3B0
  8
0
  6
CONTINUOUS
 62
     0
 10
0.0
 20
0.0
 30
0.0
 11
-2.5
 21
0.0
 31
0.0
  0
LINE
  5
3B1
  8
0
  6
CONTINUOUS
 62
     0
 10
0.0
 20
0.0
 30
0.0
 11
0.0
 21
-2.5
 31
0.0
  0
LINE
  5
3B2
  8
0
  6
CONTINUOUS
 62
     0
 10
0.0
 20
0.0
 30
0.0
 11
2.5
 21
0.0
 31
0.0
  0
LINE
  5
3B3
  8
0
  6
CONTINUOUS
 62
     0
 10
0.0
 20
5.0
 30
0.0
 11
0.0
 21
7.25
 31
0.0
  0
LINE
  5
3B4
  8
0
  6
CONTINUOUS
 62
     0
 10
-5.0
 20
0.0
 30
0.0
 11
-7.25
 21
0.0
 31
0.0
  0
LINE
  5
3B5
  8
0
  6
CONTINUOUS
 62
     0
 10
0.0
 20
-5.0
 30
0.0
 11
0.0
 21
-7.25
 31
0.0
  0
LINE
  5
3B6
  8
0
  6
CONTINUOUS
 62
     0
 10
5.0
 20
0.0
 30
0.0
 11
7.25
 21
0.0
 31
0.0
  0
ENDBLK
  5
3AE
  8
0
  0
BLOCK
  8
0
  2
_D_9
 70
     0
 10
0.0
 20
0.0
 30
0.0
  3
_D_9
  1

  0
SOLID
  5
3E4
  8
0
  6
CONTINUOUS
 62
     7
 10
102.1334151479
 20
89.3179900299
 30
0.0
 11
105.4334151479
 21
88.8179900299
 31
0.0
 12
105.4334151479
 22
89.8179900299
 32
0.0
 13
105.4334151479
 23
89.8179900299
 33
0.0
  0
SOLID
  5
3E5
  8
0
  6
CONTINUOUS
 62
     7
 10
140.1334151479
 20
89.3179900299
 30
0.0
 11
136.8334151479
 21
89.8179900299
 31
0.0
 12
136.8334151479
 22
88.8179900299
 32
0.0
 13
136.8334151479
 23
88.8179900299
 33
0.0
  0
LINE
  5
3E6
  8
0
  6
CONTINUOUS
 62
     7
 10
102.1334151479
 20
116.3750673899
 30
0.0
 11
102.1334151479
 21
88.3179900299
 31
0.0
  0
LINE
  5
3E7
  8
0
  6
CONTINUOUS
 62
     7
 10
140.1334151479
 20
107.3750673899
 30
0.0
 11
140.1334151479
 21
88.3179900299
 31
0.0
  0
LINE
  5
3E8
  8
0
  6
CONTINUOUS
 62
     7
 10
102.1334151479
 20
89.3179900299
 30
0.0
 11
140.1334151479
 21
89.3179900299
 31
0.0
  0
TEXT
  5
3E9
  8
0
  6
CONTINUOUS
 62
     7
 10
119.1735385249
 20
90.2526574517
 30
-1.0
 40
2.6458333333
  1
38
 41
0.7
 11
119.1735385249
 21
89.3179902045
 31
-1.0
 73
     1
  0
ENDBLK
  5
3E3
  8
0
  0
BLOCK
  8
0
  2
_D_10
 70
     0
 10
0.0
 20
0.0
 30
0.0
  3
_D_10
  1

  0
SOLID
  5
3EE
  8
0
  6
CONTINUOUS
 62
     7
 10
140.1334151479
 20
89.3179900299
 30
0.0
 11
143.4334151479
 21
88.8179900299
 31
0.0
 12
143.4334151479
 22
89.8179900299
 32
0.0
 13
143.4334151479
 23
89.8179900299
 33
0.0
  0
SOLID
  5
3EF
  8
0
  6
CONTINUOUS
 62
     7
 10
178.1334151479
 20
89.3179900299
 30
0.0
 11
174.8334151479
 21
89.8179900299
 31
0.0
 12
174.8334151479
 22
88.8179900299
 32
0.0
 13
174.8334151479
 23
88.8179900299
 33
0.0
  0
LINE
  5
3F0
  8
0
  6
CONTINUOUS
 62
     7
 10
140.1334151479
 20
107.3750673899
 30
0.0
 11
140.1334151479
 21
88.3179900299
 31
0.0
  0
LINE
  5
3F1
  8
0
  6
CONTINUOUS
 62
     7
 10
178.1334151479
 20
116.3750673899
 30
0.0
 11
178.1334151479
 21
88.3179900299
 31
0.0
  0
LINE
  5
3F2
  8
0
  6
CONTINUOUS
 62
     7
 10
140.1334151479
 20
89.3179900299
 30
0.0
 11
178.1334151479
 21
89.3179900299
 31
0.0
  0
TEXT
  5
3F3
  8
0
  6
CONTINUOUS
 62
     7
 10
157.1735385249
 20
90.2526574517
 30
-1.0
 40
2.6458333333
  1
38
 41
0.7
 11
157.1735385249
 21
89.3179902045
 31
-1.0
 73
     1
  0
ENDBLK
  5
3ED
  8
0
  0
BLOCK
  8
0
  2
_D_11
 70
     0
 10
0.0
 20
0.0
 30
0.0
  3
_D_11
  1

  0
SOLID
  5
3F8
  8
0
  6
CONTINUOUS
 62
     7
 10
186.0696363403
 20
116.3750673899
 30
0.0
 11
185.5696363403
 21
113.0750673899
 31
0.0
 12
186.5696363403
 22
113.0750673899
 32
0.0
 13
186.5696363403
 23
113.0750673899
 33
0.0
  0
SOLID
  5
3F9
  8
0
  6
CONTINUOUS
 62
     7
 10
186.0696363403
 20
117.3750673899
 30
0.0
 11
186.5696363403
 21
120.6750673899
 31
0.0
 12
185.5696363403
 22
120.6750673899
 32
0.0
 13
185.5696363403
 23
120.6750673899
 33
0.0
  0
LINE
  5
3FA
  8
0
  6
CONTINUOUS
 62
     7
 10
149.1334151479
 20
116.3750673899
 30
0.0
 11
187.0696363403
 21
116.3750673899
 31
0.0
  0
LINE
  5
3FB
  8
0
  6
CONTINUOUS
 62
     7
 10
134.5027792157
 20
117.3750673899
 30
0.0
 11
187.0696363403
 21
117.3750673899
 31
0.0
  0
LINE
  5
3FC
  8
0
  6
CONTINUOUS
 62
     7
 10
186.0696363403
 20
116.3750673899
 30
0.0
 11
186.0696363403
 21
113.4869038803
 31
0.0
  0
LINE
  5
3FD
  8
0
  6
CONTINUOUS
 62
     7
 10
186.0696363403
 20
116.3750673899
 30
0.0
 11
186.0696363403
 21
117.3750673899
 31
0.0
  0
LINE
  5
3FE
  8
0
  6
CONTINUOUS
 62
     7
 10
186.0696363403
 20
117.3750673899
 30
0.0
 11
186.0696363403
 21
123.6250673899
 31
0.0
  0
TEXT
  5
3FF
  8
0
  6
CONTINUOUS
 62
     7
 10
185.1349689185
 20
113.4869038803
 30
-1.0
 40
2.6458333333
  1
1
 50
90.0
 41
0.7
 11
186.0696361656
 21
113.4869038803
 31
-1.0
 73
     1
  0
ENDBLK
  5
3F7
  8
0
  0
BLOCK
  8
0
  2
_D_12
 70
     0
 10
0.0
 20
0.0
 30
0.0
  3
_D_12
  1

  0
SOLID
  5
404
  8
0
  6
CONTINUOUS
 62
     7
 10
93.0198408572
 20
117.3750673899
 30
0.0
 11
92.5198408572
 21
114.0750673899
 31
0.0
 12
93.5198408572
 22
114.0750673899
 32
0.0
 13
93.5198408572
 23
114.0750673899
 33
0.0
  0
SOLID
  5
405
  8
0
  6
CONTINUOUS
 62
     7
 10
93.0198408572
 20
99.3750673899
 30
0.0
 11
93.5198408572
 21
102.6750673899
 31
0.0
 12
92.5198408572
 22
102.6750673899
 32
0.0
 13
92.5198408572
 23
102.6750673899
 33
0.0
  0
LINE
  5
406
  8
0
  6
CONTINUOUS
 62
     7
 10
101.1334151479
 20
117.3750673899
 30
0.0
 11
92.0198408572
 21
117.3750673899
 31
0.0
  0
LINE
  5
407
  8
0
  6
CONTINUOUS
 62
     7
 10
127.0875627506
 20
99.3750673899
 30
0.0
 11
92.0198408572
 21
99.3750673899
 31
0.0
  0
LINE
  5
408
  8
0
  6
CONTINUOUS
 62
     7
 10
93.0198408572
 20
117.3750673899
 30
0.0
 11
93.0198408572
 21
99.3750673899
 31
0.0
  0
TEXT
  5
409
  8
0
  6
CONTINUOUS
 62
     7
 10
92.0851734354
 20
106.4151907669
 30
-1.0
 40
2.6458333333
  1
18
 50
90.0
 41
0.7
 11
93.0198406826
 21
106.4151907669
 31
-1.0
 73
     1
  0
ENDBLK
  5
403
  8
0
  0
BLOCK
  8
0
  2
_D_13
 70
     0
 10
0.0
 20
0.0
 30
0.0
  3
_D_13
  1

  0
SOLID
  5
40E
  8
0
  6
CONTINUOUS
 62
     7
 10
120.1334151479
 20
133.3273234439
 30
0.0
 11
116.8334151479
 21
133.8273234439
 31
0.0
 12
116.8334151479
 22
132.8273234439
 32
0.0
 13
116.8334151479
 23
132.8273234439
 33
0.0
  0
SOLID
  5
40F
  8
0
  6
CONTINUOUS
 62
     7
 10
102.1334151479
 20
133.3273234439
 30
0.0
 11
105.4334151479
 21
132.8273234439
 31
0.0
 12
105.4334151479
 22
133.8273234439
 32
0.0
 13
105.4334151479
 23
133.8273234439
 33
0.0
  0
LINE
  5
410
  8
0
  6
CONTINUOUS
 62
     7
 10
120.1334151479
 20
118.3750673899
 30
0.0
 11
120.1334151479
 21
134.3273234439
 31
0.0
  0
LINE
  5
411
  8
0
  6
CONTINUOUS
 62
     7
 10
102.1334151479
 20
120.3750673899
 30
0.0
 11
102.1334151479
 21
134.3273234439
 31
0.0
  0
LINE
  5
412
  8
0
  6
CONTINUOUS
 62
     7
 10
120.1334151479
 20
133.3273234439
 30
0.0
 11
102.1334151479
 21
133.3273234439
 31
0.0
  0
TEXT
  5
413
  8
0
  6
CONTINUOUS
 62
     7
 10
109.1735385249
 20
134.2619908657
 30
-1.0
 40
2.6458333333
  1
18
 50
0.0
 41
0.7
 11
109.1735385249
 21
133.3273236185
 31
-1.0
 73
     1
  0
ENDBLK
  5
40D
  8
0
  0
BLOCK
  8
0
  2
SW_CENTERMARKSYMBOL_8
 70
     0
 10
0.0
 20
0.0
 30
0.0
  3
SW_CENTERMARKSYMBOL_8
  1

  0
LINE
  5
417
  8
0
  6
CONTINUOUS
 62
     0
 10
0.0
 20
0.0
 30
0.0
 11
0.0
 21
2.5
 31
0.0
  0
LINE
  5
418
  8
0
  6
CONTINUOUS
 62
     0
 10
0.0
 20
0.0
 30
0.0
 11
-2.5
 21
0.0
 31
0.0
  0
LINE
  5
419
  8
0
  6
CONTINUOUS
 62
     0
 10
0.0
 20
0.0
 30
0.0
 11
0.0
 21
-2.5
 31
0.0
  0
LINE
  5
41A
  8
0
  6
CONTINUOUS
 62
     0
 10
0.0
 20
0.0
 30
0.0
 11
2.5
 21
0.0
 31
0.0
  0
LINE
  5
41B
  8
0
  6
CONTINUOUS
 62
     0
 10
0.0
 20
5.0
 30
0.0
 11
0.0
 21
8.0
 31
0.0
  0
LINE
  5
41C
  8
0
  6
CONTINUOUS
 62
     0
 10
-5.0
 20
0.0
 30
0.0
 11
-8.0
 21
0.0
 31
0.0
  0
LINE
  5
41D
  8
0
  6
CONTINUOUS
 62
     0
 10
0.0
 20
-5.0
 30
0.0
 11
0.0
 21
-8.0
 31
0.0
  0
LINE
  5
41E
  8
0
  6
CONTINUOUS
 62
     0
 10
5.0
 20
0.0
 30
0.0
 11
8.0
 21
0.0
 31
0.0
  0
ENDBLK
  5
416
  8
0
  0
BLOCK
  8
0
  2
_D_14
 70
     0
 10
0.0
 20
0.0
 30
0.0
  3
_D_14
  1

  0
SOLID
  5
5D0
  8
0
  6
CONTINUOUS
 62
     7
 10
318.6966169434
 20
127.3643861975
 30
0.0
 11
315.3966169434
 21
127.8643861975
 31
0.0
 12
315.3966169434
 22
126.8643861975
 32
0.0
 13
315.3966169434
 23
126.8643861975
 33
0.0
  0
SOLID
  5
5D1
  8
0
  6
CONTINUOUS
 62
     7
 10
287.3962790188
 20
127.3643861975
 30
0.0
 11
290.6962790188
 21
126.8643861975
 31
0.0
 12
290.6962790188
 22
127.8643861975
 32
0.0
 13
290.6962790188
 23
127.8643861975
 33
0.0
  0
LINE
  5
5D2
  8
0
  6
CONTINUOUS
 62
     7
 10
318.6966169434
 20
198.3643861975
 30
0.0
 11
318.6966169434
 21
126.3643861975
 31
0.0
  0
LINE
  5
5D3
  8
0
  6
CONTINUOUS
 62
     7
 10
287.3962790188
 20
198.3643861975
 30
0.0
 11
287.3962790188
 21
126.3643861975
 31
0.0
  0
LINE
  5
5D4
  8
0
  6
CONTINUOUS
 62
     7
 10
318.6966169434
 20
127.3643861975
 30
0.0
 11
287.3962790188
 21
127.3643861975
 31
0.0
  0
TEXT
  5
5D5
  8
0
  6
CONTINUOUS
 62
     7
 10
301.0865713581
 20
128.2990536193
 30
0.0
 40
2.6458333333
  1
31
 50
0.0
 41
0.7
 11
301.0865713581
 21
127.3643863721
 31
0.0
 73
     1
  0
ENDBLK
  5
5CF
  8
0
  0
BLOCK
  8
0
  2
_D_15
 70
     0
 10
0.0
 20
0.0
 30
0.0
  3
_D_15
  1

  0
SOLID
  5
5DA
  8
0
  6
CONTINUOUS
 62
     7
 10
364.3965451214
 20
216.3643861975
 30
0.0
 11
363.8965451214
 21
213.0643861975
 31
0.0
 12
364.8965451214
 22
213.0643861975
 32
0.0
 13
364.8965451214
 23
213.0643861975
 33
0.0
  0
SOLID
  5
5DB
  8
0
  6
CONTINUOUS
 62
     7
 10
364.3965451214
 20
199.3643861975
 30
0.0
 11
364.8965451214
 21
202.6643861975
 31
0.0
 12
363.8965451214
 22
202.6643861975
 32
0.0
 13
363.8965451214
 23
202.6643861975
 33
0.0
  0
LINE
  5
5DC
  8
0
  6
CONTINUOUS
 62
     7
 10
305.6123296983
 20
216.3643861975
 30
0.0
 11
365.3965451214
 21
216.3643861975
 31
0.0
  0
LINE
  5
5DD
  8
0
  6
CONTINUOUS
 62
     7
 10
319.6966169434
 20
199.3643861975
 30
0.0
 11
365.3965451214
 21
199.3643861975
 31
0.0
  0
LINE
  5
5DE
  8
0
  6
CONTINUOUS
 62
     7
 10
364.3965451214
 20
216.3643861975
 30
0.0
 11
364.3965451214
 21
199.3643861975
 31
0.0
  0
TEXT
  5
5DF
  8
0
  6
CONTINUOUS
 62
     7
 10
363.4618776996
 20
205.9045095745
 30
0.0
 40
2.6458333333
  1
17
 50
90.0
 41
0.7
 11
364.3965449468
 21
205.9045095745
 31
0.0
 73
     1
  0
ENDBLK
  5
5D9
  8
0
  0
BLOCK
  8
0
  2
_NONE
 70
     0
 10
0.0
 20
0.0
 30
0.0
  3
_NONE
  1

  0
ENDBLK
  5
5E4
  8
0
  0
BLOCK
  8
0
  2
_D_16
 70
     0
 10
0.0
 20
0.0
 30
0.0
  3
_D_16
  1

  0
SOLID
  5
5E8
  8
0
  6
CONTINUOUS
 62
     7
 10
275.1966169434
 20
198.3643861975
 30
0.0
 11
271.8966169434
 21
198.8643861975
 31
0.0
 12
271.8966169434
 22
197.8643861975
 32
0.0
 13
271.8966169434
 23
197.8643861975
 33
0.0
  0
LINE
  5
5E9
  8
0
  6
CONTINUOUS
 62
     7
 10
275.1966169434
 20
198.3643861975
 30
0.0
 11
259.9885704019
 21
198.3643861975
 31
0.0
  0
LINE
  5
5EA
  8
0
  6
CONTINUOUS
 62
     7
 10
275.1966169434
 20
198.3643861975
 30
0.0
 11
286.1966169434
 21
198.3643861975
 31
0.0
  0
TEXT
  5
5EB
  8
0
  6
CONTINUOUS
 62
     7
 10
259.9885704019
 20
199.2823412616
 30
0.0
 40
2.6458333333
  1
%%c
 50
0.0
 41
0.7
 11
259.9885704019
 21
198.3476740145
 31
0.0
 73
     1
  0
TEXT
  5
5EC
  8
0
  6
CONTINUOUS
 62
     7
 10
263.7356094108
 20
199.2823412616
 30
0.0
 40
2.6458333333
  1
11
 50
0.0
 41
0.7
 11
263.7356094108
 21
198.3476740145
 31
0.0
 73
     1
  0
ENDBLK
  5
5E7
  8
0
  0
BLOCK
  8
0
  2
SW_CENTERMARKSYMBOL_9
 70
     0
 10
0.0
 20
0.0
 30
0.0
  3
SW_CENTERMARKSYMBOL_9
  1

  0
LINE
  5
5F0
  8
0
  6
CONTINUOUS
 62
     0
 10
0.0
 20
0.0
 30
0.0
 11
0.0
 21
2.5
 31
0.0
  0
LINE
  5
5F1
  8
0
  6
CONTINUOUS
 62
     0
 10
0.0
 20
0.0
 30
0.0
 11
-2.5
 21
0.0
 31
0.0
  0
LINE
  5
5F2
  8
0
  6
CONTINUOUS
 62
     0
 10
0.0
 20
0.0
 30
0.0
 11
0.0
 21
-2.5
 31
0.0
  0
LINE
  5
5F3
  8
0
  6
CONTINUOUS
 62
     0
 10
0.0
 20
0.0
 30
0.0
 11
2.5
 21
0.0
 31
0.0
  0
LINE
  5
5F4
  8
0
  6
CONTINUOUS
 62
     0
 10
0.0
 20
5.0
 30
0.0
 11
0.0
 21
8.0
 31
0.0
  0
LINE
  5
5F5
  8
0
  6
CONTINUOUS
 62
     0
 10
-5.0
 20
0.0
 30
0.0
 11
-8.0
 21
0.0
 31
0.0
  0
LINE
  5
5F6
  8
0
  6
CONTINUOUS
 62
     0
 10
0.0
 20
-5.0
 30
0.0
 11
0.0
 21
-8.0
 31
0.0
  0
LINE
  5
5F7
  8
0
  6
CONTINUOUS
 62
     0
 10
5.0
 20
0.0
 30
0.0
 11
8.0
 21
0.0
 31
0.0
  0
ENDBLK
  5
5EF
  8
0
  0
ENDSEC
  0
SECTION
  2
ENTITIES
  0
LINE
  5
75
  8
0
  6
CONTINUOUS
 62
     7
 10
227.8
 20
60.25
 30
0.0
 11
227.8
 21
5.0
 31
0.0
  0
LINE
  5
76
  8
0
  6
CONTINUOUS
 62
     7
 10
235.42
 20
43.25
 30
0.0
 11
235.42
 21
5.0
 31
0.0
  0
LINE
  5
77
  8
0
  6
CONTINUOUS
 62
     7
 10
260.82
 20
5.0
 30
0.0
 11
260.82
 21
43.25
 31
0.0
  0
LINE
  5
78
  8
0
  6
CONTINUOUS
 62
     7
 10
410.0
 20
287.0
 30
0.0
 11
410.0
 21
60.25
 31
0.0
  0
LINE
  5
79
  8
0
  6
CONTINUOUS
 62
     7
 10
281.14
 20
22.0
 30
0.0
 11
415.0
 21
22.0
 31
0.0
  0
LINE
  5
7A
  8
0
  6
CONTINUOUS
 62
     7
 10
415.0
 20
43.25
 30
0.0
 11
227.8
 21
43.25
 31
0.0
  0
LINE
  5
7B
  8
0
  6
CONTINUOUS
 62
     7
 10
227.8
 20
60.25
 30
0.0
 11
415.0
 21
60.25
 31
0.0
  0
LINE
  5
7C
  8
0
  6
CONTINUOUS
 62
     7
 10
281.14
 20
38.9447711707
 30
0.0
 11
227.8
 21
38.9447711707
 31
0.0
  0
LINE
  5
7D
  8
0
  6
CONTINUOUS
 62
     7
 10
281.14
 20
5.0
 30
0.0
 11
281.14
 21
60.25
 31
0.0
  0
LINE
  5
7E
  8
0
  6
CONTINUOUS
 62
     7
 10
324.32
 20
60.25
 30
0.0
 11
324.32
 21
5.0
 31
0.0
  0
LINE
  5
7F
  8
0
  6
CONTINUOUS
 62
     7
 10
273.52
 20
43.25
 30
0.0
 11
273.52
 21
5.0
 31
0.0
  0
LINE
  5
80
  8
0
  6
CONTINUOUS
 62
     7
 10
290.5491845626
 20
22.0
 30
0.0
 11
290.5491845626
 21
43.25
 31
0.0
  0
LINE
  5
81
  8
0
  6
CONTINUOUS
 62
     7
 10
281.14
 20
13.5
 30
0.0
 11
227.8
 21
13.5
 31
0.0
  0
LINE
  5
82
  8
0
  6
CONTINUOUS
 62
     7
 10
306.6969257405
 20
43.25
 30
0.0
 11
306.6969257405
 21
22.0
 31
0.0
  0
LINE
  5
83
  8
0
  6
CONTINUOUS
 62
     7
 10
368.48
 20
5.0
 30
0.0
 11
368.48
 21
9.25
 31
0.0
  0
LINE
  5
84
  8
0
  6
CONTINUOUS
 62
     7
 10
376.28
 20
53.875
 30
0.0
 11
376.28
 21
60.25
 31
0.0
  0
LINE
  5
85
  8
0
  6
CONTINUOUS
 62
     7
 10
227.8
 20
9.23
 30
0.0
 11
281.14
 21
9.23
 31
0.0
  0
LINE
  5
86
  8
0
  6
CONTINUOUS
 62
     7
 10
399.68
 20
9.25
 30
0.0
 11
399.68
 21
22.0
 31
0.0
  0
LINE
  5
87
  8
0
  6
CONTINUOUS
 62
     7
 10
415.0
 20
53.875
 30
0.0
 11
324.32
 21
53.875
 31
0.0
  0
LINE
  5
88
  8
0
  6
CONTINUOUS
 62
     7
 10
415.0
 20
5.0
 30
0.0
 11
415.0
 21
60.25
 31
0.0
  0
LINE
  5
89
  8
0
  6
CONTINUOUS
 62
     7
 10
227.8
 20
5.0
 30
0.0
 11
415.0
 21
5.0
 31
0.0
  0
LINE
  5
8A
  8
0
  6
CONTINUOUS
 62
     7
 10
281.14
 20
17.75
 30
0.0
 11
227.8
 21
17.75
 31
0.0
  0
LINE
  5
8B
  8
0
  6
CONTINUOUS
 62
     7
 10
281.14
 20
22.0
 30
0.0
 11
227.8
 21
22.0
 31
0.0
  0
LINE
  5
8C
  8
0
  6
CONTINUOUS
 62
     7
 10
324.32
 20
26.25
 30
0.0
 11
227.8
 21
26.25
 31
0.0
  0
LINE
  5
8D
  8
0
  6
CONTINUOUS
 62
     7
 10
324.32
 20
30.5
 30
0.0
 11
227.8
 21
30.5
 31
0.0
  0
LINE
  5
8E
  8
0
  6
CONTINUOUS
 62
     7
 10
324.32
 20
34.75
 30
0.0
 11
227.8
 21
34.75
 31
0.0
  0
LINE
  5
8F
  8
0
  6
CONTINUOUS
 62
     7
 10
324.32
 20
38.9447711707
 30
0.0
 11
281.14
 21
38.9447711707
 31
0.0
  0
LINE
  5
90
  8
0
  6
CONTINUOUS
 62
     7
 10
415.0
 20
13.5
 30
0.0
 11
399.68
 21
13.5
 31
0.0
  0
LINE
  5
91
  8
0
  6
CONTINUOUS
 62
     7
 10
324.32
 20
9.23
 30
0.0
 11
415.0
 21
9.23
 31
0.0
  0
LINE
  5
92
  8
0
  6
CONTINUOUS
 62
     7
 10
222.8
 20
5.0
 30
0.0
 11
227.8
 21
5.0
 31
0.0
  0
LINE
  5
93
  8
0
  6
CONTINUOUS
 62
     7
 10
415.0
 20
292.0
 30
0.0
 11
5.0
 21
292.0
 31
0.0
  0
LINE
  5
94
  8
0
  6
CONTINUOUS
 62
     7
 10
410.0
 20
287.0
 30
0.0
 11
10.0
 21
287.0
 31
0.0
  0
LINE
  5
95
  8
0
  6
CONTINUOUS
 62
     7
 10
5.0
 20
292.0
 30
0.0
 11
5.0
 21
5.0
 31
0.0
  0
LINE
  5
96
  8
0
  6
CONTINUOUS
 62
     7
 10
10.0
 20
287.0
 30
0.0
 11
10.0
 21
10.0
 31
0.0
  0
LINE
  5
97
  8
0
  6
CONTINUOUS
 62
     7
 10
10.0
 20
48.5
 30
0.0
 11
5.0
 21
48.5
 31
0.0
  0
LINE
  5
98
  8
0
  6
CONTINUOUS
 62
     7
 10
5.0
 20
98.5
 30
0.0
 11
10.0
 21
98.5
 31
0.0
  0
LINE
  5
99
  8
0
  6
CONTINUOUS
 62
     7
 10
5.0
 20
198.5
 30
0.0
 11
10.0
 21
198.5
 31
0.0
  0
LINE
  5
9A
  8
0
  6
CONTINUOUS
 62
     7
 10
5.0
 20
148.5
 30
0.0
 11
15.0
 21
148.5
 31
0.0
  0
LINE
  5
9B
  8
0
  6
CONTINUOUS
 62
     7
 10
5.0
 20
5.0
 30
0.0
 11
227.8
 21
5.0
 31
0.0
  0
LINE
  5
9C
  8
0
  6
CONTINUOUS
 62
     7
 10
10.0
 20
10.0
 30
0.0
 11
227.8
 21
10.0
 31
0.0
  0
LINE
  5
9D
  8
0
  6
CONTINUOUS
 62
     7
 10
60.0
 20
5.0
 30
0.0
 11
60.0
 21
10.0
 31
0.0
  0
LINE
  5
9E
  8
0
  6
CONTINUOUS
 62
     7
 10
110.0
 20
10.0
 30
0.0
 11
110.0
 21
5.0
 31
0.0
  0
LINE
  5
9F
  8
0
  6
CONTINUOUS
 62
     7
 10
160.0
 20
5.0
 30
0.0
 11
160.0
 21
10.0
 31
0.0
  0
LINE
  5
A0
  8
0
  6
CONTINUOUS
 62
     7
 10
10.0
 20
248.5
 30
0.0
 11
5.0
 21
248.5
 31
0.0
  0
LINE
  5
A1
  8
0
  6
CONTINUOUS
 62
     7
 10
60.0
 20
287.0
 30
0.0
 11
60.0
 21
292.0
 31
0.0
  0
LINE
  5
A2
  8
0
  6
CONTINUOUS
 62
     7
 10
110.0
 20
292.0
 30
0.0
 11
110.0
 21
287.0
 31
0.0
  0
LINE
  5
A3
  8
0
  6
CONTINUOUS
 62
     7
 10
160.0
 20
287.0
 30
0.0
 11
160.0
 21
292.0
 31
0.0
  0
LINE
  5
A4
  8
0
  6
CONTINUOUS
 62
     7
 10
260.0
 20
287.0
 30
0.0
 11
260.0
 21
292.0
 31
0.0
  0
LINE
  5
A5
  8
0
  6
CONTINUOUS
 62
     7
 10
415.0
 20
60.25
 30
0.0
 11
415.0
 21
292.0
 31
0.0
  0
LINE
  5
A6
  8
0
  6
CONTINUOUS
 62
     7
 10
210.0
 20
5.0
 30
0.0
 11
210.0
 21
15.0
 31
0.0
  0
LINE
  5
A7
  8
0
  6
CONTINUOUS
 62
     7
 10
410.0
 20
198.5
 30
0.0
 11
415.0
 21
198.5
 31
0.0
  0
LINE
  5
A8
  8
0
  6
CONTINUOUS
 62
     7
 10
410.0
 20
98.5
 30
0.0
 11
415.0
 21
98.5
 31
0.0
  0
LINE
  5
A9
  8
0
  6
CONTINUOUS
 62
     7
 10
415.0
 20
148.5
 30
0.0
 11
405.0
 21
148.5
 31
0.0
  0
LINE
  5
AA
  8
0
  6
CONTINUOUS
 62
     7
 10
310.0
 20
292.0
 30
0.0
 11
310.0
 21
287.0
 31
0.0
  0
LINE
  5
AB
  8
0
  6
CONTINUOUS
 62
     7
 10
360.0
 20
287.0
 30
0.0
 11
360.0
 21
292.0
 31
0.0
  0
LINE
  5
AC
  8
0
  6
CONTINUOUS
 62
     7
 10
210.0
 20
292.0
 30
0.0
 11
210.0
 21
282.0
 31
0.0
  0
LINE
  5
AD
  8
0
  6
CONTINUOUS
 62
     7
 10
415.0
 20
248.5
 30
0.0
 11
410.0
 21
248.5
 31
0.0
  0
TEXT
  5
AE
  8
0
  6
CONTINUOUS
 62
     7
 10
292.577149286
 20
36.0380597815
 30
0.0
 40
2.1166666667
  1
31.01.22
 41
0.7
 11
292.577149286
 21
35.2903259837
 31
0.0
 73
     1
  0
TEXT
  5
AF
  8
0
  6
CONTINUOUS
 62
     7
 10
310.5039418518
 20
36.0380597815
 30
0.0
 40
2.1166666667
  1
Hammad
 41
0.7
 11
310.5039418518
 21
35.2903259837
 31
0.0
 73
     1
  0
TEXT
  5
B0
  8
0
  6
CONTINUOUS
 62
     7
 10
348.0560758116
 20
38.0239155516
 30
0.0
 40
3.5
  1
V RD 1804 76x76
 41
0.63
 11
348.0560758116
 21
36.7875053349
 31
0.0
 73
     1
  0
TEXT
  5
B1
  8
0
  6
CONTINUOUS
 62
     7
 10
6.6666666667
 20
122.9348266002
 30
0.0
 40
1.8520833333
  1
D
 41
0.7
 11
6.6666666667
 21
122.2805595272
 31
0.0
 73
     1
  0
TEXT
  5
B2
  8
0
  6
CONTINUOUS
 62
     7
 10
6.6666666667
 20
72.9348266002
 30
0.0
 40
1.8520833333
  1
E
 41
0.7
 11
6.6666666667
 21
72.2805595272
 31
0.0
 73
     1
  0
TEXT
  5
B3
  8
0
  6
CONTINUOUS
 62
     7
 10
6.6666666667
 20
22.9348266002
 30
0.0
 40
1.8520833333
  1
F
 41
0.7
 11
6.6666666667
 21
22.2805595272
 31
0.0
 73
     1
  0
TEXT
  5
B4
  8
0
  6
CONTINUOUS
 62
     7
 10
6.6666666667
 20
172.9348266002
 30
0.0
 40
1.8520833333
  1
C
 41
0.7
 11
6.6666666667
 21
172.2805595272
 31
0.0
 73
     1
  0
TEXT
  5
B5
  8
0
  6
CONTINUOUS
 62
     7
 10
34.5833333333
 20
6.9348306002
 30
0.0
 40
1.8520833333
  1
1
 41
0.7
 11
34.5833333333
 21
6.2805635272
 31
0.0
 73
     1
  0
TEXT
  5
B6
  8
0
  6
CONTINUOUS
 62
     7
 10
84.1666666667
 20
6.9348306002
 30
0.0
 40
1.8520833333
  1
2
 41
0.7
 11
84.1666666667
 21
6.2805635272
 31
0.0
 73
     1
  0
TEXT
  5
B7
  8
0
  6
CONTINUOUS
 62
     7
 10
134.1666666667
 20
6.9348306002
 30
0.0
 40
1.8520833333
  1
3
 41
0.7
 11
134.1666666667
 21
6.2805635272
 31
0.0
 73
     1
  0
TEXT
  5
B8
  8
0
  6
CONTINUOUS
 62
     7
 10
184.1666666667
 20
6.9348306002
 30
0.0
 40
1.8520833333
  1
4
 41
0.7
 11
184.1666666667
 21
6.2805635272
 31
0.0
 73
     1
  0
TEXT
  5
B9
  8
0
  6
CONTINUOUS
 62
     7
 10
6.6666666667
 20
222.9348266002
 30
0.0
 40
1.8520833333
  1
B
 41
0.7
 11
6.6666666667
 21
222.2805595272
 31
0.0
 73
     1
  0
TEXT
  5
BA
  8
0
  6
CONTINUOUS
 62
     7
 10
6.6666666667
 20
272.9348266002
 30
0.0
 40
1.8520833333
  1
A
 41
0.7
 11
6.6666666667
 21
272.2805595272
 31
0.0
 73
     1
  0
TEXT
  5
BB
  8
0
  6
CONTINUOUS
 62
     7
 10
134.1666666667
 20
288.9348306002
 30
0.0
 40
1.8520833333
  1
3
 41
0.7
 11
134.1666666667
 21
288.2805635272
 31
0.0
 73
     1
  0
TEXT
  5
BC
  8
0
  6
CONTINUOUS
 62
     7
 10
84.1666666667
 20
288.9348306002
 30
0.0
 40
1.8520833333
  1
2
 41
0.7
 11
84.1666666667
 21
288.2805635272
 31
0.0
 73
     1
  0
TEXT
  5
BD
  8
0
  6
CONTINUOUS
 62
     7
 10
34.5833333333
 20
288.9348306002
 30
0.0
 40
1.8520833333
  1
1
 41
0.7
 11
34.5833333333
 21
288.2805635272
 31
0.0
 73
     1
  0
TEXT
  5
BE
  8
0
  6
CONTINUOUS
 62
     7
 10
234.1666666667
 20
288.9348306002
 30
0.0
 40
1.8520833333
  1
5
 41
0.7
 11
234.1666666667
 21
288.2805635272
 31
0.0
 73
     1
  0
TEXT
  5
BF
  8
0
  6
CONTINUOUS
 62
     7
 10
411.6666666667
 20
172.9348266002
 30
0.0
 40
1.8520833333
  1
C
 41
0.7
 11
411.6666666667
 21
172.2805595272
 31
0.0
 73
     1
  0
TEXT
  5
C0
  8
0
  6
CONTINUOUS
 62
     7
 10
411.6666666667
 20
122.9348266002
 30
0.0
 40
1.8520833333
  1
D
 41
0.7
 11
411.6666666667
 21
122.2805595272
 31
0.0
 73
     1
  0
TEXT
  5
C1
  8
0
  6
CONTINUOUS
 62
     7
 10
184.1666666667
 20
288.9348306002
 30
0.0
 40
1.8520833333
  1
4
 41
0.7
 11
184.1666666667
 21
288.2805635272
 31
0.0
 73
     1
  0
TEXT
  5
C2
  8
0
  6
CONTINUOUS
 62
     7
 10
284.1666666667
 20
288.9348306002
 30
0.0
 40
1.8520833333
  1
6
 41
0.7
 11
284.1666666667
 21
288.2805635272
 31
0.0
 73
     1
  0
TEXT
  5
C3
  8
0
  6
CONTINUOUS
 62
     7
 10
334.1666666667
 20
288.9348306002
 30
0.0
 40
1.8520833333
  1
7
 41
0.7
 11
334.1666666667
 21
288.2805635272
 31
0.0
 73
     1
  0
TEXT
  5
C4
  8
0
  6
CONTINUOUS
 62
     7
 10
384.1666666667
 20
288.9348306002
 30
0.0
 40
1.8520833333
  1
8
 41
0.7
 11
384.1666666667
 21
288.2805635272
 31
0.0
 73
     1
  0
TEXT
  5
C5
  8
0
  6
CONTINUOUS
 62
     7
 10
411.6666666667
 20
272.9348266002
 30
0.0
 40
1.8520833333
  1
A
 41
0.7
 11
411.6666666667
 21
272.2805595272
 31
0.0
 73
     1
  0
TEXT
  5
C6
  8
0
  6
CONTINUOUS
 62
     7
 10
411.6666666667
 20
222.9348266002
 30
0.0
 40
1.8520833333
  1
B
 41
0.7
 11
411.6666666667
 21
222.2805595272
 31
0.0
 73
     1
  0
TEXT
  5
C7
  8
0
  6
CONTINUOUS
 62
     7
 10
228.6542475233
 20
5.8405442472
 30
0.0
 40
2.0
  1
Zust.
 41
0.7
 11
228.6542475233
 21
5.1340241233
 31
0.0
 73
     1
  0
TEXT
  5
C8
  8
0
  6
CONTINUOUS
 62
     7
 10
242.3236265502
 20
5.8405442472
 30
0.0
 40
2.0
  1
Änderung
 41
0.7
 11
242.3236265502
 21
5.1340241233
 31
0.0
 73
     1
  0
TEXT
  5
C9
  8
0
  6
CONTINUOUS
 62
     7
 10
273.7487245318
 20
5.8293213552
 30
0.0
 40
2.0
  1
Name
 41
0.7
 11
273.7487245318
 21
5.1228012314
 31
0.0
 73
     1
  0
TEXT
  5
CA
  8
0
  6
CONTINUOUS
 62
     7
 10
281.9346052427
 20
36.0024961334
 30
0.0
 40
2.0
  1
Bearb.
 41
0.7
 11
281.9346052427
 21
35.2959760096
 31
0.0
 73
     1
  0
TEXT
  5
CB
  8
0
  6
CONTINUOUS
 62
     7
 10
282.5538425523
 20
31.8123005822
 30
0.0
 40
2.0
  1
Gepr.
 41
0.7
 11
282.5538425523
 21
31.1057804584
 31
0.0
 73
     1
  0
TEXT
  5
CC
  8
0
  6
CONTINUOUS
 62
     7
 10
282.568021583
 20
27.5024931334
 30
0.0
 40
2.0
  1
Norm
 41
0.7
 11
282.568021583
 21
26.7959730096
 31
0.0
 73
     1
  0
INSERT
  5
D2
  8
0
  6
CONTINUOUS
 62
     7
  2
SW_NOTE_0
 10
326.1421941634
 20
54.7004161895
 30
0.0
  0
TEXT
  5
D3
  8
0
  6
CONTINUOUS
 62
     7
 10
293.8208978724
 20
40.2378571451
 30
0.0
 40
2.0
  1
Datum
 41
0.7
 11
293.8208978724
 21
39.5313370213
 31
0.0
 73
     1
  0
TEXT
  5
D4
  8
0
  6
CONTINUOUS
 62
     7
 10
310.9758605414
 20
40.2399684874
 30
0.0
 40
2.0
  1
Name
 41
0.7
 11
310.9758605414
 21
39.5334483635
 31
0.0
 73
     1
  0
TEXT
  5
D5
  8
0
  6
CONTINUOUS
 62
     7
 10
400.679992
 20
18.8834825574
 30
0.0
 40
2.5
  1
Blatt
 41
0.7
 11
400.679992
 21
18.0003324026
 31
0.0
 73
     1
  0
TEXT
  5
D6
  8
0
  6
CONTINUOUS
 62
     7
 10
401.6114022462
 20
14.9434680153
 30
0.0
 40
2.0
  1
1 (A3)
 41
0.7
 11
401.6114022462
 21
14.2369478915
 31
0.0
 73
     1
  0
TEXT
  5
D7
  8
0
  6
CONTINUOUS
 62
     7
 10
401.6114022462
 20
10.7163935227
 30
0.0
 40
2.0
  1
1 von 1
 41
0.6
 11
401.6114022462
 21
10.0098733989
 31
0.0
 73
     1
  0
TEXT
  5
D8
  8
0
  6
CONTINUOUS
 62
     7
 10
325.769379396
 20
6.0126746831
 30
0.0
 40
2.0
  1
Ers. für:
 41
0.7
 11
325.769379396
 21
5.3061545592
 31
0.0
 73
     1
  0
TEXT
  5
D9
  8
0
  6
CONTINUOUS
 62
     7
 10
369.3744127484
 20
6.1456631557
 30
0.0
 40
2.0
  1
Ers. durch: 
 41
0.6416666667
 11
369.3744127484
 21
5.4391430318
 31
0.0
 73
     1
  0
TEXT
  5
DA
  8
0
  6
CONTINUOUS
 62
     7
 10
325.8260642912
 20
38.8860690348
 30
0.0
 40
2.5
  1
Benennung:
 41
0.7
 11
325.8260642912
 21
38.00291888
 31
0.0
 73
     1
  0
TEXT
  5
DB
  8
0
  6
CONTINUOUS
 62
     7
 10
326.3720674831
 20
17.4450861174
 30
0.0
 40
2.5
  1
ZEICHNUNGSNR.   ZK 10718
 41
0.6416666667
 11
326.3720674831
 21
16.5619359626
 31
0.0
 73
     1
  0
TEXT
  5
DC
  8
0
  6
CONTINUOUS
 62
     7
 10
326.4245832263
 20
11.7244404863
 30
0.0
 40
2.5
  1
TEILENUMMER   
 41
0.625
 11
326.4245832263
 21
10.8412903315
 31
0.0
 73
     1
  0
TEXT
  5
DD
  8
0
  6
CONTINUOUS
 62
     7
 10
263.2346620132
 20
5.8293213552
 30
0.0
 40
2.0
  1
Datum
 41
0.7
 11
263.2346620132
 21
5.1228012314
 31
0.0
 73
     1
  0
INSERT
  5
E5
  8
0
  6
CONTINUOUS
 62
     7
  2
SW_NOTE_0_1
 10
290.4226877706
 20
16.7269093507
 30
0.0
  0
INSERT
  5
EF
  8
0
  6
CONTINUOUS
 62
     7
  2
SW_NOTE_0_2
 10
230.3638616607
 20
56.9426173561
 30
0.0
  0
TEXT
  5
F0
  8
0
  6
CONTINUOUS
 62
     7
 10
380.8494930471
 20
55.6933776061
 30
0.0
 40
3.5
  1
ISO2768-m-K
 41
0.7
 11
380.8494930471
 21
54.4569673894
 31
0.0
 73
     1
  0
TEXT
  5
F1
  8
0
  6
CONTINUOUS
 62
     7
 10
326.1548865668
 20
50.1794325104
 30
0.0
 40
2.5
  1
Material:
 41
0.7
 11
326.1548865668
 21
49.2962823556
 31
0.0
 73
     1
  0
ARC
  5
F2
  8
0
  6
CENTERX2
 62
     7
 10
168.8100255869
 20
242.2195373
 30
0.0
 40
9.32338956100321
 50
0.0
 51
90.0
  0
ARC
  5
F3
  8
0
  6
CENTERX2
 62
     7
 10
168.8100255869
 20
184.8663164221
 30
0.0
 40
9.32338956100321
 50
270.0
 51
0.0
  0
ARC
  5
F4
  8
0
  6
CENTERX2
 62
     7
 10
112.1334151479
 20
241.5429268611
 30
0.0
 40
10.0
 50
90.0
 51
180.0
  0
ARC
  5
F5
  8
0
  6
CENTERX2
 62
     7
 10
112.1334151479
 20
185.5429268611
 30
0.0
 40
10.0
 50
180.0
 51
270.0
  0
LINE
  5
F6
  8
0
  6
CONTINUOUS
 62
     7
 10
134.6334151777
 20
254.0344519448
 30
0.0
 11
134.6334151777
 21
251.5429256392
 31
0.0
  0
LINE
  5
F7
  8
0
  6
CONTINUOUS
 62
     7
 10
145.6334151181
 20
251.5429256392
 30
0.0
 11
145.6334151181
 21
254.0344519448
 31
0.0
  0
ARC
  5
F8
  8
0
  6
CONTINUOUS
 62
     7
 10
140.1334151479
 20
224.5429268611
 30
0.0
 40
29.99999999999997
 50
79.4360224109
 51
100.5639775891
  0
LINE
  5
F9
  8
0
  6
CONTINUOUS
 62
     7
 10
137.1871338079
 20
175.5429280829
 30
0.0
 11
137.4550829961
 21
174.5429260564
 31
0.0
  0
LINE
  5
FA
  8
0
  6
CONTINUOUS
 62
     7
 10
142.8117472997
 20
174.5429260564
 30
0.0
 11
143.0796964879
 21
175.5429280829
 31
0.0
  0
LINE
  5
FB
  8
0
  6
CONTINUOUS
 62
     7
 10
136.7584150604
 20
239.3429277372
 30
0.0
 11
136.7584150604
 21
238.9429265541
 31
0.0
  0
LINE
  5
FC
  8
0
  6
CONTINUOUS
 62
     7
 10
136.7584150604
 20
220.7429267374
 30
0.0
 11
136.7584150604
 21
220.1429268253
 31
0.0
  0
LINE
  5
FD
  8
0
  6
CONTINUOUS
 62
     7
 10
136.7584150604
 20
206.9429268968
 30
0.0
 11
136.7584150604
 21
206.3429269847
 31
0.0
  0
LINE
  5
FE
  8
0
  6
CONTINUOUS
 62
     7
 10
136.7584150604
 20
188.142927168
 30
0.0
 11
136.7584150604
 21
187.7429259849
 31
0.0
  0
LINE
  5
FF
  8
0
  6
CONTINUOUS
 62
     7
 10
143.5084152354
 20
187.7429259849
 30
0.0
 11
143.5084152354
 21
188.142927168
 31
0.0
  0
LINE
  5
100
  8
0
  6
CONTINUOUS
 62
     7
 10
143.5084152354
 20
206.3429269847
 30
0.0
 11
143.5084152354
 21
206.9429268968
 31
0.0
  0
LINE
  5
101
  8
0
  6
CONTINUOUS
 62
     7
 10
143.5084152354
 20
220.1429268253
 30
0.0
 11
143.5084152354
 21
220.7429267374
 31
0.0
  0
LINE
  5
102
  8
0
  6
CONTINUOUS
 62
     7
 10
143.5084152354
 20
238.9429265541
 30
0.0
 11
143.5084152354
 21
239.3429277372
 31
0.0
  0
LINE
  5
103
  8
0
  6
CONTINUOUS
 62
     7
 10
134.6334151777
 20
206.3429269847
 30
0.0
 11
134.6334151777
 21
188.142927168
 31
0.0
  0
LINE
  5
104
  8
0
  6
CONTINUOUS
 62
     7
 10
145.6334151181
 20
188.142927168
 30
0.0
 11
145.6334151181
 21
206.3429269847
 31
0.0
  0
LINE
  5
105
  8
0
  6
CONTINUOUS
 62
     7
 10
134.6334151777
 20
238.9429265541
 30
0.0
 11
134.6334151777
 21
220.7429267374
 31
0.0
  0
LINE
  5
106
  8
0
  6
CONTINUOUS
 62
     7
 10
145.6334151181
 20
220.7429267374
 30
0.0
 11
145.6334151181
 21
238.9429265541
 31
0.0
  0
LINE
  5
107
  8
0
  6
CONTINUOUS
 62
     7
 10
145.6334151181
 20
206.9429268968
 30
0.0
 11
145.6334151181
 21
220.1429268253
 31
0.0
  0
LINE
  5
108
  8
0
  6
CONTINUOUS
 62
     7
 10
134.6334151777
 20
220.1429268253
 30
0.0
 11
134.6334151777
 21
206.9429268968
 31
0.0
  0
LINE
  5
109
  8
0
  6
CONTINUOUS
 62
     7
 10
145.6334151181
 20
175.5429280829
 30
0.0
 11
145.6334151181
 21
187.7429259849
 31
0.0
  0
LINE
  5
10A
  8
0
  6
CONTINUOUS
 62
     7
 10
134.6334151777
 20
187.7429259849
 30
0.0
 11
134.6334151777
 21
175.5429280829
 31
0.0
  0
LINE
  5
10B
  8
0
  6
CONTINUOUS
 62
     7
 10
145.6334151181
 20
239.3429277372
 30
0.0
 11
145.6334151181
 21
251.5429256392
 31
0.0
  0
LINE
  5
10C
  8
0
  6
CONTINUOUS
 62
     7
 10
134.6334151777
 20
251.5429256392
 30
0.0
 11
134.6334151777
 21
239.3429277372
 31
0.0
  0
LINE
  5
10D
  8
0
  6
CONTINUOUS
 62
     7
 10
145.3535424399
 20
251.5429256392
 30
0.0
 11
145.6334151181
 21
251.5429256392
 31
0.0
  0
LINE
  5
10E
  8
0
  6
CONTINUOUS
 62
     7
 10
134.6334151777
 20
251.5429256392
 30
0.0
 11
145.3535424399
 21
251.5429256392
 31
0.0
  0
LINE
  5
10F
  8
0
  6
CONTINUOUS
 62
     7
 10
145.3535424399
 20
254.0344519448
 30
0.0
 11
145.6334151181
 21
254.0344519448
 31
0.0
  0
LINE
  5
110
  8
0
  6
CONTINUOUS
 62
     7
 10
134.6334151777
 20
254.0344519448
 30
0.0
 11
145.3535424399
 21
254.0344519448
 31
0.0
  0
LINE
  5
111
  8
0
  6
CONTINUOUS
 62
     7
 10
142.675457787
 20
174.5429260564
 30
0.0
 11
142.8117472997
 21
174.5429260564
 31
0.0
  0
LINE
  5
112
  8
0
  6
CONTINUOUS
 62
     7
 10
137.4550829961
 20
174.5429260564
 30
0.0
 11
142.675457787
 21
174.5429260564
 31
0.0
  0
ARC
  5
113
  8
0
  6
CONTINUOUS
 62
     7
 10
127.3864520666
 20
210.3222025212
 30
0.0
 40
0.702091227323934
 50
293.6426694059
 51
3.0291643405
  0
ARC
  5
114
  8
0
  6
CONTINUOUS
 62
     7
 10
126.6334152366
 20
213.5429268611
 30
0.0
 40
3.999999956363929
 50
75.0100649862
 51
284.9899350138
  0
ARC
  5
115
  8
0
  6
CONTINUOUS
 62
     7
 10
127.4160308011
 20
216.7818937949
 30
0.0
 40
0.6738082315326592
 50
355.2886312575
 51
68.0395349961
  0
LINE
  5
116
  8
0
  6
CONTINUOUS
 62
     7
 10
128.087562308
 20
210.3593040165
 30
0.0
 11
128.087562308
 21
216.7265497056
 31
0.0
  0
ARC
  5
117
  8
0
  6
CONTINUOUS
 62
     7
 10
126.6334151479
 20
213.5429268611
 30
0.0
 40
3.500000000000045
 50
294.548964947
 51
65.451035053
  0
ARC
  5
118
  8
0
  6
CONTINUOUS
 62
     7
 10
126.6334151479
 20
213.5429268611
 30
0.0
 40
4.000000000000012
 50
284.9899401796
 51
75.0100598204
  0
CIRCLE
  5
119
  8
0
  6
CONTINUOUS
 62
     7
 10
126.6334151479
 20
213.5429268611
 30
0.0
 40
5.000000000000071
  0
CIRCLE
  5
11A
  8
0
  6
CONTINUOUS
 62
     7
 10
126.6334151479
 20
213.5429268611
 30
0.0
 40
6.500000000000099
  0
LINE
  5
11B
  8
0
  6
CONTINUOUS
 62
     7
 10
134.6334151777
 20
206.3429269847
 30
0.0
 11
145.6334151181
 21
206.3429269847
 31
0.0
  0
LINE
  5
11C
  8
0
  6
CONTINUOUS
 62
     7
 10
145.6334151181
 20
188.142927168
 30
0.0
 11
134.6334151777
 21
188.142927168
 31
0.0
  0
LINE
  5
11D
  8
0
  6
CONTINUOUS
 62
     7
 10
134.6334151777
 20
238.9429265541
 30
0.0
 11
145.6334151181
 21
238.9429265541
 31
0.0
  0
LINE
  5
11E
  8
0
  6
CONTINUOUS
 62
     7
 10
145.6334151181
 20
220.7429267374
 30
0.0
 11
134.6334151777
 21
220.7429267374
 31
0.0
  0
LINE
  5
11F
  8
0
  6
CONTINUOUS
 62
     7
 10
119.7672549489
 20
226.6059162003
 30
0.0
 11
119.5754397514
 21
226.6035841686
 31
0.0
  0
ARC
  5
120
  8
0
  6
CONTINUOUS
 62
     7
 10
119.7824635719
 20
226.465180418
 30
0.0
 40
0.1415551575448743
 50
43.9116104693
 51
96.1677380131
  0
POLYLINE
  5
121
  8
0
  6
CONTINUOUS
 62
     7
 66
     1
 10
0.0
 20
0.0
 30
0.0
 70
   128
  0
VERTEX
  5
5FA
  8
0
  6
CONTINUOUS
 62
     7
 10
119.9549872282
 20
226.2252027077
 30
0.0
  0
VERTEX
  5
5FB
  8
0
  6
CONTINUOUS
 62
     7
 10
119.9286494257
 20
226.417519888
 30
0.0
  0
VERTEX
  5
5FC
  8
0
  6
CONTINUOUS
 62
     7
 10
119.8844414058
 20
226.5633556899
 30
0.0
  0
SEQEND
  5
83A
  8
0
  6
CONTINUOUS
 62
     7
  0
POLYLINE
  5
122
  8
0
  6
CONTINUOUS
 62
     7
 66
     1
 10
0.0
 20
0.0
 30
0.0
 70
   128
  0
VERTEX
  5
5FD
  8
0
  6
CONTINUOUS
 62
     7
 10
119.9748094978
 20
226.1931363401
 30
0.0
  0
VERTEX
  5
5FE
  8
0
  6
CONTINUOUS
 62
     7
 10
119.9596736434
 20
226.2085916382
 30
0.0
  0
VERTEX
  5
5FF
  8
0
  6
CONTINUOUS
 62
     7
 10
119.9549872282
 20
226.2252027077
 30
0.0
  0
SEQEND
  5
83B
  8
0
  6
CONTINUOUS
 62
     7
  0
LINE
  5
123
  8
0
  6
CONTINUOUS
 62
     7
 10
120.0278650823
 20
226.1972173956
 30
0.0
 11
119.9748094978
 21
226.1931363401
 31
0.0
  0
POLYLINE
  5
124
  8
0
  6
CONTINUOUS
 62
     7
 66
     1
 10
0.0
 20
0.0
 30
0.0
 70
   128
  0
VERTEX
  5
600
  8
0
  6
CONTINUOUS
 62
     7
 10
120.0296141061
 20
226.2747593132
 30
0.0
  0
VERTEX
  5
601
  8
0
  6
CONTINUOUS
 62
     7
 10
120.028811306
 20
226.2313317415
 30
0.0
  0
VERTEX
  5
602
  8
0
  6
CONTINUOUS
 62
     7
 10
120.0278650823
 20
226.1972173956
 30
0.0
  0
SEQEND
  5
83C
  8
0
  6
CONTINUOUS
 62
     7
  0
LINE
  5
125
  8
0
  6
CONTINUOUS
 62
     7
 10
120.0296141061
 20
226.7575019878
 30
0.0
 11
120.0296141061
 21
226.2747593132
 31
0.0
  0
POLYLINE
  5
126
  8
0
  6
CONTINUOUS
 62
     7
 66
     1
 10
0.0
 20
0.0
 30
0.0
 70
   128
  0
VERTEX
  5
603
  8
0
  6
CONTINUOUS
 62
     7
 10
120.0319461378
 20
227.1854400542
 30
0.0
  0
VERTEX
  5
604
  8
0
  6
CONTINUOUS
 62
     7
 10
120.0303647521
 20
226.9457958546
 30
0.0
  0
VERTEX
  5
605
  8
0
  6
CONTINUOUS
 62
     7
 10
120.0296141061
 20
226.7575019878
 30
0.0
  0
SEQEND
  5
83D
  8
0
  6
CONTINUOUS
 62
     7
  0
LINE
  5
127
  8
0
  6
CONTINUOUS
 62
     7
 10
120.0296141061
 20
227.2507388052
 30
0.0
 11
120.0319461378
 21
227.1854400542
 31
0.0
  0
ARC
  5
128
  8
0
  6
CONTINUOUS
 62
     7
 10
119.9934436185
 20
227.2371130896
 30
0.0
 40
0.0386518343216325
 50
20.6417980635
 51
80.4132822398
  0
POLYLINE
  5
129
  8
0
  6
CONTINUOUS
 62
     7
 66
     1
 10
0.0
 20
0.0
 30
0.0
 70
   128
  0
VERTEX
  5
606
  8
0
  6
CONTINUOUS
 62
     7
 10
119.9660643789
 20
227.2623989639
 30
0.0
  0
VERTEX
  5
607
  8
0
  6
CONTINUOUS
 62
     7
 10
119.9841115477
 20
227.2721052077
 30
0.0
  0
VERTEX
  5
608
  8
0
  6
CONTINUOUS
 62
     7
 10
119.9998807015
 20
227.2752251384
 30
0.0
  0
SEQEND
  5
83E
  8
0
  6
CONTINUOUS
 62
     7
  0
POLYLINE
  5
12A
  8
0
  6
CONTINUOUS
 62
     7
 66
     1
 10
0.0
 20
0.0
 30
0.0
 70
   128
  0
VERTEX
  5
609
  8
0
  6
CONTINUOUS
 62
     7
 10
119.9549872282
 20
227.1889381018
 30
0.0
  0
VERTEX
  5
60A
  8
0
  6
CONTINUOUS
 62
     7
 10
119.9597090336
 20
227.2303
 30
0.0
  0
VERTEX
  5
60B
  8
0
  6
CONTINUOUS
 62
     7
 10
119.9660643789
 20
227.2623989639
 30
0.0
  0
SEQEND
  5
83F
  8
0
  6
CONTINUOUS
 62
     7
  0
POLYLINE
  5
12B
  8
0
  6
CONTINUOUS
 62
     7
 66
     1
 10
0.0
 20
0.0
 30
0.0
 70
   128
  0
VERTEX
  5
60C
  8
0
  6
CONTINUOUS
 62
     7
 10
119.9001826199
 20
226.9633084443
 30
0.0
  0
VERTEX
  5
60D
  8
0
  6
CONTINUOUS
 62
     7
 10
119.941293061
 20
227.0870821458
 30
0.0
  0
VERTEX
  5
60E
  8
0
  6
CONTINUOUS
 62
     7
 10
119.9549872282
 20
227.1889381018
 30
0.0
  0
SEQEND
  5
840
  8
0
  6
CONTINUOUS
 62
     7
  0
ARC
  5
12C
  8
0
  6
CONTINUOUS
 62
     7
 10
119.6946067821
 20
227.2981129653
 30
0.0
 40
0.3928810155133123
 50
256.1425646314
 51
301.55065351
  0
LINE
  5
12D
  8
0
  6
CONTINUOUS
 62
     7
 10
119.1002771112
 20
226.9020916802
 30
0.0
 11
119.6005090925
 21
226.9166668785
 31
0.0
  0
LINE
  5
12E
  8
0
  6
CONTINUOUS
 62
     7
 10
117.8631026151
 20
226.9020916802
 30
0.0
 11
119.1002771112
 21
226.9020916802
 31
0.0
  0
LINE
  5
12F
  8
0
  6
CONTINUOUS
 62
     7
 10
117.8263731154
 20
226.9003426564
 30
0.0
 11
117.8631026151
 21
226.9020916802
 31
0.0
  0
ARC
  5
130
  8
0
  6
CONTINUOUS
 62
     7
 10
117.8027881062
 20
227.1038424077
 30
0.0
 40
0.2048619082736961
 50
232.5737469629
 51
276.6109143174
  0
POLYLINE
  5
131
  8
0
  6
CONTINUOUS
 62
     7
 66
     1
 10
0.0
 20
0.0
 30
0.0
 70
   128
  0
VERTEX
  5
60F
  8
0
  6
CONTINUOUS
 62
     7
 10
117.6042415055
 20
227.1731968877
 30
0.0
  0
VERTEX
  5
610
  8
0
  6
CONTINUOUS
 62
     7
 10
117.6293071213
 20
227.0373942238
 30
0.0
  0
VERTEX
  5
611
  8
0
  6
CONTINUOUS
 62
     7
 10
117.6782853755
 20
226.9411541429
 30
0.0
  0
SEQEND
  5
841
  8
0
  6
CONTINUOUS
 62
     7
  0
POLYLINE
  5
132
  8
0
  6
CONTINUOUS
 62
     7
 66
     1
 10
0.0
 20
0.0
 30
0.0
 70
   128
  0
VERTEX
  5
612
  8
0
  6
CONTINUOUS
 62
     7
 10
117.5855852517
 20
227.2618159559
 30
0.0
  0
VERTEX
  5
613
  8
0
  6
CONTINUOUS
 62
     7
 10
117.5987876805
 20
227.2128041741
 30
0.0
  0
VERTEX
  5
614
  8
0
  6
CONTINUOUS
 62
     7
 10
117.6042415055
 20
227.1731968877
 30
0.0
  0
SEQEND
  5
842
  8
0
  6
CONTINUOUS
 62
     7
  0
POLYLINE
  5
133
  8
0
  6
CONTINUOUS
 62
     7
 66
     1
 10
0.0
 20
0.0
 30
0.0
 70
   128
  0
VERTEX
  5
615
  8
0
  6
CONTINUOUS
 62
     7
 10
117.5610970559
 20
227.2658970115
 30
0.0
  0
VERTEX
  5
616
  8
0
  6
CONTINUOUS
 62
     7
 10
117.5749476852
 20
227.2644441482
 30
0.0
  0
VERTEX
  5
617
  8
0
  6
CONTINUOUS
 62
     7
 10
117.5855852517
 20
227.2618159559
 30
0.0
  0
SEQEND
  5
843
  8
0
  6
CONTINUOUS
 62
     7
  0
POLYLINE
  5
134
  8
0
  6
CONTINUOUS
 62
     7
 66
     1
 10
0.0
 20
0.0
 30
0.0
 70
   128
  0
VERTEX
  5
618
  8
0
  6
CONTINUOUS
 62
     7
 10
117.5354447069
 20
227.244325718
 30
0.0
  0
VERTEX
  5
619
  8
0
  6
CONTINUOUS
 62
     7
 10
117.5469726177
 20
227.2601367813
 30
0.0
  0
VERTEX
  5
61A
  8
0
  6
CONTINUOUS
 62
     7
 10
117.5610970559
 20
227.2658970115
 30
0.0
  0
SEQEND
  5
844
  8
0
  6
CONTINUOUS
 62
     7
  0
POLYLINE
  5
135
  8
0
  6
CONTINUOUS
 62
     7
 66
     1
 10
0.0
 20
0.0
 30
0.0
 70
   128
  0
VERTEX
  5
61B
  8
0
  6
CONTINUOUS
 62
     7
 10
117.5296146276
 20
227.0909909067
 30
0.0
  0
VERTEX
  5
61C
  8
0
  6
CONTINUOUS
 62
     7
 10
117.5348095449
 20
227.1767806169
 30
0.0
  0
VERTEX
  5
61D
  8
0
  6
CONTINUOUS
 62
     7
 10
117.5354447069
 20
227.244325718
 30
0.0
  0
SEQEND
  5
845
  8
0
  6
CONTINUOUS
 62
     7
  0
LINE
  5
136
  8
0
  6
CONTINUOUS
 62
     7
 10
117.5296146276
 20
226.6292365176
 30
0.0
 11
117.5296146276
 21
227.0909909067
 31
0.0
  0
POLYLINE
  5
137
  8
0
  6
CONTINUOUS
 62
     7
 66
     1
 10
0.0
 20
0.0
 30
0.0
 70
   128
  0
VERTEX
  5
61E
  8
0
  6
CONTINUOUS
 62
     7
 10
117.534861699
 20
226.2386118901
 30
0.0
  0
VERTEX
  5
61F
  8
0
  6
CONTINUOUS
 62
     7
 10
117.5301957729
 20
226.4573357907
 30
0.0
  0
VERTEX
  5
620
  8
0
  6
CONTINUOUS
 62
     7
 10
117.5296146276
 20
226.6292365176
 30
0.0
  0
SEQEND
  5
846
  8
0
  6
CONTINUOUS
 62
     7
  0
POLYLINE
  5
138
  8
0
  6
CONTINUOUS
 62
     7
 66
     1
 10
0.0
 20
0.0
 30
0.0
 70
   128
  0
VERTEX
  5
621
  8
0
  6
CONTINUOUS
 62
     7
 10
117.5616800638
 20
226.230449779
 30
0.0
  0
VERTEX
  5
622
  8
0
  6
CONTINUOUS
 62
     7
 10
117.5463896098
 20
226.2340782118
 30
0.0
  0
VERTEX
  5
623
  8
0
  6
CONTINUOUS
 62
     7
 10
117.534861699
 20
226.2386118901
 30
0.0
  0
SEQEND
  5
847
  8
0
  6
CONTINUOUS
 62
     7
  0
POLYLINE
  5
139
  8
0
  6
CONTINUOUS
 62
     7
 66
     1
 10
0.0
 20
0.0
 30
0.0
 70
   128
  0
VERTEX
  5
624
  8
0
  6
CONTINUOUS
 62
     7
 10
117.6042415055
 20
226.2601831836
 30
0.0
  0
VERTEX
  5
625
  8
0
  6
CONTINUOUS
 62
     7
 10
117.5843261036
 20
226.2376163062
 30
0.0
  0
VERTEX
  5
626
  8
0
  6
CONTINUOUS
 62
     7
 10
117.5616800638
 20
226.230449779
 30
0.0
  0
SEQEND
  5
848
  8
0
  6
CONTINUOUS
 62
     7
  0
POLYLINE
  5
13A
  8
0
  6
CONTINUOUS
 62
     7
 66
     1
 10
0.0
 20
0.0
 30
0.0
 70
   128
  0
VERTEX
  5
627
  8
0
  6
CONTINUOUS
 62
     7
 10
117.625812799
 20
226.4957249072
 30
0.0
  0
VERTEX
  5
628
  8
0
  6
CONTINUOUS
 62
     7
 10
117.611094177
 20
226.3640591782
 30
0.0
  0
VERTEX
  5
629
  8
0
  6
CONTINUOUS
 62
     7
 10
117.6042415055
 20
226.2601831836
 30
0.0
  0
SEQEND
  5
849
  8
0
  6
CONTINUOUS
 62
     7
  0
POLYLINE
  5
13B
  8
0
  6
CONTINUOUS
 62
     7
 66
     1
 10
0.0
 20
0.0
 30
0.0
 70
   128
  0
VERTEX
  5
62A
  8
0
  6
CONTINUOUS
 62
     7
 10
117.6514670106
 20
226.5592737031
 30
0.0
  0
VERTEX
  5
62B
  8
0
  6
CONTINUOUS
 62
     7
 10
117.6346883031
 20
226.5246322286
 30
0.0
  0
VERTEX
  5
62C
  8
0
  6
CONTINUOUS
 62
     7
 10
117.625812799
 20
226.4957249072
 30
0.0
  0
SEQEND
  5
84A
  8
0
  6
CONTINUOUS
 62
     7
  0
POLYLINE
  5
13C
  8
0
  6
CONTINUOUS
 62
     7
 66
     1
 10
0.0
 20
0.0
 30
0.0
 70
   128
  0
VERTEX
  5
62D
  8
0
  6
CONTINUOUS
 62
     7
 10
117.7313409599
 20
226.5866760072
 30
0.0
  0
VERTEX
  5
62E
  8
0
  6
CONTINUOUS
 62
     7
 10
117.6851752999
 20
226.5755783674
 30
0.0
  0
VERTEX
  5
62F
  8
0
  6
CONTINUOUS
 62
     7
 10
117.6514670106
 20
226.5592737031
 30
0.0
  0
SEQEND
  5
84B
  8
0
  6
CONTINUOUS
 62
     7
  0
POLYLINE
  5
13D
  8
0
  6
CONTINUOUS
 62
     7
 66
     1
 10
0.0
 20
0.0
 30
0.0
 70
   128
  0
VERTEX
  5
630
  8
0
  6
CONTINUOUS
 62
     7
 10
118.1441198888
 20
226.5995021817
 30
0.0
  0
VERTEX
  5
631
  8
0
  6
CONTINUOUS
 62
     7
 10
117.9127625974
 20
226.5973005351
 30
0.0
  0
VERTEX
  5
632
  8
0
  6
CONTINUOUS
 62
     7
 10
117.7313409599
 20
226.5866760072
 30
0.0
  0
SEQEND
  5
84C
  8
0
  6
CONTINUOUS
 62
     7
  0
LINE
  5
13E
  8
0
  6
CONTINUOUS
 62
     7
 10
118.5096751752
 20
226.5948381183
 30
0.0
 11
118.1441198888
 21
226.5995021817
 31
0.0
  0
LINE
  5
13F
  8
0
  6
CONTINUOUS
 62
     7
 10
119.053634614
 20
226.6076652241
 30
0.0
 11
118.5096751752
 21
226.5948381183
 31
0.0
  0
LINE
  5
140
  8
0
  6
CONTINUOUS
 62
     7
 10
119.2116334888
 20
226.6035841686
 30
0.0
 11
119.053634614
 21
226.6076652241
 31
0.0
  0
LINE
  5
141
  8
0
  6
CONTINUOUS
 62
     7
 10
119.5754397514
 20
226.6035841686
 30
0.0
 11
119.2116334888
 21
226.6035841686
 31
0.0
  0
LINE
  5
142
  8
0
  6
CONTINUOUS
 62
     7
 10
118.4163920435
 20
227.6139620599
 30
0.0
 11
118.6630099865
 21
227.2932993156
 31
0.0
  0
LINE
  5
143
  8
0
  6
CONTINUOUS
 62
     7
 10
117.9919510933
 20
228.1439293084
 30
0.0
 11
118.4163920435
 21
227.6139620599
 31
0.0
  0
POLYLINE
  5
144
  8
0
  6
CONTINUOUS
 62
     7
 66
     1
 10
0.0
 20
0.0
 30
0.0
 70
   128
  0
VERTEX
  5
633
  8
0
  6
CONTINUOUS
 62
     7
 10
117.8094658854
 20
228.3893812355
 30
0.0
  0
VERTEX
  5
634
  8
0
  6
CONTINUOUS
 62
     7
 10
117.9067574295
 20
228.2482784149
 30
0.0
  0
VERTEX
  5
635
  8
0
  6
CONTINUOUS
 62
     7
 10
117.9919510933
 20
228.1439293084
 30
0.0
  0
SEQEND
  5
84D
  8
0
  6
CONTINUOUS
 62
     7
  0
POLYLINE
  5
145
  8
0
  6
CONTINUOUS
 62
     7
 66
     1
 10
0.0
 20
0.0
 30
0.0
 70
   128
  0
VERTEX
  5
636
  8
0
  6
CONTINUOUS
 62
     7
 10
117.6724552962
 20
228.6266710517
 30
0.0
  0
VERTEX
  5
637
  8
0
  6
CONTINUOUS
 62
     7
 10
117.7463576051
 20
228.4921890032
 30
0.0
  0
VERTEX
  5
638
  8
0
  6
CONTINUOUS
 62
     7
 10
117.8094658854
 20
228.3893812355
 30
0.0
  0
SEQEND
  5
84E
  8
0
  6
CONTINUOUS
 62
     7
  0
POLYLINE
  5
146
  8
0
  6
CONTINUOUS
 62
     7
 66
     1
 10
0.0
 20
0.0
 30
0.0
 70
   128
  0
VERTEX
  5
639
  8
0
  6
CONTINUOUS
 62
     7
 10
117.6042415055
 20
228.9461677802
 30
0.0
  0
VERTEX
  5
63A
  8
0
  6
CONTINUOUS
 62
     7
 10
117.6330659392
 20
228.7651112211
 30
0.0
  0
VERTEX
  5
63B
  8
0
  6
CONTINUOUS
 62
     7
 10
117.6724552962
 20
228.6266710517
 30
0.0
  0
SEQEND
  5
84F
  8
0
  6
CONTINUOUS
 62
     7
  0
LINE
  5
147
  8
0
  6
CONTINUOUS
 62
     7
 10
117.5296146276
 20
229.0037579742
 30
0.0
 11
117.6042415055
 21
228.9461677802
 31
0.0
  0
LINE
  5
148
  8
0
  6
CONTINUOUS
 62
     7
 10
117.5296146276
 20
228.0354870391
 30
0.0
 11
117.5296146276
 21
229.0037579742
 31
0.0
  0
LINE
  5
149
  8
0
  6
CONTINUOUS
 62
     7
 10
117.543606818
 20
227.9608601612
 30
0.0
 11
117.5296146276
 21
228.0354870391
 31
0.0
  0
POLYLINE
  5
14A
  8
0
  6
CONTINUOUS
 62
     7
 66
     1
 10
0.0
 20
0.0
 30
0.0
 70
   128
  0
VERTEX
  5
63C
  8
0
  6
CONTINUOUS
 62
     7
 10
117.569259167
 20
227.9468670395
 30
0.0
  0
VERTEX
  5
63D
  8
0
  6
CONTINUOUS
 62
     7
 10
117.553070918
 20
227.9513411132
 30
0.0
  0
VERTEX
  5
63E
  8
0
  6
CONTINUOUS
 62
     7
 10
117.543606818
 20
227.9608601612
 30
0.0
  0
SEQEND
  5
850
  8
0
  6
CONTINUOUS
 62
     7
  0
LINE
  5
14B
  8
0
  6
CONTINUOUS
 62
     7
 10
117.6648761931
 20
228.3124223259
 30
0.0
 11
117.569259167
 21
227.9468670395
 31
0.0
  0
POLYLINE
  5
14C
  8
0
  6
CONTINUOUS
 62
     7
 66
     1
 10
0.0
 20
0.0
 30
0.0
 70
   128
  0
VERTEX
  5
63F
  8
0
  6
CONTINUOUS
 62
     7
 10
117.7132658514
 20
228.2844370139
 30
0.0
  0
VERTEX
  5
640
  8
0
  6
CONTINUOUS
 62
     7
 10
117.6872279348
 20
228.3019542602
 30
0.0
  0
VERTEX
  5
641
  8
0
  6
CONTINUOUS
 62
     7
 10
117.6648761931
 20
228.3124223259
 30
0.0
  0
SEQEND
  5
851
  8
0
  6
CONTINUOUS
 62
     7
  0
POLYLINE
  5
14D
  8
0
  6
CONTINUOUS
 62
     7
 66
     1
 10
0.0
 20
0.0
 30
0.0
 70
   128
  0
VERTEX
  5
642
  8
0
  6
CONTINUOUS
 62
     7
 10
118.0059432837
 20
227.9719373119
 30
0.0
  0
VERTEX
  5
643
  8
0
  6
CONTINUOUS
 62
     7
 10
117.8477059903
 20
228.1523326319
 30
0.0
  0
VERTEX
  5
644
  8
0
  6
CONTINUOUS
 62
     7
 10
117.7132658514
 20
228.2844370139
 30
0.0
  0
SEQEND
  5
852
  8
0
  6
CONTINUOUS
 62
     7
  0
LINE
  5
14E
  8
0
  6
CONTINUOUS
 62
     7
 10
118.4525385352
 20
227.4343909603
 30
0.0
 11
118.0059432837
 21
227.9719373119
 31
0.0
  0
POLYLINE
  5
14F
  8
0
  6
CONTINUOUS
 62
     7
 66
     1
 10
0.0
 20
0.0
 30
0.0
 70
   128
  0
VERTEX
  5
645
  8
0
  6
CONTINUOUS
 62
     7
 10
118.7236446741
 20
227.0554264915
 30
0.0
  0
VERTEX
  5
646
  8
0
  6
CONTINUOUS
 62
     7
 10
118.5749795141
 20
227.2698877287
 30
0.0
  0
VERTEX
  5
647
  8
0
  6
CONTINUOUS
 62
     7
 10
118.4525385352
 20
227.4343909603
 30
0.0
  0
SEQEND
  5
853
  8
0
  6
CONTINUOUS
 62
     7
  0
POLYLINE
  5
150
  8
0
  6
CONTINUOUS
 62
     7
 66
     1
 10
0.0
 20
0.0
 30
0.0
 70
   128
  0
VERTEX
  5
648
  8
0
  6
CONTINUOUS
 62
     7
 10
118.7796152982
 20
226.9767185581
 30
0.0
  0
VERTEX
  5
649
  8
0
  6
CONTINUOUS
 62
     7
 10
118.7466874572
 20
227.0196534601
 30
0.0
  0
VERTEX
  5
64A
  8
0
  6
CONTINUOUS
 62
     7
 10
118.7236446741
 20
227.0554264915
 30
0.0
  0
SEQEND
  5
854
  8
0
  6
CONTINUOUS
 62
     7
  0
POLYLINE
  5
151
  8
0
  6
CONTINUOUS
 62
     7
 66
     1
 10
0.0
 20
0.0
 30
0.0
 70
   128
  0
VERTEX
  5
64B
  8
0
  6
CONTINUOUS
 62
     7
 10
119.167324886
 20
227.4833645579
 30
0.0
  0
VERTEX
  5
64C
  8
0
  6
CONTINUOUS
 62
     7
 10
118.9462028297
 20
227.2027086374
 30
0.0
  0
VERTEX
  5
64D
  8
0
  6
CONTINUOUS
 62
     7
 10
118.7796152982
 20
226.9767185581
 30
0.0
  0
SEQEND
  5
855
  8
0
  6
CONTINUOUS
 62
     7
  0
LINE
  5
152
  8
0
  6
CONTINUOUS
 62
     7
 10
119.4669984134
 20
227.8489198443
 30
0.0
 11
119.167324886
 21
227.4833645579
 31
0.0
  0
LINE
  5
153
  8
0
  6
CONTINUOUS
 62
     7
 10
119.6518156531
 20
228.0862096605
 30
0.0
 11
119.4669984134
 21
227.8489198443
 31
0.0
  0
POLYLINE
  5
154
  8
0
  6
CONTINUOUS
 62
     7
 66
     1
 10
0.0
 20
0.0
 30
0.0
 70
   128
  0
VERTEX
  5
64E
  8
0
  6
CONTINUOUS
 62
     7
 10
119.8465458902
 20
228.3019281831
 30
0.0
  0
VERTEX
  5
64F
  8
0
  6
CONTINUOUS
 62
     7
 10
119.7353944036
 20
228.1830271614
 30
0.0
  0
VERTEX
  5
650
  8
0
  6
CONTINUOUS
 62
     7
 10
119.6518156531
 20
228.0862096605
 30
0.0
  0
SEQEND
  5
856
  8
0
  6
CONTINUOUS
 62
     7
  0
POLYLINE
  5
155
  8
0
  6
CONTINUOUS
 62
     7
 66
     1
 10
0.0
 20
0.0
 30
0.0
 70
   128
  0
VERTEX
  5
651
  8
0
  6
CONTINUOUS
 62
     7
 10
119.9083465936
 20
228.3666439262
 30
0.0
  0
VERTEX
  5
652
  8
0
  6
CONTINUOUS
 62
     7
 10
119.8719523701
 20
228.3321337682
 30
0.0
  0
VERTEX
  5
653
  8
0
  6
CONTINUOUS
 62
     7
 10
119.8465458902
 20
228.3019281831
 30
0.0
  0
SEQEND
  5
857
  8
0
  6
CONTINUOUS
 62
     7
  0
POLYLINE
  5
156
  8
0
  6
CONTINUOUS
 62
     7
 66
     1
 10
0.0
 20
0.0
 30
0.0
 70
   128
  0
VERTEX
  5
654
  8
0
  6
CONTINUOUS
 62
     7
 10
119.9118446412
 20
228.31125631
 30
0.0
  0
VERTEX
  5
655
  8
0
  6
CONTINUOUS
 62
     7
 10
119.9109654727
 20
228.3423401323
 30
0.0
  0
VERTEX
  5
656
  8
0
  6
CONTINUOUS
 62
     7
 10
119.9083465936
 20
228.3666439262
 30
0.0
  0
SEQEND
  5
858
  8
0
  6
CONTINUOUS
 62
     7
  0
POLYLINE
  5
157
  8
0
  6
CONTINUOUS
 62
     7
 66
     1
 10
0.0
 20
0.0
 30
0.0
 70
   128
  0
VERTEX
  5
657
  8
0
  6
CONTINUOUS
 62
     7
 10
119.9380799981
 20
228.0879586843
 30
0.0
  0
VERTEX
  5
658
  8
0
  6
CONTINUOUS
 62
     7
 10
119.9183117452
 20
228.2124048007
 30
0.0
  0
VERTEX
  5
659
  8
0
  6
CONTINUOUS
 62
     7
 10
119.9118446412
 20
228.31125631
 30
0.0
  0
SEQEND
  5
859
  8
0
  6
CONTINUOUS
 62
     7
  0
POLYLINE
  5
158
  8
0
  6
CONTINUOUS
 62
     7
 66
     1
 10
0.0
 20
0.0
 30
0.0
 70
   128
  0
VERTEX
  5
65A
  8
0
  6
CONTINUOUS
 62
     7
 10
119.9765585216
 20
227.9859295023
 30
0.0
  0
VERTEX
  5
65B
  8
0
  6
CONTINUOUS
 62
     7
 10
119.950384632
 20
228.0412500632
 30
0.0
  0
VERTEX
  5
65C
  8
0
  6
CONTINUOUS
 62
     7
 10
119.9380799981
 20
228.0879586843
 30
0.0
  0
SEQEND
  5
85A
  8
0
  6
CONTINUOUS
 62
     7
  0
LINE
  5
159
  8
0
  6
CONTINUOUS
 62
     7
 10
119.9911355826
 20
227.9841804785
 30
0.0
 11
119.9765585216
 21
227.9859295023
 31
0.0
  0
POLYLINE
  5
15A
  8
0
  6
CONTINUOUS
 62
     7
 66
     1
 10
0.0
 20
0.0
 30
0.0
 70
   128
  0
VERTEX
  5
65D
  8
0
  6
CONTINUOUS
 62
     7
 10
120.0296141061
 20
227.9900114891
 30
0.0
  0
VERTEX
  5
65E
  8
0
  6
CONTINUOUS
 62
     7
 10
120.0081694725
 20
227.9860300851
 30
0.0
  0
VERTEX
  5
65F
  8
0
  6
CONTINUOUS
 62
     7
 10
119.9911355826
 20
227.9841804785
 30
0.0
  0
SEQEND
  5
85B
  8
0
  6
CONTINUOUS
 62
     7
  0
LINE
  5
15B
  8
0
  6
CONTINUOUS
 62
     7
 10
120.0296141061
 20
228.8138212544
 30
0.0
 11
120.0296141061
 21
227.9900114891
 31
0.0
  0
POLYLINE
  5
15C
  8
0
  6
CONTINUOUS
 62
     7
 66
     1
 10
0.0
 20
0.0
 30
0.0
 70
   128
  0
VERTEX
  5
660
  8
0
  6
CONTINUOUS
 62
     7
 10
120.0331121537
 20
229.0860934091
 30
0.0
  0
VERTEX
  5
661
  8
0
  6
CONTINUOUS
 62
     7
 10
120.0319573137
 20
228.9336107579
 30
0.0
  0
VERTEX
  5
662
  8
0
  6
CONTINUOUS
 62
     7
 10
120.0296141061
 20
228.8138212544
 30
0.0
  0
SEQEND
  5
85C
  8
0
  6
CONTINUOUS
 62
     7
  0
POLYLINE
  5
15D
  8
0
  6
CONTINUOUS
 62
     7
 66
     1
 10
0.0
 20
0.0
 30
0.0
 70
   128
  0
VERTEX
  5
663
  8
0
  6
CONTINUOUS
 62
     7
 10
120.0296141061
 20
229.1764615011
 30
0.0
  0
VERTEX
  5
664
  8
0
  6
CONTINUOUS
 62
     7
 10
120.0323037657
 20
229.1258795095
 30
0.0
  0
VERTEX
  5
665
  8
0
  6
CONTINUOUS
 62
     7
 10
120.0331121537
 20
229.0860934091
 30
0.0
  0
SEQEND
  5
85D
  8
0
  6
CONTINUOUS
 62
     7
  0
LINE
  5
15E
  8
0
  6
CONTINUOUS
 62
     7
 10
120.0051277729
 20
229.1805425566
 30
0.0
 11
120.0296141061
 21
229.1764615011
 31
0.0
  0
LINE
  5
15F
  8
0
  6
CONTINUOUS
 62
     7
 10
119.9864715191
 20
229.1782105249
 30
0.0
 11
120.0051277729
 21
229.1805425566
 31
0.0
  0
POLYLINE
  5
160
  8
0
  6
CONTINUOUS
 62
     7
 66
     1
 10
0.0
 20
0.0
 30
0.0
 70
   128
  0
VERTEX
  5
666
  8
0
  6
CONTINUOUS
 62
     7
 10
119.9549872282
 20
229.0878424329
 30
0.0
  0
VERTEX
  5
667
  8
0
  6
CONTINUOUS
 62
     7
 10
119.9662543687
 20
229.1408924294
 30
0.0
  0
VERTEX
  5
668
  8
0
  6
CONTINUOUS
 62
     7
 10
119.9864715191
 20
229.1782105249
 30
0.0
  0
SEQEND
  5
85E
  8
0
  6
CONTINUOUS
 62
     7
  0
POLYLINE
  5
161
  8
0
  6
CONTINUOUS
 62
     7
 66
     1
 10
0.0
 20
0.0
 30
0.0
 70
   128
  0
VERTEX
  5
669
  8
0
  6
CONTINUOUS
 62
     7
 10
119.6675568672
 20
228.5409670231
 30
0.0
  0
VERTEX
  5
66A
  8
0
  6
CONTINUOUS
 62
     7
 10
119.8710229101
 20
228.8264546451
 30
0.0
  0
VERTEX
  5
66B
  8
0
  6
CONTINUOUS
 62
     7
 10
119.9549872282
 20
229.0878424329
 30
0.0
  0
SEQEND
  5
85F
  8
0
  6
CONTINUOUS
 62
     7
  0
ARC
  5
162
  8
0
  6
CONTINUOUS
 62
     7
 10
133.5576233919
 20
216.5425532981
 30
0.0
 40
18.35472364197853
 50
139.1791346962
 51
143.8107831665
  0
POLYLINE
  5
163
  8
0
  6
CONTINUOUS
 62
     7
 66
     1
 10
0.0
 20
0.0
 30
0.0
 70
   128
  0
VERTEX
  5
66C
  8
0
  6
CONTINUOUS
 62
     7
 10
118.6898283514
 20
227.31778658
 30
0.0
  0
VERTEX
  5
66D
  8
0
  6
CONTINUOUS
 62
     7
 10
118.7200870218
 20
227.3528061715
 30
0.0
  0
VERTEX
  5
66E
  8
0
  6
CONTINUOUS
 62
     7
 10
118.7440499517
 20
227.38016936
 30
0.0
  0
SEQEND
  5
860
  8
0
  6
CONTINUOUS
 62
     7
  0
POLYLINE
  5
164
  8
0
  6
CONTINUOUS
 62
     7
 66
     1
 10
0.0
 20
0.0
 30
0.0
 70
   128
  0
VERTEX
  5
66F
  8
0
  6
CONTINUOUS
 62
     7
 10
118.6630099865
 20
227.2932993156
 30
0.0
  0
VERTEX
  5
670
  8
0
  6
CONTINUOUS
 62
     7
 10
118.6788741353
 20
227.3060770613
 30
0.0
  0
VERTEX
  5
671
  8
0
  6
CONTINUOUS
 62
     7
 10
118.6898283514
 20
227.31778658
 30
0.0
  0
SEQEND
  5
861
  8
0
  6
CONTINUOUS
 62
     7
  0
POLYLINE
  5
165
  8
0
  6
CONTINUOUS
 62
     7
 66
     1
 10
0.0
 20
0.0
 30
0.0
 70
   128
  0
VERTEX
  5
672
  8
0
  6
CONTINUOUS
 62
     7
 10
119.5206351432
 20
225.7453750727
 30
0.0
  0
VERTEX
  5
673
  8
0
  6
CONTINUOUS
 62
     7
 10
119.339962289
 20
225.7050860581
 30
0.0
  0
VERTEX
  5
674
  8
0
  6
CONTINUOUS
 62
     7
 10
119.2192125919
 20
225.6229396817
 30
0.0
  0
SEQEND
  5
862
  8
0
  6
CONTINUOUS
 62
     7
  0
ARC
  5
166
  8
0
  6
CONTINUOUS
 62
     7
 10
119.48631516
 20
225.2021687898
 30
0.0
 40
0.5442893780189242
 50
356.5429878526
 51
86.3848356613
  0
POLYLINE
  5
167
  8
0
  6
CONTINUOUS
 62
     7
 66
     1
 10
0.0
 20
0.0
 30
0.0
 70
   128
  0
VERTEX
  5
675
  8
0
  6
CONTINUOUS
 62
     7
 10
119.8319706919
 20
224.7058458534
 30
0.0
  0
VERTEX
  5
676
  8
0
  6
CONTINUOUS
 62
     7
 10
119.9891593161
 20
224.9467128795
 30
0.0
  0
VERTEX
  5
677
  8
0
  6
CONTINUOUS
 62
     7
 10
120.0296141061
 20
225.169348335
 30
0.0
  0
SEQEND
  5
863
  8
0
  6
CONTINUOUS
 62
     7
  0
POLYLINE
  5
168
  8
0
  6
CONTINUOUS
 62
     7
 66
     1
 10
0.0
 20
0.0
 30
0.0
 70
   128
  0
VERTEX
  5
678
  8
0
  6
CONTINUOUS
 62
     7
 10
119.3836264166
 20
224.4767181483
 30
0.0
  0
VERTEX
  5
679
  8
0
  6
CONTINUOUS
 62
     7
 10
119.6560531708
 20
224.5641320851
 30
0.0
  0
VERTEX
  5
67A
  8
0
  6
CONTINUOUS
 62
     7
 10
119.8319706919
 20
224.7058458534
 30
0.0
  0
SEQEND
  5
864
  8
0
  6
CONTINUOUS
 62
     7
  0
POLYLINE
  5
169
  8
0
  6
CONTINUOUS
 62
     7
 66
     1
 10
0.0
 20
0.0
 30
0.0
 70
   128
  0
VERTEX
  5
67B
  8
0
  6
CONTINUOUS
 62
     7
 10
119.3206596973
 20
224.4207475242
 30
0.0
  0
VERTEX
  5
67C
  8
0
  6
CONTINUOUS
 62
     7
 10
119.3261694016
 20
224.4464082551
 30
0.0
  0
VERTEX
  5
67D
  8
0
  6
CONTINUOUS
 62
     7
 10
119.3439520749
 20
224.4652209711
 30
0.0
  0
VERTEX
  5
67E
  8
0
  6
CONTINUOUS
 62
     7
 10
119.3836264166
 20
224.4767181483
 30
0.0
  0
SEQEND
  5
865
  8
0
  6
CONTINUOUS
 62
     7
  0
LINE
  5
16A
  8
0
  6
CONTINUOUS
 62
     7
 10
119.3206596973
 20
224.4207475242
 30
0.0
 11
119.3346518877
 21
224.3828510773
 31
0.0
  0
POLYLINE
  5
16B
  8
0
  6
CONTINUOUS
 62
     7
 66
     1
 10
0.0
 20
0.0
 30
0.0
 70
   128
  0
VERTEX
  5
67F
  8
0
  6
CONTINUOUS
 62
     7
 10
119.4471742811
 20
224.3647778314
 30
0.0
  0
VERTEX
  5
680
  8
0
  6
CONTINUOUS
 62
     7
 10
119.3831980082
 20
224.3699904439
 30
0.0
  0
VERTEX
  5
681
  8
0
  6
CONTINUOUS
 62
     7
 10
119.3346518877
 20
224.3828510773
 30
0.0
  0
SEQEND
  5
866
  8
0
  6
CONTINUOUS
 62
     7
  0
POLYLINE
  5
16C
  8
0
  6
CONTINUOUS
 62
     7
 66
     1
 10
0.0
 20
0.0
 30
0.0
 70
   128
  0
VERTEX
  5
682
  8
0
  6
CONTINUOUS
 62
     7
 10
119.8418818268
 20
224.3321284559
 30
0.0
  0
VERTEX
  5
683
  8
0
  6
CONTINUOUS
 62
     7
 10
119.6212515088
 20
224.3556164113
 30
0.0
  0
VERTEX
  5
684
  8
0
  6
CONTINUOUS
 62
     7
 10
119.4471742811
 20
224.3647778314
 30
0.0
  0
SEQEND
  5
867
  8
0
  6
CONTINUOUS
 62
     7
  0
POLYLINE
  5
16D
  8
0
  6
CONTINUOUS
 62
     7
 66
     1
 10
0.0
 20
0.0
 30
0.0
 70
   128
  0
VERTEX
  5
685
  8
0
  6
CONTINUOUS
 62
     7
 10
119.8990166041
 20
224.3274643925
 30
0.0
  0
VERTEX
  5
686
  8
0
  6
CONTINUOUS
 62
     7
 10
119.8669548931
 20
224.3292208669
 30
0.0
  0
VERTEX
  5
687
  8
0
  6
CONTINUOUS
 62
     7
 10
119.8418818268
 20
224.3321284559
 30
0.0
  0
SEQEND
  5
868
  8
0
  6
CONTINUOUS
 62
     7
  0
POLYLINE
  5
16E
  8
0
  6
CONTINUOUS
 62
     7
 66
     1
 10
0.0
 20
0.0
 30
0.0
 70
   128
  0
VERTEX
  5
688
  8
0
  6
CONTINUOUS
 62
     7
 10
120.0325291457
 20
224.533270849
 30
0.0
  0
VERTEX
  5
689
  8
0
  6
CONTINUOUS
 62
     7
 10
119.9899956437
 20
224.4098091406
 30
0.0
  0
VERTEX
  5
68A
  8
0
  6
CONTINUOUS
 62
     7
 10
119.9576396349
 20
224.3533281517
 30
0.0
  0
VERTEX
  5
68B
  8
0
  6
CONTINUOUS
 62
     7
 10
119.9309516552
 20
224.3345834222
 30
0.0
  0
VERTEX
  5
68C
  8
0
  6
CONTINUOUS
 62
     7
 10
119.8990166041
 20
224.3274643925
 30
0.0
  0
SEQEND
  5
869
  8
0
  6
CONTINUOUS
 62
     7
  0
POLYLINE
  5
16F
  8
0
  6
CONTINUOUS
 62
     7
 66
     1
 10
0.0
 20
0.0
 30
0.0
 70
   128
  0
VERTEX
  5
68D
  8
0
  6
CONTINUOUS
 62
     7
 10
120.104240984
 20
225.041666804
 30
0.0
  0
VERTEX
  5
68E
  8
0
  6
CONTINUOUS
 62
     7
 10
120.0820904079
 20
224.7542830092
 30
0.0
  0
VERTEX
  5
68F
  8
0
  6
CONTINUOUS
 62
     7
 10
120.0325291457
 20
224.533270849
 30
0.0
  0
SEQEND
  5
86A
  8
0
  6
CONTINUOUS
 62
     7
  0
ARC
  5
170
  8
0
  6
CONTINUOUS
 62
     7
 10
119.3274660912
 20
225.1488234883
 30
0.0
 40
0.7841312319888081
 50
352.1455777926
 51
87.0880937006
  0
ARC
  5
171
  8
0
  6
CONTINUOUS
 62
     7
 10
119.4760546214
 20
225.0236610073
 30
0.0
 40
0.9147690107483396
 50
96.8278817705
 51
167.4518369684
  0
POLYLINE
  5
172
  8
0
  6
CONTINUOUS
 62
     7
 66
     1
 10
0.0
 20
0.0
 30
0.0
 70
   128
  0
VERTEX
  5
690
  8
0
  6
CONTINUOUS
 62
     7
 10
118.2519800814
 20
224.6609533113
 30
0.0
  0
VERTEX
  5
691
  8
0
  6
CONTINUOUS
 62
     7
 10
118.4543527516
 20
224.9649528322
 30
0.0
  0
VERTEX
  5
692
  8
0
  6
CONTINUOUS
 62
     7
 10
118.5831360372
 20
225.2224039194
 30
0.0
  0
SEQEND
  5
86B
  8
0
  6
CONTINUOUS
 62
     7
  0
POLYLINE
  5
173
  8
0
  6
CONTINUOUS
 62
     7
 66
     1
 10
0.0
 20
0.0
 30
0.0
 70
   128
  0
VERTEX
  5
693
  8
0
  6
CONTINUOUS
 62
     7
 10
117.9931171092
 20
224.5513450262
 30
0.0
  0
VERTEX
  5
694
  8
0
  6
CONTINUOUS
 62
     7
 10
118.1488361063
 20
224.5881052595
 30
0.0
  0
VERTEX
  5
695
  8
0
  6
CONTINUOUS
 62
     7
 10
118.2519800814
 20
224.6609533113
 30
0.0
  0
SEQEND
  5
86C
  8
0
  6
CONTINUOUS
 62
     7
  0
ARC
  5
174
  8
0
  6
CONTINUOUS
 62
     7
 10
118.0174384073
 20
225.0398624571
 30
0.0
 40
0.4891224854906707
 50
175.8238091055
 51
267.149829213
  0
ARC
  5
175
  8
0
  6
CONTINUOUS
 62
     7
 10
118.1366074309
 20
225.0655184937
 30
0.0
 40
0.6070745741305934
 50
94.4679663737
 51
179.0595822815
  0
LINE
  5
176
  8
0
  6
CONTINUOUS
 62
     7
 10
118.0933963361
 20
225.7109766734
 30
0.0
 11
118.0893152806
 21
225.6707481948
 31
0.0
  0
POLYLINE
  5
177
  8
0
  6
CONTINUOUS
 62
     7
 66
     1
 10
0.0
 20
0.0
 30
0.0
 70
   128
  0
VERTEX
  5
696
  8
0
  6
CONTINUOUS
 62
     7
 10
118.085234225
 20
225.7780244482
 30
0.0
  0
VERTEX
  5
697
  8
0
  6
CONTINUOUS
 62
     7
 10
118.0917125049
 20
225.7406979707
 30
0.0
  0
VERTEX
  5
698
  8
0
  6
CONTINUOUS
 62
     7
 10
118.0933963361
 20
225.7109766734
 30
0.0
  0
SEQEND
  5
86D
  8
0
  6
CONTINUOUS
 62
     7
  0
POLYLINE
  5
178
  8
0
  6
CONTINUOUS
 62
     7
 66
     1
 10
0.0
 20
0.0
 30
0.0
 70
   128
  0
VERTEX
  5
699
  8
0
  6
CONTINUOUS
 62
     7
 10
117.9418105485
 20
225.7908506227
 30
0.0
  0
VERTEX
  5
69A
  8
0
  6
CONTINUOUS
 62
     7
 10
118.0224258306
 20
225.7865367365
 30
0.0
  0
VERTEX
  5
69B
  8
0
  6
CONTINUOUS
 62
     7
 10
118.085234225
 20
225.7780244482
 30
0.0
  0
SEQEND
  5
86E
  8
0
  6
CONTINUOUS
 62
     7
  0
LINE
  5
179
  8
0
  6
CONTINUOUS
 62
     7
 10
117.7663214358
 20
225.7984297258
 30
0.0
 11
117.9418105485
 21
225.7908506227
 31
0.0
  0
POLYLINE
  5
17A
  8
0
  6
CONTINUOUS
 62
     7
 66
     1
 10
0.0
 20
0.0
 30
0.0
 70
   128
  0
VERTEX
  5
69C
  8
0
  6
CONTINUOUS
 62
     7
 10
117.6164846721
 20
225.7826885116
 30
0.0
  0
VERTEX
  5
69D
  8
0
  6
CONTINUOUS
 62
     7
 10
117.7003018411
 20
225.7924059314
 30
0.0
  0
VERTEX
  5
69E
  8
0
  6
CONTINUOUS
 62
     7
 10
117.7663214358
 20
225.7984297258
 30
0.0
  0
SEQEND
  5
86F
  8
0
  6
CONTINUOUS
 62
     7
  0
POLYLINE
  5
17B
  8
0
  6
CONTINUOUS
 62
     7
 66
     1
 10
0.0
 20
0.0
 30
0.0
 70
   128
  0
VERTEX
  5
69F
  8
0
  6
CONTINUOUS
 62
     7
 10
117.500464231
 20
225.5553098303
 30
0.0
  0
VERTEX
  5
6A0
  8
0
  6
CONTINUOUS
 62
     7
 10
117.5571929517
 20
225.6868731138
 30
0.0
  0
VERTEX
  5
6A1
  8
0
  6
CONTINUOUS
 62
     7
 10
117.6164846721
 20
225.7826885116
 30
0.0
  0
SEQEND
  5
870
  8
0
  6
CONTINUOUS
 62
     7
  0
POLYLINE
  5
17C
  8
0
  6
CONTINUOUS
 62
     7
 66
     1
 10
0.0
 20
0.0
 30
0.0
 70
   128
  0
VERTEX
  5
6A2
  8
0
  6
CONTINUOUS
 62
     7
 10
117.4549877497
 20
225.1944186074
 30
0.0
  0
VERTEX
  5
6A3
  8
0
  6
CONTINUOUS
 62
     7
 10
117.4678027483
 20
225.3982487974
 30
0.0
  0
VERTEX
  5
6A4
  8
0
  6
CONTINUOUS
 62
     7
 10
117.500464231
 20
225.5553098303
 30
0.0
  0
SEQEND
  5
871
  8
0
  6
CONTINUOUS
 62
     7
  0
POLYLINE
  5
17D
  8
0
  6
CONTINUOUS
 62
     7
 66
     1
 10
0.0
 20
0.0
 30
0.0
 70
   128
  0
VERTEX
  5
6A5
  8
0
  6
CONTINUOUS
 62
     7
 10
118.1068073812
 20
224.3647778314
 30
0.0
  0
VERTEX
  5
6A6
  8
0
  6
CONTINUOUS
 62
     7
 10
117.7941996458
 20
224.4554653671
 30
0.0
  0
VERTEX
  5
6A7
  8
0
  6
CONTINUOUS
 62
     7
 10
117.5713248404
 20
224.6949437913
 30
0.0
  0
VERTEX
  5
6A8
  8
0
  6
CONTINUOUS
 62
     7
 10
117.4549877497
 20
225.1944186074
 30
0.0
  0
SEQEND
  5
872
  8
0
  6
CONTINUOUS
 62
     7
  0
POLYLINE
  5
17E
  8
0
  6
CONTINUOUS
 62
     7
 66
     1
 10
0.0
 20
0.0
 30
0.0
 70
   128
  0
VERTEX
  5
6A9
  8
0
  6
CONTINUOUS
 62
     7
 10
118.372081578
 20
224.4236634952
 30
0.0
  0
VERTEX
  5
6AA
  8
0
  6
CONTINUOUS
 62
     7
 10
118.2269014272
 20
224.374919003
 30
0.0
  0
VERTEX
  5
6AB
  8
0
  6
CONTINUOUS
 62
     7
 10
118.1068073812
 20
224.3647778314
 30
0.0
  0
SEQEND
  5
873
  8
0
  6
CONTINUOUS
 62
     7
  0
POLYLINE
  5
17F
  8
0
  6
CONTINUOUS
 62
     7
 66
     1
 10
0.0
 20
0.0
 30
0.0
 70
   128
  0
VERTEX
  5
6AC
  8
0
  6
CONTINUOUS
 62
     7
 10
118.65076682
 20
224.6615363193
 30
0.0
  0
VERTEX
  5
6AD
  8
0
  6
CONTINUOUS
 62
     7
 10
118.5059983137
 20
224.5147738513
 30
0.0
  0
VERTEX
  5
6AE
  8
0
  6
CONTINUOUS
 62
     7
 10
118.372081578
 20
224.4236634952
 30
0.0
  0
SEQEND
  5
874
  8
0
  6
CONTINUOUS
 62
     7
  0
ARC
  5
180
  8
0
  6
CONTINUOUS
 62
     7
 10
125.1311000983
 20
221.4786843948
 30
0.0
 40
7.219782944915333
 50
144.9694004164
 51
153.8417791029
  0
ARC
  5
181
  8
0
  6
CONTINUOUS
 62
     7
 10
118.7862963638
 20
230.5962418169
 30
0.0
 40
1.323825837933448
 50
295.9203267534
 51
5.4027733528
  0
POLYLINE
  5
182
  8
0
  6
CONTINUOUS
 62
     7
 66
     1
 10
0.0
 20
0.0
 30
0.0
 70
   128
  0
VERTEX
  5
6AF
  8
0
  6
CONTINUOUS
 62
     7
 10
120.0576003494
 20
231.2193715853
 30
0.0
  0
VERTEX
  5
6B0
  8
0
  6
CONTINUOUS
 62
     7
 10
120.0947899225
 20
230.941202296
 30
0.0
  0
VERTEX
  5
6B1
  8
0
  6
CONTINUOUS
 62
     7
 10
120.104240984
 20
230.7208886278
 30
0.0
  0
SEQEND
  5
875
  8
0
  6
CONTINUOUS
 62
     7
  0
POLYLINE
  5
183
  8
0
  6
CONTINUOUS
 62
     7
 66
     1
 10
0.0
 20
0.0
 30
0.0
 70
   128
  0
VERTEX
  5
6B2
  8
0
  6
CONTINUOUS
 62
     7
 10
120.0576003494
 20
231.2193715853
 30
0.0
  0
VERTEX
  5
6B3
  8
0
  6
CONTINUOUS
 62
     7
 10
120.0122076871
 20
231.3946334553
 30
0.0
  0
VERTEX
  5
6B4
  8
0
  6
CONTINUOUS
 62
     7
 10
119.9619833233
 20
231.5277902317
 30
0.0
  0
SEQEND
  5
876
  8
0
  6
CONTINUOUS
 62
     7
  0
ARC
  5
184
  8
0
  6
CONTINUOUS
 62
     7
 10
119.6845836074
 20
231.4740263374
 30
0.0
 40
0.2825617785774798
 50
10.9687201103
 51
66.4299978711
  0
POLYLINE
  5
185
  8
0
  6
CONTINUOUS
 62
     7
 66
     1
 10
0.0
 20
0.0
 30
0.0
 70
   128
  0
VERTEX
  5
6B5
  8
0
  6
CONTINUOUS
 62
     7
 10
119.4477572891
 20
231.755168913
 30
0.0
  0
VERTEX
  5
6B6
  8
0
  6
CONTINUOUS
 62
     7
 10
119.6444023254
 20
231.7514939141
 30
0.0
  0
VERTEX
  5
6B7
  8
0
  6
CONTINUOUS
 62
     7
 10
119.7975713613
 20
231.7330146116
 30
0.0
  0
SEQEND
  5
877
  8
0
  6
CONTINUOUS
 62
     7
  0
LINE
  5
186
  8
0
  6
CONTINUOUS
 62
     7
 10
119.4477572891
 20
231.755168913
 30
0.0
 11
119.1819000843
 21
231.7528368813
 31
0.0
  0
POLYLINE
  5
187
  8
0
  6
CONTINUOUS
 62
     7
 66
     1
 10
0.0
 20
0.0
 30
0.0
 70
   128
  0
VERTEX
  5
6B8
  8
0
  6
CONTINUOUS
 62
     7
 10
119.0297312888
 20
231.7714949977
 30
0.0
  0
VERTEX
  5
6B9
  8
0
  6
CONTINUOUS
 62
     7
 10
119.1139172616
 20
231.754533751
 30
0.0
  0
VERTEX
  5
6BA
  8
0
  6
CONTINUOUS
 62
     7
 10
119.1819000843
 20
231.7528368813
 30
0.0
  0
SEQEND
  5
878
  8
0
  6
CONTINUOUS
 62
     7
  0
POLYLINE
  5
188
  8
0
  6
CONTINUOUS
 62
     7
 66
     1
 10
0.0
 20
0.0
 30
0.0
 70
   128
  0
VERTEX
  5
6BB
  8
0
  6
CONTINUOUS
 62
     7
 10
118.9825057837
 20
231.8717742246
 30
0.0
  0
VERTEX
  5
6BC
  8
0
  6
CONTINUOUS
 62
     7
 10
118.9972188177
 20
231.8098058832
 30
0.0
  0
VERTEX
  5
6BD
  8
0
  6
CONTINUOUS
 62
     7
 10
119.0297312888
 20
231.7714949977
 30
0.0
  0
SEQEND
  5
879
  8
0
  6
CONTINUOUS
 62
     7
  0
LINE
  5
189
  8
0
  6
CONTINUOUS
 62
     7
 10
118.9825057837
 20
231.8717742246
 30
0.0
 11
118.9848378154
 21
231.9942096156
 31
0.0
  0
POLYLINE
  5
18A
  8
0
  6
CONTINUOUS
 62
     7
 66
     1
 10
0.0
 20
0.0
 30
0.0
 70
   128
  0
VERTEX
  5
6BE
  8
0
  6
CONTINUOUS
 62
     7
 10
118.9725946488
 20
232.1166431439
 30
0.0
  0
VERTEX
  5
6BF
  8
0
  6
CONTINUOUS
 62
     7
 10
118.9817476871
 20
232.0482877922
 30
0.0
  0
VERTEX
  5
6C0
  8
0
  6
CONTINUOUS
 62
     7
 10
118.9848378154
 20
231.9942096156
 30
0.0
  0
SEQEND
  5
87A
  8
0
  6
CONTINUOUS
 62
     7
  0
POLYLINE
  5
18B
  8
0
  6
CONTINUOUS
 62
     7
 66
     1
 10
0.0
 20
0.0
 30
0.0
 70
   128
  0
VERTEX
  5
6C1
  8
0
  6
CONTINUOUS
 62
     7
 10
118.9725946488
 20
232.1166431439
 30
0.0
  0
VERTEX
  5
6C2
  8
0
  6
CONTINUOUS
 62
     7
 10
118.9511164876
 20
232.12361875
 30
0.0
  0
VERTEX
  5
6C3
  8
0
  6
CONTINUOUS
 62
     7
 10
118.9335331174
 20
232.1259712708
 30
0.0
  0
SEQEND
  5
87B
  8
0
  6
CONTINUOUS
 62
     7
  0
POLYLINE
  5
18C
  8
0
  6
CONTINUOUS
 62
     7
 66
     1
 10
0.0
 20
0.0
 30
0.0
 70
   128
  0
VERTEX
  5
6C4
  8
0
  6
CONTINUOUS
 62
     7
 10
118.9335331174
 20
232.1259712708
 30
0.0
  0
VERTEX
  5
6C5
  8
0
  6
CONTINUOUS
 62
     7
 10
118.9279153796
 20
232.1252131742
 30
0.0
  0
VERTEX
  5
6C6
  8
0
  6
CONTINUOUS
 62
     7
 10
118.9227949681
 20
232.1227600706
 30
0.0
  0
VERTEX
  5
6C7
  8
0
  6
CONTINUOUS
 62
     7
 10
118.9196415099
 20
232.1181239468
 30
0.0
  0
VERTEX
  5
6C8
  8
0
  6
CONTINUOUS
 62
     7
 10
118.9172070327
 20
232.1049829853
 30
0.0
  0
SEQEND
  5
87C
  8
0
  6
CONTINUOUS
 62
     7
  0
POLYLINE
  5
18D
  8
0
  6
CONTINUOUS
 62
     7
 66
     1
 10
0.0
 20
0.0
 30
0.0
 70
   128
  0
VERTEX
  5
6C9
  8
0
  6
CONTINUOUS
 62
     7
 10
118.914291993
 20
231.9825475943
 30
0.0
  0
VERTEX
  5
6CA
  8
0
  6
CONTINUOUS
 62
     7
 10
118.9151935133
 20
232.0511283261
 30
0.0
  0
VERTEX
  5
6CB
  8
0
  6
CONTINUOUS
 62
     7
 10
118.9172070327
 20
232.1049829853
 30
0.0
  0
SEQEND
  5
87D
  8
0
  6
CONTINUOUS
 62
     7
  0
LINE
  5
18E
  8
0
  6
CONTINUOUS
 62
     7
 10
118.914291993
 20
231.9825475943
 30
0.0
 11
118.9154580089
 21
231.8064754736
 31
0.0
  0
LINE
  5
18F
  8
0
  6
CONTINUOUS
 62
     7
 10
118.9154580089
 20
231.8064754736
 30
0.0
 11
118.9102109375
 21
231.6123282445
 31
0.0
  0
POLYLINE
  5
190
  8
0
  6
CONTINUOUS
 62
     7
 66
     1
 10
0.0
 20
0.0
 30
0.0
 70
   128
  0
VERTEX
  5
6CC
  8
0
  6
CONTINUOUS
 62
     7
 10
118.9102109375
 20
231.6123282445
 30
0.0
  0
VERTEX
  5
6CD
  8
0
  6
CONTINUOUS
 62
     7
 10
118.9080148789
 20
231.4778154624
 30
0.0
  0
VERTEX
  5
6CE
  8
0
  6
CONTINUOUS
 62
     7
 10
118.9067128899
 20
231.3721233887
 30
0.0
  0
SEQEND
  5
87E
  8
0
  6
CONTINUOUS
 62
     7
  0
POLYLINE
  5
191
  8
0
  6
CONTINUOUS
 62
     7
 66
     1
 10
0.0
 20
0.0
 30
0.0
 70
   128
  0
VERTEX
  5
6CF
  8
0
  6
CONTINUOUS
 62
     7
 10
118.9201220723
 20
230.9453522694
 30
0.0
  0
VERTEX
  5
6D0
  8
0
  6
CONTINUOUS
 62
     7
 10
118.9078863564
 20
231.1841713172
 30
0.0
  0
VERTEX
  5
6D1
  8
0
  6
CONTINUOUS
 62
     7
 10
118.9067128899
 20
231.3721233887
 30
0.0
  0
SEQEND
  5
87F
  8
0
  6
CONTINUOUS
 62
     7
  0
POLYLINE
  5
192
  8
0
  6
CONTINUOUS
 62
     7
 66
     1
 10
0.0
 20
0.0
 30
0.0
 70
   128
  0
VERTEX
  5
6D2
  8
0
  6
CONTINUOUS
 62
     7
 10
118.9411122205
 20
230.9319412243
 30
0.0
  0
VERTEX
  5
6D3
  8
0
  6
CONTINUOUS
 62
     7
 10
118.9283158484
 20
230.937680034
 30
0.0
  0
VERTEX
  5
6D4
  8
0
  6
CONTINUOUS
 62
     7
 10
118.9201220723
 20
230.9453522694
 30
0.0
  0
SEQEND
  5
880
  8
0
  6
CONTINUOUS
 62
     7
  0
LINE
  5
193
  8
0
  6
CONTINUOUS
 62
     7
 10
118.9411122205
 20
230.9319412243
 30
0.0
 11
118.9813397678
 21
230.9616764915
 31
0.0
  0
ARC
  5
194
  8
0
  6
CONTINUOUS
 62
     7
 10
121.1947679877
 20
230.6017066562
 30
0.0
 40
2.242507691633494
 50
169.9620597528
 51
170.7628640213
  0
LINE
  5
195
  8
0
  6
CONTINUOUS
 62
     7
 10
118.9865868392
 20
230.9925759119
 30
0.0
 11
118.9848378154
 21
231.0456314963
 31
0.0
  0
LINE
  5
196
  8
0
  6
CONTINUOUS
 62
     7
 10
118.9848378154
 20
231.0456314963
 30
0.0
 11
118.9912509027
 21
231.1243394297
 31
0.0
  0
POLYLINE
  5
197
  8
0
  6
CONTINUOUS
 62
     7
 66
     1
 10
0.0
 20
0.0
 30
0.0
 70
   128
  0
VERTEX
  5
6D5
  8
0
  6
CONTINUOUS
 62
     7
 10
119.4815736117
 20
231.4543293697
 30
0.0
  0
VERTEX
  5
6D6
  8
0
  6
CONTINUOUS
 62
     7
 10
119.123027459
 20
231.4305955452
 30
0.0
  0
VERTEX
  5
6D7
  8
0
  6
CONTINUOUS
 62
     7
 10
119.0803412201
 20
231.416439442
 30
0.0
  0
VERTEX
  5
6D8
  8
0
  6
CONTINUOUS
 62
     7
 10
119.0475884678
 20
231.3863744867
 30
0.0
  0
VERTEX
  5
6D9
  8
0
  6
CONTINUOUS
 62
     7
 10
119.015893698
 20
231.3024772239
 30
0.0
  0
VERTEX
  5
6DA
  8
0
  6
CONTINUOUS
 62
     7
 10
118.9912509027
 20
231.1243394297
 30
0.0
  0
SEQEND
  5
881
  8
0
  6
CONTINUOUS
 62
     7
  0
POLYLINE
  5
198
  8
0
  6
CONTINUOUS
 62
     7
 66
     1
 10
0.0
 20
0.0
 30
0.0
 70
   128
  0
VERTEX
  5
6DB
  8
0
  6
CONTINUOUS
 62
     7
 10
120.0296141061
 20
230.8374920768
 30
0.0
  0
VERTEX
  5
6DC
  8
0
  6
CONTINUOUS
 62
     7
 10
119.9942238482
 20
231.1062512827
 30
0.0
  0
VERTEX
  5
6DD
  8
0
  6
CONTINUOUS
 62
     7
 10
119.8807179781
 20
231.3497474325
 30
0.0
  0
VERTEX
  5
6DE
  8
0
  6
CONTINUOUS
 62
     7
 10
119.6946248266
 20
231.4437309188
 30
0.0
  0
VERTEX
  5
6DF
  8
0
  6
CONTINUOUS
 62
     7
 10
119.4815736117
 20
231.4543293697
 30
0.0
  0
SEQEND
  5
882
  8
0
  6
CONTINUOUS
 62
     7
  0
POLYLINE
  5
199
  8
0
  6
CONTINUOUS
 62
     7
 66
     1
 10
0.0
 20
0.0
 30
0.0
 70
   128
  0
VERTEX
  5
6E0
  8
0
  6
CONTINUOUS
 62
     7
 10
120.0074598047
 20
230.5558917952
 30
0.0
  0
VERTEX
  5
6E1
  8
0
  6
CONTINUOUS
 62
     7
 10
120.026911408
 20
230.7130115014
 30
0.0
  0
VERTEX
  5
6E2
  8
0
  6
CONTINUOUS
 62
     7
 10
120.0296141061
 20
230.8374920768
 30
0.0
  0
SEQEND
  5
883
  8
0
  6
CONTINUOUS
 62
     7
  0
POLYLINE
  5
19A
  8
0
  6
CONTINUOUS
 62
     7
 66
     1
 10
0.0
 20
0.0
 30
0.0
 70
   128
  0
VERTEX
  5
6E3
  8
0
  6
CONTINUOUS
 62
     7
 10
119.882692382
 20
230.2684632969
 30
0.0
  0
VERTEX
  5
6E4
  8
0
  6
CONTINUOUS
 62
     7
 10
119.9652429524
 20
230.4239904416
 30
0.0
  0
VERTEX
  5
6E5
  8
0
  6
CONTINUOUS
 62
     7
 10
120.0074598047
 20
230.5558917952
 30
0.0
  0
SEQEND
  5
884
  8
0
  6
CONTINUOUS
 62
     7
  0
ARC
  5
19B
  8
0
  6
CONTINUOUS
 62
     7
 10
118.7825344128
 20
230.9658286772
 30
0.0
 40
1.302561334728343
 50
269.6920000224
 51
327.6303094149
  0
ARC
  5
19C
  8
0
  6
CONTINUOUS
 62
     7
 10
118.7123991004
 20
230.8892695414
 30
0.0
 40
1.227607859278136
 50
206.7220442225
 51
272.9479013596
  0
POLYLINE
  5
19D
  8
0
  6
CONTINUOUS
 62
     7
 66
     1
 10
0.0
 20
0.0
 30
0.0
 70
   128
  0
VERTEX
  5
6E6
  8
0
  6
CONTINUOUS
 62
     7
 10
117.5296146276
 20
230.874806447
 30
0.0
  0
VERTEX
  5
6E7
  8
0
  6
CONTINUOUS
 62
     7
 10
117.5510667118
 20
230.568889333
 30
0.0
  0
VERTEX
  5
6E8
  8
0
  6
CONTINUOUS
 62
     7
 10
117.6159016641
 20
230.3372600955
 30
0.0
  0
SEQEND
  5
885
  8
0
  6
CONTINUOUS
 62
     7
  0
ARC
  5
19E
  8
0
  6
CONTINUOUS
 62
     7
 10
118.3890296846
 20
230.8483735472
 30
0.0
 40
0.8598214572519792
 50
105.1759465386
 51
178.238317685
  0
LINE
  5
19F
  8
0
  6
CONTINUOUS
 62
     7
 10
118.1639421585
 20
231.6782100034
 30
0.0
 11
118.1534480157
 21
231.7901512516
 31
0.0
  0
POLYLINE
  5
1A0
  8
0
  6
CONTINUOUS
 62
     7
 66
     1
 10
0.0
 20
0.0
 30
0.0
 70
   128
  0
VERTEX
  5
6E9
  8
0
  6
CONTINUOUS
 62
     7
 10
117.9575536253
 20
231.7662479264
 30
0.0
  0
VERTEX
  5
6EA
  8
0
  6
CONTINUOUS
 62
     7
 10
118.0668871703
 20
231.7828478199
 30
0.0
  0
VERTEX
  5
6EB
  8
0
  6
CONTINUOUS
 62
     7
 10
118.1534480157
 20
231.7901512516
 30
0.0
  0
SEQEND
  5
886
  8
0
  6
CONTINUOUS
 62
     7
  0
LINE
  5
1A1
  8
0
  6
CONTINUOUS
 62
     7
 10
117.9575536253
 20
231.7662479264
 30
0.0
 11
117.6403879973
 21
231.7219374609
 31
0.0
  0
POLYLINE
  5
1A2
  8
0
  6
CONTINUOUS
 62
     7
 66
     1
 10
0.0
 20
0.0
 30
0.0
 70
   128
  0
VERTEX
  5
6EC
  8
0
  6
CONTINUOUS
 62
     7
 10
117.4549877497
 20
230.8299129736
 30
0.0
  0
VERTEX
  5
6ED
  8
0
  6
CONTINUOUS
 62
     7
 10
117.5017904344
 20
231.3424514514
 30
0.0
  0
VERTEX
  5
6EE
  8
0
  6
CONTINUOUS
 62
     7
 10
117.6403879973
 20
231.7219374609
 30
0.0
  0
SEQEND
  5
887
  8
0
  6
CONTINUOUS
 62
     7
  0
POLYLINE
  5
1A3
  8
0
  6
CONTINUOUS
 62
     7
 66
     1
 10
0.0
 20
0.0
 30
0.0
 70
   128
  0
VERTEX
  5
6EF
  8
0
  6
CONTINUOUS
 62
     7
 10
117.4549877497
 20
230.8299129736
 30
0.0
  0
VERTEX
  5
6F0
  8
0
  6
CONTINUOUS
 62
     7
 10
117.4926951381
 20
230.3874974978
 30
0.0
  0
VERTEX
  5
6F1
  8
0
  6
CONTINUOUS
 62
     7
 10
117.6019094738
 20
230.0568258297
 30
0.0
  0
SEQEND
  5
888
  8
0
  6
CONTINUOUS
 62
     7
  0
ARC
  5
1A4
  8
0
  6
CONTINUOUS
 62
     7
 10
118.8162536478
 20
230.6351845526
 30
0.0
 40
1.345039250454954
 50
205.4671753766
 51
270.1777272705
  0
POLYLINE
  5
1A5
  8
0
  6
CONTINUOUS
 62
     7
 66
     1
 10
0.0
 20
0.0
 30
0.0
 70
   128
  0
VERTEX
  5
6F2
  8
0
  6
CONTINUOUS
 62
     7
 10
118.8204258534
 20
229.2901517731
 30
0.0
  0
VERTEX
  5
6F3
  8
0
  6
CONTINUOUS
 62
     7
 10
119.1314224007
 20
229.327415852
 30
0.0
  0
VERTEX
  5
6F4
  8
0
  6
CONTINUOUS
 62
     7
 10
119.3649683001
 20
229.4055892062
 30
0.0
  0
SEQEND
  5
889
  8
0
  6
CONTINUOUS
 62
     7
  0
LINE
  5
1A6
  8
0
  6
CONTINUOUS
 62
     7
 10
133.5027793276
 20
220.7429267374
 30
0.0
 11
133.5027793276
 21
238.9429265541
 31
0.0
  0
LINE
  5
1A7
  8
0
  6
CONTINUOUS
 62
     7
 10
133.5027793276
 20
220.7429267374
 30
0.0
 11
133.4334870654
 21
220.7429267374
 31
0.0
  0
LINE
  5
1A8
  8
0
  6
CONTINUOUS
 62
     7
 10
133.4334870654
 20
220.7429267374
 30
0.0
 11
133.4334870654
 21
206.3429269847
 31
0.0
  0
LINE
  5
1A9
  8
0
  6
CONTINUOUS
 62
     7
 10
133.4334870654
 20
206.3429269847
 30
0.0
 11
133.5027793276
 21
206.3429269847
 31
0.0
  0
LINE
  5
1AA
  8
0
  6
CONTINUOUS
 62
     7
 10
133.5027793276
 20
188.142927168
 30
0.0
 11
133.5027793276
 21
206.3429269847
 31
0.0
  0
LINE
  5
1AB
  8
0
  6
CONTINUOUS
 62
     7
 10
133.5027793276
 20
188.142927168
 30
0.0
 11
133.4334870654
 21
188.142927168
 31
0.0
  0
LINE
  5
1AC
  8
0
  6
CONTINUOUS
 62
     7
 10
133.4334870654
 20
188.142927168
 30
0.0
 11
133.4334870654
 21
175.5429280829
 31
0.0
  0
LINE
  5
1AD
  8
0
  6
CONTINUOUS
 62
     7
 10
102.1334163698
 20
175.5429280829
 30
0.0
 11
133.4334870654
 21
175.5429280829
 31
0.0
  0
LINE
  5
1AE
  8
0
  6
CONTINUOUS
 62
     7
 10
102.1334163698
 20
175.5429280829
 30
0.0
 11
102.1334163698
 21
251.5429256392
 31
0.0
  0
LINE
  5
1AF
  8
0
  6
CONTINUOUS
 62
     7
 10
102.1334163698
 20
251.5429256392
 30
0.0
 11
133.4334870654
 21
251.5429256392
 31
0.0
  0
LINE
  5
1B0
  8
0
  6
CONTINUOUS
 62
     7
 10
133.4334870654
 20
251.5429256392
 30
0.0
 11
133.4334870654
 21
238.9429265541
 31
0.0
  0
LINE
  5
1B1
  8
0
  6
CONTINUOUS
 62
     7
 10
133.4334870654
 20
238.9429265541
 30
0.0
 11
133.5027793276
 21
238.9429265541
 31
0.0
  0
CIRCLE
  5
1B2
  8
0
  6
CONTINUOUS
 62
     7
 10
114.0523043993
 20
233.3322578043
 30
0.0
 40
0.7993055825257613
  0
LINE
  5
1B3
  8
0
  6
CONTINUOUS
 62
     7
 10
116.3113795074
 20
234.0289277864
 30
0.0
 11
112.0413791242
 21
226.6089271662
 31
0.0
  0
LINE
  5
1B4
  8
0
  6
CONTINUOUS
 62
     7
 10
112.0413791242
 20
226.6089271662
 30
0.0
 11
114.8413799557
 21
223.5289279279
 31
0.0
  0
LINE
  5
1B5
  8
0
  6
CONTINUOUS
 62
     7
 10
114.8413799557
 20
223.5289279279
 30
0.0
 11
117.2213785204
 21
223.5289279279
 31
0.0
  0
LINE
  5
1B6
  8
0
  6
CONTINUOUS
 62
     7
 10
117.2213785204
 20
223.5289279279
 30
0.0
 11
117.2213785204
 21
234.0289277864
 31
0.0
  0
LINE
  5
1B7
  8
0
  6
CONTINUOUS
 62
     7
 10
117.2213785204
 20
234.0289277864
 30
0.0
 11
116.3113795074
 21
234.0289277864
 31
0.0
  0
CIRCLE
  5
1B8
  8
0
  6
CONTINUOUS
 62
     7
 10
112.1334151479
 20
213.5429268611
 30
0.0
 40
4.749999999999972
  0
CIRCLE
  5
1B9
  8
0
  6
CONTINUOUS
 62
     7
 10
117.1334151479
 20
243.5429268611
 30
0.0
 40
4.75
  0
CIRCLE
  5
1BA
  8
0
  6
CONTINUOUS
 62
     7
 10
117.1334151479
 20
183.5429268611
 30
0.0
 40
4.75
  0
POLYLINE
  5
1BB
  8
0
  6
CONTINUOUS
 62
     7
 66
     1
 10
0.0
 20
0.0
 30
0.0
 70
   128
  0
VERTEX
  5
6F5
  8
0
  6
CONTINUOUS
 62
     7
 10
115.6334157887
 20
211.5222008807
 30
0.0
  0
VERTEX
  5
6F6
  8
0
  6
CONTINUOUS
 62
     7
 10
114.9039313051
 20
211.1010337622
 30
0.0
  0
VERTEX
  5
6F7
  8
0
  6
CONTINUOUS
 62
     7
 10
114.1031987819
 20
210.6387305912
 30
0.0
  0
VERTEX
  5
6F8
  8
0
  6
CONTINUOUS
 62
     7
 10
113.5422259423
 20
210.3148526885
 30
0.0
  0
VERTEX
  5
6F9
  8
0
  6
CONTINUOUS
 62
     7
 10
112.9737894836
 20
209.9866650906
 30
0.0
  0
VERTEX
  5
6FA
  8
0
  6
CONTINUOUS
 62
     7
 10
112.1334142836
 20
209.5014749002
 30
0.0
  0
SEQEND
  5
88A
  8
0
  6
CONTINUOUS
 62
     7
  0
LINE
  5
1BC
  8
0
  6
CONTINUOUS
 62
     7
 10
115.6334157887
 20
215.5636528415
 30
0.0
 11
115.6334157887
 21
211.5222008807
 31
0.0
  0
POLYLINE
  5
1BD
  8
0
  6
CONTINUOUS
 62
     7
 66
     1
 10
0.0
 20
0.0
 30
0.0
 70
   128
  0
VERTEX
  5
6FB
  8
0
  6
CONTINUOUS
 62
     7
 10
112.1334142836
 20
217.5843788219
 30
0.0
  0
VERTEX
  5
6FC
  8
0
  6
CONTINUOUS
 62
     7
 10
112.8628987672
 20
217.1632114705
 30
0.0
  0
VERTEX
  5
6FD
  8
0
  6
CONTINUOUS
 62
     7
 10
113.6636312904
 20
216.7009082996
 30
0.0
  0
VERTEX
  5
6FE
  8
0
  6
CONTINUOUS
 62
     7
 10
114.22460413
 20
216.3770306297
 30
0.0
  0
VERTEX
  5
6FF
  8
0
  6
CONTINUOUS
 62
     7
 10
114.7930405887
 20
216.0488430318
 30
0.0
  0
VERTEX
  5
700
  8
0
  6
CONTINUOUS
 62
     7
 10
115.6334157887
 20
215.5636528415
 30
0.0
  0
SEQEND
  5
88B
  8
0
  6
CONTINUOUS
 62
     7
  0
POLYLINE
  5
1BE
  8
0
  6
CONTINUOUS
 62
     7
 66
     1
 10
0.0
 20
0.0
 30
0.0
 70
   128
  0
VERTEX
  5
701
  8
0
  6
CONTINUOUS
 62
     7
 10
108.6334146413
 20
215.5636528415
 30
0.0
  0
VERTEX
  5
702
  8
0
  6
CONTINUOUS
 62
     7
 10
109.3628972622
 20
215.9848199599
 30
0.0
  0
VERTEX
  5
703
  8
0
  6
CONTINUOUS
 62
     7
 10
110.1636316481
 20
216.4471231309
 30
0.0
  0
VERTEX
  5
704
  8
0
  6
CONTINUOUS
 62
     7
 10
110.724602625
 20
216.7710010336
 30
0.0
  0
VERTEX
  5
705
  8
0
  6
CONTINUOUS
 62
     7
 10
111.2930409464
 20
217.0991886315
 30
0.0
  0
VERTEX
  5
706
  8
0
  6
CONTINUOUS
 62
     7
 10
112.1334142836
 20
217.5843788219
 30
0.0
  0
SEQEND
  5
88C
  8
0
  6
CONTINUOUS
 62
     7
  0
LINE
  5
1BF
  8
0
  6
CONTINUOUS
 62
     7
 10
108.6334146413
 20
211.5222008807
 30
0.0
 11
108.6334146413
 21
215.5636528415
 31
0.0
  0
POLYLINE
  5
1C0
  8
0
  6
CONTINUOUS
 62
     7
 66
     1
 10
0.0
 20
0.0
 30
0.0
 70
   128
  0
VERTEX
  5
707
  8
0
  6
CONTINUOUS
 62
     7
 10
112.1334142836
 20
209.5014749002
 30
0.0
  0
VERTEX
  5
708
  8
0
  6
CONTINUOUS
 62
     7
 10
111.4039316627
 20
209.9226422516
 30
0.0
  0
VERTEX
  5
709
  8
0
  6
CONTINUOUS
 62
     7
 10
110.6031991395
 20
210.3849454225
 30
0.0
  0
VERTEX
  5
70A
  8
0
  6
CONTINUOUS
 62
     7
 10
110.0422262999
 20
210.7088230924
 30
0.0
  0
VERTEX
  5
70B
  8
0
  6
CONTINUOUS
 62
     7
 10
109.4737898412
 20
211.0370106903
 30
0.0
  0
VERTEX
  5
70C
  8
0
  6
CONTINUOUS
 62
     7
 10
108.6334146413
 20
211.5222008807
 30
0.0
  0
SEQEND
  5
88D
  8
0
  6
CONTINUOUS
 62
     7
  0
POLYLINE
  5
1C1
  8
0
  6
CONTINUOUS
 62
     7
 66
     1
 10
0.0
 20
0.0
 30
0.0
 70
   128
  0
VERTEX
  5
70D
  8
0
  6
CONTINUOUS
 62
     7
 10
113.6334154608
 20
241.5222002101
 30
0.0
  0
VERTEX
  5
70E
  8
0
  6
CONTINUOUS
 62
     7
 10
114.3628980818
 20
241.1010337901
 30
0.0
  0
VERTEX
  5
70F
  8
0
  6
CONTINUOUS
 62
     7
 10
115.163630605
 20
240.638730852
 30
0.0
  0
VERTEX
  5
710
  8
0
  6
CONTINUOUS
 62
     7
 10
115.7246034446
 20
240.3148522508
 30
0.0
  0
VERTEX
  5
711
  8
0
  6
CONTINUOUS
 62
     7
 10
116.2930417659
 20
239.9866653514
 30
0.0
  0
VERTEX
  5
712
  8
0
  6
CONTINUOUS
 62
     7
 10
117.1334151032
 20
239.5014742297
 30
0.0
  0
SEQEND
  5
88E
  8
0
  6
CONTINUOUS
 62
     7
  0
POLYLINE
  5
1C2
  8
0
  6
CONTINUOUS
 62
     7
 66
     1
 10
0.0
 20
0.0
 30
0.0
 70
   128
  0
VERTEX
  5
713
  8
0
  6
CONTINUOUS
 62
     7
 10
117.1334151032
 20
239.5014742297
 30
0.0
  0
VERTEX
  5
714
  8
0
  6
CONTINUOUS
 62
     7
 10
117.8628977242
 20
239.9226425123
 30
0.0
  0
VERTEX
  5
715
  8
0
  6
CONTINUOUS
 62
     7
 10
118.6636302474
 20
240.3849454504
 30
0.0
  0
VERTEX
  5
716
  8
0
  6
CONTINUOUS
 62
     7
 10
119.224603087
 20
240.7088240516
 30
0.0
  0
VERTEX
  5
717
  8
0
  6
CONTINUOUS
 62
     7
 10
119.7930414083
 20
241.037010951
 30
0.0
  0
VERTEX
  5
718
  8
0
  6
CONTINUOUS
 62
     7
 10
120.6334147456
 20
241.5222002101
 30
0.0
  0
SEQEND
  5
88F
  8
0
  6
CONTINUOUS
 62
     7
  0
LINE
  5
1C3
  8
0
  6
CONTINUOUS
 62
     7
 10
120.6334147456
 20
241.5222002101
 30
0.0
 11
120.6334147456
 21
245.5636521709
 31
0.0
  0
POLYLINE
  5
1C4
  8
0
  6
CONTINUOUS
 62
     7
 66
     1
 10
0.0
 20
0.0
 30
0.0
 70
   128
  0
VERTEX
  5
719
  8
0
  6
CONTINUOUS
 62
     7
 10
120.6334147456
 20
245.5636521709
 30
0.0
  0
VERTEX
  5
71A
  8
0
  6
CONTINUOUS
 62
     7
 10
119.9039321246
 20
245.9848185909
 30
0.0
  0
VERTEX
  5
71B
  8
0
  6
CONTINUOUS
 62
     7
 10
119.1031996014
 20
246.4471233916
 30
0.0
  0
VERTEX
  5
71C
  8
0
  6
CONTINUOUS
 62
     7
 10
118.5422267618
 20
246.7710001302
 30
0.0
  0
VERTEX
  5
71D
  8
0
  6
CONTINUOUS
 62
     7
 10
117.9737884405
 20
247.0991870296
 30
0.0
  0
VERTEX
  5
71E
  8
0
  6
CONTINUOUS
 62
     7
 10
117.1334151032
 20
247.5843800139
 30
0.0
  0
SEQEND
  5
890
  8
0
  6
CONTINUOUS
 62
     7
  0
POLYLINE
  5
1C5
  8
0
  6
CONTINUOUS
 62
     7
 66
     1
 10
0.0
 20
0.0
 30
0.0
 70
   128
  0
VERTEX
  5
71F
  8
0
  6
CONTINUOUS
 62
     7
 10
117.1334151032
 20
247.5843800139
 30
0.0
  0
VERTEX
  5
720
  8
0
  6
CONTINUOUS
 62
     7
 10
116.4039324822
 20
247.1632098687
 30
0.0
  0
VERTEX
  5
721
  8
0
  6
CONTINUOUS
 62
     7
 10
115.603199959
 20
246.7009087932
 30
0.0
  0
VERTEX
  5
722
  8
0
  6
CONTINUOUS
 62
     7
 10
115.0422271194
 20
246.3770320547
 30
0.0
  0
VERTEX
  5
723
  8
0
  6
CONTINUOUS
 62
     7
 10
114.4737887981
 20
246.04884143
 30
0.0
  0
VERTEX
  5
724
  8
0
  6
CONTINUOUS
 62
     7
 10
113.6334154608
 20
245.5636521709
 30
0.0
  0
SEQEND
  5
891
  8
0
  6
CONTINUOUS
 62
     7
  0
LINE
  5
1C6
  8
0
  6
CONTINUOUS
 62
     7
 10
113.6334154608
 20
245.5636521709
 30
0.0
 11
113.6334154608
 21
241.5222002101
 31
0.0
  0
POLYLINE
  5
1C7
  8
0
  6
CONTINUOUS
 62
     7
 66
     1
 10
0.0
 20
0.0
 30
0.0
 70
   128
  0
VERTEX
  5
725
  8
0
  6
CONTINUOUS
 62
     7
 10
113.6334154608
 20
181.5222015512
 30
0.0
  0
VERTEX
  5
726
  8
0
  6
CONTINUOUS
 62
     7
 10
114.3628980818
 20
181.1010351312
 30
0.0
  0
VERTEX
  5
727
  8
0
  6
CONTINUOUS
 62
     7
 10
115.163630605
 20
180.6387303305
 30
0.0
  0
VERTEX
  5
728
  8
0
  6
CONTINUOUS
 62
     7
 10
115.7246034446
 20
180.3148535919
 30
0.0
  0
VERTEX
  5
729
  8
0
  6
CONTINUOUS
 62
     7
 10
116.2930417659
 20
179.9866666925
 30
0.0
  0
VERTEX
  5
72A
  8
0
  6
CONTINUOUS
 62
     7
 10
117.1334151032
 20
179.5014737082
 30
0.0
  0
SEQEND
  5
892
  8
0
  6
CONTINUOUS
 62
     7
  0
POLYLINE
  5
1C8
  8
0
  6
CONTINUOUS
 62
     7
 66
     1
 10
0.0
 20
0.0
 30
0.0
 70
   128
  0
VERTEX
  5
72B
  8
0
  6
CONTINUOUS
 62
     7
 10
117.1334151032
 20
179.5014737082
 30
0.0
  0
VERTEX
  5
72C
  8
0
  6
CONTINUOUS
 62
     7
 10
117.8628977242
 20
179.9226438534
 30
0.0
  0
VERTEX
  5
72D
  8
0
  6
CONTINUOUS
 62
     7
 10
118.6636302474
 20
180.3849449289
 30
0.0
  0
VERTEX
  5
72E
  8
0
  6
CONTINUOUS
 62
     7
 10
119.224603087
 20
180.7088216674
 30
0.0
  0
VERTEX
  5
72F
  8
0
  6
CONTINUOUS
 62
     7
 10
119.7930414083
 20
181.0370122922
 30
0.0
  0
VERTEX
  5
730
  8
0
  6
CONTINUOUS
 62
     7
 10
120.6334147456
 20
181.5222015512
 30
0.0
  0
SEQEND
  5
893
  8
0
  6
CONTINUOUS
 62
     7
  0
LINE
  5
1C9
  8
0
  6
CONTINUOUS
 62
     7
 10
120.6334147456
 20
181.5222015512
 30
0.0
 11
120.6334147456
 21
185.563653512
 31
0.0
  0
POLYLINE
  5
1CA
  8
0
  6
CONTINUOUS
 62
     7
 66
     1
 10
0.0
 20
0.0
 30
0.0
 70
   128
  0
VERTEX
  5
731
  8
0
  6
CONTINUOUS
 62
     7
 10
120.6334147456
 20
185.563653512
 30
0.0
  0
VERTEX
  5
732
  8
0
  6
CONTINUOUS
 62
     7
 10
119.9039321246
 20
185.984819932
 30
0.0
  0
VERTEX
  5
733
  8
0
  6
CONTINUOUS
 62
     7
 10
119.1031996014
 20
186.4471228701
 30
0.0
  0
VERTEX
  5
734
  8
0
  6
CONTINUOUS
 62
     7
 10
118.5422267618
 20
186.7710014713
 30
0.0
  0
VERTEX
  5
735
  8
0
  6
CONTINUOUS
 62
     7
 10
117.9737884405
 20
187.0991883707
 30
0.0
  0
VERTEX
  5
736
  8
0
  6
CONTINUOUS
 62
     7
 10
117.1334151032
 20
187.5843794924
 30
0.0
  0
SEQEND
  5
894
  8
0
  6
CONTINUOUS
 62
     7
  0
POLYLINE
  5
1CB
  8
0
  6
CONTINUOUS
 62
     7
 66
     1
 10
0.0
 20
0.0
 30
0.0
 70
   128
  0
VERTEX
  5
737
  8
0
  6
CONTINUOUS
 62
     7
 10
117.1334151032
 20
187.5843794924
 30
0.0
  0
VERTEX
  5
738
  8
0
  6
CONTINUOUS
 62
     7
 10
116.4039324822
 20
187.1632112098
 30
0.0
  0
VERTEX
  5
739
  8
0
  6
CONTINUOUS
 62
     7
 10
115.603199959
 20
186.7009082717
 30
0.0
  0
VERTEX
  5
73A
  8
0
  6
CONTINUOUS
 62
     7
 10
115.0422271194
 20
186.3770296705
 30
0.0
  0
VERTEX
  5
73B
  8
0
  6
CONTINUOUS
 62
     7
 10
114.4737887981
 20
186.0488427711
 30
0.0
  0
VERTEX
  5
73C
  8
0
  6
CONTINUOUS
 62
     7
 10
113.6334154608
 20
185.563653512
 30
0.0
  0
SEQEND
  5
895
  8
0
  6
CONTINUOUS
 62
     7
  0
LINE
  5
1CC
  8
0
  6
CONTINUOUS
 62
     7
 10
113.6334154608
 20
185.563653512
 30
0.0
 11
113.6334154608
 21
181.5222015512
 31
0.0
  0
LINE
  5
1CD
  8
0
  6
CONTINUOUS
 62
     7
 10
134.6334151777
 20
206.3429269847
 30
0.0
 11
133.5027793276
 21
206.3429269847
 31
0.0
  0
LINE
  5
1CE
  8
0
  6
CONTINUOUS
 62
     7
 10
133.5027793276
 20
188.142927168
 30
0.0
 11
134.6334151777
 21
188.142927168
 31
0.0
  0
LINE
  5
1CF
  8
0
  6
CONTINUOUS
 62
     7
 10
134.6334151777
 20
238.9429265541
 30
0.0
 11
133.5027793276
 21
238.9429265541
 31
0.0
  0
LINE
  5
1D0
  8
0
  6
CONTINUOUS
 62
     7
 10
133.5027793276
 20
220.7429267374
 30
0.0
 11
134.6334151777
 21
220.7429267374
 31
0.0
  0
LINE
  5
1D1
  8
0
  6
CONTINUOUS
 62
     7
 10
113.6640988144
 20
233.1914694887
 30
0.0
 11
113.9640983048
 21
233.1914694887
 31
0.0
  0
LINE
  5
1D2
  8
0
  6
CONTINUOUS
 62
     7
 10
113.9640983048
 20
233.1914694887
 30
0.0
 11
113.9653611782
 21
233.3798704577
 31
0.0
  0
POLYLINE
  5
1D3
  8
0
  6
CONTINUOUS
 62
     7
 66
     1
 10
0.0
 20
0.0
 30
0.0
 70
   128
  0
VERTEX
  5
73D
  8
0
  6
CONTINUOUS
 62
     7
 10
113.9653611782
 20
233.3798704577
 30
0.0
  0
VERTEX
  5
73E
  8
0
  6
CONTINUOUS
 62
     7
 10
113.9444753381
 20
233.5537409318
 30
0.0
  0
VERTEX
  5
73F
  8
0
  6
CONTINUOUS
 62
     7
 10
113.92399928
 20
233.592588259
 30
0.0
  0
VERTEX
  5
740
  8
0
  6
CONTINUOUS
 62
     7
 10
113.8938411924
 20
233.6244283152
 30
0.0
  0
VERTEX
  5
741
  8
0
  6
CONTINUOUS
 62
     7
 10
113.8555023673
 20
233.6457034481
 30
0.0
  0
VERTEX
  5
742
  8
0
  6
CONTINUOUS
 62
     7
 10
113.8122964504
 20
233.6530068797
 30
0.0
  0
SEQEND
  5
896
  8
0
  6
CONTINUOUS
 62
     7
  0
POLYLINE
  5
1D4
  8
0
  6
CONTINUOUS
 62
     7
 66
     1
 10
0.0
 20
0.0
 30
0.0
 70
   128
  0
VERTEX
  5
743
  8
0
  6
CONTINUOUS
 62
     7
 10
113.8122964504
 20
233.6530068797
 30
0.0
  0
VERTEX
  5
744
  8
0
  6
CONTINUOUS
 62
     7
 10
113.7699864658
 20
233.6456382555
 30
0.0
  0
VERTEX
  5
745
  8
0
  6
CONTINUOUS
 62
     7
 10
113.7327093484
 20
233.6242159736
 30
0.0
  0
VERTEX
  5
746
  8
0
  6
CONTINUOUS
 62
     7
 10
113.7032702419
 20
233.5928415787
 30
0.0
  0
VERTEX
  5
747
  8
0
  6
CONTINUOUS
 62
     7
 10
113.6830419155
 20
233.5548361671
 30
0.0
  0
VERTEX
  5
748
  8
0
  6
CONTINUOUS
 62
     7
 10
113.6640988144
 20
233.3841973823
 30
0.0
  0
SEQEND
  5
897
  8
0
  6
CONTINUOUS
 62
     7
  0
LINE
  5
1D5
  8
0
  6
CONTINUOUS
 62
     7
 10
113.6640988144
 20
233.3841973823
 30
0.0
 11
113.6640988144
 21
233.1914694887
 31
0.0
  0
LINE
  5
1D6
  8
0
  6
CONTINUOUS
 62
     7
 10
114.0564072731
 20
233.2524059248
 30
0.0
 11
114.4717920425
 21
233.6367813778
 31
0.0
  0
LINE
  5
1D7
  8
0
  6
CONTINUOUS
 62
     7
 10
114.4717920425
 20
233.6367813778
 30
0.0
 11
114.4717920425
 21
233.7683921588
 31
0.0
  0
POLYLINE
  5
1D8
  8
0
  6
CONTINUOUS
 62
     7
 66
     1
 10
0.0
 20
0.0
 30
0.0
 70
   128
  0
VERTEX
  5
749
  8
0
  6
CONTINUOUS
 62
     7
 10
113.5840516391
 20
233.5423098785
 30
0.0
  0
VERTEX
  5
74A
  8
0
  6
CONTINUOUS
 62
     7
 10
113.5732259455
 20
233.4072569293
 30
0.0
  0
VERTEX
  5
74B
  8
0
  6
CONTINUOUS
 62
     7
 10
113.5717917087
 20
233.3007248026
 30
0.0
  0
SEQEND
  5
898
  8
0
  6
CONTINUOUS
 62
     7
  0
LINE
  5
1D9
  8
0
  6
CONTINUOUS
 62
     7
 10
113.5717917087
 20
233.3007248026
 30
0.0
 11
113.5717917087
 21
233.0876232964
 31
0.0
  0
LINE
  5
1DA
  8
0
  6
CONTINUOUS
 62
     7
 10
114.4717920425
 20
233.7683921588
 30
0.0
 11
114.0564072731
 21
233.3840167058
 31
0.0
  0
POLYLINE
  5
1DB
  8
0
  6
CONTINUOUS
 62
     7
 66
     1
 10
0.0
 20
0.0
 30
0.0
 70
   128
  0
VERTEX
  5
74C
  8
0
  6
CONTINUOUS
 62
     7
 10
114.0564072731
 20
233.3840167058
 30
0.0
  0
VERTEX
  5
74D
  8
0
  6
CONTINUOUS
 62
     7
 10
114.0131398889
 20
233.6293196213
 30
0.0
  0
VERTEX
  5
74E
  8
0
  6
CONTINUOUS
 62
     7
 10
113.9786977174
 20
233.6816823018
 30
0.0
  0
VERTEX
  5
74F
  8
0
  6
CONTINUOUS
 62
     7
 10
113.9316100481
 20
233.7229659689
 30
0.0
  0
VERTEX
  5
750
  8
0
  6
CONTINUOUS
 62
     7
 10
113.8745870295
 20
233.7487673295
 30
0.0
  0
VERTEX
  5
751
  8
0
  6
CONTINUOUS
 62
     7
 10
113.812477127
 20
233.7568530721
 30
0.0
  0
SEQEND
  5
899
  8
0
  6
CONTINUOUS
 62
     7
  0
LINE
  5
1DC
  8
0
  6
CONTINUOUS
 62
     7
 10
113.5717917087
 20
233.0876232964
 30
0.0
 11
114.4717920425
 21
233.0876232964
 31
0.0
  0
LINE
  5
1DD
  8
0
  6
CONTINUOUS
 62
     7
 10
114.4717920425
 20
233.0876232964
 30
0.0
 11
114.4717920425
 21
233.1914694887
 31
0.0
  0
LINE
  5
1DE
  8
0
  6
CONTINUOUS
 62
     7
 10
114.4717920425
 20
233.1914694887
 30
0.0
 11
114.0564072731
 21
233.1914694887
 31
0.0
  0
LINE
  5
1DF
  8
0
  6
CONTINUOUS
 62
     7
 10
114.0564072731
 20
233.1914694887
 30
0.0
 11
114.0564072731
 21
233.2524059248
 31
0.0
  0
ARC
  5
1E0
  8
0
  6
CONTINUOUS
 62
     7
 10
113.8208619691
 20
233.5190510542
 30
0.0
 40
0.2379497957359514
 50
92.0193988436
 51
174.3905657387
  0
CIRCLE
  5
1E1
  8
0
  6
CONTINUOUS
 62
     7
 10
114.0523043993
 20
233.3322578043
 30
0.0
 40
0.6838395486115871
  0
LINE
  5
1E2
  8
0
  6
CONTINUOUS
 62
     7
 10
114.7940501424
 20
226.1267349032
 30
0.0
 11
115.1590391847
 21
226.7484784034
 31
0.0
  0
LINE
  5
1E3
  8
0
  6
CONTINUOUS
 62
     7
 10
115.6628008785
 20
227.5488169771
 30
0.0
 11
115.1391051563
 21
227.3194629607
 31
0.0
  0
LINE
  5
1E4
  8
0
  6
CONTINUOUS
 62
     7
 10
115.1391051563
 20
227.3194629607
 30
0.0
 11
114.7477391961
 21
227.8281215486
 31
0.0
  0
LINE
  5
1E5
  8
0
  6
CONTINUOUS
 62
     7
 10
114.7477391961
 20
227.8281215486
 30
0.0
 11
114.767596856
 21
227.177932663
 31
0.0
  0
LINE
  5
1E6
  8
0
  6
CONTINUOUS
 62
     7
 10
114.767596856
 20
227.177932663
 30
0.0
 11
114.2053108516
 21
227.006961396
 31
0.0
  0
LINE
  5
1E7
  8
0
  6
CONTINUOUS
 62
     7
 10
114.2053108516
 20
227.006961396
 30
0.0
 11
114.7936869266
 21
226.8522826862
 31
0.0
  0
LINE
  5
1E8
  8
0
  6
CONTINUOUS
 62
     7
 10
114.7936869266
 20
226.8522826862
 30
0.0
 11
114.7940501424
 21
226.1267349032
 31
0.0
  0
LINE
  5
1E9
  8
0
  6
CONTINUOUS
 62
     7
 10
115.1510372611
 20
224.2289276701
 30
0.0
 11
116.5213797095
 21
224.2289276701
 31
0.0
  0
LINE
  5
1EA
  8
0
  6
CONTINUOUS
 62
     7
 10
115.1590391847
 20
226.7484784034
 30
0.0
 11
115.8451948168
 21
226.5271784645
 31
0.0
  0
LINE
  5
1EB
  8
0
  6
CONTINUOUS
 62
     7
 10
115.8451948168
 20
226.5271784645
 30
0.0
 11
115.3196997794
 21
227.0526725706
 31
0.0
  0
LINE
  5
1EC
  8
0
  6
CONTINUOUS
 62
     7
 10
115.3196997794
 20
227.0526725706
 30
0.0
 11
115.6628008785
 21
227.5488169771
 31
0.0
  0
LINE
  5
1ED
  8
0
  6
CONTINUOUS
 62
     7
 10
116.5213797095
 20
232.990417434
 30
0.0
 11
112.9026569279
 21
226.7021460366
 31
0.0
  0
LINE
  5
1EE
  8
0
  6
CONTINUOUS
 62
     7
 10
112.9026569279
 20
226.7021460366
 30
0.0
 11
115.1510372611
 21
224.2289276701
 31
0.0
  0
LINE
  5
1EF
  8
0
  6
CONTINUOUS
 62
     7
 10
116.5213797095
 20
224.2289276701
 30
0.0
 11
116.5213797095
 21
232.990417434
 31
0.0
  0
LINE
  5
1F0
  8
0
  6
CONTINUOUS
 62
     7
 10
134.6334151777
 20
220.1429268253
 30
0.0
 11
145.6334151181
 21
220.1429268253
 31
0.0
  0
LINE
  5
1F1
  8
0
  6
CONTINUOUS
 62
     7
 10
145.6334151181
 20
206.9429268968
 30
0.0
 11
134.6334151777
 21
206.9429268968
 31
0.0
  0
LINE
  5
1F2
  8
0
  6
CONTINUOUS
 62
     7
 10
145.6334151181
 20
175.5429280829
 30
0.0
 11
134.6334151777
 21
175.5429280829
 31
0.0
  0
LINE
  5
1F3
  8
0
  6
CONTINUOUS
 62
     7
 10
134.6334151777
 20
187.7429259849
 30
0.0
 11
145.6334151181
 21
187.7429259849
 31
0.0
  0
LINE
  5
1F4
  8
0
  6
CONTINUOUS
 62
     7
 10
145.6334151181
 20
239.3429277372
 30
0.0
 11
134.6334151777
 21
239.3429277372
 31
0.0
  0
LINE
  5
1F5
  8
0
  6
CONTINUOUS
 62
     7
 10
134.6334151777
 20
251.5429256392
 30
0.0
 11
145.6334151181
 21
251.5429256392
 31
0.0
  0
POLYLINE
  5
1F6
  8
0
  6
CONTINUOUS
 62
     7
 66
     1
 10
0.0
 20
0.0
 30
0.0
 70
   128
  0
VERTEX
  5
752
  8
0
  6
CONTINUOUS
 62
     7
 10
171.6334156545
 20
215.5636528415
 30
0.0
  0
VERTEX
  5
753
  8
0
  6
CONTINUOUS
 62
     7
 10
170.9039330336
 20
215.9848199599
 30
0.0
  0
VERTEX
  5
754
  8
0
  6
CONTINUOUS
 62
     7
 10
170.1031986477
 20
216.4471231309
 30
0.0
  0
VERTEX
  5
755
  8
0
  6
CONTINUOUS
 62
     7
 10
169.5422276708
 20
216.7710010336
 30
0.0
  0
VERTEX
  5
756
  8
0
  6
CONTINUOUS
 62
     7
 10
168.9737893494
 20
217.0991886315
 30
0.0
  0
VERTEX
  5
757
  8
0
  6
CONTINUOUS
 62
     7
 10
168.1334160122
 20
217.5843788219
 30
0.0
  0
SEQEND
  5
89A
  8
0
  6
CONTINUOUS
 62
     7
  0
POLYLINE
  5
1F7
  8
0
  6
CONTINUOUS
 62
     7
 66
     1
 10
0.0
 20
0.0
 30
0.0
 70
   128
  0
VERTEX
  5
758
  8
0
  6
CONTINUOUS
 62
     7
 10
168.1334160122
 20
217.5843788219
 30
0.0
  0
VERTEX
  5
759
  8
0
  6
CONTINUOUS
 62
     7
 10
167.4039315286
 20
217.1632114705
 30
0.0
  0
VERTEX
  5
75A
  8
0
  6
CONTINUOUS
 62
     7
 10
166.6031990054
 20
216.7009082996
 30
0.0
  0
VERTEX
  5
75B
  8
0
  6
CONTINUOUS
 62
     7
 10
166.0422261658
 20
216.3770306297
 30
0.0
  0
VERTEX
  5
75C
  8
0
  6
CONTINUOUS
 62
     7
 10
165.4737897071
 20
216.0488430318
 30
0.0
  0
VERTEX
  5
75D
  8
0
  6
CONTINUOUS
 62
     7
 10
164.6334145072
 20
215.5636528415
 30
0.0
  0
SEQEND
  5
89B
  8
0
  6
CONTINUOUS
 62
     7
  0
LINE
  5
1F8
  8
0
  6
CONTINUOUS
 62
     7
 10
164.6334145072
 20
215.5636528415
 30
0.0
 11
164.6334145072
 21
211.5222008807
 31
0.0
  0
POLYLINE
  5
1F9
  8
0
  6
CONTINUOUS
 62
     7
 66
     1
 10
0.0
 20
0.0
 30
0.0
 70
   128
  0
VERTEX
  5
75E
  8
0
  6
CONTINUOUS
 62
     7
 10
164.6334145072
 20
211.5222008807
 30
0.0
  0
VERTEX
  5
75F
  8
0
  6
CONTINUOUS
 62
     7
 10
165.3628989908
 20
211.1010337622
 30
0.0
  0
VERTEX
  5
760
  8
0
  6
CONTINUOUS
 62
     7
 10
166.163631514
 20
210.6387305912
 30
0.0
  0
VERTEX
  5
761
  8
0
  6
CONTINUOUS
 62
     7
 10
166.7246043536
 20
210.3148526885
 30
0.0
  0
VERTEX
  5
762
  8
0
  6
CONTINUOUS
 62
     7
 10
167.2930408123
 20
209.9866650906
 30
0.0
  0
VERTEX
  5
763
  8
0
  6
CONTINUOUS
 62
     7
 10
168.1334160122
 20
209.5014749002
 30
0.0
  0
SEQEND
  5
89C
  8
0
  6
CONTINUOUS
 62
     7
  0
POLYLINE
  5
1FA
  8
0
  6
CONTINUOUS
 62
     7
 66
     1
 10
0.0
 20
0.0
 30
0.0
 70
   128
  0
VERTEX
  5
764
  8
0
  6
CONTINUOUS
 62
     7
 10
168.1334160122
 20
209.5014749002
 30
0.0
  0
VERTEX
  5
765
  8
0
  6
CONTINUOUS
 62
     7
 10
168.8628986331
 20
209.9226422516
 30
0.0
  0
VERTEX
  5
766
  8
0
  6
CONTINUOUS
 62
     7
 10
169.6636311563
 20
210.3849454225
 30
0.0
  0
VERTEX
  5
767
  8
0
  6
CONTINUOUS
 62
     7
 10
170.2246039959
 20
210.7088230924
 30
0.0
  0
VERTEX
  5
768
  8
0
  6
CONTINUOUS
 62
     7
 10
170.7930404546
 20
211.0370106903
 30
0.0
  0
VERTEX
  5
769
  8
0
  6
CONTINUOUS
 62
     7
 10
171.6334156545
 20
211.5222008807
 30
0.0
  0
SEQEND
  5
89D
  8
0
  6
CONTINUOUS
 62
     7
  0
LINE
  5
1FB
  8
0
  6
CONTINUOUS
 62
     7
 10
171.6334156545
 20
211.5222008807
 30
0.0
 11
171.6334156545
 21
215.5636528415
 31
0.0
  0
CIRCLE
  5
1FC
  8
0
  6
CONTINUOUS
 62
     7
 10
168.1334151479
 20
213.5429268611
 30
0.0
 40
4.75
  0
LINE
  5
1FD
  8
0
  6
CONTINUOUS
 62
     7
 10
160.0114282074
 20
200.9648445901
 30
0.0
 11
159.7550183388
 21
200.9648445901
 31
0.0
  0
LINE
  5
1FE
  8
0
  6
CONTINUOUS
 62
     7
 10
160.0114282074
 20
202.1507413965
 30
0.0
 11
160.0114282074
 21
200.9648445901
 31
0.0
  0
LINE
  5
1FF
  8
0
  6
CONTINUOUS
 62
     7
 10
160.9729666116
 20
202.1507413965
 30
0.0
 11
160.0114282074
 21
202.1507413965
 31
0.0
  0
LINE
  5
200
  8
0
  6
CONTINUOUS
 62
     7
 10
160.9729666116
 20
200.9648445901
 30
0.0
 11
160.9729666116
 21
202.1507413965
 31
0.0
  0
LINE
  5
201
  8
0
  6
CONTINUOUS
 62
     7
 10
161.2293783429
 20
200.9648445901
 30
0.0
 11
160.9729666116
 21
200.9648445901
 31
0.0
  0
LINE
  5
202
  8
0
  6
CONTINUOUS
 62
     7
 10
161.2293783429
 20
202.1507413965
 30
0.0
 11
161.2293783429
 21
200.9648445901
 31
0.0
  0
LINE
  5
203
  8
0
  6
CONTINUOUS
 62
     7
 10
161.9986079487
 20
202.1507413965
 30
0.0
 11
161.2293783429
 21
202.1507413965
 31
0.0
  0
LINE
  5
204
  8
0
  6
CONTINUOUS
 62
     7
 10
161.9986079487
 20
200.9648445901
 30
0.0
 11
161.9986079487
 21
202.1507413965
 31
0.0
  0
LINE
  5
205
  8
0
  6
CONTINUOUS
 62
     7
 10
162.2550178173
 20
200.9648445901
 30
0.0
 11
161.9986079487
 21
200.9648445901
 31
0.0
  0
LINE
  5
206
  8
0
  6
CONTINUOUS
 62
     7
 10
162.2550178173
 20
202.3751007301
 30
0.0
 11
162.2550178173
 21
200.9648445901
 31
0.0
  0
LINE
  5
207
  8
0
  6
CONTINUOUS
 62
     7
 10
159.7550183388
 20
202.3751007301
 30
0.0
 11
162.2550178173
 21
202.3751007301
 31
0.0
  0
LINE
  5
208
  8
0
  6
CONTINUOUS
 62
     7
 10
159.7550183388
 20
200.9648445901
 30
0.0
 11
159.7550183388
 21
202.3751007301
 31
0.0
  0
LINE
  5
209
  8
0
  6
CONTINUOUS
 62
     7
 10
159.7550183388
 20
197.4071523082
 30
0.0
 11
161.9986079487
 21
197.4071523082
 31
0.0
  0
LINE
  5
20A
  8
0
  6
CONTINUOUS
 62
     7
 10
159.7550183388
 20
197.1827929747
 30
0.0
 11
159.7550183388
 21
197.4071523082
 31
0.0
  0
LINE
  5
20B
  8
0
  6
CONTINUOUS
 62
     7
 10
162.2550178173
 20
197.1827929747
 30
0.0
 11
159.7550183388
 21
197.1827929747
 31
0.0
  0
LINE
  5
20C
  8
0
  6
CONTINUOUS
 62
     7
 10
162.2550178173
 20
197.6450325829
 30
0.0
 11
162.2550178173
 21
197.1827929747
 31
0.0
  0
LINE
  5
20D
  8
0
  6
CONTINUOUS
 62
     7
 10
161.9986079487
 20
197.7917680424
 30
0.0
 11
162.2550178173
 21
197.6450325829
 31
0.0
  0
LINE
  5
20E
  8
0
  6
CONTINUOUS
 62
     7
 10
161.9986079487
 20
197.4071523082
 30
0.0
 11
161.9986079487
 21
197.7917680424
 31
0.0
  0
LINE
  5
20F
  8
0
  6
CONTINUOUS
 62
     7
 10
159.7550183388
 20
198.6441312265
 30
0.0
 11
161.7181587818
 21
200.2917675209
 31
0.0
  0
LINE
  5
210
  8
0
  6
CONTINUOUS
 62
     7
 10
159.7550183388
 20
198.5930491146
 30
0.0
 11
159.7550183388
 21
198.6441312265
 31
0.0
  0
LINE
  5
211
  8
0
  6
CONTINUOUS
 62
     7
 10
162.2550178173
 20
198.5930491146
 30
0.0
 11
159.7550183388
 21
198.5930491146
 31
0.0
  0
LINE
  5
212
  8
0
  6
CONTINUOUS
 62
     7
 10
162.2550178173
 20
198.8174084482
 30
0.0
 11
162.2550178173
 21
198.5930491146
 31
0.0
  0
LINE
  5
213
  8
0
  6
CONTINUOUS
 62
     7
 10
160.287369773
 20
198.8174084482
 30
0.0
 11
162.2550178173
 21
198.8174084482
 31
0.0
  0
LINE
  5
214
  8
0
  6
CONTINUOUS
 62
     7
 10
162.2550178173
 20
200.4690512922
 30
0.0
 11
160.287369773
 21
198.8174084482
 31
0.0
  0
LINE
  5
215
  8
0
  6
CONTINUOUS
 62
     7
 10
162.2550178173
 20
200.5161259231
 30
0.0
 11
162.2550178173
 21
200.4690512922
 31
0.0
  0
LINE
  5
216
  8
0
  6
CONTINUOUS
 62
     7
 10
159.7550183388
 20
200.5161259231
 30
0.0
 11
162.2550178173
 21
200.5161259231
 31
0.0
  0
LINE
  5
217
  8
0
  6
CONTINUOUS
 62
     7
 10
159.7550183388
 20
200.2917675209
 30
0.0
 11
159.7550183388
 21
200.5161259231
 31
0.0
  0
LINE
  5
218
  8
0
  6
CONTINUOUS
 62
     7
 10
161.7181587818
 20
200.2917675209
 30
0.0
 11
159.7550183388
 21
200.2917675209
 31
0.0
  0
LINE
  5
219
  8
0
  6
CONTINUOUS
 62
     7
 10
159.1306038054
 20
231.1172036362
 30
0.0
 11
159.0287394675
 21
231.4465435129
 31
0.0
  0
LINE
  5
21A
  8
0
  6
CONTINUOUS
 62
     7
 10
158.9161518815
 20
230.9243118298
 30
0.0
 11
159.1306038054
 21
231.1172036362
 31
0.0
  0
LINE
  5
21B
  8
0
  6
CONTINUOUS
 62
     7
 10
158.9416347297
 20
230.8419233096
 30
0.0
 11
158.9161518815
 21
230.9243118298
 31
0.0
  0
LINE
  5
21C
  8
0
  6
CONTINUOUS
 62
     7
 10
159.5925249013
 20
231.4273750317
 30
0.0
 11
158.9416347297
 21
230.8419233096
 31
0.0
  0
LINE
  5
21D
  8
0
  6
CONTINUOUS
 62
     7
 10
159.5867041352
 20
231.4465435129
 30
0.0
 11
159.5925249013
 21
231.4273750317
 31
0.0
  0
LINE
  5
21E
  8
0
  6
CONTINUOUS
 62
     7
 10
158.7189070734
 20
231.574049024
 30
0.0
 11
159.5867041352
 21
231.4465435129
 31
0.0
  0
LINE
  5
21F
  8
0
  6
CONTINUOUS
 62
     7
 10
158.7449561658
 20
231.4882406873
 30
0.0
 11
158.7189070734
 21
231.574049024
 31
0.0
  0
LINE
  5
220
  8
0
  6
CONTINUOUS
 62
     7
 10
159.0287394675
 20
231.4465435129
 30
0.0
 11
158.7449561658
 21
231.4882406873
 31
0.0
  0
LINE
  5
221
  8
0
  6
CONTINUOUS
 62
     7
 10
159.8503149899
 20
235.1112568659
 30
0.0
 11
160.0426982942
 21
235.2742494923
 31
0.0
  0
POLYLINE
  5
222
  8
0
  6
CONTINUOUS
 62
     7
 66
     1
 10
0.0
 20
0.0
 30
0.0
 70
   128
  0
VERTEX
  5
76A
  8
0
  6
CONTINUOUS
 62
     7
 10
160.0569959583
 20
234.8963728082
 30
0.0
  0
VERTEX
  5
76B
  8
0
  6
CONTINUOUS
 62
     7
 10
160.2279793325
 20
234.914310081
 30
0.0
  0
VERTEX
  5
76C
  8
0
  6
CONTINUOUS
 62
     7
 10
160.379417971
 20
234.9976485503
 30
0.0
  0
VERTEX
  5
76D
  8
0
  6
CONTINUOUS
 62
     7
 10
160.4773688915
 20
235.1425046009
 30
0.0
  0
VERTEX
  5
76E
  8
0
  6
CONTINUOUS
 62
     7
 10
160.4956973197
 20
235.3156356049
 30
0.0
  0
VERTEX
  5
76F
  8
0
  6
CONTINUOUS
 62
     7
 10
160.4704659286
 20
235.399042992
 30
0.0
  0
VERTEX
  5
770
  8
0
  6
CONTINUOUS
 62
     7
 10
160.4233223798
 20
235.4722244573
 30
0.0
  0
VERTEX
  5
771
  8
0
  6
CONTINUOUS
 62
     7
 10
160.2800030115
 20
235.5703374279
 30
0.0
  0
VERTEX
  5
772
  8
0
  6
CONTINUOUS
 62
     7
 10
160.1093027594
 20
235.5855142605
 30
0.0
  0
VERTEX
  5
773
  8
0
  6
CONTINUOUS
 62
     7
 10
159.9496871086
 20
235.5190811586
 30
0.0
  0
VERTEX
  5
774
  8
0
  6
CONTINUOUS
 62
     7
 10
159.8675146552
 20
235.4380486441
 30
0.0
  0
VERTEX
  5
775
  8
0
  6
CONTINUOUS
 62
     7
 10
159.8163105401
 20
235.3330960405
 30
0.0
  0
VERTEX
  5
776
  8
0
  6
CONTINUOUS
 62
     7
 10
159.8092902305
 20
235.2182658297
 30
0.0
  0
VERTEX
  5
777
  8
0
  6
CONTINUOUS
 62
     7
 10
159.8503149899
 20
235.1112568659
 30
0.0
  0
SEQEND
  5
89E
  8
0
  6
CONTINUOUS
 62
     7
  0
LINE
  5
223
  8
0
  6
CONTINUOUS
 62
     7
 10
160.047880173
 20
234.8127474916
 30
0.0
 11
160.0569959583
 21
234.8963728082
 31
0.0
  0
POLYLINE
  5
224
  8
0
  6
CONTINUOUS
 62
     7
 66
     1
 10
0.0
 20
0.0
 30
0.0
 70
   128
  0
VERTEX
  5
778
  8
0
  6
CONTINUOUS
 62
     7
 10
159.8320722433
 20
234.9958212954
 30
0.0
  0
VERTEX
  5
779
  8
0
  6
CONTINUOUS
 62
     7
 10
159.7533885243
 20
235.1203558874
 30
0.0
  0
VERTEX
  5
77A
  8
0
  6
CONTINUOUS
 62
     7
 10
159.7261044982
 20
235.2684250009
 30
0.0
  0
VERTEX
  5
77B
  8
0
  6
CONTINUOUS
 62
     7
 10
159.7592297795
 20
235.4114556593
 30
0.0
  0
VERTEX
  5
77C
  8
0
  6
CONTINUOUS
 62
     7
 10
159.848923594
 20
235.5294858944
 30
0.0
  0
VERTEX
  5
77D
  8
0
  6
CONTINUOUS
 62
     7
 10
160.0351899716
 20
235.6493489724
 30
0.0
  0
VERTEX
  5
77E
  8
0
  6
CONTINUOUS
 62
     7
 10
160.2569173875
 20
235.6643134636
 30
0.0
  0
VERTEX
  5
77F
  8
0
  6
CONTINUOUS
 62
     7
 10
160.3627770993
 20
235.6269245875
 30
0.0
  0
VERTEX
  5
780
  8
0
  6
CONTINUOUS
 62
     7
 10
160.4541323932
 20
235.5615699571
 30
0.0
  0
VERTEX
  5
781
  8
0
  6
CONTINUOUS
 62
     7
 10
160.5245236161
 20
235.4738132936
 30
0.0
  0
VERTEX
  5
782
  8
0
  6
CONTINUOUS
 62
     7
 10
160.5683144035
 20
235.3698963207
 30
0.0
  0
VERTEX
  5
783
  8
0
  6
CONTINUOUS
 62
     7
 10
160.5830553772
 20
235.2581581008
 30
0.0
  0
VERTEX
  5
784
  8
0
  6
CONTINUOUS
 62
     7
 10
160.5672191682
 20
235.1474834514
 30
0.0
  0
VERTEX
  5
785
  8
0
  6
CONTINUOUS
 62
     7
 10
160.453661144
 20
234.9573260081
 30
0.0
  0
VERTEX
  5
786
  8
0
  6
CONTINUOUS
 62
     7
 10
160.2669086161
 20
234.8401991558
 30
0.0
  0
VERTEX
  5
787
  8
0
  6
CONTINUOUS
 62
     7
 10
160.047880173
 20
234.8127474916
 30
0.0
  0
SEQEND
  5
89F
  8
0
  6
CONTINUOUS
 62
     7
  0
LINE
  5
225
  8
0
  6
CONTINUOUS
 62
     7
 10
160.0920751544
 20
235.2156674397
 30
0.0
 11
159.8320722433
 21
234.9958212954
 31
0.0
  0
LINE
  5
226
  8
0
  6
CONTINUOUS
 62
     7
 10
160.0426982942
 20
235.2742494923
 30
0.0
 11
160.0920751544
 21
235.2156674397
 31
0.0
  0
LINE
  5
227
  8
0
  6
CONTINUOUS
 62
     7
 10
160.4464452567
 20
229.6875936818
 30
0.0
 11
160.8089122775
 21
229.8124840391
 31
0.0
  0
LINE
  5
228
  8
0
  6
CONTINUOUS
 62
     7
 10
160.5000186565
 20
230.0696575922
 30
0.0
 11
160.4464452567
 21
229.6875936818
 31
0.0
  0
LINE
  5
229
  8
0
  6
CONTINUOUS
 62
     7
 10
160.4281671199
 20
230.1294783038
 30
0.0
 11
160.5000186565
 21
230.0696575922
 31
0.0
  0
LINE
  5
22A
  8
0
  6
CONTINUOUS
 62
     7
 10
160.3603947761
 20
229.6461610031
 30
0.0
 11
160.4281671199
 21
230.1294783038
 31
0.0
  0
LINE
  5
22B
  8
0
  6
CONTINUOUS
 62
     7
 10
160.1166825595
 20
229.3534370047
 30
0.0
 11
160.3603947761
 21
229.6461610031
 31
0.0
  0
LINE
  5
22C
  8
0
  6
CONTINUOUS
 62
     7
 10
160.17757988
 20
229.3027358037
 30
0.0
 11
160.1166825595
 21
229.3534370047
 31
0.0
  0
LINE
  5
22D
  8
0
  6
CONTINUOUS
 62
     7
 10
160.4209828975
 20
229.595502643
 30
0.0
 11
160.17757988
 21
229.3027358037
 31
0.0
  0
LINE
  5
22E
  8
0
  6
CONTINUOUS
 62
     7
 10
160.8798567059
 20
229.7534195614
 30
0.0
 11
160.4209828975
 21
229.595502643
 31
0.0
  0
LINE
  5
22F
  8
0
  6
CONTINUOUS
 62
     7
 10
160.8089122775
 20
229.8124840391
 30
0.0
 11
160.8798567059
 21
229.7534195614
 31
0.0
  0
LINE
  5
230
  8
0
  6
CONTINUOUS
 62
     7
 10
159.2507108899
 20
230.332974149
 30
0.0
 11
159.2048656049
 21
230.4020987731
 31
0.0
  0
LINE
  5
231
  8
0
  6
CONTINUOUS
 62
     7
 10
159.7523361298
 20
230.6656705123
 30
0.0
 11
159.2507108899
 21
230.332974149
 31
0.0
  0
LINE
  5
232
  8
0
  6
CONTINUOUS
 62
     7
 10
159.5410935434
 20
229.8951482308
 30
0.0
 11
159.7523361298
 21
230.6656705123
 31
0.0
  0
LINE
  5
233
  8
0
  6
CONTINUOUS
 62
     7
 10
159.5507290068
 20
229.8806195986
 30
0.0
 11
159.5410935434
 21
229.8951482308
 31
0.0
  0
LINE
  5
234
  8
0
  6
CONTINUOUS
 62
     7
 10
160.2141994836
 20
230.3206564766
 30
0.0
 11
159.5507290068
 21
229.8806195986
 31
0.0
  0
LINE
  5
235
  8
0
  6
CONTINUOUS
 62
     7
 10
160.1712059083
 20
230.3854821157
 30
0.0
 11
160.2141994836
 21
230.3206564766
 31
0.0
  0
LINE
  5
236
  8
0
  6
CONTINUOUS
 62
     7
 10
159.664134294
 20
230.0491740835
 30
0.0
 11
160.1712059083
 21
230.3854821157
 31
0.0
  0
LINE
  5
237
  8
0
  6
CONTINUOUS
 62
     7
 10
159.8775356861
 20
230.8275679034
 30
0.0
 11
159.664134294
 21
230.0491740835
 31
0.0
  0
LINE
  5
238
  8
0
  6
CONTINUOUS
 62
     7
 10
159.8680138441
 20
230.8419233096
 30
0.0
 11
159.8775356861
 21
230.8275679034
 31
0.0
  0
LINE
  5
239
  8
0
  6
CONTINUOUS
 62
     7
 10
159.2048656049
 20
230.4020987731
 30
0.0
 11
159.8680138441
 21
230.8419233096
 31
0.0
  0
LINE
  5
23A
  8
0
  6
CONTINUOUS
 62
     7
 10
146.7640509682
 20
251.5429256392
 30
0.0
 11
146.7640509682
 21
239.3429277372
 31
0.0
  0
LINE
  5
23B
  8
0
  6
CONTINUOUS
 62
     7
 10
178.133413926
 20
251.5429256392
 30
0.0
 11
146.7640509682
 21
251.5429256392
 31
0.0
  0
LINE
  5
23C
  8
0
  6
CONTINUOUS
 62
     7
 10
178.133413926
 20
251.5429256392
 30
0.0
 11
178.133413926
 21
175.5429280829
 31
0.0
  0
LINE
  5
23D
  8
0
  6
CONTINUOUS
 62
     7
 10
178.133413926
 20
175.5429280829
 30
0.0
 11
146.7640509682
 21
175.5429280829
 31
0.0
  0
LINE
  5
23E
  8
0
  6
CONTINUOUS
 62
     7
 10
146.7640509682
 20
187.7429259849
 30
0.0
 11
146.7640509682
 21
175.5429280829
 31
0.0
  0
LINE
  5
23F
  8
0
  6
CONTINUOUS
 62
     7
 10
146.7640509682
 20
187.7429259849
 30
0.0
 11
146.8330773378
 21
187.7429259849
 31
0.0
  0
LINE
  5
240
  8
0
  6
CONTINUOUS
 62
     7
 10
146.8330773378
 20
187.7429259849
 30
0.0
 11
146.8330773378
 21
206.9429268968
 31
0.0
  0
LINE
  5
241
  8
0
  6
CONTINUOUS
 62
     7
 10
146.8330773378
 20
206.9429268968
 30
0.0
 11
146.7640509682
 21
206.9429268968
 31
0.0
  0
LINE
  5
242
  8
0
  6
CONTINUOUS
 62
     7
 10
146.7640509682
 20
220.1429268253
 30
0.0
 11
146.7640509682
 21
206.9429268968
 31
0.0
  0
LINE
  5
243
  8
0
  6
CONTINUOUS
 62
     7
 10
146.7640509682
 20
220.1429268253
 30
0.0
 11
146.8330773378
 21
220.1429268253
 31
0.0
  0
LINE
  5
244
  8
0
  6
CONTINUOUS
 62
     7
 10
146.8330773378
 20
220.1429268253
 30
0.0
 11
146.8330773378
 21
239.3429277372
 31
0.0
  0
LINE
  5
245
  8
0
  6
CONTINUOUS
 62
     7
 10
146.8330773378
 20
239.3429277372
 30
0.0
 11
146.7640509682
 21
239.3429277372
 31
0.0
  0
CIRCLE
  5
246
  8
0
  6
CONTINUOUS
 62
     7
 10
155.8334151479
 20
213.5429268611
 30
0.0
 40
7.0
  0
CIRCLE
  5
247
  8
0
  6
CONTINUOUS
 62
     7
 10
162.7416013297
 20
232.5429268611
 30
0.0
 40
2.900000000000034
  0
LINE
  5
248
  8
0
  6
CONTINUOUS
 62
     7
 10
159.3964274826
 20
234.8327914161
 30
0.0
 11
159.6576187613
 21
234.6624394786
 31
0.0
  0
LINE
  5
249
  8
0
  6
CONTINUOUS
 62
     7
 10
159.6576187613
 20
234.6624394786
 30
0.0
 11
159.4549517932
 21
234.3534639013
 31
0.0
  0
LINE
  5
24A
  8
0
  6
CONTINUOUS
 62
     7
 10
159.4549517932
 20
234.3534639013
 30
0.0
 11
159.5200456532
 21
234.3107664865
 31
0.0
  0
LINE
  5
24B
  8
0
  6
CONTINUOUS
 62
     7
 10
159.5200456532
 20
234.3107664865
 30
0.0
 11
159.7229342761
 21
234.6218431276
 31
0.0
  0
LINE
  5
24C
  8
0
  6
CONTINUOUS
 62
     7
 10
159.7229342761
 20
234.6218431276
 30
0.0
 11
159.9303807917
 21
234.4865443093
 31
0.0
  0
LINE
  5
24D
  8
0
  6
CONTINUOUS
 62
     7
 10
159.9303807917
 20
234.4865443093
 30
0.0
 11
159.7252849343
 21
234.1733181757
 31
0.0
  0
LINE
  5
24E
  8
0
  6
CONTINUOUS
 62
     7
 10
159.7252849343
 20
234.1733181757
 30
0.0
 11
159.7906786802
 21
234.130667327
 31
0.0
  0
LINE
  5
24F
  8
0
  6
CONTINUOUS
 62
     7
 10
159.7906786802
 20
234.130667327
 30
0.0
 11
160.0387494865
 21
234.5101738256
 31
0.0
  0
LINE
  5
250
  8
0
  6
CONTINUOUS
 62
     7
 10
160.0387494865
 20
234.5101738256
 30
0.0
 11
159.3752957734
 21
234.9428867829
 31
0.0
  0
LINE
  5
251
  8
0
  6
CONTINUOUS
 62
     7
 10
159.3752957734
 20
234.9428867829
 30
0.0
 11
159.1297805163
 21
234.5664499235
 31
0.0
  0
LINE
  5
252
  8
0
  6
CONTINUOUS
 62
     7
 10
159.1297805163
 20
234.5664499235
 30
0.0
 11
159.1949805471
 21
234.5239238721
 31
0.0
  0
LINE
  5
253
  8
0
  6
CONTINUOUS
 62
     7
 10
159.1949805471
 20
234.5239238721
 30
0.0
 11
159.3964274826
 21
234.8327914161
 31
0.0
  0
LINE
  5
254
  8
0
  6
CONTINUOUS
 62
     7
 10
159.1607190522
 20
233.6902467442
 30
0.0
 11
158.8044974806
 21
233.7956221682
 31
0.0
  0
LINE
  5
255
  8
0
  6
CONTINUOUS
 62
     7
 10
159.1477773937
 20
233.6464075279
 30
0.0
 11
159.1607190522
 21
233.6902467442
 31
0.0
  0
LINE
  5
256
  8
0
  6
CONTINUOUS
 62
     7
 10
158.7111919972
 20
233.4795387369
 30
0.0
 11
159.1477773937
 21
233.6464075279
 31
0.0
  0
LINE
  5
257
  8
0
  6
CONTINUOUS
 62
     7
 10
158.6824625584
 20
233.3822136653
 30
0.0
 11
158.7111919972
 21
233.4795387369
 31
0.0
  0
LINE
  5
258
  8
0
  6
CONTINUOUS
 62
     7
 10
159.1203518065
 20
233.5524557066
 30
0.0
 11
158.6824625584
 21
233.3822136653
 31
0.0
  0
POLYLINE
  5
259
  8
0
  6
CONTINUOUS
 62
     7
 66
     1
 10
0.0
 20
0.0
 30
0.0
 70
   128
  0
VERTEX
  5
788
  8
0
  6
CONTINUOUS
 62
     7
 10
159.5344271364
 20
233.4461135697
 30
0.0
  0
VERTEX
  5
789
  8
0
  6
CONTINUOUS
 62
     7
 10
159.4431780132
 20
233.2689722908
 30
0.0
  0
VERTEX
  5
78A
  8
0
  6
CONTINUOUS
 62
     7
 10
159.3545049282
 20
233.2220839244
 30
0.0
  0
VERTEX
  5
78B
  8
0
  6
CONTINUOUS
 62
     7
 10
159.2545963677
 20
233.2257738245
 30
0.0
  0
VERTEX
  5
78C
  8
0
  6
CONTINUOUS
 62
     7
 10
159.1657873097
 20
233.2716079336
 30
0.0
  0
VERTEX
  5
78D
  8
0
  6
CONTINUOUS
 62
     7
 10
159.1096285584
 20
233.3542199713
 30
0.0
  0
VERTEX
  5
78E
  8
0
  6
CONTINUOUS
 62
     7
 10
159.0999465289
 20
233.454022361
 30
0.0
  0
VERTEX
  5
78F
  8
0
  6
CONTINUOUS
 62
     7
 10
159.1203518065
 20
233.5524557066
 30
0.0
  0
SEQEND
  5
8A0
  8
0
  6
CONTINUOUS
 62
     7
  0
LINE
  5
25A
  8
0
  6
CONTINUOUS
 62
     7
 10
159.5931786897
 20
233.6464075279
 30
0.0
 11
159.5344271364
 21
233.4461135697
 31
0.0
  0
LINE
  5
25B
  8
0
  6
CONTINUOUS
 62
     7
 10
158.8268101069
 20
233.871210171
 30
0.0
 11
159.5931786897
 21
233.6464075279
 31
0.0
  0
LINE
  5
25C
  8
0
  6
CONTINUOUS
 62
     7
 10
158.8044974806
 20
233.7956221682
 30
0.0
 11
158.8268101069
 21
233.871210171
 31
0.0
  0
LINE
  5
25D
  8
0
  6
CONTINUOUS
 62
     7
 10
158.6117025318
 20
232.2951665056
 30
0.0
 11
159.1841194632
 21
232.5822094363
 31
0.0
  0
LINE
  5
25E
  8
0
  6
CONTINUOUS
 62
     7
 10
158.6117025318
 20
232.2753274721
 30
0.0
 11
158.6117025318
 21
232.2951665056
 31
0.0
  0
LINE
  5
25F
  8
0
  6
CONTINUOUS
 62
     7
 10
159.1817092004
 20
231.995934425
 30
0.0
 11
158.6117025318
 21
232.2753274721
 31
0.0
  0
LINE
  5
260
  8
0
  6
CONTINUOUS
 62
     7
 10
158.6132969561
 20
231.9179268462
 30
0.0
 11
159.1817092004
 21
231.995934425
 31
0.0
  0
LINE
  5
261
  8
0
  6
CONTINUOUS
 62
     7
 10
158.6134813579
 20
231.8378908467
 30
0.0
 11
158.6132969561
 21
231.9179268462
 31
0.0
  0
LINE
  5
262
  8
0
  6
CONTINUOUS
 62
     7
 10
159.4088923039
 20
231.9540267718
 30
0.0
 11
158.6134813579
 21
231.8378908467
 31
0.0
  0
LINE
  5
263
  8
0
  6
CONTINUOUS
 62
     7
 10
159.4088923039
 20
231.9672627282
 30
0.0
 11
159.4088923039
 21
231.9540267718
 31
0.0
  0
LINE
  5
264
  8
0
  6
CONTINUOUS
 62
     7
 10
158.7552174779
 20
232.2854807508
 30
0.0
 11
159.4088923039
 21
231.9672627282
 31
0.0
  0
LINE
  5
265
  8
0
  6
CONTINUOUS
 62
     7
 10
159.4067074212
 20
232.6125668269
 30
0.0
 11
158.7552174779
 21
232.2854807508
 31
0.0
  0
LINE
  5
266
  8
0
  6
CONTINUOUS
 62
     7
 10
159.4067074212
 20
232.6242307109
 30
0.0
 11
159.4067074212
 21
232.6125668269
 31
0.0
  0
LINE
  5
267
  8
0
  6
CONTINUOUS
 62
     7
 10
158.6100876185
 20
232.7337598336
 30
0.0
 11
159.4067074212
 21
232.6242307109
 31
0.0
  0
LINE
  5
268
  8
0
  6
CONTINUOUS
 62
     7
 10
158.6104061308
 20
232.657693131
 30
0.0
 11
158.6100876185
 21
232.7337598336
 31
0.0
  0
LINE
  5
269
  8
0
  6
CONTINUOUS
 62
     7
 10
159.1841194632
 20
232.5822094363
 30
0.0
 11
158.6104061308
 21
232.657693131
 31
0.0
  0
ARC
  5
26A
  8
0
  6
CONTINUOUS
 62
     7
 10
161.555432367
 20
195.4144949891
 30
0.0
 40
0.7637673899063204
 50
269.6593456915
 51
0.8241251067
  0
ARC
  5
26B
  8
0
  6
CONTINUOUS
 62
     7
 10
161.5464168444
 20
195.4482468606
 30
0.0
 40
0.7730392209535439
 50
358.3123621544
 51
89.482667384
  0
ARC
  5
26C
  8
0
  6
CONTINUOUS
 62
     7
 10
161.5541324433
 20
195.4794469977
 30
0.0
 40
0.741807937671064
 50
90.0568318127
 51
181.8477300241
  0
POLYLINE
  5
26D
  8
0
  6
CONTINUOUS
 62
     7
 66
     1
 10
0.0
 20
0.0
 30
0.0
 70
   128
  0
VERTEX
  5
790
  8
0
  6
CONTINUOUS
 62
     7
 10
160.8317408564
 20
195.1926087868
 30
0.0
  0
VERTEX
  5
791
  8
0
  6
CONTINUOUS
 62
     7
 10
160.8168098929
 20
195.3395379615
 30
0.0
  0
VERTEX
  5
792
  8
0
  6
CONTINUOUS
 62
     7
 10
160.8127102109
 20
195.4555286002
 30
0.0
  0
SEQEND
  5
8A1
  8
0
  6
CONTINUOUS
 62
     7
  0
LINE
  5
26E
  8
0
  6
CONTINUOUS
 62
     7
 10
159.8156157734
 20
195.8877200168
 30
0.0
 11
160.8317408564
 21
195.1926087868
 31
0.0
  0
LINE
  5
26F
  8
0
  6
CONTINUOUS
 62
     7
 10
159.690915406
 20
195.7084348333
 30
0.0
 11
159.8156157734
 21
195.8877200168
 31
0.0
  0
LINE
  5
270
  8
0
  6
CONTINUOUS
 62
     7
 10
160.8167167606
 20
194.9387023133
 30
0.0
 11
159.690915406
 21
195.7084348333
 31
0.0
  0
POLYLINE
  5
271
  8
0
  6
CONTINUOUS
 62
     7
 66
     1
 10
0.0
 20
0.0
 30
0.0
 70
   128
  0
VERTEX
  5
793
  8
0
  6
CONTINUOUS
 62
     7
 10
161.5508913847
 20
194.6507410985
 30
0.0
  0
VERTEX
  5
794
  8
0
  6
CONTINUOUS
 62
     7
 10
161.1196052136
 20
194.7593258601
 30
0.0
  0
VERTEX
  5
795
  8
0
  6
CONTINUOUS
 62
     7
 10
160.8167167606
 20
194.9387023133
 30
0.0
  0
SEQEND
  5
8A2
  8
0
  6
CONTINUOUS
 62
     7
  0
POLYLINE
  5
272
  8
0
  6
CONTINUOUS
 62
     7
 66
     1
 10
0.0
 20
0.0
 30
0.0
 70
   128
  0
VERTEX
  5
796
  8
0
  6
CONTINUOUS
 62
     7
 10
161.261428878
 20
193.6250997615
 30
0.0
  0
VERTEX
  5
797
  8
0
  6
CONTINUOUS
 62
     7
 10
161.3477531674
 20
193.2167371643
 30
0.0
  0
VERTEX
  5
798
  8
0
  6
CONTINUOUS
 62
     7
 10
161.4749885949
 20
193.0514329952
 30
0.0
  0
VERTEX
  5
799
  8
0
  6
CONTINUOUS
 62
     7
 10
161.5671653154
 20
193.0013371539
 30
0.0
  0
VERTEX
  5
79A
  8
0
  6
CONTINUOUS
 62
     7
 10
161.6705830994
 20
192.9840741587
 30
0.0
  0
SEQEND
  5
8A3
  8
0
  6
CONTINUOUS
 62
     7
  0
LINE
  5
273
  8
0
  6
CONTINUOUS
 62
     7
 10
161.0050190094
 20
193.6250997615
 30
0.0
 11
161.261428878
 21
193.6250997615
 31
0.0
  0
POLYLINE
  5
274
  8
0
  6
CONTINUOUS
 62
     7
 66
     1
 10
0.0
 20
0.0
 30
0.0
 70
   128
  0
VERTEX
  5
79B
  8
0
  6
CONTINUOUS
 62
     7
 10
160.4761730733
 20
192.8558701557
 30
0.0
  0
VERTEX
  5
79C
  8
0
  6
CONTINUOUS
 62
     7
 10
160.6049302819
 20
192.8747331631
 30
0.0
  0
VERTEX
  5
79D
  8
0
  6
CONTINUOUS
 62
     7
 10
160.7227332743
 20
192.9300630373
 30
0.0
  0
VERTEX
  5
79E
  8
0
  6
CONTINUOUS
 62
     7
 10
160.8996268215
 20
193.1184770447
 30
0.0
  0
VERTEX
  5
79F
  8
0
  6
CONTINUOUS
 62
     7
 10
160.9789177629
 20
193.3656407428
 30
0.0
  0
VERTEX
  5
7A0
  8
0
  6
CONTINUOUS
 62
     7
 10
161.0050190094
 20
193.6250997615
 30
0.0
  0
SEQEND
  5
8A4
  8
0
  6
CONTINUOUS
 62
     7
  0
ARC
  5
275
  8
0
  6
CONTINUOUS
 62
     7
 10
160.5191499352
 20
193.4295315418
 30
0.0
 40
0.5752689776098567
 50
173.7270671856
 51
265.7155883773
  0
POLYLINE
  5
276
  8
0
  6
CONTINUOUS
 62
     7
 66
     1
 10
0.0
 20
0.0
 30
0.0
 70
   128
  0
VERTEX
  5
7A1
  8
0
  6
CONTINUOUS
 62
     7
 10
160.0825421366
 20
193.9100565296
 30
0.0
  0
VERTEX
  5
7A2
  8
0
  6
CONTINUOUS
 62
     7
 10
159.9707107844
 20
193.6876119953
 30
0.0
  0
VERTEX
  5
7A3
  8
0
  6
CONTINUOUS
 62
     7
 10
159.9473252746
 20
193.4923881573
 30
0.0
  0
SEQEND
  5
8A5
  8
0
  6
CONTINUOUS
 62
     7
  0
POLYLINE
  5
277
  8
0
  6
CONTINUOUS
 62
     7
 66
     1
 10
0.0
 20
0.0
 30
0.0
 70
   128
  0
VERTEX
  5
7A4
  8
0
  6
CONTINUOUS
 62
     7
 10
160.4280944767
 20
194.1058708262
 30
0.0
  0
VERTEX
  5
7A5
  8
0
  6
CONTINUOUS
 62
     7
 10
160.2195117476
 20
194.0211875272
 30
0.0
  0
VERTEX
  5
7A6
  8
0
  6
CONTINUOUS
 62
     7
 10
160.0825421366
 20
193.9100565296
 30
0.0
  0
SEQEND
  5
8A6
  8
0
  6
CONTINUOUS
 62
     7
  0
LINE
  5
278
  8
0
  6
CONTINUOUS
 62
     7
 10
160.4280944767
 20
194.3302282971
 30
0.0
 11
160.4280944767
 21
194.1058708262
 31
0.0
  0
ARC
  5
279
  8
0
  6
CONTINUOUS
 62
     7
 10
160.5115039841
 20
193.5137063072
 30
0.0
 40
0.8207711654243343
 50
95.8326572967
 51
181.2085648561
  0
ARC
  5
27A
  8
0
  6
CONTINUOUS
 62
     7
 10
160.5189501564
 20
193.4600696845
 30
0.0
 40
0.828831137925934
 50
177.4881043444
 51
268.5313413991
  0
POLYLINE
  5
27B
  8
0
  6
CONTINUOUS
 62
     7
 66
     1
 10
0.0
 20
0.0
 30
0.0
 70
   128
  0
VERTEX
  5
7A7
  8
0
  6
CONTINUOUS
 62
     7
 10
160.9419181796
 20
192.7807496768
 30
0.0
  0
VERTEX
  5
7A8
  8
0
  6
CONTINUOUS
 62
     7
 10
160.7050046178
 20
192.660355745
 30
0.0
  0
VERTEX
  5
7A9
  8
0
  6
CONTINUOUS
 62
     7
 10
160.4977071139
 20
192.6315108222
 30
0.0
  0
SEQEND
  5
8A7
  8
0
  6
CONTINUOUS
 62
     7
  0
POLYLINE
  5
27C
  8
0
  6
CONTINUOUS
 62
     7
 66
     1
 10
0.0
 20
0.0
 30
0.0
 70
   128
  0
VERTEX
  5
7AA
  8
0
  6
CONTINUOUS
 62
     7
 10
161.1552581044
 20
193.0516825897
 30
0.0
  0
VERTEX
  5
7AB
  8
0
  6
CONTINUOUS
 62
     7
 10
161.0531125071
 20
192.8859649134
 30
0.0
  0
VERTEX
  5
7AC
  8
0
  6
CONTINUOUS
 62
     7
 10
160.9419181796
 20
192.7807496768
 30
0.0
  0
SEQEND
  5
8A8
  8
0
  6
CONTINUOUS
 62
     7
  0
ARC
  5
27D
  8
0
  6
CONTINUOUS
 62
     7
 10
161.6621608806
 20
193.3456403385
 30
0.0
 40
0.5859706328334402
 50
210.1098541029
 51
270.7255528728
  0
ARC
  5
27E
  8
0
  6
CONTINUOUS
 62
     7
 10
161.6283340862
 20
193.4504003534
 30
0.0
 40
0.6919141807728355
 50
273.4175854402
 51
3.271387824
  0
ARC
  5
27F
  8
0
  6
CONTINUOUS
 62
     7
 10
161.5655830788
 20
193.4889836479
 30
0.0
 40
0.7535382100967182
 50
0.0685168417
 51
81.4129595222
  0
LINE
  5
280
  8
0
  6
CONTINUOUS
 62
     7
 10
161.6780951473
 20
194.0097154957
 30
0.0
 11
161.6780951473
 21
194.2340748292
 31
0.0
  0
ARC
  5
281
  8
0
  6
CONTINUOUS
 62
     7
 10
161.5290175388
 20
193.497162882
 30
0.0
 40
0.5337923895836707
 50
358.8962298582
 51
73.7827546195
  0
POLYLINE
  5
282
  8
0
  6
CONTINUOUS
 62
     7
 66
     1
 10
0.0
 20
0.0
 30
0.0
 70
   128
  0
VERTEX
  5
7AD
  8
0
  6
CONTINUOUS
 62
     7
 10
161.6705830994
 20
192.9840741587
 30
0.0
  0
VERTEX
  5
7AE
  8
0
  6
CONTINUOUS
 62
     7
 10
161.8567898723
 20
193.0423414242
 30
0.0
  0
VERTEX
  5
7AF
  8
0
  6
CONTINUOUS
 62
     7
 10
161.9890488538
 20
193.1880189014
 30
0.0
  0
VERTEX
  5
7B0
  8
0
  6
CONTINUOUS
 62
     7
 10
162.0627108815
 20
193.4868803155
 30
0.0
  0
SEQEND
  5
8A9
  8
0
  6
CONTINUOUS
 62
     7
  0
POLYLINE
  5
283
  8
0
  6
CONTINUOUS
 62
     7
 66
     1
 10
0.0
 20
0.0
 30
0.0
 70
   128
  0
VERTEX
  5
7B1
  8
0
  6
CONTINUOUS
 62
     7
 10
161.1332230123
 20
191.5678081942
 30
0.0
  0
VERTEX
  5
7B2
  8
0
  6
CONTINUOUS
 62
     7
 10
161.0852356854
 20
191.8817644846
 30
0.0
  0
VERTEX
  5
7B3
  8
0
  6
CONTINUOUS
 62
     7
 10
161.0050190094
 20
192.118691085
 30
0.0
  0
SEQEND
  5
8AA
  8
0
  6
CONTINUOUS
 62
     7
  0
ARC
  5
284
  8
0
  6
CONTINUOUS
 62
     7
 10
160.5821980256
 20
191.5181052842
 30
0.0
 40
0.5532620673863449
 50
269.9111305737
 51
5.1541784874
  0
ARC
  5
285
  8
0
  6
CONTINUOUS
 62
     7
 10
160.5722083464
 20
191.5897343628
 30
0.0
 40
0.6249571965420072
 50
179.1175333958
 51
270.8372045585
  0
ARC
  5
286
  8
0
  6
CONTINUOUS
 62
     7
 10
160.4907344742
 20
191.6154055248
 30
0.0
 40
0.5436460537843445
 50
100.0307567981
 51
181.6913591533
  0
LINE
  5
287
  8
0
  6
CONTINUOUS
 62
     7
 10
160.3960439416
 20
192.3751009536
 30
0.0
 11
160.3960439416
 21
192.1507416201
 31
0.0
  0
ARC
  5
288
  8
0
  6
CONTINUOUS
 62
     7
 10
160.4569497222
 20
191.6114912048
 30
0.0
 40
0.7660348311891888
 50
94.5602773693
 51
179.9335649465
  0
ARC
  5
289
  8
0
  6
CONTINUOUS
 62
     7
 10
160.5388870076
 20
191.5881621813
 30
0.0
 40
0.8483173416761086
 50
178.3641326129
 51
272.2252410045
  0
ARC
  5
28A
  8
0
  6
CONTINUOUS
 62
     7
 10
160.6131226071
 20
191.5159795666
 30
0.0
 40
0.7765938285295648
 50
266.9517306942
 51
0.8310636993
  0
POLYLINE
  5
28B
  8
0
  6
CONTINUOUS
 62
     7
 66
     1
 10
0.0
 20
0.0
 30
0.0
 70
   128
  0
VERTEX
  5
7B4
  8
0
  6
CONTINUOUS
 62
     7
 10
161.3410569581
 20
191.8217146677
 30
0.0
  0
VERTEX
  5
7B5
  8
0
  6
CONTINUOUS
 62
     7
 10
161.3789282593
 20
191.658455683
 30
0.0
  0
VERTEX
  5
7B6
  8
0
  6
CONTINUOUS
 62
     7
 10
161.3896347436
 20
191.5272435081
 30
0.0
  0
SEQEND
  5
8AB
  8
0
  6
CONTINUOUS
 62
     7
  0
LINE
  5
28C
  8
0
  6
CONTINUOUS
 62
     7
 10
161.9986079487
 20
191.6869988573
 30
0.0
 11
161.3410569581
 21
191.8217146677
 31
0.0
  0
LINE
  5
28D
  8
0
  6
CONTINUOUS
 62
     7
 10
161.9986079487
 20
190.8366398793
 30
0.0
 11
161.9986079487
 21
191.6869988573
 31
0.0
  0
LINE
  5
28E
  8
0
  6
CONTINUOUS
 62
     7
 10
162.2550178173
 20
190.8366398793
 30
0.0
 11
161.9986079487
 21
190.8366398793
 31
0.0
  0
LINE
  5
28F
  8
0
  6
CONTINUOUS
 62
     7
 10
162.2550178173
 20
191.8622793537
 30
0.0
 11
162.2550178173
 21
190.8366398793
 31
0.0
  0
LINE
  5
290
  8
0
  6
CONTINUOUS
 62
     7
 10
161.0050190094
 20
192.118691085
 30
0.0
 11
162.2550178173
 21
191.8622793537
 31
0.0
  0
LINE
  5
291
  8
0
  6
CONTINUOUS
 62
     7
 10
167.1154096576
 20
194.5496311319
 30
0.0
 11
167.8834155055
 21
194.5496311319
 31
0.0
  0
ARC
  5
292
  8
0
  6
CONTINUOUS
 62
     7
 10
165.6737320522
 20
194.5496305672
 30
0.0
 40
2.209683095731606
 50
0.0
 51
180.0
  0
LINE
  5
293
  8
0
  6
CONTINUOUS
 62
     7
 10
163.4640496078
 20
194.5496311319
 30
0.0
 11
164.232053593
 21
194.5496311319
 31
0.0
  0
ARC
  5
294
  8
0
  6
CONTINUOUS
 62
     7
 10
165.6737320522
 20
194.5496305672
 30
0.0
 40
1.441678285905425
 50
106.6002893219
 51
180.0
  0
LINE
  5
295
  8
0
  6
CONTINUOUS
 62
     7
 10
165.2618542167
 20
195.9312220943
 30
0.0
 11
165.2618542167
 21
194.8943117541
 31
0.0
  0
LINE
  5
296
  8
0
  6
CONTINUOUS
 62
     7
 10
165.2618542167
 20
194.8943117541
 30
0.0
 11
166.0298470261
 21
194.8943117541
 31
0.0
  0
LINE
  5
297
  8
0
  6
CONTINUOUS
 62
     7
 10
166.0298470261
 20
194.8943117541
 30
0.0
 11
166.0298470261
 21
195.9466336203
 31
0.0
  0
ARC
  5
298
  8
0
  6
CONTINUOUS
 62
     7
 10
165.6737320522
 20
194.5496305672
 30
0.0
 40
1.441678285904771
 50
360.0
 51
75.6991049938
  0
LINE
  5
299
  8
0
  6
CONTINUOUS
 62
     7
 10
163.4640496078
 20
198.0907179323
 30
0.0
 11
164.2322212311
 21
198.0907179323
 31
0.0
  0
ARC
  5
29A
  8
0
  6
CONTINUOUS
 62
     7
 10
165.6737320522
 20
198.5350224507
 30
0.0
 40
1.508429832311771
 50
342.8695895561
 51
197.1304104439
  0
LINE
  5
29B
  8
0
  6
CONTINUOUS
 62
     7
 10
167.1152438822
 20
198.0907179323
 30
0.0
 11
167.8834155055
 21
198.0907179323
 31
0.0
  0
ARC
  5
29C
  8
0
  6
CONTINUOUS
 62
     7
 10
165.6737320522
 20
198.5350224507
 30
0.0
 40
2.253908992983207
 50
348.6310468757
 51
191.3689531244
  0
CIRCLE
  5
29D
  8
0
  6
CONTINUOUS
 62
     7
 10
163.1334151479
 20
183.5429268611
 30
0.0
 40
4.75
  0
CIRCLE
  5
29E
  8
0
  6
CONTINUOUS
 62
     7
 10
163.1334151479
 20
243.5429268611
 30
0.0
 40
4.749999999999972
  0
POLYLINE
  5
29F
  8
0
  6
CONTINUOUS
 62
     7
 66
     1
 10
0.0
 20
0.0
 30
0.0
 70
   128
  0
VERTEX
  5
7B7
  8
0
  6
CONTINUOUS
 62
     7
 10
166.633414835
 20
245.5636521709
 30
0.0
  0
VERTEX
  5
7B8
  8
0
  6
CONTINUOUS
 62
     7
 10
165.903932214
 20
245.9848185909
 30
0.0
  0
VERTEX
  5
7B9
  8
0
  6
CONTINUOUS
 62
     7
 10
165.1031996908
 20
246.4471233916
 30
0.0
  0
VERTEX
  5
7BA
  8
0
  6
CONTINUOUS
 62
     7
 10
164.5422268512
 20
246.7710001302
 30
0.0
  0
VERTEX
  5
7BB
  8
0
  6
CONTINUOUS
 62
     7
 10
163.9737885299
 20
247.0991870296
 30
0.0
  0
VERTEX
  5
7BC
  8
0
  6
CONTINUOUS
 62
     7
 10
163.1334151926
 20
247.5843800139
 30
0.0
  0
SEQEND
  5
8AC
  8
0
  6
CONTINUOUS
 62
     7
  0
POLYLINE
  5
2A0
  8
0
  6
CONTINUOUS
 62
     7
 66
     1
 10
0.0
 20
0.0
 30
0.0
 70
   128
  0
VERTEX
  5
7BD
  8
0
  6
CONTINUOUS
 62
     7
 10
163.1334151926
 20
247.5843800139
 30
0.0
  0
VERTEX
  5
7BE
  8
0
  6
CONTINUOUS
 62
     7
 10
162.4039325717
 20
247.1632098687
 30
0.0
  0
VERTEX
  5
7BF
  8
0
  6
CONTINUOUS
 62
     7
 10
161.6032000485
 20
246.7009087932
 30
0.0
  0
VERTEX
  5
7C0
  8
0
  6
CONTINUOUS
 62
     7
 10
161.0422272089
 20
246.3770320547
 30
0.0
  0
VERTEX
  5
7C1
  8
0
  6
CONTINUOUS
 62
     7
 10
160.4737888875
 20
246.04884143
 30
0.0
  0
VERTEX
  5
7C2
  8
0
  6
CONTINUOUS
 62
     7
 10
159.6334155502
 20
245.5636521709
 30
0.0
  0
SEQEND
  5
8AD
  8
0
  6
CONTINUOUS
 62
     7
  0
LINE
  5
2A1
  8
0
  6
CONTINUOUS
 62
     7
 10
159.6334155502
 20
245.5636521709
 30
0.0
 11
159.6334155502
 21
241.5222002101
 31
0.0
  0
POLYLINE
  5
2A2
  8
0
  6
CONTINUOUS
 62
     7
 66
     1
 10
0.0
 20
0.0
 30
0.0
 70
   128
  0
VERTEX
  5
7C3
  8
0
  6
CONTINUOUS
 62
     7
 10
159.6334155502
 20
241.5222002101
 30
0.0
  0
VERTEX
  5
7C4
  8
0
  6
CONTINUOUS
 62
     7
 10
160.3628981712
 20
241.1010337901
 30
0.0
  0
VERTEX
  5
7C5
  8
0
  6
CONTINUOUS
 62
     7
 10
161.1636306944
 20
240.638730852
 30
0.0
  0
VERTEX
  5
7C6
  8
0
  6
CONTINUOUS
 62
     7
 10
161.724603534
 20
240.3148522508
 30
0.0
  0
VERTEX
  5
7C7
  8
0
  6
CONTINUOUS
 62
     7
 10
162.2930418553
 20
239.9866653514
 30
0.0
  0
VERTEX
  5
7C8
  8
0
  6
CONTINUOUS
 62
     7
 10
163.1334151926
 20
239.5014742297
 30
0.0
  0
SEQEND
  5
8AE
  8
0
  6
CONTINUOUS
 62
     7
  0
POLYLINE
  5
2A3
  8
0
  6
CONTINUOUS
 62
     7
 66
     1
 10
0.0
 20
0.0
 30
0.0
 70
   128
  0
VERTEX
  5
7C9
  8
0
  6
CONTINUOUS
 62
     7
 10
163.1334151926
 20
239.5014742297
 30
0.0
  0
VERTEX
  5
7CA
  8
0
  6
CONTINUOUS
 62
     7
 10
163.8628978136
 20
239.9226425123
 30
0.0
  0
VERTEX
  5
7CB
  8
0
  6
CONTINUOUS
 62
     7
 10
164.6636303368
 20
240.3849454504
 30
0.0
  0
VERTEX
  5
7CC
  8
0
  6
CONTINUOUS
 62
     7
 10
165.2246031764
 20
240.7088240516
 30
0.0
  0
VERTEX
  5
7CD
  8
0
  6
CONTINUOUS
 62
     7
 10
165.7930414977
 20
241.037010951
 30
0.0
  0
VERTEX
  5
7CE
  8
0
  6
CONTINUOUS
 62
     7
 10
166.633414835
 20
241.5222002101
 30
0.0
  0
SEQEND
  5
8AF
  8
0
  6
CONTINUOUS
 62
     7
  0
LINE
  5
2A4
  8
0
  6
CONTINUOUS
 62
     7
 10
166.633414835
 20
241.5222002101
 30
0.0
 11
166.633414835
 21
245.5636521709
 31
0.0
  0
LINE
  5
2A5
  8
0
  6
CONTINUOUS
 62
     7
 10
146.7640509682
 20
220.1429268253
 30
0.0
 11
145.6334151181
 21
220.1429268253
 31
0.0
  0
LINE
  5
2A6
  8
0
  6
CONTINUOUS
 62
     7
 10
145.6334151181
 20
206.9429268968
 30
0.0
 11
146.7640509682
 21
206.9429268968
 31
0.0
  0
ARC
  5
2A7
  8
0
  6
CONTINUOUS
 62
     7
 10
161.5313856567
 20
195.4061964526
 30
0.0
 40
0.5322173351275731
 50
273.7199159727
 51
3.31789846
  0
ARC
  5
2A8
  8
0
  6
CONTINUOUS
 62
     7
 10
161.5705590157
 20
195.3778171954
 30
0.0
 40
0.5027382088129131
 50
175.8769213268
 51
269.4707807221
  0
ARC
  5
2A9
  8
0
  6
CONTINUOUS
 62
     7
 10
161.6141615551
 20
195.4526206227
 30
0.0
 40
0.5464087658711589
 50
95.0656233392
 51
184.0569112106
  0
ARC
  5
2AA
  8
0
  6
CONTINUOUS
 62
     7
 10
161.5379901585
 20
195.4717659626
 30
0.0
 40
0.5258712564564378
 50
356.2092359025
 51
86.9559925377
  0
LINE
  5
2AB
  8
0
  6
CONTINUOUS
 62
     7
 10
159.1140523406
 20
231.4348554146
 30
0.0
 11
159.1927807632
 21
231.1755882484
 31
0.0
  0
LINE
  5
2AC
  8
0
  6
CONTINUOUS
 62
     7
 10
159.4284929189
 20
231.3880881202
 30
0.0
 11
159.1140523406
 21
231.4348554146
 31
0.0
  0
LINE
  5
2AD
  8
0
  6
CONTINUOUS
 62
     7
 10
159.1927807632
 20
231.1755882484
 30
0.0
 11
159.4284929189
 21
231.3880881202
 31
0.0
  0
LINE
  5
2AE
  8
0
  6
CONTINUOUS
 62
     7
 10
145.6334151181
 20
239.3429277372
 30
0.0
 11
146.7640509682
 21
239.3429277372
 31
0.0
  0
LINE
  5
2AF
  8
0
  6
CONTINUOUS
 62
     7
 10
146.7640509682
 20
251.5429256392
 30
0.0
 11
145.6334151181
 21
251.5429256392
 31
0.0
  0
LINE
  5
2B0
  8
0
  6
CONTINUOUS
 62
     7
 10
145.6334151181
 20
175.5429280829
 30
0.0
 11
146.7640509682
 21
175.5429280829
 31
0.0
  0
LINE
  5
2B1
  8
0
  6
CONTINUOUS
 62
     7
 10
146.7640509682
 20
187.7429259849
 30
0.0
 11
145.6334151181
 21
187.7429259849
 31
0.0
  0
LINE
  5
2B2
  8
0
  6
CONTINUOUS
 62
     7
 10
163.5416008385
 20
233.5929272604
 30
0.0
 11
163.5416008385
 21
233.29292777
 31
0.0
  0
ARC
  5
2B3
  8
0
  6
CONTINUOUS
 62
     7
 10
163.3034829171
 20
233.2929268611
 30
0.0
 40
0.2381184126032089
 50
286.9900700188
 51
0.0
  0
ARC
  5
2B4
  8
0
  6
CONTINUOUS
 62
     7
 10
163.311213986
 20
233.2676239907
 30
0.0
 40
0.2116608112029074
 50
224.3596915523
 51
286.9900700188
  0
ARC
  5
2B5
  8
0
  6
CONTINUOUS
 62
     7
 10
163.3983906768
 20
233.3528736523
 30
0.0
 40
0.3335922682361327
 50
185.9595545318
 51
224.3596915523
  0
LINE
  5
2B6
  8
0
  6
CONTINUOUS
 62
     7
 10
163.0666021111
 20
233.5929272604
 30
0.0
 11
163.0666021111
 21
233.3182373923
 31
0.0
  0
LINE
  5
2B7
  8
0
  6
CONTINUOUS
 62
     7
 10
163.0666021111
 20
233.5929272604
 30
0.0
 11
163.5416008385
 21
233.5929272604
 31
0.0
  0
LINE
  5
2B8
  8
0
  6
CONTINUOUS
 62
     7
 10
159.4962540867
 20
233.5909882468
 30
0.0
 11
159.4594016525
 21
233.4681244475
 31
0.0
  0
POLYLINE
  5
2B9
  8
0
  6
CONTINUOUS
 62
     7
 66
     1
 10
0.0
 20
0.0
 30
0.0
 70
   128
  0
VERTEX
  5
7CF
  8
0
  6
CONTINUOUS
 62
     7
 10
159.1977167728
 20
233.5448840541
 30
0.0
  0
VERTEX
  5
7D0
  8
0
  6
CONTINUOUS
 62
     7
 10
159.1788109245
 20
233.4061076772
 30
0.0
  0
VERTEX
  5
7D1
  8
0
  6
CONTINUOUS
 62
     7
 10
159.1905437263
 20
233.3727290762
 30
0.0
  0
VERTEX
  5
7D2
  8
0
  6
CONTINUOUS
 62
     7
 10
159.2109359654
 20
233.3438357246
 30
0.0
  0
VERTEX
  5
7D3
  8
0
  6
CONTINUOUS
 62
     7
 10
159.2708069685
 20
233.3073986602
 30
0.0
  0
VERTEX
  5
7D4
  8
0
  6
CONTINUOUS
 62
     7
 10
159.305616081
 20
233.3014400584
 30
0.0
  0
VERTEX
  5
7D5
  8
0
  6
CONTINUOUS
 62
     7
 10
159.3408908548
 20
233.3054428828
 30
0.0
  0
VERTEX
  5
7D6
  8
0
  6
CONTINUOUS
 62
     7
 10
159.3740217241
 20
233.3183342499
 30
0.0
  0
VERTEX
  5
7D7
  8
0
  6
CONTINUOUS
 62
     7
 10
159.4017248454
 20
233.3400266153
 30
0.0
  0
VERTEX
  5
7D8
  8
0
  6
CONTINUOUS
 62
     7
 10
159.4594016525
 20
233.4681244475
 30
0.0
  0
SEQEND
  5
8B0
  8
0
  6
CONTINUOUS
 62
     7
  0
LINE
  5
2BA
  8
0
  6
CONTINUOUS
 62
     7
 10
159.2352043691
 20
233.668211652
 30
0.0
 11
159.1977167728
 21
233.5448840541
 31
0.0
  0
LINE
  5
2BB
  8
0
  6
CONTINUOUS
 62
     7
 10
159.2352043691
 20
233.668211652
 30
0.0
 11
159.4962540867
 21
233.5909882468
 31
0.0
  0
LINE
  5
2BC
  8
0
  6
CONTINUOUS
 62
     7
 10
160.8416016998
 20
232.1679273528
 30
0.0
 11
162.1334150287
 21
232.5139490795
 31
0.0
  0
LINE
  5
2BD
  8
0
  6
CONTINUOUS
 62
     7
 10
164.4666015955
 20
234.0429274273
 30
0.0
 11
164.4666015955
 21
233.0429272634
 31
0.0
  0
ARC
  5
2BE
  8
0
  6
CONTINUOUS
 62
     7
 10
163.3959595381
 20
233.1562152698
 30
0.0
 40
0.6304280255574642
 50
183.3383824581
 51
224.3596915523
  0
ARC
  5
2BF
  8
0
  6
CONTINUOUS
 62
     7
 10
163.2312116278
 20
232.9951090904
 30
0.0
 40
0.3999999999994733
 50
224.3596915523
 51
286.9900700186
  0
ARC
  5
2C0
  8
0
  6
CONTINUOUS
 62
     7
 10
163.2166013297
 20
233.0429268611
 30
0.0
 40
0.4499999999994699
 50
286.9900700185
 51
351.752401944
  0
ARC
  5
2C1
  8
0
  6
CONTINUOUS
 62
     7
 10
164.0666013297
 20
233.0429268611
 30
0.0
 40
0.4000000000001762
 50
189.2742999592
 51
0.0
  0
LINE
  5
2C2
  8
0
  6
CONTINUOUS
 62
     7
 10
164.0039149525
 20
231.3799334598
 30
0.0
 11
164.0040341618
 21
230.9533150774
 31
0.0
  0
POLYLINE
  5
2C3
  8
0
  6
CONTINUOUS
 62
     7
 66
     1
 10
0.0
 20
0.0
 30
0.0
 70
   128
  0
VERTEX
  5
7D9
  8
0
  6
CONTINUOUS
 62
     7
 10
164.0040341618
 20
230.9533150774
 30
0.0
  0
VERTEX
  5
7DA
  8
0
  6
CONTINUOUS
 62
     7
 10
164.1220997872
 20
230.9568205756
 30
0.0
  0
VERTEX
  5
7DB
  8
0
  6
CONTINUOUS
 62
     7
 10
164.2335362586
 20
230.9958392662
 30
0.0
  0
VERTEX
  5
7DC
  8
0
  6
CONTINUOUS
 62
     7
 10
164.3295761051
 20
231.0645578337
 30
0.0
  0
VERTEX
  5
7DD
  8
0
  6
CONTINUOUS
 62
     7
 10
164.4029307964
 20
231.1570586544
 30
0.0
  0
VERTEX
  5
7DE
  8
0
  6
CONTINUOUS
 62
     7
 10
164.4771795573
 20
231.3806431276
 30
0.0
  0
VERTEX
  5
7DF
  8
0
  6
CONTINUOUS
 62
     7
 10
164.4984006735
 20
231.6159976554
 30
0.0
  0
VERTEX
  5
7E0
  8
0
  6
CONTINUOUS
 62
     7
 10
164.3930904421
 20
232.0734614414
 30
0.0
  0
VERTEX
  5
7E1
  8
0
  6
CONTINUOUS
 62
     7
 10
164.2291162016
 20
232.2420103383
 30
0.0
  0
VERTEX
  5
7E2
  8
0
  6
CONTINUOUS
 62
     7
 10
164.1221612545
 20
232.2923688126
 30
0.0
  0
VERTEX
  5
7E3
  8
0
  6
CONTINUOUS
 62
     7
 10
164.0050772431
 20
232.3093077076
 30
0.0
  0
VERTEX
  5
7E4
  8
0
  6
CONTINUOUS
 62
     7
 10
163.8498537096
 20
232.2836441827
 30
0.0
  0
VERTEX
  5
7E5
  8
0
  6
CONTINUOUS
 62
     7
 10
163.7177586409
 20
232.1975489986
 30
0.0
  0
VERTEX
  5
7E6
  8
0
  6
CONTINUOUS
 62
     7
 10
163.5618831816
 20
231.9260517043
 30
0.0
  0
SEQEND
  5
8B1
  8
0
  6
CONTINUOUS
 62
     7
  0
LINE
  5
2C4
  8
0
  6
CONTINUOUS
 62
     7
 10
163.4412564191
 20
231.491958527
 30
0.0
 11
163.5618831816
 21
231.9260517043
 31
0.0
  0
POLYLINE
  5
2C5
  8
0
  6
CONTINUOUS
 62
     7
 66
     1
 10
0.0
 20
0.0
 30
0.0
 70
   128
  0
VERTEX
  5
7E7
  8
0
  6
CONTINUOUS
 62
     7
 10
163.4412564191
 20
231.491958527
 30
0.0
  0
VERTEX
  5
7E8
  8
0
  6
CONTINUOUS
 62
     7
 10
163.4138345572
 20
231.4283827227
 30
0.0
  0
VERTEX
  5
7E9
  8
0
  6
CONTINUOUS
 62
     7
 10
163.3674584183
 20
231.3747180533
 30
0.0
  0
VERTEX
  5
7EA
  8
0
  6
CONTINUOUS
 62
     7
 10
163.3059669139
 20
231.3433939499
 30
0.0
  0
VERTEX
  5
7EB
  8
0
  6
CONTINUOUS
 62
     7
 10
163.2362760457
 20
231.339808358
 30
0.0
  0
VERTEX
  5
7EC
  8
0
  6
CONTINUOUS
 62
     7
 10
163.1403200182
 20
231.3784470689
 30
0.0
  0
VERTEX
  5
7ED
  8
0
  6
CONTINUOUS
 62
     7
 10
163.0733094963
 20
231.4585147333
 30
0.0
  0
VERTEX
  5
7EE
  8
0
  6
CONTINUOUS
 62
     7
 10
163.0404263588
 20
231.5570318979
 30
0.0
  0
VERTEX
  5
7EF
  8
0
  6
CONTINUOUS
 62
     7
 10
163.0391299578
 20
231.6610867065
 30
0.0
  0
VERTEX
  5
7F0
  8
0
  6
CONTINUOUS
 62
     7
 10
163.0642067494
 20
231.7623997015
 30
0.0
  0
VERTEX
  5
7F1
  8
0
  6
CONTINUOUS
 62
     7
 10
163.1219748261
 20
231.8497130555
 30
0.0
  0
VERTEX
  5
7F2
  8
0
  6
CONTINUOUS
 62
     7
 10
163.2117301079
 20
231.9017646742
 30
0.0
  0
VERTEX
  5
7F3
  8
0
  6
CONTINUOUS
 62
     7
 10
163.3149020227
 20
231.9161014539
 30
0.0
  0
SEQEND
  5
8B2
  8
0
  6
CONTINUOUS
 62
     7
  0
LINE
  5
2C6
  8
0
  6
CONTINUOUS
 62
     7
 10
163.3166007551
 20
232.3385344726
 30
0.0
 11
163.3149020227
 21
231.9161014539
 31
0.0
  0
POLYLINE
  5
2C7
  8
0
  6
CONTINUOUS
 62
     7
 66
     1
 10
0.0
 20
0.0
 30
0.0
 70
   128
  0
VERTEX
  5
7F4
  8
0
  6
CONTINUOUS
 62
     7
 10
163.3166007551
 20
232.3385344726
 30
0.0
  0
VERTEX
  5
7F5
  8
0
  6
CONTINUOUS
 62
     7
 10
163.0710352066
 20
232.2907240969
 30
0.0
  0
VERTEX
  5
7F6
  8
0
  6
CONTINUOUS
 62
     7
 10
162.8790914866
 20
232.1315107775
 30
0.0
  0
VERTEX
  5
7F7
  8
0
  6
CONTINUOUS
 62
     7
 10
162.7809356751
 20
231.9018149656
 30
0.0
  0
VERTEX
  5
7F8
  8
0
  6
CONTINUOUS
 62
     7
 10
162.7570193114
 20
231.6521422845
 30
0.0
  0
VERTEX
  5
7F9
  8
0
  6
CONTINUOUS
 62
     7
 10
162.8594722452
 20
231.1654740852
 30
0.0
  0
VERTEX
  5
7FA
  8
0
  6
CONTINUOUS
 62
     7
 10
163.0246851447
 20
230.9786712658
 30
0.0
  0
VERTEX
  5
7FB
  8
0
  6
CONTINUOUS
 62
     7
 10
163.2599204632
 20
230.8989649546
 30
0.0
  0
VERTEX
  5
7FC
  8
0
  6
CONTINUOUS
 62
     7
 10
163.4264316263
 20
230.9121133667
 30
0.0
  0
VERTEX
  5
7FD
  8
0
  6
CONTINUOUS
 62
     7
 10
163.5753203037
 20
230.9877050948
 30
0.0
  0
VERTEX
  5
7FE
  8
0
  6
CONTINUOUS
 62
     7
 10
163.6798817518
 20
231.1178686005
 30
0.0
  0
VERTEX
  5
7FF
  8
0
  6
CONTINUOUS
 62
     7
 10
163.7410733702
 20
231.273669554
 30
0.0
  0
SEQEND
  5
8B3
  8
0
  6
CONTINUOUS
 62
     7
  0
LINE
  5
2C8
  8
0
  6
CONTINUOUS
 62
     7
 10
162.7666007581
 20
234.0429274273
 30
0.0
 11
162.7666007581
 21
233.1195043308
 31
0.0
  0
CIRCLE
  5
2C9
  8
0
  6
CONTINUOUS
 62
     7
 10
162.7416013297
 20
232.5429268611
 30
0.0
 40
2.550000000000011
  0
LINE
  5
2CA
  8
0
  6
CONTINUOUS
 62
     7
 10
162.1334150287
 20
232.5719052833
 30
0.0
 11
160.8416016998
 21
232.9179270101
 31
0.0
  0
ARC
  5
2CB
  8
0
  6
CONTINUOUS
 62
     7
 10
162.1256530654
 20
232.5429268601
 30
0.0
 40
0.0299999999999946
 50
284.9950790897
 51
75.0049208313
  0
LINE
  5
2CC
  8
0
  6
CONTINUOUS
 62
     7
 10
160.8416016998
 20
232.1679273528
 30
0.0
 11
160.8416016998
 21
231.6679263395
 31
0.0
  0
LINE
  5
2CD
  8
0
  6
CONTINUOUS
 62
     7
 10
160.8416016998
 20
231.6679263395
 30
0.0
 11
162.5416006746
 21
231.1429267657
 31
0.0
  0
LINE
  5
2CE
  8
0
  6
CONTINUOUS
 62
     7
 10
162.5416006746
 20
231.5429260862
 30
0.0
 11
162.5416006746
 21
231.1429267657
 31
0.0
  0
LINE
  5
2CF
  8
0
  6
CONTINUOUS
 62
     7
 10
162.5416006746
 20
231.5429260862
 30
0.0
 11
161.2497873458
 21
231.8889478129
 31
0.0
  0
LINE
  5
2D0
  8
0
  6
CONTINUOUS
 62
     7
 10
161.2497873458
 20
233.1389484835
 30
0.0
 11
162.5416006746
 21
232.7929267567
 31
0.0
  0
ARC
  5
2D1
  8
0
  6
CONTINUOUS
 62
     7
 10
161.257549594
 20
233.167926862
 30
0.0
 40
0.0300000000000515
 50
104.9950790897
 51
255.0049208314
  0
LINE
  5
2D2
  8
0
  6
CONTINUOUS
 62
     7
 10
162.5416006746
 20
233.542926414
 30
0.0
 11
161.2497873458
 21
233.1969046873
 31
0.0
  0
LINE
  5
2D3
  8
0
  6
CONTINUOUS
 62
     7
 10
162.5416006746
 20
233.9429275972
 30
0.0
 11
162.5416006746
 21
233.542926414
 31
0.0
  0
LINE
  5
2D4
  8
0
  6
CONTINUOUS
 62
     7
 10
160.8416016998
 20
233.4179261607
 30
0.0
 11
162.5416006746
 21
233.9429275972
 31
0.0
  0
LINE
  5
2D5
  8
0
  6
CONTINUOUS
 62
     7
 10
162.7666007581
 20
234.0429274273
 30
0.0
 11
164.4666015955
 21
234.0429274273
 31
0.0
  0
ARC
  5
2D6
  8
0
  6
CONTINUOUS
 62
     7
 10
163.6668954473
 20
232.9776565951
 30
0.0
 40
0.0049999999998353
 50
9.274299962
 51
171.7524019439
  0
LINE
  5
2D7
  8
0
  6
CONTINUOUS
 62
     7
 10
163.7410733702
 20
231.273669554
 30
0.0
 11
163.8557601574
 21
231.6877001804
 31
0.0
  0
POLYLINE
  5
2D8
  8
0
  6
CONTINUOUS
 62
     7
 66
     1
 10
0.0
 20
0.0
 30
0.0
 70
   128
  0
VERTEX
  5
800
  8
0
  6
CONTINUOUS
 62
     7
 10
163.8557601574
 20
231.6877001804
 30
0.0
  0
VERTEX
  5
801
  8
0
  6
CONTINUOUS
 62
     7
 10
163.9050215336
 20
231.8031394762
 30
0.0
  0
VERTEX
  5
802
  8
0
  6
CONTINUOUS
 62
     7
 10
163.9509338739
 20
231.8463025522
 30
0.0
  0
VERTEX
  5
803
  8
0
  6
CONTINUOUS
 62
     7
 10
164.0104546996
 20
231.8663632405
 30
0.0
  0
VERTEX
  5
804
  8
0
  6
CONTINUOUS
 62
     7
 10
164.1044270101
 20
231.8579217327
 30
0.0
  0
VERTEX
  5
805
  8
0
  6
CONTINUOUS
 62
     7
 10
164.1456249955
 20
231.8353837264
 30
0.0
  0
VERTEX
  5
806
  8
0
  6
CONTINUOUS
 62
     7
 10
164.1785416606
 20
231.8013774139
 30
0.0
  0
VERTEX
  5
807
  8
0
  6
CONTINUOUS
 62
     7
 10
164.2179403307
 20
231.7160924804
 30
0.0
  0
VERTEX
  5
808
  8
0
  6
CONTINUOUS
 62
     7
 10
164.2318766418
 20
231.6229918879
 30
0.0
  0
VERTEX
  5
809
  8
0
  6
CONTINUOUS
 62
     7
 10
164.2184711846
 20
231.52978885
 30
0.0
  0
VERTEX
  5
80A
  8
0
  6
CONTINUOUS
 62
     7
 10
164.1761202219
 20
231.4464075398
 30
0.0
  0
VERTEX
  5
80B
  8
0
  6
CONTINUOUS
 62
     7
 10
164.0967640879
 20
231.3961943519
 30
0.0
  0
VERTEX
  5
80C
  8
0
  6
CONTINUOUS
 62
     7
 10
164.0039149525
 20
231.3799334598
 30
0.0
  0
SEQEND
  5
8B4
  8
0
  6
CONTINUOUS
 62
     7
  0
ARC
  5
2D9
  8
0
  6
CONTINUOUS
 62
     7
 10
161.257549594
 20
231.917926862
 30
0.0
 40
0.030000000000123
 50
104.9950790912
 51
255.0049208311
  0
LINE
  5
2DA
  8
0
  6
CONTINUOUS
 62
     7
 10
161.2497873458
 20
231.9469058794
 30
0.0
 11
162.5416006746
 21
232.2929276061
 31
0.0
  0
LINE
  5
2DB
  8
0
  6
CONTINUOUS
 62
     7
 10
162.5416006746
 20
232.7929267567
 30
0.0
 11
162.5416006746
 21
232.2929276061
 31
0.0
  0
LINE
  5
2DC
  8
0
  6
CONTINUOUS
 62
     7
 10
160.8416016998
 20
232.9179270101
 30
0.0
 11
160.8416016998
 21
233.4179261607
 31
0.0
  0
ARC
  5
2DD
  8
0
  6
CONTINUOUS
 62
     7
 10
163.9746765782
 20
233.2929268611
 30
0.0
 40
0.1919247515258178
 50
286.9900700185
 51
0.0
  0
LINE
  5
2DE
  8
0
  6
CONTINUOUS
 62
     7
 10
163.7916013452
 20
233.5929272604
 30
0.0
 11
163.7916013452
 21
233.271118058
 31
0.0
  0
LINE
  5
2DF
  8
0
  6
CONTINUOUS
 62
     7
 10
164.1666021051
 20
233.5929272604
 30
0.0
 11
164.1666021051
 21
233.29292777
 31
0.0
  0
ARC
  5
2E0
  8
0
  6
CONTINUOUS
 62
     7
 10
163.9809078622
 20
233.2725326083
 30
0.0
 40
0.1705997791341126
 50
224.3596915523
 51
286.9900700185
  0
ARC
  5
2E1
  8
0
  6
CONTINUOUS
 62
     7
 10
164.051172755
 20
233.3412443048
 30
0.0
 40
0.2688772047999923
 50
195.1181138048
 51
224.3596915523
  0
LINE
  5
2E2
  8
0
  6
CONTINUOUS
 62
     7
 10
163.7916013452
 20
233.5929272604
 30
0.0
 11
164.1666021051
 21
233.5929272604
 31
0.0
  0
POLYLINE
  5
2E3
  8
0
  6
CONTINUOUS
 62
     7
 66
     1
 10
0.0
 20
0.0
 30
0.0
 70
   128
  0
VERTEX
  5
80D
  8
0
  6
CONTINUOUS
 62
     7
 10
166.633414835
 20
185.563653512
 30
0.0
  0
VERTEX
  5
80E
  8
0
  6
CONTINUOUS
 62
     7
 10
165.903932214
 20
185.984819932
 30
0.0
  0
VERTEX
  5
80F
  8
0
  6
CONTINUOUS
 62
     7
 10
165.1031996908
 20
186.4471228701
 30
0.0
  0
VERTEX
  5
810
  8
0
  6
CONTINUOUS
 62
     7
 10
164.5422268512
 20
186.7710014713
 30
0.0
  0
VERTEX
  5
811
  8
0
  6
CONTINUOUS
 62
     7
 10
163.9737885299
 20
187.0991883707
 30
0.0
  0
VERTEX
  5
812
  8
0
  6
CONTINUOUS
 62
     7
 10
163.1334151926
 20
187.5843794924
 30
0.0
  0
SEQEND
  5
8B5
  8
0
  6
CONTINUOUS
 62
     7
  0
POLYLINE
  5
2E4
  8
0
  6
CONTINUOUS
 62
     7
 66
     1
 10
0.0
 20
0.0
 30
0.0
 70
   128
  0
VERTEX
  5
813
  8
0
  6
CONTINUOUS
 62
     7
 10
163.1334151926
 20
187.5843794924
 30
0.0
  0
VERTEX
  5
814
  8
0
  6
CONTINUOUS
 62
     7
 10
162.4039325717
 20
187.1632112098
 30
0.0
  0
VERTEX
  5
815
  8
0
  6
CONTINUOUS
 62
     7
 10
161.6032000485
 20
186.7009082717
 30
0.0
  0
VERTEX
  5
816
  8
0
  6
CONTINUOUS
 62
     7
 10
161.0422272089
 20
186.3770296705
 30
0.0
  0
VERTEX
  5
817
  8
0
  6
CONTINUOUS
 62
     7
 10
160.4737888875
 20
186.0488427711
 30
0.0
  0
VERTEX
  5
818
  8
0
  6
CONTINUOUS
 62
     7
 10
159.6334155502
 20
185.563653512
 30
0.0
  0
SEQEND
  5
8B6
  8
0
  6
CONTINUOUS
 62
     7
  0
LINE
  5
2E5
  8
0
  6
CONTINUOUS
 62
     7
 10
159.6334155502
 20
185.563653512
 30
0.0
 11
159.6334155502
 21
181.5222015512
 31
0.0
  0
POLYLINE
  5
2E6
  8
0
  6
CONTINUOUS
 62
     7
 66
     1
 10
0.0
 20
0.0
 30
0.0
 70
   128
  0
VERTEX
  5
819
  8
0
  6
CONTINUOUS
 62
     7
 10
159.6334155502
 20
181.5222015512
 30
0.0
  0
VERTEX
  5
81A
  8
0
  6
CONTINUOUS
 62
     7
 10
160.3628981712
 20
181.1010351312
 30
0.0
  0
VERTEX
  5
81B
  8
0
  6
CONTINUOUS
 62
     7
 10
161.1636306944
 20
180.6387303305
 30
0.0
  0
VERTEX
  5
81C
  8
0
  6
CONTINUOUS
 62
     7
 10
161.724603534
 20
180.3148535919
 30
0.0
  0
VERTEX
  5
81D
  8
0
  6
CONTINUOUS
 62
     7
 10
162.2930418553
 20
179.9866666925
 30
0.0
  0
VERTEX
  5
81E
  8
0
  6
CONTINUOUS
 62
     7
 10
163.1334151926
 20
179.5014737082
 30
0.0
  0
SEQEND
  5
8B7
  8
0
  6
CONTINUOUS
 62
     7
  0
POLYLINE
  5
2E7
  8
0
  6
CONTINUOUS
 62
     7
 66
     1
 10
0.0
 20
0.0
 30
0.0
 70
   128
  0
VERTEX
  5
81F
  8
0
  6
CONTINUOUS
 62
     7
 10
163.1334151926
 20
179.5014737082
 30
0.0
  0
VERTEX
  5
820
  8
0
  6
CONTINUOUS
 62
     7
 10
163.8628978136
 20
179.9226438534
 30
0.0
  0
VERTEX
  5
821
  8
0
  6
CONTINUOUS
 62
     7
 10
164.6636303368
 20
180.3849449289
 30
0.0
  0
VERTEX
  5
822
  8
0
  6
CONTINUOUS
 62
     7
 10
165.2246031764
 20
180.7088216674
 30
0.0
  0
VERTEX
  5
823
  8
0
  6
CONTINUOUS
 62
     7
 10
165.7930414977
 20
181.0370122922
 30
0.0
  0
VERTEX
  5
824
  8
0
  6
CONTINUOUS
 62
     7
 10
166.633414835
 20
181.5222015512
 30
0.0
  0
SEQEND
  5
8B8
  8
0
  6
CONTINUOUS
 62
     7
  0
LINE
  5
2E8
  8
0
  6
CONTINUOUS
 62
     7
 10
166.633414835
 20
181.5222015512
 30
0.0
 11
166.633414835
 21
185.563653512
 31
0.0
  0
DIMENSION
  5
2E9
  8
0
  6
CONTINUOUS
 62
     7
  2
_D
 10
178.1334151479
 20
264.5429268611
 30
0.0
 11
140.1334151479
 21
264.5429268611
 31
0.0
 70
   160
  1
<>
  3
SLDDIMSTYLE0
 13
102.1334151479
 23
251.5429268611
 33
0.0
 14
178.1334151479
 24
251.5429268611
 34
0.0
  0
DIMENSION
  5
2F4
  8
0
  6
CONTINUOUS
 62
     7
  2
_D_1
 10
78.1334151479
 20
175.5429268611
 30
0.0
 11
78.1334151479
 21
213.5429268611
 31
0.0
 70
   160
  1
<>
  3
SLDDIMSTYLE0
 13
102.1334151479
 23
251.5429268611
 33
0.0
 14
102.1334151479
 24
175.5429268611
 34
0.0
 50
90.0
  0
DIMENSION
  5
2FE
  8
0
  6
CONTINUOUS
 62
     7
  2
_D_2
 10
92.1334151479
 20
213.5429268611
 30
0.0
 11
92.1334151479
 21
228.5429268611
 31
0.0
 70
   160
  1
<>
  3
SLDDIMSTYLE0
 13
109.8834151479
 23
243.5429268611
 33
0.0
 14
104.8834151479
 24
213.5429268611
 34
0.0
 50
90.0
  0
DIMENSION
  5
308
  8
0
  6
CONTINUOUS
 62
     7
  2
_D_3
 10
92.1334151479
 20
183.5429268611
 30
0.0
 11
92.1334151479
 21
198.5429268611
 31
0.0
 70
   160
  1
<>
  3
SLDDIMSTYLE0
 13
104.8834151479
 23
213.5429268611
 33
0.0
 14
109.8834151479
 24
183.5429268611
 34
0.0
 50
90.0
  0
DIMENSION
  5
312
  8
0
  6
CONTINUOUS
 62
     7
  2
_D_4
 10
102.1334151479
 20
166.2060371028
 30
0.0
 11
120.8501331804
 21
166.2060371028
 31
0.0
 70
   160
  1
<>
  3
SLDDIMSTYLE0
 13
112.1334151479
 23
206.2929268611
 33
0.0
 14
102.1334151479
 24
175.5429268611
 34
0.0
  0
DIMENSION
  5
31D
  8
0
  6
CONTINUOUS
 62
     7
  2
_D_5
 10
102.1334151479
 20
162.1075553653
 30
0.0
 11
120.8501331804
 21
162.1075553653
 31
0.0
 70
   160
  1
<>
  3
SLDDIMSTYLE0
 13
117.1334151479
 23
176.2929268611
 33
0.0
 14
102.1334151479
 24
175.5429268611
 34
0.0
  0
DIMENSION
  5
328
  8
0
  6
CONTINUOUS
 62
     7
  2
_D_6
 10
178.1334151479
 20
166.2060371028
 30
0.0
 11
166.9834151479
 21
166.2060371028
 31
0.0
 70
   160
  1
<>
  3
SLDDIMSTYLE1
 13
155.8334151479
 23
204.0429268611
 33
0.0
 14
178.1334151479
 24
175.5429268611
 34
0.0
  0
DIMENSION
  5
335
  8
0
  6
CONTINUOUS
 62
     7
  2
_D_7
 10
167.8834151479
 20
257.6420665875
 30
0.0
 11
163.1334151479
 21
257.6420665875
 31
0.0
 70
   160
  1
%%c<>x90°
  3
SLDDIMSTYLE2
 13
158.3834151479
 23
243.5429268611
 33
0.0
 14
167.8834151479
 24
243.5429268611
 34
0.0
  0
DIMENSION
  5
344
  8
0
  6
CONTINUOUS
 62
     7
  2
_D_8
 10
162.8334151479
 20
157.5429268611
 30
0.0
 11
155.8334151479
 21
157.5429268611
 31
0.0
 70
   160
  1
%%c<>
  3
SLDDIMSTYLE2
 13
148.8334151479
 23
213.5429268611
 33
0.0
 14
162.8334151479
 24
213.5429268611
 34
0.0
  0
INSERT
  5
357
  8
0
  6
CONTINUOUS
 62
     7
  2
SW_NOTE_0_3
 10
178.1334151479
 20
251.5429268611
 30
0.0
  0
INSERT
  5
363
  8
0
  6
CONTINUOUS
 62
     7
  2
SW_CENTERMARKSYMBOL_0
 10
155.8334151479
 20
213.5429268611
 30
0.0
  0
INSERT
  5
36F
  8
0
  6
CONTINUOUS
 62
     7
  2
SW_CENTERMARKSYMBOL_1
 10
126.6334151479
 20
213.5429268611
 30
0.0
  0
INSERT
  5
37B
  8
0
  6
CONTINUOUS
 62
     7
  2
SW_CENTERMARKSYMBOL_2
 10
117.1334151479
 20
183.5429268611
 30
0.0
  0
INSERT
  5
387
  8
0
  6
CONTINUOUS
 62
     7
  2
SW_CENTERMARKSYMBOL_3
 10
112.1334151479
 20
213.5429268611
 30
0.0
  0
INSERT
  5
393
  8
0
  6
CONTINUOUS
 62
     7
  2
SW_CENTERMARKSYMBOL_4
 10
117.1334151479
 20
243.5429268611
 30
0.0
  0
INSERT
  5
39F
  8
0
  6
CONTINUOUS
 62
     7
  2
SW_CENTERMARKSYMBOL_5
 10
163.1334151479
 20
243.5429268611
 30
0.0
  0
INSERT
  5
3AB
  8
0
  6
CONTINUOUS
 62
     7
  2
SW_CENTERMARKSYMBOL_6
 10
168.1334151479
 20
213.5429268611
 30
0.0
  0
INSERT
  5
3B7
  8
0
  6
CONTINUOUS
 62
     7
  2
SW_CENTERMARKSYMBOL_7
 10
163.1334151479
 20
183.5429268611
 30
0.0
  0
LINE
  5
3B8
  8
0
  6
CENTERX2
 62
     7
 10
140.1334151479
 20
177.1429268611
 30
0.0
 11
140.1334151479
 21
172.5429268611
 31
0.0
  0
LINE
  5
3B9
  8
0
  6
CENTERX2
 62
     7
 10
140.1334151479
 20
177.1429268611
 30
0.0
 11
140.1334151479
 21
245.7032154293
 31
0.0
  0
LINE
  5
3BA
  8
0
  6
CENTERX2
 62
     7
 10
140.1334151479
 20
249.1757575634
 30
0.0
 11
140.1334151479
 21
262.5145517655
 31
0.0
  0
LINE
  5
3BB
  8
0
  6
CENTERX2
 62
     7
 10
180.1334151479
 20
213.5429268611
 30
0.0
 11
100.8727067214
 21
213.5429268611
 31
0.0
  0
LINE
  5
3BC
  8
0
  6
CONTINUOUS
 62
     7
 10
120.1334155949
 20
117.3750674374
 30
0.0
 11
120.1334155949
 21
115.8750673661
 31
0.0
  0
LINE
  5
3BD
  8
0
  6
CONTINUOUS
 62
     7
 10
133.1334149318
 20
115.8750673661
 30
0.0
 11
133.1334149318
 21
117.3750674374
 31
0.0
  0
ARC
  5
3BE
  8
0
  6
CONTINUOUS
 62
     7
 10
131.6334151479
 20
114.8750673899
 30
0.0
 40
1.0
 50
90.0
 51
180.0
  0
ARC
  5
3BF
  8
0
  6
CONTINUOUS
 62
     7
 10
121.6334151479
 20
114.8750673899
 30
0.0
 40
1.000000000000014
 50
0.0
 51
90.0
  0
LINE
  5
3C0
  8
0
  6
CONTINUOUS
 62
     7
 10
122.6334150734
 20
114.8750673768
 30
0.0
 11
122.6334150734
 21
105.8750675314
 31
0.0
  0
LINE
  5
3C1
  8
0
  6
CONTINUOUS
 62
     7
 10
130.6334154534
 20
99.8750674793
 30
0.0
 11
130.6334154534
 21
114.8750673768
 31
0.0
  0
ARC
  5
3C2
  8
0
  6
CONTINUOUS
 62
     7
 10
130.1334151479
 20
99.8750673899
 30
0.0
 40
0.5
 50
270.0
 51
0.0
  0
LINE
  5
3C3
  8
0
  6
CONTINUOUS
 62
     7
 10
159.8059542331
 20
117.3750674374
 30
0.0
 11
159.8059542331
 21
117.3500673634
 31
0.0
  0
LINE
  5
3C4
  8
0
  6
CONTINUOUS
 62
     7
 10
160.4998119029
 20
117.3500673634
 30
0.0
 11
160.4998119029
 21
117.3750674374
 31
0.0
  0
LINE
  5
3C5
  8
0
  6
CONTINUOUS
 62
     7
 10
163.036457062
 20
117.3750674374
 30
0.0
 11
163.036457062
 21
117.3500673634
 31
0.0
  0
CIRCLE
  5
3C6
  8
0
  6
CONTINUOUS
 62
     7
 10
140.1334151479
 20
116.3750673899
 30
0.0
 40
5.500000000000006
  0
LINE
  5
3C7
  8
0
  6
CONTINUOUS
 62
     7
 10
133.1334149318
 20
115.8750673661
 30
0.0
 11
120.1334155949
 21
115.8750673661
 31
0.0
  0
POLYLINE
  5
3C8
  8
0
  6
CONTINUOUS
 62
     7
 66
     1
 10
0.0
 20
0.0
 30
0.0
 70
   128
  0
VERTEX
  5
825
  8
0
  6
CONTINUOUS
 62
     7
 10
122.6334150734
 20
105.8750675314
 30
0.0
  0
VERTEX
  5
826
  8
0
  6
CONTINUOUS
 62
     7
 10
122.642623991
 20
105.8640928262
 30
0.0
  0
VERTEX
  5
827
  8
0
  6
CONTINUOUS
 62
     7
 10
122.7160364243
 20
105.7766025209
 30
0.0
  0
VERTEX
  5
828
  8
0
  6
CONTINUOUS
 62
     7
 10
122.8615127357
 20
105.6032312357
 30
0.0
  0
VERTEX
  5
829
  8
0
  6
CONTINUOUS
 62
     7
 10
123.0763763043
 20
105.3471678191
 30
0.0
  0
VERTEX
  5
82A
  8
0
  6
CONTINUOUS
 62
     7
 10
123.3566727343
 20
105.0131229007
 30
0.0
  0
VERTEX
  5
82B
  8
0
  6
CONTINUOUS
 62
     7
 10
123.6972480866
 20
104.6072413468
 30
0.0
  0
VERTEX
  5
82C
  8
0
  6
CONTINUOUS
 62
     7
 10
124.0918345603
 20
104.1369905019
 30
0.0
  0
VERTEX
  5
82D
  8
0
  6
CONTINUOUS
 62
     7
 10
124.5331771525
 20
103.6110195586
 30
0.0
  0
VERTEX
  5
82E
  8
0
  6
CONTINUOUS
 62
     7
 10
125.0131537991
 20
103.0390049586
 30
0.0
  0
VERTEX
  5
82F
  8
0
  6
CONTINUOUS
 62
     7
 10
125.5229364934
 20
102.4314697155
 30
0.0
  0
VERTEX
  5
830
  8
0
  6
CONTINUOUS
 62
     7
 10
126.053146817
 20
101.7995897004
 30
0.0
  0
VERTEX
  5
831
  8
0
  6
CONTINUOUS
 62
     7
 10
126.5940328913
 20
101.1549878189
 30
0.0
  0
VERTEX
  5
832
  8
0
  6
CONTINUOUS
 62
     7
 10
127.135641672
 20
100.50952167
 30
0.0
  0
VERTEX
  5
833
  8
0
  6
CONTINUOUS
 62
     7
 10
127.668012664
 20
99.8750674793
 30
0.0
  0
SEQEND
  5
8B9
  8
0
  6
CONTINUOUS
 62
     7
  0
LINE
  5
3C9
  8
0
  6
CONTINUOUS
 62
     7
 10
130.1334153714
 20
99.375066466
 30
0.0
 11
128.087562308
 21
99.375066466
 31
0.0
  0
POLYLINE
  5
3CA
  8
0
  6
CONTINUOUS
 62
     7
 66
     1
 10
0.0
 20
0.0
 30
0.0
 70
   128
  0
VERTEX
  5
834
  8
0
  6
CONTINUOUS
 62
     7
 10
128.087562308
 20
99.375066466
 30
0.0
  0
VERTEX
  5
835
  8
0
  6
CONTINUOUS
 62
     7
 10
128.0650364088
 20
99.4019127706
 30
0.0
  0
VERTEX
  5
836
  8
0
  6
CONTINUOUS
 62
     7
 10
127.9900463151
 20
99.4912824848
 30
0.0
  0
VERTEX
  5
837
  8
0
  6
CONTINUOUS
 62
     7
 10
127.8779802697
 20
99.6248378673
 30
0.0
  0
VERTEX
  5
838
  8
0
  6
CONTINUOUS
 62
     7
 10
127.7172721776
 20
99.8163624921
 30
0.0
  0
VERTEX
  5
839
  8
0
  6
CONTINUOUS
 62
     7
 10
127.668012664
 20
99.8750674793
 30
0.0
  0
SEQEND
  5
8BA
  8
0
  6
CONTINUOUS
 62
     7
  0
LINE
  5
3CB
  8
0
  6
CONTINUOUS
 62
     7
 10
102.1334163698
 20
119.375067416
 30
0.0
 11
102.1334163698
 21
117.3750674374
 31
0.0
  0
LINE
  5
3CC
  8
0
  6
CONTINUOUS
 62
     7
 10
102.1334163698
 20
119.375067416
 30
0.0
 11
133.4334870654
 21
119.375067416
 31
0.0
  0
LINE
  5
3CD
  8
0
  6
CONTINUOUS
 62
     7
 10
133.4334870654
 20
119.375067416
 30
0.0
 11
133.4334870654
 21
117.3750674374
 31
0.0
  0
LINE
  5
3CE
  8
0
  6
CONTINUOUS
 62
     7
 10
102.1334163698
 20
117.3750674374
 30
0.0
 11
133.4334870654
 21
117.3750674374
 31
0.0
  0
LINE
  5
3CF
  8
0
  6
CONTINUOUS
 62
     7
 10
133.9407537917
 20
119.4760800594
 30
0.0
 11
137.7245541981
 21
121.3194975884
 31
0.0
  0
LINE
  5
3D0
  8
0
  6
CONTINUOUS
 62
     7
 10
133.5027793276
 20
119.375067416
 30
0.0
 11
133.5027793276
 21
117.3750674374
 31
0.0
  0
LINE
  5
3D1
  8
0
  6
CONTINUOUS
 62
     7
 10
133.4334870654
 20
117.3750674374
 30
0.0
 11
133.5027793276
 21
117.3750674374
 31
0.0
  0
LINE
  5
3D2
  8
0
  6
CONTINUOUS
 62
     7
 10
133.4334870654
 20
119.375067416
 30
0.0
 11
133.5027793276
 21
119.375067416
 31
0.0
  0
ARC
  5
3D3
  8
0
  6
CONTINUOUS
 62
     7
 10
133.5027792157
 20
120.3750673899
 30
0.0
 40
2.999999999999986
 50
270.0
 51
295.9747305982
  0
ARC
  5
3D4
  8
0
  6
CONTINUOUS
 62
     7
 10
133.5027792157
 20
120.3750673899
 30
0.0
 40
1.0
 50
270.0
 51
295.9747305982
  0
LINE
  5
3D5
  8
0
  6
CONTINUOUS
 62
     7
 10
146.3260765041
 20
119.4760800594
 30
0.0
 11
142.5422760977
 21
121.3194975884
 31
0.0
  0
ARC
  5
3D6
  8
0
  6
CONTINUOUS
 62
     7
 10
146.7640510801
 20
120.3750673899
 30
0.0
 40
1.0
 50
244.0252694018
 51
270.0
  0
LINE
  5
3D7
  8
0
  6
CONTINUOUS
 62
     7
 10
146.7640509682
 20
119.375067416
 30
0.0
 11
146.7640509682
 21
117.3750674374
 31
0.0
  0
ARC
  5
3D8
  8
0
  6
CONTINUOUS
 62
     7
 10
146.7640510801
 20
120.3750673899
 30
0.0
 40
2.999999999999986
 50
244.0252694018
 51
270.0
  0
LINE
  5
3D9
  8
0
  6
CONTINUOUS
 62
     7
 10
178.133413926
 20
119.375067416
 30
0.0
 11
178.133413926
 21
117.3750674374
 31
0.0
  0
LINE
  5
3DA
  8
0
  6
CONTINUOUS
 62
     7
 10
178.133413926
 20
119.375067416
 30
0.0
 11
146.7640509682
 21
119.375067416
 31
0.0
  0
LINE
  5
3DB
  8
0
  6
CONTINUOUS
 62
     7
 10
178.133413926
 20
117.3750674374
 30
0.0
 11
146.7640509682
 21
117.3750674374
 31
0.0
  0
LINE
  5
3DC
  8
0
  6
CONTINUOUS
 62
     8
 10
130.6334154534
 20
114.8750673768
 30
0.0
 11
122.6334150734
 21
114.8750673768
 31
0.0
  0
LINE
  5
3DD
  8
0
  6
CONTINUOUS
 62
     8
 10
127.668012664
 20
99.8750674793
 30
0.0
 11
130.6334154534
 21
99.8750674793
 31
0.0
  0
LINE
  5
3DE
  8
0
  6
CONTINUOUS
 62
     8
 10
134.7989945526
 20
117.7144544221
 30
0.0
 11
133.9407537917
 21
119.4760800594
 31
0.0
  0
LINE
  5
3DF
  8
0
  6
CONTINUOUS
 62
     8
 10
145.4678357432
 20
117.7144544221
 30
0.0
 11
146.3260765041
 21
119.4760800594
 31
0.0
  0
DIMENSION
  5
3E0
  8
0
  6
CONTINUOUS
 62
     7
  2
_D_9
 10
140.1334151479
 20
89.3179900299
 30
0.0
 11
121.1334151479
 21
89.3179900299
 31
0.0
 70
   160
  1
<>
  3
SLDDIMSTYLE0
 13
102.1334151479
 23
117.3750673899
 33
0.0
 14
140.1334151479
 24
108.3750673899
 34
0.0
  0
DIMENSION
  5
3EA
  8
0
  6
CONTINUOUS
 62
     7
  2
_D_10
 10
178.1334151479
 20
89.3179900299
 30
0.0
 11
159.1334151479
 21
89.3179900299
 31
0.0
 70
   160
  1
<>
  3
SLDDIMSTYLE0
 13
140.1334151479
 23
108.3750673899
 33
0.0
 14
178.1334151479
 24
117.3750673899
 34
0.0
  0
DIMENSION
  5
3F4
  8
0
  6
CONTINUOUS
 62
     7
  2
_D_11
 10
186.0696363403
 20
117.3750673899
 30
0.0
 11
186.0696363403
 21
114.4668421918
 31
0.0
 70
   160
  1
<>
  3
SLDDIMSTYLE2
 13
148.1334151479
 23
116.3750673899
 33
0.0
 14
133.5027792157
 24
117.3750673899
 34
0.0
 50
90.0
  0
DIMENSION
  5
400
  8
0
  6
CONTINUOUS
 62
     7
  2
_D_12
 10
93.0198408572
 20
99.3750673899
 30
0.0
 11
93.0198408572
 21
108.3750673899
 31
0.0
 70
   160
  1
<>
  3
SLDDIMSTYLE2
 13
102.1334151479
 23
117.3750673899
 33
0.0
 14
128.0875627506
 24
99.3750673899
 34
0.0
 50
90.0
  0
DIMENSION
  5
40A
  8
0
  6
CONTINUOUS
 62
     7
  2
_D_13
 10
102.1334151479
 20
133.3273234439
 30
0.0
 11
111.1334151479
 21
133.3273234439
 31
0.0
 70
   160
  1
<>
  3
SLDDIMSTYLE2
 13
120.1334151479
 23
117.3750673899
 33
0.0
 14
102.1334151479
 24
119.3750673899
 34
0.0
 50
0.0
  0
INSERT
  5
41F
  8
0
  6
CONTINUOUS
 62
     7
  2
SW_CENTERMARKSYMBOL_8
 10
140.1334151479
 20
116.3750673899
 30
0.0
  0
LINE
  5
420
  8
0
  6
CONTINUOUS
 62
     7
 10
313.2870651553
 20
199.5239379856
 30
0.0
 11
315.1275133672
 21
201.3643861975
 31
0.0
  0
LINE
  5
421
  8
0
  6
CONTINUOUS
 62
     7
 10
317.6176414277
 20
199.3643861975
 30
0.0
 11
318.6966169434
 21
200.4433617132
 31
0.0
  0
LINE
  5
422
  8
0
  6
CONTINUOUS
 62
     7
 10
279.4930362304
 20
201.650933545
 30
0.0
 11
281.6271926125
 21
203.7850899271
 31
0.0
  0
LINE
  5
423
  8
0
  6
CONTINUOUS
 62
     7
 10
275.2759132138
 20
197.4338105284
 30
0.0
 11
275.7064888829
 21
197.8643861975
 31
0.0
  0
LINE
  5
424
  8
0
  6
CONTINUOUS
 62
     7
 10
283.3144923939
 20
200.9822616479
 30
0.0
 11
284.8104212227
 21
202.4781904768
 31
0.0
  0
LINE
  5
425
  8
0
  6
CONTINUOUS
 62
     7
 10
276.8075296469
 20
194.475298901
 30
0.0
 11
278.2217432093
 21
195.8895124634
 31
0.0
  0
LINE
  5
426
  8
0
  6
CONTINUOUS
 62
     7
 10
286.3502812742
 20
199.5279224678
 30
0.0
 11
288.186745004
 21
201.3643861975
 31
0.0
  0
LINE
  5
427
  8
0
  6
CONTINUOUS
 62
     7
 10
283.9831642909
 20
197.1608054844
 30
0.0
 11
284.686745004
 21
197.8643861975
 31
0.0
  0
LINE
  5
428
  8
0
  6
CONTINUOUS
 62
     7
 10
279.7660412744
 20
192.9436824679
 30
0.0
 11
281.9001976565
 21
195.07783885
 31
0.0
  0
LINE
  5
429
  8
0
  6
CONTINUOUS
 62
     7
 10
313.6176414277
 20
195.3643861975
 30
0.0
 11
315.6176414277
 21
197.3643861975
 31
0.0
  0
LINE
  5
42A
  8
0
  6
CONTINUOUS
 62
     7
 10
318.1077694882
 20
195.3643861975
 30
0.0
 11
318.6966169434
 21
195.9532336527
 31
0.0
  0
LINE
  5
42B
  8
0
  6
CONTINUOUS
 62
     7
 10
287.3965451214
 20
196.0840582544
 30
0.0
 11
288.6768730645
 21
197.3643861975
 31
0.0
  0
LINE
  5
42C
  8
0
  6
CONTINUOUS
 62
     7
 10
291.167001125
 20
195.3643861975
 30
0.0
 11
293.167001125
 21
197.3643861975
 31
0.0
  0
LINE
  5
42D
  8
0
  6
CONTINUOUS
 62
     7
 10
295.6571291856
 20
195.3643861975
 30
0.0
 11
297.6571291856
 21
197.3643861975
 31
0.0
  0
LINE
  5
42E
  8
0
  6
CONTINUOUS
 62
     7
 10
300.1472572461
 20
195.3643861975
 30
0.0
 11
302.1472572461
 21
197.3643861975
 31
0.0
  0
LINE
  5
42F
  8
0
  6
CONTINUOUS
 62
     7
 10
304.6373853066
 20
195.3643861975
 30
0.0
 11
305.1966169434
 21
195.9236178343
 31
0.0
  0
LINE
  5
430
  8
0
  6
CONTINUOUS
 62
     7
 10
290.6768730645
 20
197.3643861975
 30
0.0
 11
289.1768730645
 21
198.8643861975
 31
0.0
  0
LINE
  5
431
  8
0
  6
CONTINUOUS
 62
     7
 10
295.167001125
 20
197.3643861975
 30
0.0
 11
290.1966169434
 21
202.3347703791
 31
0.0
  0
LINE
  5
432
  8
0
  6
CONTINUOUS
 62
     7
 10
299.6571291856
 20
197.3643861975
 30
0.0
 11
290.1966169434
 21
206.8248984396
 31
0.0
  0
LINE
  5
433
  8
0
  6
CONTINUOUS
 62
     7
 10
298.1966169434
 20
203.3150265002
 30
0.0
 11
290.1966169434
 21
211.3150265002
 31
0.0
  0
LINE
  5
434
  8
0
  6
CONTINUOUS
 62
     7
 10
298.1966169434
 20
207.8051545607
 30
0.0
 11
290.6405398936
 21
215.3612316106
 31
0.0
  0
LINE
  5
435
  8
0
  6
CONTINUOUS
 62
     7
 10
277.6422322103
 20
199.800129525
 30
0.0
 11
279.260873616
 21
201.4187709306
 31
0.0
  0
LINE
  5
436
  8
0
  6
CONTINUOUS
 62
     7
 10
278.3101315569
 20
195.977900811
 30
0.0
 11
280.1966169434
 21
197.8643861975
 31
0.0
  0
LINE
  5
437
  8
0
  6
CONTINUOUS
 62
     7
 10
282.1323602709
 20
195.3100014644
 30
0.0
 11
283.7510016765
 21
196.9286428701
 31
0.0
  0
LINE
  5
438
  8
0
  6
CONTINUOUS
 62
     7
 10
290.2216169434
 20
137.3643861975
 30
0.0
 11
290.2216169434
 21
195.3643861975
 31
0.0
  0
LINE
  5
439
  8
0
  6
CONTINUOUS
 62
     7
 10
293.3966169434
 20
137.3643861975
 30
0.0
 11
293.3966169434
 21
195.3643861975
 31
0.0
  0
LINE
  5
43A
  8
0
  6
CONTINUOUS
 62
     7
 10
296.5716169434
 20
137.3643861975
 30
0.0
 11
296.5716169434
 21
195.3643861975
 31
0.0
  0
LINE
  5
43B
  8
0
  6
CONTINUOUS
 62
     7
 10
299.7466169434
 20
137.3643861975
 30
0.0
 11
299.7466169434
 21
195.3643861975
 31
0.0
  0
LINE
  5
43C
  8
0
  6
CONTINUOUS
 62
     7
 10
302.9216169434
 20
137.3643861975
 30
0.0
 11
302.9216169434
 21
195.3643861975
 31
0.0
  0
LINE
  5
43D
  8
0
  6
CONTINUOUS
 62
     7
 10
306.0966169434
 20
137.3643861975
 30
0.0
 11
306.0966169434
 21
195.3643861975
 31
0.0
  0
LINE
  5
43E
  8
0
  6
CONTINUOUS
 62
     7
 10
309.2716169434
 20
137.3643861975
 30
0.0
 11
309.2716169434
 21
195.3643861975
 31
0.0
  0
LINE
  5
43F
  8
0
  6
CONTINUOUS
 62
     7
 10
312.4466169434
 20
137.3643861975
 30
0.0
 11
312.4466169434
 21
195.3643861975
 31
0.0
  0
LINE
  5
440
  8
0
  6
CONTINUOUS
 62
     7
 10
315.6216169434
 20
137.3643861975
 30
0.0
 11
315.6216169434
 21
195.3643861975
 31
0.0
  0
LINE
  5
441
  8
0
  6
CONTINUOUS
 62
     7
 10
318.7966169434
 20
137.3643861975
 30
0.0
 11
318.7966169434
 21
197.3643861975
 31
0.0
  0
LINE
  5
442
  8
0
  6
CONTINUOUS
 62
     7
 10
321.9716169434
 20
137.3643861975
 30
0.0
 11
321.9716169434
 21
197.3643861975
 31
0.0
  0
LINE
  5
443
  8
0
  6
CONTINUOUS
 62
     7
 10
325.1466169434
 20
137.3643861975
 30
0.0
 11
325.1466169434
 21
197.3643861975
 31
0.0
  0
LINE
  5
444
  8
0
  6
CONTINUOUS
 62
     7
 10
328.3216169434
 20
137.3643861975
 30
0.0
 11
328.3216169434
 21
197.3643861975
 31
0.0
  0
LINE
  5
445
  8
0
  6
CONTINUOUS
 62
     7
 10
331.4966169434
 20
137.3643861975
 30
0.0
 11
331.4966169434
 21
197.3643861975
 31
0.0
  0
LINE
  5
446
  8
0
  6
CONTINUOUS
 62
     7
 10
334.6716169434
 20
137.3643861975
 30
0.0
 11
334.6716169434
 21
197.3643861975
 31
0.0
  0
LINE
  5
447
  8
0
  6
CONTINUOUS
 62
     7
 10
337.8466169434
 20
137.3643861975
 30
0.0
 11
337.8466169434
 21
197.3643861975
 31
0.0
  0
LINE
  5
448
  8
0
  6
CONTINUOUS
 62
     7
 10
341.0216169434
 20
137.3643861975
 30
0.0
 11
341.0216169434
 21
197.3643861975
 31
0.0
  0
LINE
  5
449
  8
0
  6
CONTINUOUS
 62
     7
 10
344.1966169434
 20
137.3643861975
 30
0.0
 11
344.1966169434
 21
197.3643861975
 31
0.0
  0
LINE
  5
44A
  8
0
  6
CONTINUOUS
 62
     7
 10
347.3716169434
 20
137.3643861975
 30
0.0
 11
347.3716169434
 21
197.3643861975
 31
0.0
  0
LINE
  5
44B
  8
0
  6
CONTINUOUS
 62
     7
 10
345.7841168728
 20
149.1518863187
 30
0.0
 11
342.6091168602
 21
145.976886306
 31
0.0
  0
LINE
  5
44C
  8
0
  6
CONTINUOUS
 62
     7
 10
339.4341168475
 20
142.8018862934
 30
0.0
 11
336.2591168349
 21
139.6268862808
 31
0.0
  0
LINE
  5
44D
  8
0
  6
CONTINUOUS
 62
     7
 10
345.7841169087
 20
161.8518863333
 30
0.0
 11
342.6091168961
 21
158.6768863207
 31
0.0
  0
LINE
  5
44E
  8
0
  6
CONTINUOUS
 62
     7
 10
339.4341168834
 20
155.501886308
 30
0.0
 11
336.2591168708
 21
152.3268862954
 31
0.0
  0
LINE
  5
44F
  8
0
  6
CONTINUOUS
 62
     7
 10
333.0841168582
 20
149.1518862828
 30
0.0
 11
329.9091168456
 21
145.9768862701
 31
0.0
  0
LINE
  5
450
  8
0
  6
CONTINUOUS
 62
     7
 10
326.7341168329
 20
142.8018862575
 30
0.0
 11
323.5591168203
 21
139.6268862449
 31
0.0
  0
LINE
  5
451
  8
0
  6
CONTINUOUS
 62
     7
 10
345.7841169446
 20
174.5518863479
 30
0.0
 11
342.609116932
 21
171.3768863353
 31
0.0
  0
LINE
  5
452
  8
0
  6
CONTINUOUS
 62
     7
 10
339.4341169194
 20
168.2018863226
 30
0.0
 11
336.2591169067
 21
165.02688631
 31
0.0
  0
LINE
  5
453
  8
0
  6
CONTINUOUS
 62
     7
 10
333.0841168941
 20
161.8518862974
 30
0.0
 11
329.9091168815
 21
158.6768862847
 31
0.0
  0
LINE
  5
454
  8
0
  6
CONTINUOUS
 62
     7
 10
326.7341168688
 20
155.5018862721
 30
0.0
 11
323.5591168562
 21
152.3268862595
 31
0.0
  0
LINE
  5
455
  8
0
  6
CONTINUOUS
 62
     7
 10
320.3841168436
 20
149.1518862468
 30
0.0
 11
317.2091168309
 21
145.9768862342
 31
0.0
  0
LINE
  5
456
  8
0
  6
CONTINUOUS
 62
     7
 10
314.0341168183
 20
142.8018862216
 30
0.0
 11
310.8591168057
 21
139.6268862089
 31
0.0
  0
LINE
  5
457
  8
0
  6
CONTINUOUS
 62
     7
 10
345.7841169806
 20
187.2518863625
 30
0.0
 11
342.6091169679
 21
184.0768863499
 31
0.0
  0
LINE
  5
458
  8
0
  6
CONTINUOUS
 62
     7
 10
339.4341169553
 20
180.9018863372
 30
0.0
 11
336.2591169427
 21
177.7268863246
 31
0.0
  0
LINE
  5
459
  8
0
  6
CONTINUOUS
 62
     7
 10
333.08411693
 20
174.551886312
 30
0.0
 11
329.9091169174
 21
171.3768862993
 31
0.0
  0
LINE
  5
45A
  8
0
  6
CONTINUOUS
 62
     7
 10
326.7341169048
 20
168.2018862867
 30
0.0
 11
323.5591168921
 21
165.0268862741
 31
0.0
  0
LINE
  5
45B
  8
0
  6
CONTINUOUS
 62
     7
 10
320.3841168795
 20
161.8518862614
 30
0.0
 11
317.2091168669
 21
158.6768862488
 31
0.0
  0
LINE
  5
45C
  8
0
  6
CONTINUOUS
 62
     7
 10
314.0341168542
 20
155.5018862362
 30
0.0
 11
310.8591168416
 21
152.3268862235
 31
0.0
  0
LINE
  5
45D
  8
0
  6
CONTINUOUS
 62
     7
 10
307.684116829
 20
149.1518862109
 30
0.0
 11
304.5091168163
 21
145.9768861983
 31
0.0
  0
LINE
  5
45E
  8
0
  6
CONTINUOUS
 62
     7
 10
301.3341168037
 20
142.8018861856
 30
0.0
 11
298.1591167911
 21
139.626886173
 31
0.0
  0
LINE
  5
45F
  8
0
  6
CONTINUOUS
 62
     7
 10
343.1966168369
 20
197.3643861975
 30
0.0
 11
342.6091170038
 21
196.7768863645
 31
0.0
  0
LINE
  5
460
  8
0
  6
CONTINUOUS
 62
     7
 10
339.4341169912
 20
193.6018863518
 30
0.0
 11
336.2591169786
 21
190.4268863392
 31
0.0
  0
LINE
  5
461
  8
0
  6
CONTINUOUS
 62
     7
 10
333.0841169659
 20
187.2518863266
 30
0.0
 11
329.9091169533
 21
184.0768863139
 31
0.0
  0
LINE
  5
462
  8
0
  6
CONTINUOUS
 62
     7
 10
326.7341169407
 20
180.9018863013
 30
0.0
 11
323.559116928
 21
177.7268862887
 31
0.0
  0
LINE
  5
463
  8
0
  6
CONTINUOUS
 62
     7
 10
320.3841169154
 20
174.5518862761
 30
0.0
 11
317.2091169028
 21
171.3768862634
 31
0.0
  0
LINE
  5
464
  8
0
  6
CONTINUOUS
 62
     7
 10
314.0341168901
 20
168.2018862508
 30
0.0
 11
310.8591168775
 21
165.0268862382
 31
0.0
  0
LINE
  5
465
  8
0
  6
CONTINUOUS
 62
     7
 10
307.6841168649
 20
161.8518862255
 30
0.0
 11
304.5091168523
 21
158.6768862129
 31
0.0
  0
LINE
  5
466
  8
0
  6
CONTINUOUS
 62
     7
 10
301.3341168396
 20
155.5018862003
 30
0.0
 11
298.159116827
 21
152.3268861876
 31
0.0
  0
LINE
  5
467
  8
0
  6
CONTINUOUS
 62
     7
 10
294.9841168144
 20
149.151886175
 30
0.0
 11
291.8091168017
 21
145.9768861624
 31
0.0
  0
LINE
  5
468
  8
0
  6
CONTINUOUS
 62
     7
 10
288.6341167891
 20
142.8018861497
 30
0.0
 11
287.3965451214
 21
141.5643144821
 31
0.0
  0
LINE
  5
469
  8
0
  6
CONTINUOUS
 62
     7
 10
330.4966168582
 20
197.3643861975
 30
0.0
 11
329.9091169892
 21
196.7768863286
 31
0.0
  0
LINE
  5
46A
  8
0
  6
CONTINUOUS
 62
     7
 10
326.7341169766
 20
193.6018863159
 30
0.0
 11
323.559116964
 21
190.4268863033
 31
0.0
  0
LINE
  5
46B
  8
0
  6
CONTINUOUS
 62
     7
 10
320.3841169513
 20
187.2518862907
 30
0.0
 11
317.2091169387
 21
184.076886278
 31
0.0
  0
LINE
  5
46C
  8
0
  6
CONTINUOUS
 62
     7
 10
314.0341169261
 20
180.9018862654
 30
0.0
 11
310.8591169134
 21
177.7268862528
 31
0.0
  0
LINE
  5
46D
  8
0
  6
CONTINUOUS
 62
     7
 10
307.6841169008
 20
174.5518862401
 30
0.0
 11
304.5091168882
 21
171.3768862275
 31
0.0
  0
LINE
  5
46E
  8
0
  6
CONTINUOUS
 62
     7
 10
301.3341168755
 20
168.2018862149
 30
0.0
 11
298.1591168629
 21
165.0268862022
 31
0.0
  0
LINE
  5
46F
  8
0
  6
CONTINUOUS
 62
     7
 10
294.9841168503
 20
161.8518861896
 30
0.0
 11
291.8091168376
 21
158.676886177
 31
0.0
  0
LINE
  5
470
  8
0
  6
CONTINUOUS
 62
     7
 10
288.634116825
 20
155.5018861643
 30
0.0
 11
287.3965451214
 21
154.2643144608
 31
0.0
  0
LINE
  5
471
  8
0
  6
CONTINUOUS
 62
     7
 10
314.034116962
 20
193.60188628
 30
0.0
 11
310.8591169494
 21
190.4268862674
 31
0.0
  0
LINE
  5
472
  8
0
  6
CONTINUOUS
 62
     7
 10
307.6841169367
 20
187.2518862547
 30
0.0
 11
304.5091169241
 21
184.0768862421
 31
0.0
  0
LINE
  5
473
  8
0
  6
CONTINUOUS
 62
     7
 10
301.3341169115
 20
180.9018862295
 30
0.0
 11
298.1591168988
 21
177.7268862168
 31
0.0
  0
LINE
  5
474
  8
0
  6
CONTINUOUS
 62
     7
 10
294.9841168862
 20
174.5518862042
 30
0.0
 11
291.8091168736
 21
171.3768861916
 31
0.0
  0
LINE
  5
475
  8
0
  6
CONTINUOUS
 62
     7
 10
288.6341168609
 20
168.2018861789
 30
0.0
 11
287.3965451214
 21
166.9643144394
 31
0.0
  0
LINE
  5
476
  8
0
  6
CONTINUOUS
 62
     7
 10
301.3341169474
 20
193.6018862441
 30
0.0
 11
298.1591169347
 21
190.4268862315
 31
0.0
  0
LINE
  5
477
  8
0
  6
CONTINUOUS
 62
     7
 10
294.9841169221
 20
187.2518862188
 30
0.0
 11
291.8091169095
 21
184.0768862062
 31
0.0
  0
LINE
  5
478
  8
0
  6
CONTINUOUS
 62
     7
 10
288.6341168969
 20
180.9018861936
 30
0.0
 11
287.3965451214
 21
179.6643144181
 31
0.0
  0
LINE
  5
479
  8
0
  6
CONTINUOUS
 62
     7
 10
288.6341169328
 20
193.6018862082
 30
0.0
 11
287.3965451214
 21
192.3643143968
 31
0.0
  0
LINE
  5
47A
  8
0
  6
CONTINUOUS
 62
     7
 10
345.7841168728
 20
149.9456363187
 30
0.0
 11
342.6091168602
 21
146.770636306
 31
0.0
  0
LINE
  5
47B
  8
0
  6
CONTINUOUS
 62
     7
 10
339.4341168475
 20
143.5956362934
 30
0.0
 11
336.2591168349
 21
140.4206362808
 31
0.0
  0
LINE
  5
47C
  8
0
  6
CONTINUOUS
 62
     7
 10
345.7841169087
 20
162.6456363333
 30
0.0
 11
342.6091168961
 21
159.4706363207
 31
0.0
  0
LINE
  5
47D
  8
0
  6
CONTINUOUS
 62
     7
 10
339.4341168834
 20
156.295636308
 30
0.0
 11
336.2591168708
 21
153.1206362954
 31
0.0
  0
LINE
  5
47E
  8
0
  6
CONTINUOUS
 62
     7
 10
333.0841168582
 20
149.9456362828
 30
0.0
 11
329.9091168456
 21
146.7706362701
 31
0.0
  0
LINE
  5
47F
  8
0
  6
CONTINUOUS
 62
     7
 10
326.7341168329
 20
143.5956362575
 30
0.0
 11
323.5591168203
 21
140.4206362449
 31
0.0
  0
LINE
  5
480
  8
0
  6
CONTINUOUS
 62
     7
 10
345.7841169446
 20
175.3456363479
 30
0.0
 11
342.609116932
 21
172.1706363353
 31
0.0
  0
LINE
  5
481
  8
0
  6
CONTINUOUS
 62
     7
 10
339.4341169194
 20
168.9956363226
 30
0.0
 11
336.2591169067
 21
165.82063631
 31
0.0
  0
LINE
  5
482
  8
0
  6
CONTINUOUS
 62
     7
 10
333.0841168941
 20
162.6456362974
 30
0.0
 11
329.9091168815
 21
159.4706362847
 31
0.0
  0
LINE
  5
483
  8
0
  6
CONTINUOUS
 62
     7
 10
326.7341168688
 20
156.2956362721
 30
0.0
 11
323.5591168562
 21
153.1206362595
 31
0.0
  0
LINE
  5
484
  8
0
  6
CONTINUOUS
 62
     7
 10
320.3841168436
 20
149.9456362468
 30
0.0
 11
317.2091168309
 21
146.7706362342
 31
0.0
  0
LINE
  5
485
  8
0
  6
CONTINUOUS
 62
     7
 10
314.0341168183
 20
143.5956362216
 30
0.0
 11
310.8591168057
 21
140.4206362089
 31
0.0
  0
LINE
  5
486
  8
0
  6
CONTINUOUS
 62
     7
 10
345.7841169806
 20
188.0456363625
 30
0.0
 11
342.6091169679
 21
184.8706363499
 31
0.0
  0
LINE
  5
487
  8
0
  6
CONTINUOUS
 62
     7
 10
339.4341169553
 20
181.6956363372
 30
0.0
 11
336.2591169427
 21
178.5206363246
 31
0.0
  0
LINE
  5
488
  8
0
  6
CONTINUOUS
 62
     7
 10
333.08411693
 20
175.345636312
 30
0.0
 11
329.9091169174
 21
172.1706362993
 31
0.0
  0
LINE
  5
489
  8
0
  6
CONTINUOUS
 62
     7
 10
326.7341169048
 20
168.9956362867
 30
0.0
 11
323.5591168921
 21
165.8206362741
 31
0.0
  0
LINE
  5
48A
  8
0
  6
CONTINUOUS
 62
     7
 10
320.3841168795
 20
162.6456362614
 30
0.0
 11
317.2091168669
 21
159.4706362488
 31
0.0
  0
LINE
  5
48B
  8
0
  6
CONTINUOUS
 62
     7
 10
314.0341168542
 20
156.2956362362
 30
0.0
 11
310.8591168416
 21
153.1206362235
 31
0.0
  0
LINE
  5
48C
  8
0
  6
CONTINUOUS
 62
     7
 10
307.684116829
 20
149.9456362109
 30
0.0
 11
304.5091168163
 21
146.7706361983
 31
0.0
  0
LINE
  5
48D
  8
0
  6
CONTINUOUS
 62
     7
 10
301.3341168037
 20
143.5956361856
 30
0.0
 11
298.1591167911
 21
140.420636173
 31
0.0
  0
LINE
  5
48E
  8
0
  6
CONTINUOUS
 62
     7
 10
339.4341169912
 20
194.3956363518
 30
0.0
 11
336.2591169786
 21
191.2206363392
 31
0.0
  0
LINE
  5
48F
  8
0
  6
CONTINUOUS
 62
     7
 10
333.0841169659
 20
188.0456363266
 30
0.0
 11
329.9091169533
 21
184.8706363139
 31
0.0
  0
LINE
  5
490
  8
0
  6
CONTINUOUS
 62
     7
 10
326.7341169407
 20
181.6956363013
 30
0.0
 11
323.559116928
 21
178.5206362887
 31
0.0
  0
LINE
  5
491
  8
0
  6
CONTINUOUS
 62
     7
 10
320.3841169154
 20
175.3456362761
 30
0.0
 11
317.2091169028
 21
172.1706362634
 31
0.0
  0
LINE
  5
492
  8
0
  6
CONTINUOUS
 62
     7
 10
314.0341168901
 20
168.9956362508
 30
0.0
 11
310.8591168775
 21
165.8206362382
 31
0.0
  0
LINE
  5
493
  8
0
  6
CONTINUOUS
 62
     7
 10
307.6841168649
 20
162.6456362255
 30
0.0
 11
304.5091168523
 21
159.4706362129
 31
0.0
  0
LINE
  5
494
  8
0
  6
CONTINUOUS
 62
     7
 10
301.3341168396
 20
156.2956362003
 30
0.0
 11
298.159116827
 21
153.1206361876
 31
0.0
  0
LINE
  5
495
  8
0
  6
CONTINUOUS
 62
     7
 10
294.9841168144
 20
149.945636175
 30
0.0
 11
291.8091168017
 21
146.7706361624
 31
0.0
  0
LINE
  5
496
  8
0
  6
CONTINUOUS
 62
     7
 10
288.6341167891
 20
143.5956361497
 30
0.0
 11
287.3965451214
 21
142.3580644821
 31
0.0
  0
LINE
  5
497
  8
0
  6
CONTINUOUS
 62
     7
 10
326.7341169766
 20
194.3956363159
 30
0.0
 11
323.559116964
 21
191.2206363033
 31
0.0
  0
LINE
  5
498
  8
0
  6
CONTINUOUS
 62
     7
 10
320.3841169513
 20
188.0456362907
 30
0.0
 11
317.2091169387
 21
184.870636278
 31
0.0
  0
LINE
  5
499
  8
0
  6
CONTINUOUS
 62
     7
 10
314.0341169261
 20
181.6956362654
 30
0.0
 11
310.8591169134
 21
178.5206362528
 31
0.0
  0
LINE
  5
49A
  8
0
  6
CONTINUOUS
 62
     7
 10
307.6841169008
 20
175.3456362401
 30
0.0
 11
304.5091168882
 21
172.1706362275
 31
0.0
  0
LINE
  5
49B
  8
0
  6
CONTINUOUS
 62
     7
 10
301.3341168755
 20
168.9956362149
 30
0.0
 11
298.1591168629
 21
165.8206362022
 31
0.0
  0
LINE
  5
49C
  8
0
  6
CONTINUOUS
 62
     7
 10
294.9841168503
 20
162.6456361896
 30
0.0
 11
291.8091168376
 21
159.470636177
 31
0.0
  0
LINE
  5
49D
  8
0
  6
CONTINUOUS
 62
     7
 10
288.634116825
 20
156.2956361643
 30
0.0
 11
287.3965451214
 21
155.0580644608
 31
0.0
  0
LINE
  5
49E
  8
0
  6
CONTINUOUS
 62
     7
 10
314.034116962
 20
194.39563628
 30
0.0
 11
310.8591169494
 21
191.2206362674
 31
0.0
  0
LINE
  5
49F
  8
0
  6
CONTINUOUS
 62
     7
 10
307.6841169367
 20
188.0456362547
 30
0.0
 11
304.5091169241
 21
184.8706362421
 31
0.0
  0
LINE
  5
4A0
  8
0
  6
CONTINUOUS
 62
     7
 10
301.3341169115
 20
181.6956362295
 30
0.0
 11
298.1591168988
 21
178.5206362168
 31
0.0
  0
LINE
  5
4A1
  8
0
  6
CONTINUOUS
 62
     7
 10
294.9841168862
 20
175.3456362042
 30
0.0
 11
291.8091168736
 21
172.1706361916
 31
0.0
  0
LINE
  5
4A2
  8
0
  6
CONTINUOUS
 62
     7
 10
288.6341168609
 20
168.9956361789
 30
0.0
 11
287.3965451214
 21
167.7580644394
 31
0.0
  0
LINE
  5
4A3
  8
0
  6
CONTINUOUS
 62
     7
 10
301.3341169474
 20
194.3956362441
 30
0.0
 11
298.1591169347
 21
191.2206362315
 31
0.0
  0
LINE
  5
4A4
  8
0
  6
CONTINUOUS
 62
     7
 10
294.9841169221
 20
188.0456362188
 30
0.0
 11
291.8091169095
 21
184.8706362062
 31
0.0
  0
LINE
  5
4A5
  8
0
  6
CONTINUOUS
 62
     7
 10
288.6341168969
 20
181.6956361936
 30
0.0
 11
287.3965451214
 21
180.4580644181
 31
0.0
  0
LINE
  5
4A6
  8
0
  6
CONTINUOUS
 62
     7
 10
288.6341169328
 20
194.3956362082
 30
0.0
 11
287.3965451214
 21
193.1580643968
 31
0.0
  0
LINE
  5
4A7
  8
0
  6
CONTINUOUS
 62
     7
 10
345.7841168369
 20
138.0393863041
 30
0.0
 11
345.1091167303
 21
137.3643861975
 31
0.0
  0
LINE
  5
4A8
  8
0
  6
CONTINUOUS
 62
     7
 10
345.7841168728
 20
150.7393863187
 30
0.0
 11
342.6091168602
 21
147.564386306
 31
0.0
  0
LINE
  5
4A9
  8
0
  6
CONTINUOUS
 62
     7
 10
339.4341168475
 20
144.3893862934
 30
0.0
 11
336.2591168349
 21
141.2143862808
 31
0.0
  0
LINE
  5
4AA
  8
0
  6
CONTINUOUS
 62
     7
 10
333.0841168223
 20
138.0393862681
 30
0.0
 11
332.4091167516
 21
137.3643861975
 31
0.0
  0
LINE
  5
4AB
  8
0
  6
CONTINUOUS
 62
     7
 10
345.7841169087
 20
163.4393863333
 30
0.0
 11
342.6091168961
 21
160.2643863207
 31
0.0
  0
LINE
  5
4AC
  8
0
  6
CONTINUOUS
 62
     7
 10
339.4341168834
 20
157.089386308
 30
0.0
 11
336.2591168708
 21
153.9143862954
 31
0.0
  0
LINE
  5
4AD
  8
0
  6
CONTINUOUS
 62
     7
 10
333.0841168582
 20
150.7393862828
 30
0.0
 11
329.9091168456
 21
147.5643862701
 31
0.0
  0
LINE
  5
4AE
  8
0
  6
CONTINUOUS
 62
     7
 10
326.7341168329
 20
144.3893862575
 30
0.0
 11
323.5591168203
 21
141.2143862449
 31
0.0
  0
LINE
  5
4AF
  8
0
  6
CONTINUOUS
 62
     7
 10
320.3841168077
 20
138.0393862322
 30
0.0
 11
319.7091167729
 21
137.3643861975
 31
0.0
  0
LINE
  5
4B0
  8
0
  6
CONTINUOUS
 62
     7
 10
345.7841169446
 20
176.1393863479
 30
0.0
 11
342.609116932
 21
172.9643863353
 31
0.0
  0
LINE
  5
4B1
  8
0
  6
CONTINUOUS
 62
     7
 10
339.4341169194
 20
169.7893863226
 30
0.0
 11
336.2591169067
 21
166.61438631
 31
0.0
  0
LINE
  5
4B2
  8
0
  6
CONTINUOUS
 62
     7
 10
333.0841168941
 20
163.4393862974
 30
0.0
 11
329.9091168815
 21
160.2643862847
 31
0.0
  0
LINE
  5
4B3
  8
0
  6
CONTINUOUS
 62
     7
 10
326.7341168688
 20
157.0893862721
 30
0.0
 11
323.5591168562
 21
153.9143862595
 31
0.0
  0
LINE
  5
4B4
  8
0
  6
CONTINUOUS
 62
     7
 10
320.3841168436
 20
150.7393862468
 30
0.0
 11
317.2091168309
 21
147.5643862342
 31
0.0
  0
LINE
  5
4B5
  8
0
  6
CONTINUOUS
 62
     7
 10
314.0341168183
 20
144.3893862216
 30
0.0
 11
310.8591168057
 21
141.2143862089
 31
0.0
  0
LINE
  5
4B6
  8
0
  6
CONTINUOUS
 62
     7
 10
307.684116793
 20
138.0393861963
 30
0.0
 11
307.0091167943
 21
137.3643861975
 31
0.0
  0
LINE
  5
4B7
  8
0
  6
CONTINUOUS
 62
     7
 10
345.7841169806
 20
188.8393863625
 30
0.0
 11
342.6091169679
 21
185.6643863499
 31
0.0
  0
LINE
  5
4B8
  8
0
  6
CONTINUOUS
 62
     7
 10
339.4341169553
 20
182.4893863372
 30
0.0
 11
336.2591169427
 21
179.3143863246
 31
0.0
  0
LINE
  5
4B9
  8
0
  6
CONTINUOUS
 62
     7
 10
333.08411693
 20
176.139386312
 30
0.0
 11
329.9091169174
 21
172.9643862993
 31
0.0
  0
LINE
  5
4BA
  8
0
  6
CONTINUOUS
 62
     7
 10
326.7341169048
 20
169.7893862867
 30
0.0
 11
323.5591168921
 21
166.6143862741
 31
0.0
  0
LINE
  5
4BB
  8
0
  6
CONTINUOUS
 62
     7
 10
320.3841168795
 20
163.4393862614
 30
0.0
 11
317.2091168669
 21
160.2643862488
 31
0.0
  0
LINE
  5
4BC
  8
0
  6
CONTINUOUS
 62
     7
 10
314.0341168542
 20
157.0893862362
 30
0.0
 11
310.8591168416
 21
153.9143862235
 31
0.0
  0
LINE
  5
4BD
  8
0
  6
CONTINUOUS
 62
     7
 10
307.684116829
 20
150.7393862109
 30
0.0
 11
304.5091168163
 21
147.5643861983
 31
0.0
  0
LINE
  5
4BE
  8
0
  6
CONTINUOUS
 62
     7
 10
301.3341168037
 20
144.3893861856
 30
0.0
 11
298.1591167911
 21
141.214386173
 31
0.0
  0
LINE
  5
4BF
  8
0
  6
CONTINUOUS
 62
     7
 10
294.9841167784
 20
138.0393861604
 30
0.0
 11
294.3091168156
 21
137.3643861975
 31
0.0
  0
LINE
  5
4C0
  8
0
  6
CONTINUOUS
 62
     7
 10
339.4341169912
 20
195.1893863518
 30
0.0
 11
336.2591169786
 21
192.0143863392
 31
0.0
  0
LINE
  5
4C1
  8
0
  6
CONTINUOUS
 62
     7
 10
333.0841169659
 20
188.8393863266
 30
0.0
 11
329.9091169533
 21
185.6643863139
 31
0.0
  0
LINE
  5
4C2
  8
0
  6
CONTINUOUS
 62
     7
 10
326.7341169407
 20
182.4893863013
 30
0.0
 11
323.559116928
 21
179.3143862887
 31
0.0
  0
LINE
  5
4C3
  8
0
  6
CONTINUOUS
 62
     7
 10
320.3841169154
 20
176.1393862761
 30
0.0
 11
317.2091169028
 21
172.9643862634
 31
0.0
  0
LINE
  5
4C4
  8
0
  6
CONTINUOUS
 62
     7
 10
314.0341168901
 20
169.7893862508
 30
0.0
 11
310.8591168775
 21
166.6143862382
 31
0.0
  0
LINE
  5
4C5
  8
0
  6
CONTINUOUS
 62
     7
 10
307.6841168649
 20
163.4393862255
 30
0.0
 11
304.5091168523
 21
160.2643862129
 31
0.0
  0
LINE
  5
4C6
  8
0
  6
CONTINUOUS
 62
     7
 10
301.3341168396
 20
157.0893862003
 30
0.0
 11
298.159116827
 21
153.9143861876
 31
0.0
  0
LINE
  5
4C7
  8
0
  6
CONTINUOUS
 62
     7
 10
294.9841168144
 20
150.739386175
 30
0.0
 11
291.8091168017
 21
147.5643861624
 31
0.0
  0
LINE
  5
4C8
  8
0
  6
CONTINUOUS
 62
     7
 10
288.6341167891
 20
144.3893861497
 30
0.0
 11
287.3965451214
 21
143.1518144821
 31
0.0
  0
LINE
  5
4C9
  8
0
  6
CONTINUOUS
 62
     7
 10
326.7341169766
 20
195.1893863159
 30
0.0
 11
323.559116964
 21
192.0143863033
 31
0.0
  0
LINE
  5
4CA
  8
0
  6
CONTINUOUS
 62
     7
 10
320.3841169513
 20
188.8393862907
 30
0.0
 11
317.2091169387
 21
185.664386278
 31
0.0
  0
LINE
  5
4CB
  8
0
  6
CONTINUOUS
 62
     7
 10
314.0341169261
 20
182.4893862654
 30
0.0
 11
310.8591169134
 21
179.3143862528
 31
0.0
  0
LINE
  5
4CC
  8
0
  6
CONTINUOUS
 62
     7
 10
307.6841169008
 20
176.1393862401
 30
0.0
 11
304.5091168882
 21
172.9643862275
 31
0.0
  0
LINE
  5
4CD
  8
0
  6
CONTINUOUS
 62
     7
 10
301.3341168755
 20
169.7893862149
 30
0.0
 11
298.1591168629
 21
166.6143862022
 31
0.0
  0
LINE
  5
4CE
  8
0
  6
CONTINUOUS
 62
     7
 10
294.9841168503
 20
163.4393861896
 30
0.0
 11
291.8091168376
 21
160.264386177
 31
0.0
  0
LINE
  5
4CF
  8
0
  6
CONTINUOUS
 62
     7
 10
288.634116825
 20
157.0893861643
 30
0.0
 11
287.3965451214
 21
155.8518144608
 31
0.0
  0
LINE
  5
4D0
  8
0
  6
CONTINUOUS
 62
     7
 10
314.034116962
 20
195.18938628
 30
0.0
 11
310.8591169494
 21
192.0143862674
 31
0.0
  0
LINE
  5
4D1
  8
0
  6
CONTINUOUS
 62
     7
 10
307.6841169367
 20
188.8393862547
 30
0.0
 11
304.5091169241
 21
185.6643862421
 31
0.0
  0
LINE
  5
4D2
  8
0
  6
CONTINUOUS
 62
     7
 10
301.3341169115
 20
182.4893862295
 30
0.0
 11
298.1591168988
 21
179.3143862168
 31
0.0
  0
LINE
  5
4D3
  8
0
  6
CONTINUOUS
 62
     7
 10
294.9841168862
 20
176.1393862042
 30
0.0
 11
291.8091168736
 21
172.9643861916
 31
0.0
  0
LINE
  5
4D4
  8
0
  6
CONTINUOUS
 62
     7
 10
288.6341168609
 20
169.7893861789
 30
0.0
 11
287.3965451214
 21
168.5518144394
 31
0.0
  0
LINE
  5
4D5
  8
0
  6
CONTINUOUS
 62
     7
 10
301.3341169474
 20
195.1893862441
 30
0.0
 11
298.1591169347
 21
192.0143862315
 31
0.0
  0
LINE
  5
4D6
  8
0
  6
CONTINUOUS
 62
     7
 10
294.9841169221
 20
188.8393862188
 30
0.0
 11
291.8091169095
 21
185.6643862062
 31
0.0
  0
LINE
  5
4D7
  8
0
  6
CONTINUOUS
 62
     7
 10
288.6341168969
 20
182.4893861936
 30
0.0
 11
287.3965451214
 21
181.2518144181
 31
0.0
  0
LINE
  5
4D8
  8
0
  6
CONTINUOUS
 62
     7
 10
288.6341169328
 20
195.1893862082
 30
0.0
 11
287.3965451214
 21
193.9518143968
 31
0.0
  0
LINE
  5
4D9
  8
0
  6
CONTINUOUS
 62
     7
 10
290.2216169434
 20
216.3643861975
 30
0.0
 11
290.2216169434
 21
259.3643861975
 31
0.0
  0
LINE
  5
4DA
  8
0
  6
CONTINUOUS
 62
     7
 10
293.3966169434
 20
216.3643861975
 30
0.0
 11
293.3966169434
 21
259.3643861975
 31
0.0
  0
LINE
  5
4DB
  8
0
  6
CONTINUOUS
 62
     7
 10
296.5716169434
 20
216.3643861975
 30
0.0
 11
296.5716169434
 21
259.3643861975
 31
0.0
  0
LINE
  5
4DC
  8
0
  6
CONTINUOUS
 62
     7
 10
299.7466169434
 20
216.3643861975
 30
0.0
 11
299.7466169434
 21
259.3643861975
 31
0.0
  0
LINE
  5
4DD
  8
0
  6
CONTINUOUS
 62
     7
 10
302.9216169434
 20
216.3643861975
 30
0.0
 11
302.9216169434
 21
259.3643861975
 31
0.0
  0
LINE
  5
4DE
  8
0
  6
CONTINUOUS
 62
     7
 10
306.0966169434
 20
201.3643861975
 30
0.0
 11
306.0966169434
 21
259.3643861975
 31
0.0
  0
LINE
  5
4DF
  8
0
  6
CONTINUOUS
 62
     7
 10
309.2716169434
 20
201.3643861975
 30
0.0
 11
309.2716169434
 21
259.3643861975
 31
0.0
  0
LINE
  5
4E0
  8
0
  6
CONTINUOUS
 62
     7
 10
312.4466169434
 20
201.3643861975
 30
0.0
 11
312.4466169434
 21
259.3643861975
 31
0.0
  0
LINE
  5
4E1
  8
0
  6
CONTINUOUS
 62
     7
 10
315.6216169434
 20
201.3643861975
 30
0.0
 11
315.6216169434
 21
259.3643861975
 31
0.0
  0
LINE
  5
4E2
  8
0
  6
CONTINUOUS
 62
     7
 10
318.7966169434
 20
199.3643861975
 30
0.0
 11
318.7966169434
 21
259.3643861975
 31
0.0
  0
LINE
  5
4E3
  8
0
  6
CONTINUOUS
 62
     7
 10
321.9716169434
 20
199.3643861975
 30
0.0
 11
321.9716169434
 21
259.3643861975
 31
0.0
  0
LINE
  5
4E4
  8
0
  6
CONTINUOUS
 62
     7
 10
325.1466169434
 20
199.3643861975
 30
0.0
 11
325.1466169434
 21
259.3643861975
 31
0.0
  0
LINE
  5
4E5
  8
0
  6
CONTINUOUS
 62
     7
 10
328.3216169434
 20
199.3643861975
 30
0.0
 11
328.3216169434
 21
259.3643861975
 31
0.0
  0
LINE
  5
4E6
  8
0
  6
CONTINUOUS
 62
     7
 10
331.4966169434
 20
199.3643861975
 30
0.0
 11
331.4966169434
 21
259.3643861975
 31
0.0
  0
LINE
  5
4E7
  8
0
  6
CONTINUOUS
 62
     7
 10
334.6716169434
 20
199.3643861975
 30
0.0
 11
334.6716169434
 21
259.3643861975
 31
0.0
  0
LINE
  5
4E8
  8
0
  6
CONTINUOUS
 62
     7
 10
337.8466169434
 20
199.3643861975
 30
0.0
 11
337.8466169434
 21
259.3643861975
 31
0.0
  0
LINE
  5
4E9
  8
0
  6
CONTINUOUS
 62
     7
 10
341.0216169434
 20
199.3643861975
 30
0.0
 11
341.0216169434
 21
259.3643861975
 31
0.0
  0
LINE
  5
4EA
  8
0
  6
CONTINUOUS
 62
     7
 10
344.1966169434
 20
199.3643861975
 30
0.0
 11
344.1966169434
 21
259.3643861975
 31
0.0
  0
LINE
  5
4EB
  8
0
  6
CONTINUOUS
 62
     7
 10
347.3716169434
 20
199.3643861975
 30
0.0
 11
347.3716169434
 21
259.3643861975
 31
0.0
  0
LINE
  5
4EC
  8
0
  6
CONTINUOUS
 62
     7
 10
345.7841170165
 20
199.9518863771
 30
0.0
 11
345.1966168369
 21
199.3643861975
 31
0.0
  0
LINE
  5
4ED
  8
0
  6
CONTINUOUS
 62
     7
 10
345.7841170524
 20
212.6518863917
 30
0.0
 11
342.6091170398
 21
209.4768863791
 31
0.0
  0
LINE
  5
4EE
  8
0
  6
CONTINUOUS
 62
     7
 10
339.4341170271
 20
206.3018863665
 30
0.0
 11
336.2591170145
 21
203.1268863538
 31
0.0
  0
LINE
  5
4EF
  8
0
  6
CONTINUOUS
 62
     7
 10
333.0841170019
 20
199.9518863412
 30
0.0
 11
332.4966168582
 21
199.3643861975
 31
0.0
  0
LINE
  5
4F0
  8
0
  6
CONTINUOUS
 62
     7
 10
345.7841170883
 20
225.3518864063
 30
0.0
 11
342.6091170757
 21
222.1768863937
 31
0.0
  0
LINE
  5
4F1
  8
0
  6
CONTINUOUS
 62
     7
 10
339.4341170631
 20
219.0018863811
 30
0.0
 11
336.2591170504
 21
215.8268863684
 31
0.0
  0
LINE
  5
4F2
  8
0
  6
CONTINUOUS
 62
     7
 10
333.0841170378
 20
212.6518863558
 30
0.0
 11
329.9091170252
 21
209.4768863432
 31
0.0
  0
LINE
  5
4F3
  8
0
  6
CONTINUOUS
 62
     7
 10
326.7341170125
 20
206.3018863305
 30
0.0
 11
323.5591169999
 21
203.1268863179
 31
0.0
  0
LINE
  5
4F4
  8
0
  6
CONTINUOUS
 62
     7
 10
320.3841169873
 20
199.9518863053
 30
0.0
 11
319.7966168795
 21
199.3643861975
 31
0.0
  0
LINE
  5
4F5
  8
0
  6
CONTINUOUS
 62
     7
 10
345.7841171242
 20
238.0518864209
 30
0.0
 11
342.6091171116
 21
234.8768864083
 31
0.0
  0
LINE
  5
4F6
  8
0
  6
CONTINUOUS
 62
     7
 10
339.434117099
 20
231.7018863957
 30
0.0
 11
336.2591170863
 21
228.526886383
 31
0.0
  0
LINE
  5
4F7
  8
0
  6
CONTINUOUS
 62
     7
 10
333.0841170737
 20
225.3518863704
 30
0.0
 11
329.9091170611
 21
222.1768863578
 31
0.0
  0
LINE
  5
4F8
  8
0
  6
CONTINUOUS
 62
     7
 10
326.7341170484
 20
219.0018863451
 30
0.0
 11
323.5591170358
 21
215.8268863325
 31
0.0
  0
LINE
  5
4F9
  8
0
  6
CONTINUOUS
 62
     7
 10
320.3841170232
 20
212.6518863199
 30
0.0
 11
317.2091170105
 21
209.4768863072
 31
0.0
  0
LINE
  5
4FA
  8
0
  6
CONTINUOUS
 62
     7
 10
314.0341169979
 20
206.3018862946
 30
0.0
 11
310.8591169853
 21
203.126886282
 31
0.0
  0
LINE
  5
4FB
  8
0
  6
CONTINUOUS
 62
     7
 10
345.7841171602
 20
250.7518864356
 30
0.0
 11
342.6091171475
 21
247.5768864229
 31
0.0
  0
LINE
  5
4FC
  8
0
  6
CONTINUOUS
 62
     7
 10
339.4341171349
 20
244.4018864103
 30
0.0
 11
336.2591171223
 21
241.2268863977
 31
0.0
  0
LINE
  5
4FD
  8
0
  6
CONTINUOUS
 62
     7
 10
333.0841171096
 20
238.051886385
 30
0.0
 11
329.909117097
 21
234.8768863724
 31
0.0
  0
LINE
  5
4FE
  8
0
  6
CONTINUOUS
 62
     7
 10
326.7341170844
 20
231.7018863598
 30
0.0
 11
323.5591170717
 21
228.5268863471
 31
0.0
  0
LINE
  5
4FF
  8
0
  6
CONTINUOUS
 62
     7
 10
320.3841170591
 20
225.3518863345
 30
0.0
 11
317.2091170465
 21
222.1768863219
 31
0.0
  0
LINE
  5
500
  8
0
  6
CONTINUOUS
 62
     7
 10
314.0341170338
 20
219.0018863092
 30
0.0
 11
310.8591170212
 21
215.8268862966
 31
0.0
  0
LINE
  5
501
  8
0
  6
CONTINUOUS
 62
     7
 10
307.6841170086
 20
212.651886284
 30
0.0
 11
304.6123296983
 21
209.5800989737
 31
0.0
  0
LINE
  5
502
  8
0
  6
CONTINUOUS
 62
     7
 10
288.6341169687
 20
206.3018862228
 30
0.0
 11
287.3962790188
 21
205.0640482729
 31
0.0
  0
LINE
  5
503
  8
0
  6
CONTINUOUS
 62
     7
 10
339.4341171708
 20
257.1018864249
 30
0.0
 11
336.2591171582
 21
253.9268864123
 31
0.0
  0
LINE
  5
504
  8
0
  6
CONTINUOUS
 62
     7
 10
333.0841171456
 20
250.7518863996
 30
0.0
 11
329.9091171329
 21
247.576886387
 31
0.0
  0
LINE
  5
505
  8
0
  6
CONTINUOUS
 62
     7
 10
326.7341171203
 20
244.4018863744
 30
0.0
 11
323.5591171077
 21
241.2268863617
 31
0.0
  0
LINE
  5
506
  8
0
  6
CONTINUOUS
 62
     7
 10
320.384117095
 20
238.0518863491
 30
0.0
 11
317.2091170824
 21
234.8768863365
 31
0.0
  0
LINE
  5
507
  8
0
  6
CONTINUOUS
 62
     7
 10
314.0341170698
 20
231.7018863238
 30
0.0
 11
310.8591170571
 21
228.5268863112
 31
0.0
  0
LINE
  5
508
  8
0
  6
CONTINUOUS
 62
     7
 10
307.6841170445
 20
225.3518862986
 30
0.0
 11
304.5091170319
 21
222.1768862859
 31
0.0
  0
LINE
  5
509
  8
0
  6
CONTINUOUS
 62
     7
 10
301.3341170192
 20
219.0018862733
 30
0.0
 11
298.6966169434
 21
216.3643861975
 31
0.0
  0
LINE
  5
50A
  8
0
  6
CONTINUOUS
 62
     7
 10
326.7341171562
 20
257.101886389
 30
0.0
 11
323.5591171436
 21
253.9268863763
 31
0.0
  0
LINE
  5
50B
  8
0
  6
CONTINUOUS
 62
     7
 10
320.3841171309
 20
250.7518863637
 30
0.0
 11
317.2091171183
 21
247.5768863511
 31
0.0
  0
LINE
  5
50C
  8
0
  6
CONTINUOUS
 62
     7
 10
314.0341171057
 20
244.4018863384
 30
0.0
 11
310.859117093
 21
241.2268863258
 31
0.0
  0
LINE
  5
50D
  8
0
  6
CONTINUOUS
 62
     7
 10
307.6841170804
 20
238.0518863132
 30
0.0
 11
304.5091170678
 21
234.8768863005
 31
0.0
  0
LINE
  5
50E
  8
0
  6
CONTINUOUS
 62
     7
 10
301.3341170551
 20
231.7018862879
 30
0.0
 11
298.1591170425
 21
228.5268862753
 31
0.0
  0
LINE
  5
50F
  8
0
  6
CONTINUOUS
 62
     7
 10
294.9841170299
 20
225.3518862626
 30
0.0
 11
291.8091170172
 21
222.17688625
 31
0.0
  0
LINE
  5
510
  8
0
  6
CONTINUOUS
 62
     7
 10
288.6341170046
 20
219.0018862374
 30
0.0
 11
287.3962790188
 21
217.7640482516
 31
0.0
  0
LINE
  5
511
  8
0
  6
CONTINUOUS
 62
     7
 10
314.0341171416
 20
257.1018863531
 30
0.0
 11
310.859117129
 21
253.9268863404
 31
0.0
  0
LINE
  5
512
  8
0
  6
CONTINUOUS
 62
     7
 10
307.6841171163
 20
250.7518863278
 30
0.0
 11
304.5091171037
 21
247.5768863152
 31
0.0
  0
LINE
  5
513
  8
0
  6
CONTINUOUS
 62
     7
 10
301.3341170911
 20
244.4018863025
 30
0.0
 11
298.1591170784
 21
241.2268862899
 31
0.0
  0
LINE
  5
514
  8
0
  6
CONTINUOUS
 62
     7
 10
294.9841170658
 20
238.0518862773
 30
0.0
 11
291.8091170532
 21
234.8768862646
 31
0.0
  0
LINE
  5
515
  8
0
  6
CONTINUOUS
 62
     7
 10
288.6341170405
 20
231.701886252
 30
0.0
 11
287.3962790188
 21
230.4640482303
 31
0.0
  0
LINE
  5
516
  8
0
  6
CONTINUOUS
 62
     7
 10
301.334117127
 20
257.1018863171
 30
0.0
 11
298.1591171144
 21
253.9268863045
 31
0.0
  0
LINE
  5
517
  8
0
  6
CONTINUOUS
 62
     7
 10
294.9841171017
 20
250.7518862919
 30
0.0
 11
291.8091170891
 21
247.5768862792
 31
0.0
  0
LINE
  5
518
  8
0
  6
CONTINUOUS
 62
     7
 10
288.6341170765
 20
244.4018862666
 30
0.0
 11
287.3962790188
 21
243.164048209
 31
0.0
  0
LINE
  5
519
  8
0
  6
CONTINUOUS
 62
     7
 10
288.6341171124
 20
257.1018862812
 30
0.0
 11
287.3962790188
 21
255.8640481876
 31
0.0
  0
LINE
  5
51A
  8
0
  6
CONTINUOUS
 62
     7
 10
345.7841170165
 20
200.7456363771
 30
0.0
 11
344.4028668369
 21
199.3643861975
 31
0.0
  0
LINE
  5
51B
  8
0
  6
CONTINUOUS
 62
     7
 10
345.7841170524
 20
213.4456363917
 30
0.0
 11
342.6091170398
 21
210.2706363791
 31
0.0
  0
LINE
  5
51C
  8
0
  6
CONTINUOUS
 62
     7
 10
339.4341170271
 20
207.0956363665
 30
0.0
 11
336.2591170145
 21
203.9206363538
 31
0.0
  0
LINE
  5
51D
  8
0
  6
CONTINUOUS
 62
     7
 10
333.0841170019
 20
200.7456363412
 30
0.0
 11
331.7028668582
 21
199.3643861975
 31
0.0
  0
LINE
  5
51E
  8
0
  6
CONTINUOUS
 62
     7
 10
345.7841170883
 20
226.1456364063
 30
0.0
 11
342.6091170757
 21
222.9706363937
 31
0.0
  0
LINE
  5
51F
  8
0
  6
CONTINUOUS
 62
     7
 10
339.4341170631
 20
219.7956363811
 30
0.0
 11
336.2591170504
 21
216.6206363684
 31
0.0
  0
LINE
  5
520
  8
0
  6
CONTINUOUS
 62
     7
 10
333.0841170378
 20
213.4456363558
 30
0.0
 11
329.9091170252
 21
210.2706363432
 31
0.0
  0
LINE
  5
521
  8
0
  6
CONTINUOUS
 62
     7
 10
326.7341170125
 20
207.0956363305
 30
0.0
 11
323.5591169999
 21
203.9206363179
 31
0.0
  0
LINE
  5
522
  8
0
  6
CONTINUOUS
 62
     7
 10
320.3841169873
 20
200.7456363053
 30
0.0
 11
319.0028668795
 21
199.3643861975
 31
0.0
  0
LINE
  5
523
  8
0
  6
CONTINUOUS
 62
     7
 10
345.7841171242
 20
238.8456364209
 30
0.0
 11
342.6091171116
 21
235.6706364083
 31
0.0
  0
LINE
  5
524
  8
0
  6
CONTINUOUS
 62
     7
 10
339.434117099
 20
232.4956363957
 30
0.0
 11
336.2591170863
 21
229.320636383
 31
0.0
  0
LINE
  5
525
  8
0
  6
CONTINUOUS
 62
     7
 10
333.0841170737
 20
226.1456363704
 30
0.0
 11
329.9091170611
 21
222.9706363578
 31
0.0
  0
LINE
  5
526
  8
0
  6
CONTINUOUS
 62
     7
 10
326.7341170484
 20
219.7956363451
 30
0.0
 11
323.5591170358
 21
216.6206363325
 31
0.0
  0
LINE
  5
527
  8
0
  6
CONTINUOUS
 62
     7
 10
320.3841170232
 20
213.4456363199
 30
0.0
 11
317.2091170105
 21
210.2706363072
 31
0.0
  0
LINE
  5
528
  8
0
  6
CONTINUOUS
 62
     7
 10
314.0341169979
 20
207.0956362946
 30
0.0
 11
310.8591169853
 21
203.920636282
 31
0.0
  0
LINE
  5
529
  8
0
  6
CONTINUOUS
 62
     7
 10
345.7841171602
 20
251.5456364356
 30
0.0
 11
342.6091171475
 21
248.3706364229
 31
0.0
  0
LINE
  5
52A
  8
0
  6
CONTINUOUS
 62
     7
 10
339.4341171349
 20
245.1956364103
 30
0.0
 11
336.2591171223
 21
242.0206363977
 31
0.0
  0
LINE
  5
52B
  8
0
  6
CONTINUOUS
 62
     7
 10
333.0841171096
 20
238.845636385
 30
0.0
 11
329.909117097
 21
235.6706363724
 31
0.0
  0
LINE
  5
52C
  8
0
  6
CONTINUOUS
 62
     7
 10
326.7341170844
 20
232.4956363598
 30
0.0
 11
323.5591170717
 21
229.3206363471
 31
0.0
  0
LINE
  5
52D
  8
0
  6
CONTINUOUS
 62
     7
 10
320.3841170591
 20
226.1456363345
 30
0.0
 11
317.2091170465
 21
222.9706363219
 31
0.0
  0
LINE
  5
52E
  8
0
  6
CONTINUOUS
 62
     7
 10
314.0341170338
 20
219.7956363092
 30
0.0
 11
310.8591170212
 21
216.6206362966
 31
0.0
  0
LINE
  5
52F
  8
0
  6
CONTINUOUS
 62
     7
 10
307.6841170086
 20
213.445636284
 30
0.0
 11
304.6123296983
 21
210.3738489737
 31
0.0
  0
LINE
  5
530
  8
0
  6
CONTINUOUS
 62
     7
 10
288.6341169687
 20
207.0956362228
 30
0.0
 11
287.3962790188
 21
205.8577982729
 31
0.0
  0
LINE
  5
531
  8
0
  6
CONTINUOUS
 62
     7
 10
339.4341171708
 20
257.8956364249
 30
0.0
 11
336.2591171582
 21
254.7206364123
 31
0.0
  0
LINE
  5
532
  8
0
  6
CONTINUOUS
 62
     7
 10
333.0841171456
 20
251.5456363996
 30
0.0
 11
329.9091171329
 21
248.370636387
 31
0.0
  0
LINE
  5
533
  8
0
  6
CONTINUOUS
 62
     7
 10
326.7341171203
 20
245.1956363744
 30
0.0
 11
323.5591171077
 21
242.0206363617
 31
0.0
  0
LINE
  5
534
  8
0
  6
CONTINUOUS
 62
     7
 10
320.384117095
 20
238.8456363491
 30
0.0
 11
317.2091170824
 21
235.6706363365
 31
0.0
  0
LINE
  5
535
  8
0
  6
CONTINUOUS
 62
     7
 10
314.0341170698
 20
232.4956363238
 30
0.0
 11
310.8591170571
 21
229.3206363112
 31
0.0
  0
LINE
  5
536
  8
0
  6
CONTINUOUS
 62
     7
 10
307.6841170445
 20
226.1456362986
 30
0.0
 11
304.5091170319
 21
222.9706362859
 31
0.0
  0
LINE
  5
537
  8
0
  6
CONTINUOUS
 62
     7
 10
301.3341170192
 20
219.7956362733
 30
0.0
 11
298.1591170066
 21
216.6206362607
 31
0.0
  0
LINE
  5
538
  8
0
  6
CONTINUOUS
 62
     7
 10
326.7341171562
 20
257.895636389
 30
0.0
 11
323.5591171436
 21
254.7206363763
 31
0.0
  0
LINE
  5
539
  8
0
  6
CONTINUOUS
 62
     7
 10
320.3841171309
 20
251.5456363637
 30
0.0
 11
317.2091171183
 21
248.3706363511
 31
0.0
  0
LINE
  5
53A
  8
0
  6
CONTINUOUS
 62
     7
 10
314.0341171057
 20
245.1956363384
 30
0.0
 11
310.859117093
 21
242.0206363258
 31
0.0
  0
LINE
  5
53B
  8
0
  6
CONTINUOUS
 62
     7
 10
307.6841170804
 20
238.8456363132
 30
0.0
 11
304.5091170678
 21
235.6706363005
 31
0.0
  0
LINE
  5
53C
  8
0
  6
CONTINUOUS
 62
     7
 10
301.3341170551
 20
232.4956362879
 30
0.0
 11
298.1591170425
 21
229.3206362753
 31
0.0
  0
LINE
  5
53D
  8
0
  6
CONTINUOUS
 62
     7
 10
294.9841170299
 20
226.1456362626
 30
0.0
 11
291.8091170172
 21
222.97063625
 31
0.0
  0
LINE
  5
53E
  8
0
  6
CONTINUOUS
 62
     7
 10
288.6341170046
 20
219.7956362374
 30
0.0
 11
287.3962790188
 21
218.5577982516
 31
0.0
  0
LINE
  5
53F
  8
0
  6
CONTINUOUS
 62
     7
 10
314.0341171416
 20
257.8956363531
 30
0.0
 11
310.859117129
 21
254.7206363404
 31
0.0
  0
LINE
  5
540
  8
0
  6
CONTINUOUS
 62
     7
 10
307.6841171163
 20
251.5456363278
 30
0.0
 11
304.5091171037
 21
248.3706363152
 31
0.0
  0
LINE
  5
541
  8
0
  6
CONTINUOUS
 62
     7
 10
301.3341170911
 20
245.1956363025
 30
0.0
 11
298.1591170784
 21
242.0206362899
 31
0.0
  0
LINE
  5
542
  8
0
  6
CONTINUOUS
 62
     7
 10
294.9841170658
 20
238.8456362773
 30
0.0
 11
291.8091170532
 21
235.6706362646
 31
0.0
  0
LINE
  5
543
  8
0
  6
CONTINUOUS
 62
     7
 10
288.6341170405
 20
232.495636252
 30
0.0
 11
287.3962790188
 21
231.2577982303
 31
0.0
  0
LINE
  5
544
  8
0
  6
CONTINUOUS
 62
     7
 10
301.334117127
 20
257.8956363171
 30
0.0
 11
298.1591171144
 21
254.7206363045
 31
0.0
  0
LINE
  5
545
  8
0
  6
CONTINUOUS
 62
     7
 10
294.9841171017
 20
251.5456362919
 30
0.0
 11
291.8091170891
 21
248.3706362792
 31
0.0
  0
LINE
  5
546
  8
0
  6
CONTINUOUS
 62
     7
 10
288.6341170765
 20
245.1956362666
 30
0.0
 11
287.3962790188
 21
243.957798209
 31
0.0
  0
LINE
  5
547
  8
0
  6
CONTINUOUS
 62
     7
 10
288.6341171124
 20
257.8956362812
 30
0.0
 11
287.3962790188
 21
256.6577981876
 31
0.0
  0
LINE
  5
548
  8
0
  6
CONTINUOUS
 62
     7
 10
345.7841170165
 20
201.5393863771
 30
0.0
 11
343.6091168369
 21
199.3643861975
 31
0.0
  0
LINE
  5
549
  8
0
  6
CONTINUOUS
 62
     7
 10
345.7841170524
 20
214.2393863917
 30
0.0
 11
342.6091170398
 21
211.0643863791
 31
0.0
  0
LINE
  5
54A
  8
0
  6
CONTINUOUS
 62
     7
 10
339.4341170271
 20
207.8893863665
 30
0.0
 11
336.2591170145
 21
204.7143863538
 31
0.0
  0
LINE
  5
54B
  8
0
  6
CONTINUOUS
 62
     7
 10
333.0841170019
 20
201.5393863412
 30
0.0
 11
330.9091168582
 21
199.3643861975
 31
0.0
  0
LINE
  5
54C
  8
0
  6
CONTINUOUS
 62
     7
 10
345.7841170883
 20
226.9393864063
 30
0.0
 11
342.6091170757
 21
223.7643863937
 31
0.0
  0
LINE
  5
54D
  8
0
  6
CONTINUOUS
 62
     7
 10
339.4341170631
 20
220.5893863811
 30
0.0
 11
336.2591170504
 21
217.4143863684
 31
0.0
  0
LINE
  5
54E
  8
0
  6
CONTINUOUS
 62
     7
 10
333.0841170378
 20
214.2393863558
 30
0.0
 11
329.9091170252
 21
211.0643863432
 31
0.0
  0
LINE
  5
54F
  8
0
  6
CONTINUOUS
 62
     7
 10
326.7341170125
 20
207.8893863305
 30
0.0
 11
323.5591169999
 21
204.7143863179
 31
0.0
  0
LINE
  5
550
  8
0
  6
CONTINUOUS
 62
     7
 10
320.3841169873
 20
201.5393863053
 30
0.0
 11
318.6966169434
 21
199.8518862614
 31
0.0
  0
LINE
  5
551
  8
0
  6
CONTINUOUS
 62
     7
 10
345.7841171242
 20
239.6393864209
 30
0.0
 11
342.6091171116
 21
236.4643864083
 31
0.0
  0
LINE
  5
552
  8
0
  6
CONTINUOUS
 62
     7
 10
339.434117099
 20
233.2893863957
 30
0.0
 11
336.2591170863
 21
230.114386383
 31
0.0
  0
LINE
  5
553
  8
0
  6
CONTINUOUS
 62
     7
 10
333.0841170737
 20
226.9393863704
 30
0.0
 11
329.9091170611
 21
223.7643863578
 31
0.0
  0
LINE
  5
554
  8
0
  6
CONTINUOUS
 62
     7
 10
326.7341170484
 20
220.5893863451
 30
0.0
 11
323.5591170358
 21
217.4143863325
 31
0.0
  0
LINE
  5
555
  8
0
  6
CONTINUOUS
 62
     7
 10
320.3841170232
 20
214.2393863199
 30
0.0
 11
317.2091170105
 21
211.0643863072
 31
0.0
  0
LINE
  5
556
  8
0
  6
CONTINUOUS
 62
     7
 10
314.0341169979
 20
207.8893862946
 30
0.0
 11
310.8591169853
 21
204.714386282
 31
0.0
  0
LINE
  5
557
  8
0
  6
CONTINUOUS
 62
     7
 10
307.6841169726
 20
201.5393862694
 30
0.0
 11
307.5091169008
 21
201.3643861975
 31
0.0
  0
LINE
  5
558
  8
0
  6
CONTINUOUS
 62
     7
 10
345.7841171602
 20
252.3393864356
 30
0.0
 11
342.6091171475
 21
249.1643864229
 31
0.0
  0
LINE
  5
559
  8
0
  6
CONTINUOUS
 62
     7
 10
339.4341171349
 20
245.9893864103
 30
0.0
 11
336.2591171223
 21
242.8143863977
 31
0.0
  0
LINE
  5
55A
  8
0
  6
CONTINUOUS
 62
     7
 10
333.0841171096
 20
239.639386385
 30
0.0
 11
329.909117097
 21
236.4643863724
 31
0.0
  0
LINE
  5
55B
  8
0
  6
CONTINUOUS
 62
     7
 10
326.7341170844
 20
233.2893863598
 30
0.0
 11
323.5591170717
 21
230.1143863471
 31
0.0
  0
LINE
  5
55C
  8
0
  6
CONTINUOUS
 62
     7
 10
320.3841170591
 20
226.9393863345
 30
0.0
 11
317.2091170465
 21
223.7643863219
 31
0.0
  0
LINE
  5
55D
  8
0
  6
CONTINUOUS
 62
     7
 10
314.0341170338
 20
220.5893863092
 30
0.0
 11
310.8591170212
 21
217.4143862966
 31
0.0
  0
LINE
  5
55E
  8
0
  6
CONTINUOUS
 62
     7
 10
307.6841170086
 20
214.239386284
 30
0.0
 11
304.6123296983
 21
211.1675989737
 31
0.0
  0
LINE
  5
55F
  8
0
  6
CONTINUOUS
 62
     7
 10
288.6341169687
 20
207.8893862228
 30
0.0
 11
287.3962790188
 21
206.6515482729
 31
0.0
  0
LINE
  5
560
  8
0
  6
CONTINUOUS
 62
     7
 10
339.4341171708
 20
258.6893864249
 30
0.0
 11
336.2591171582
 21
255.5143864123
 31
0.0
  0
LINE
  5
561
  8
0
  6
CONTINUOUS
 62
     7
 10
333.0841171456
 20
252.3393863996
 30
0.0
 11
329.9091171329
 21
249.164386387
 31
0.0
  0
LINE
  5
562
  8
0
  6
CONTINUOUS
 62
     7
 10
326.7341171203
 20
245.9893863744
 30
0.0
 11
323.5591171077
 21
242.8143863617
 31
0.0
  0
LINE
  5
563
  8
0
  6
CONTINUOUS
 62
     7
 10
320.384117095
 20
239.6393863491
 30
0.0
 11
317.2091170824
 21
236.4643863365
 31
0.0
  0
LINE
  5
564
  8
0
  6
CONTINUOUS
 62
     7
 10
314.0341170698
 20
233.2893863238
 30
0.0
 11
310.8591170571
 21
230.1143863112
 31
0.0
  0
LINE
  5
565
  8
0
  6
CONTINUOUS
 62
     7
 10
307.6841170445
 20
226.9393862986
 30
0.0
 11
304.5091170319
 21
223.7643862859
 31
0.0
  0
LINE
  5
566
  8
0
  6
CONTINUOUS
 62
     7
 10
301.3341170192
 20
220.5893862733
 30
0.0
 11
298.1591170066
 21
217.4143862607
 31
0.0
  0
LINE
  5
567
  8
0
  6
CONTINUOUS
 62
     7
 10
326.7341171562
 20
258.689386389
 30
0.0
 11
323.5591171436
 21
255.5143863763
 31
0.0
  0
LINE
  5
568
  8
0
  6
CONTINUOUS
 62
     7
 10
320.3841171309
 20
252.3393863637
 30
0.0
 11
317.2091171183
 21
249.1643863511
 31
0.0
  0
LINE
  5
569
  8
0
  6
CONTINUOUS
 62
     7
 10
314.0341171057
 20
245.9893863384
 30
0.0
 11
310.859117093
 21
242.8143863258
 31
0.0
  0
LINE
  5
56A
  8
0
  6
CONTINUOUS
 62
     7
 10
307.6841170804
 20
239.6393863132
 30
0.0
 11
304.5091170678
 21
236.4643863005
 31
0.0
  0
LINE
  5
56B
  8
0
  6
CONTINUOUS
 62
     7
 10
301.3341170551
 20
233.2893862879
 30
0.0
 11
298.1591170425
 21
230.1143862753
 31
0.0
  0
LINE
  5
56C
  8
0
  6
CONTINUOUS
 62
     7
 10
294.9841170299
 20
226.9393862626
 30
0.0
 11
291.8091170172
 21
223.76438625
 31
0.0
  0
LINE
  5
56D
  8
0
  6
CONTINUOUS
 62
     7
 10
288.6341170046
 20
220.5893862374
 30
0.0
 11
287.3962790188
 21
219.3515482516
 31
0.0
  0
LINE
  5
56E
  8
0
  6
CONTINUOUS
 62
     7
 10
314.0341171416
 20
258.6893863531
 30
0.0
 11
310.859117129
 21
255.5143863404
 31
0.0
  0
LINE
  5
56F
  8
0
  6
CONTINUOUS
 62
     7
 10
307.6841171163
 20
252.3393863278
 30
0.0
 11
304.5091171037
 21
249.1643863152
 31
0.0
  0
LINE
  5
570
  8
0
  6
CONTINUOUS
 62
     7
 10
301.3341170911
 20
245.9893863025
 30
0.0
 11
298.1591170784
 21
242.8143862899
 31
0.0
  0
LINE
  5
571
  8
0
  6
CONTINUOUS
 62
     7
 10
294.9841170658
 20
239.6393862773
 30
0.0
 11
291.8091170532
 21
236.4643862646
 31
0.0
  0
LINE
  5
572
  8
0
  6
CONTINUOUS
 62
     7
 10
288.6341170405
 20
233.289386252
 30
0.0
 11
287.3962790188
 21
232.0515482303
 31
0.0
  0
LINE
  5
573
  8
0
  6
CONTINUOUS
 62
     7
 10
301.334117127
 20
258.6893863171
 30
0.0
 11
298.1591171144
 21
255.5143863045
 31
0.0
  0
LINE
  5
574
  8
0
  6
CONTINUOUS
 62
     7
 10
294.9841171017
 20
252.3393862919
 30
0.0
 11
291.8091170891
 21
249.1643862792
 31
0.0
  0
LINE
  5
575
  8
0
  6
CONTINUOUS
 62
     7
 10
288.6341170765
 20
245.9893862666
 30
0.0
 11
287.3962790188
 21
244.751548209
 31
0.0
  0
LINE
  5
576
  8
0
  6
CONTINUOUS
 62
     7
 10
288.6341171124
 20
258.6893862812
 30
0.0
 11
287.3962790188
 21
257.4515481876
 31
0.0
  0
LINE
  5
577
  8
0
  6
CONTINUOUS
 62
     7
 10
276.7064888829
 20
198.8643861975
 30
0.0
 11
277.410069596
 21
199.5679669106
 31
0.0
  0
LINE
  5
578
  8
0
  6
CONTINUOUS
 62
     7
 10
285.686745004
 20
198.8643861975
 30
0.0
 11
286.117320673
 21
199.2949618666
 31
0.0
  0
LINE
  5
579
  8
0
  6
CONTINUOUS
 62
     7
 10
281.1966169434
 20
198.8643861975
 30
0.0
 11
283.0831023299
 21
200.750871584
 31
0.0
  0
LINE
  5
57A
  8
0
  6
CONTINUOUS
 62
     7
 10
289.1802279907
 20
216.3643854226
 30
0.0
 11
289.1802279907
 21
201.3643862236
 31
0.0
  0
LINE
  5
57B
  8
0
  6
CONTINUOUS
 62
     7
 10
304.6123305964
 20
201.3643862236
 30
0.0
 11
304.6123305964
 21
216.3643854226
 31
0.0
  0
LINE
  5
57C
  8
0
  6
CONTINUOUS
 62
     7
 10
347.3962782579
 20
199.364386245
 30
0.0
 11
318.6966157215
 21
199.364386245
 31
0.0
  0
LINE
  5
57D
  8
0
  6
CONTINUOUS
 62
     7
 10
289.1802279907
 20
216.3643854226
 30
0.0
 11
304.6123305964
 21
216.3643854226
 31
0.0
  0
LINE
  5
57E
  8
0
  6
CONTINUOUS
 62
     7
 10
347.3962782579
 20
259.364386883
 30
0.0
 11
347.3962782579
 21
199.364386245
 31
0.0
  0
LINE
  5
57F
  8
0
  6
CONTINUOUS
 62
     7
 10
287.3962791334
 20
259.364386883
 30
0.0
 11
347.3962782579
 21
259.364386883
 31
0.0
  0
LINE
  5
580
  8
0
  6
CONTINUOUS
 62
     7
 10
318.6966157215
 20
199.364386245
 30
0.0
 11
318.6966157215
 21
201.3643862236
 31
0.0
  0
LINE
  5
581
  8
0
  6
CONTINUOUS
 62
     7
 10
304.6123305964
 20
201.3643862236
 30
0.0
 11
318.6966157215
 21
201.3643862236
 31
0.0
  0
LINE
  5
582
  8
0
  6
CONTINUOUS
 62
     7
 10
287.3962791334
 20
201.3643862236
 30
0.0
 11
289.1802279907
 21
201.3643862236
 31
0.0
  0
LINE
  5
583
  8
0
  6
CONTINUOUS
 62
     7
 10
287.3962791334
 20
201.3643862236
 30
0.0
 11
287.3962791334
 21
259.364386883
 31
0.0
  0
LINE
  5
584
  8
0
  6
CONTINUOUS
 62
     7
 10
318.6966157215
 20
195.3643861714
 30
0.0
 11
287.396545026
 21
195.3643861714
 31
0.0
  0
LINE
  5
585
  8
0
  6
CONTINUOUS
 62
     7
 10
318.6966157215
 20
195.3643861714
 30
0.0
 11
318.6966157215
 21
197.36438615
 31
0.0
  0
LINE
  5
586
  8
0
  6
CONTINUOUS
 62
     7
 10
318.6966157215
 20
197.36438615
 30
0.0
 11
347.3965464788
 21
197.36438615
 31
0.0
  0
LINE
  5
587
  8
0
  6
CONTINUOUS
 62
     7
 10
347.3965464788
 20
137.3643855121
 30
0.0
 11
287.396545026
 21
137.3643855121
 31
0.0
  0
LINE
  5
588
  8
0
  6
CONTINUOUS
 62
     7
 10
287.396545026
 20
137.3643855121
 30
0.0
 11
287.396545026
 21
195.3643861714
 31
0.0
  0
LINE
  5
589
  8
0
  6
CONTINUOUS
 62
     7
 10
347.3965464788
 20
197.36438615
 30
0.0
 11
347.3965464788
 21
137.3643855121
 31
0.0
  0
CIRCLE
  5
58A
  8
0
  6
CONTINUOUS
 62
     7
 10
280.6966169434
 20
198.3643861975
 30
0.0
 40
3.37499999999998
  0
LINE
  5
58B
  8
0
  6
CONTINUOUS
 62
     7
 10
300.6966164964
 20
198.8643862213
 30
0.0
 11
300.6966164964
 21
197.36438615
 31
0.0
  0
LINE
  5
58C
  8
0
  6
CONTINUOUS
 62
     7
 10
300.6966164964
 20
197.36438615
 30
0.0
 11
287.6966171595
 21
197.36438615
 31
0.0
  0
LINE
  5
58D
  8
0
  6
CONTINUOUS
 62
     7
 10
287.6966171595
 20
197.36438615
 30
0.0
 11
287.6966171595
 21
198.8643862213
 31
0.0
  0
LINE
  5
58E
  8
0
  6
CONTINUOUS
 62
     7
 10
289.1966174054
 20
198.8643862213
 30
0.0
 11
287.6966171595
 21
198.8643862213
 31
0.0
  0
ARC
  5
58F
  8
0
  6
CONTINUOUS
 62
     7
 10
289.1966169434
 20
199.8643861975
 30
0.0
 40
1.0
 50
270.0
 51
0.0
  0
LINE
  5
590
  8
0
  6
CONTINUOUS
 62
     7
 10
290.196616638
 20
199.8643862105
 30
0.0
 11
290.196616638
 21
214.8643861081
 31
0.0
  0
ARC
  5
591
  8
0
  6
CONTINUOUS
 62
     7
 10
290.6966169434
 20
214.8643861975
 30
0.0
 40
0.5000000000000568
 50
90.0
 51
180.0
  0
LINE
  5
592
  8
0
  6
CONTINUOUS
 62
     7
 10
292.7424697834
 20
215.3643871214
 30
0.0
 11
290.6966167199
 21
215.3643871214
 31
0.0
  0
LINE
  5
593
  8
0
  6
CONTINUOUS
 62
     7
 10
292.7424697834
 20
215.3643871214
 30
0.0
 11
298.1966170179
 21
208.8643860559
 31
0.0
  0
LINE
  5
594
  8
0
  6
CONTINUOUS
 62
     7
 10
298.1966170179
 20
208.8643860559
 30
0.0
 11
298.1966170179
 21
199.8643862105
 31
0.0
  0
ARC
  5
595
  8
0
  6
CONTINUOUS
 62
     7
 10
299.1966169434
 20
199.8643861975
 30
0.0
 40
1.0
 50
180.0
 51
270.0
  0
LINE
  5
596
  8
0
  6
CONTINUOUS
 62
     7
 10
300.6966164964
 20
198.8643862213
 30
0.0
 11
299.1966171818
 21
198.8643862213
 31
0.0
  0
LINE
  5
597
  8
0
  6
CONTINUOUS
 62
     7
 10
313.446616258
 20
197.36438615
 30
0.0
 11
303.9466174948
 21
197.36438615
 31
0.0
  0
LINE
  5
598
  8
0
  6
CONTINUOUS
 62
     7
 10
313.446616258
 20
197.36438615
 30
0.0
 11
312.1966174501
 21
196.1143862944
 31
0.0
  0
LINE
  5
599
  8
0
  6
CONTINUOUS
 62
     7
 10
312.1966174501
 20
196.6558380307
 30
0.0
 11
312.1966174501
 21
196.1143862944
 31
0.0
  0
ARC
  5
59A
  8
0
  6
CONTINUOUS
 62
     7
 10
310.4466176289
 20
199.3171198558
 30
0.0
 40
3.185109154576849
 50
236.6719685568
 51
303.3280314432
  0
ARC
  5
59B
  8
0
  6
CONTINUOUS
 62
     7
 10
306.9466170552
 20
199.317124147
 30
0.0
 40
3.185113251745284
 50
236.6719969711
 51
303.328003029
  0
LINE
  5
59C
  8
0
  6
CONTINUOUS
 62
     7
 10
305.1966163027
 20
196.1143862944
 30
0.0
 11
303.9466174948
 21
197.36438615
 31
0.0
  0
LINE
  5
59D
  8
0
  6
CONTINUOUS
 62
     7
 10
305.1966163027
 20
196.1143862944
 30
0.0
 11
305.1966163027
 21
196.6558380307
 31
0.0
  0
LINE
  5
59E
  8
0
  6
CONTINUOUS
 62
     7
 10
287.396545026
 20
195.3643861714
 30
0.0
 11
287.396545026
 21
197.36438615
 31
0.0
  0
LINE
  5
59F
  8
0
  6
CONTINUOUS
 62
     7
 10
303.9466174948
 20
197.36438615
 30
0.0
 11
287.396545026
 21
197.36438615
 31
0.0
  0
LINE
  5
5A0
  8
0
  6
CONTINUOUS
 62
     7
 10
305.1966163027
 20
195.3643861714
 30
0.0
 11
287.396545026
 21
195.3643861714
 31
0.0
  0
LINE
  5
5A1
  8
0
  6
CONTINUOUS
 62
     7
 10
305.1966163027
 20
196.1143862944
 30
0.0
 11
305.1966163027
 21
195.3643861714
 31
0.0
  0
LINE
  5
5A2
  8
0
  6
CONTINUOUS
 62
     7
 10
318.6966157215
 20
195.3643861714
 30
0.0
 11
312.1966174501
 21
195.3643861714
 31
0.0
  0
LINE
  5
5A3
  8
0
  6
CONTINUOUS
 62
     7
 10
318.6966157215
 20
197.36438615
 30
0.0
 11
313.446616258
 21
197.36438615
 31
0.0
  0
LINE
  5
5A4
  8
0
  6
CONTINUOUS
 62
     7
 10
312.1966174501
 20
195.3643861714
 30
0.0
 11
312.1966174501
 21
196.1143862944
 31
0.0
  0
LINE
  5
5A5
  8
0
  6
CONTINUOUS
 62
     7
 10
308.6966178077
 20
195.3643861714
 30
0.0
 11
308.6966178077
 21
196.6558380307
 31
0.0
  0
LINE
  5
5A6
  8
0
  6
CONTINUOUS
 62
     7
 10
286.8892782996
 20
195.263373528
 30
0.0
 11
283.1054778932
 21
193.419955999
 31
0.0
  0
ARC
  5
5A7
  8
0
  6
CONTINUOUS
 62
     7
 10
280.6966169434
 20
198.3643861975
 30
0.0
 40
3.500000000000026
 50
13.5464657605
 51
64.0252694018
  0
LINE
  5
5A8
  8
0
  6
CONTINUOUS
 62
     7
 10
287.3272527638
 20
195.3643861714
 30
0.0
 11
287.3272527638
 21
197.36438615
 31
0.0
  0
LINE
  5
5A9
  8
0
  6
CONTINUOUS
 62
     7
 10
287.396545026
 20
195.3643861714
 30
0.0
 11
287.3272527638
 21
195.3643861714
 31
0.0
  0
LINE
  5
5AA
  8
0
  6
CONTINUOUS
 62
     7
 10
287.396545026
 20
197.36438615
 30
0.0
 11
287.3272527638
 21
197.36438615
 31
0.0
  0
ARC
  5
5AB
  8
0
  6
CONTINUOUS
 62
     7
 10
287.3272528757
 20
194.3643861975
 30
0.0
 40
1.000000000000016
 50
90.0
 51
115.9747305982
  0
ARC
  5
5AC
  8
0
  6
CONTINUOUS
 62
     7
 10
287.3272528757
 20
194.3643861975
 30
0.0
 40
3.000000000000048
 50
90.0
 51
115.9747305982
  0
LINE
  5
5AD
  8
0
  6
CONTINUOUS
 62
     7
 10
289.3966170656
 20
201.3643862236
 30
0.0
 11
289.3966170656
 21
199.364386245
 31
0.0
  0
LINE
  5
5AE
  8
0
  6
CONTINUOUS
 62
     7
 10
289.3966170656
 20
201.3643862236
 30
0.0
 11
290.196616638
 21
201.3643862236
 31
0.0
  0
LINE
  5
5AF
  8
0
  6
CONTINUOUS
 62
     7
 10
298.1966170179
 20
201.3643862236
 30
0.0
 11
303.3966174978
 21
201.3643862236
 31
0.0
  0
LINE
  5
5B0
  8
0
  6
CONTINUOUS
 62
     7
 10
303.3966174978
 20
199.364386245
 30
0.0
 11
303.3966174978
 21
201.3643862236
 31
0.0
  0
LINE
  5
5B1
  8
0
  6
CONTINUOUS
 62
     7
 10
289.3966170656
 20
199.364386245
 30
0.0
 11
290.0626421603
 21
199.364386245
 31
0.0
  0
LINE
  5
5B2
  8
0
  6
CONTINUOUS
 62
     7
 10
298.3305914956
 20
199.364386245
 30
0.0
 11
303.3966174978
 21
199.364386245
 31
0.0
  0
ARC
  5
5B3
  8
0
  6
CONTINUOUS
 62
     7
 10
280.6966169434
 20
198.3643861975
 30
0.0
 40
5.500000000000026
 50
64.0252694018
 51
13.5464657605
  0
LINE
  5
5B4
  8
0
  6
CONTINUOUS
 62
     7
 10
287.3272527638
 20
201.3643862236
 30
0.0
 11
289.3966170656
 21
201.3643862236
 31
0.0
  0
LINE
  5
5B5
  8
0
  6
CONTINUOUS
 62
     7
 10
287.3272527638
 20
199.364386245
 30
0.0
 11
289.3966170656
 21
199.364386245
 31
0.0
  0
ARC
  5
5B6
  8
0
  6
CONTINUOUS
 62
     7
 10
287.3272528757
 20
202.3643861975
 30
0.0
 40
3.000000000000048
 50
244.0252694018
 51
270.0
  0
LINE
  5
5B7
  8
0
  6
CONTINUOUS
 62
     7
 10
282.2295283829
 20
201.5108418207
 30
0.0
 11
286.0133289056
 21
199.6674242917
 31
0.0
  0
ARC
  5
5B8
  8
0
  6
CONTINUOUS
 62
     7
 10
280.6966169434
 20
198.3643861975
 30
0.0
 40
3.500000000000026
 50
64.0252694018
 51
13.5464657605
  0
LINE
  5
5B9
  8
0
  6
CONTINUOUS
 62
     7
 10
286.0436085309
 20
199.6526723749
 30
0.0
 11
284.0992479748
 21
199.1842047217
 31
0.0
  0
LINE
  5
5BA
  8
0
  6
CONTINUOUS
 62
     7
 10
283.1054778932
 20
203.308816396
 30
0.0
 11
286.8892782996
 21
201.465398867
 31
0.0
  0
ARC
  5
5BB
  8
0
  6
CONTINUOUS
 62
     7
 10
287.3272528757
 20
202.3643861975
 30
0.0
 40
1.000000000000016
 50
244.0252694018
 51
270.0
  0
LINE
  5
5BC
  8
0
  6
CONTINUOUS
 62
     7
 10
303.3966174978
 20
201.3643862236
 30
0.0
 11
305.1966163027
 21
201.3643862236
 31
0.0
  0
LINE
  5
5BD
  8
0
  6
CONTINUOUS
 62
     7
 10
305.1966163027
 20
200.6143861007
 30
0.0
 11
303.9466174948
 21
199.364386245
 31
0.0
  0
LINE
  5
5BE
  8
0
  6
CONTINUOUS
 62
     7
 10
303.3966174978
 20
199.364386245
 30
0.0
 11
303.9466174948
 21
199.364386245
 31
0.0
  0
LINE
  5
5BF
  8
0
  6
CONTINUOUS
 62
     7
 10
305.1966163027
 20
201.3643862236
 30
0.0
 11
305.1966163027
 21
200.6143861007
 31
0.0
  0
LINE
  5
5C0
  8
0
  6
CONTINUOUS
 62
     7
 10
313.446616258
 20
199.364386245
 30
0.0
 11
318.6966157215
 21
199.364386245
 31
0.0
  0
LINE
  5
5C1
  8
0
  6
CONTINUOUS
 62
     7
 10
313.446616258
 20
199.364386245
 30
0.0
 11
312.1966174501
 21
200.6143861007
 31
0.0
  0
LINE
  5
5C2
  8
0
  6
CONTINUOUS
 62
     7
 10
312.1966174501
 20
201.3643862236
 30
0.0
 11
318.6966157215
 21
201.3643862236
 31
0.0
  0
LINE
  5
5C3
  8
0
  6
CONTINUOUS
 62
     7
 10
312.1966174501
 20
200.6143861007
 30
0.0
 11
312.1966174501
 21
201.3643862236
 31
0.0
  0
ARC
  5
5C4
  8
0
  6
CONTINUOUS
 62
     7
 10
306.9466170552
 20
197.411648248
 30
0.0
 40
3.18511325174526
 50
56.671996971
 51
123.328003029
  0
ARC
  5
5C5
  8
0
  6
CONTINUOUS
 62
     7
 10
310.4466176289
 20
197.4116525392
 30
0.0
 40
3.185109154576849
 50
56.6719685568
 51
123.3280314432
  0
LINE
  5
5C6
  8
0
  6
CONTINUOUS
 62
     7
 10
313.446616258
 20
199.364386245
 30
0.0
 11
303.9466174948
 21
199.364386245
 31
0.0
  0
LINE
  5
5C7
  8
0
  6
CONTINUOUS
 62
     7
 10
312.1966174501
 20
200.0729343643
 30
0.0
 11
312.1966174501
 21
200.6143861007
 31
0.0
  0
LINE
  5
5C8
  8
0
  6
CONTINUOUS
 62
     7
 10
305.1966163027
 20
200.6143861007
 30
0.0
 11
305.1966163027
 21
200.0729343643
 31
0.0
  0
LINE
  5
5C9
  8
0
  6
CONTINUOUS
 62
     7
 10
308.6966178077
 20
201.3643862236
 30
0.0
 11
308.6966178077
 21
200.0729343643
 31
0.0
  0
LINE
  5
5CA
  8
0
  6
CONTINUOUS
 62
     8
 10
286.0310375387
 20
197.0249991653
 30
0.0
 11
286.8892782996
 21
195.263373528
 31
0.0
  0
DIMENSION
  5
5CB
  8
0
  6
CONTINUOUS
 62
     7
  2
_D_14
 10
287.3962790188
 20
127.3643861975
 30
0.0
 11
303.0464479811
 21
127.3643861975
 31
0.0
 70
   160
  1
<>
  3
SLDDIMSTYLE3
 13
318.6966169434
 23
199.3643861975
 33
0.0
 14
287.3962790188
 24
199.3643861975
 34
0.0
  0
DIMENSION
  5
5D6
  8
0
  6
CONTINUOUS
 62
     7
  2
_D_15
 10
364.3965451214
 20
199.3643861975
 30
0.0
 11
364.3965451214
 21
207.8643861975
 31
0.0
 70
   160
  1
<>
  3
SLDDIMSTYLE2
 13
304.6123296983
 23
216.3643861975
 33
0.0
 14
318.6966169434
 24
199.3643861975
 34
0.0
 50
90.0
  0
DIMENSION
  5
5E0
  8
0
  6
CONTINUOUS
 62
     7
  2
_D_16
 10
286.1966169434
 20
198.3643861975
 30
0.0
 11
263.6890779194
 21
198.3643961975
 31
0.0
 70
   163
  1
<>
  3
SLDDIMSTYLE4
 15
275.1966169434
 25
198.3643861975
 35
0.0
 40
0.0
  0
INSERT
  5
5F8
  8
0
  6
CONTINUOUS
 62
     7
  2
SW_CENTERMARKSYMBOL_9
 10
280.6966169434
 20
198.3643861975
 30
0.0
  0
LINE
  5
5F9
  8
0
  6
CENTERX2
 62
     7
 10
294.1966169434
 20
200.8643861975
 30
0.0
 11
294.1966169434
 21
195.3643861975
 31
0.0
  0
ENDSEC
  0
EOF
