  0
SECTION
  2
HEADER
  9
$ACADVER
  1
AC1009
  9
$DWGCODEPAGE
  3
ansi_1252
  9
$INSBASE
 10
0.0
 20
0.0
 30
0.0
  9
$EXTMIN
 10
0.0
 20
0.0
 30
0.0
  9
$EXTMAX
 10
420.0
 20
297.0
 30
0.0
  9
$LIMMIN
 10
0.0
 20
0.0
  9
$LIMMAX
 10
420.0
 20
297.0
  9
$ORTHOMODE
 70
     0
  9
$REGENMODE
 70
     1
  9
$FILLMODE
 70
     1
  9
$QTEXTMODE
 70
     0
  9
$MIRRTEXT
 70
     1
  9
$DRAGMODE
 70
     2
  9
$LTSCALE
 40
1.0
  9
$OSMODE
 70
    37
  9
$ATTMODE
 70
     1
  9
$TEXTSIZE
 40
3.5
  9
$TRACEWID
 40
1.0
  9
$TEXTSTYLE
  7
STANDARD
  9
$CLAYER
  8
0
  9
$CELTYPE
  6
BYLAYER
  9
$CECOLOR
 62
   256
  9
$DIMSCALE
 40
1.0
  9
$DIMASZ
 40
3.302
  9
$DIMEXO
 40
1.0
  9
$DIMDLI
 40
3.75
  9
$DIMRND
 40
0.0
  9
$DIMDLE
 40
0.0
  9
$DIMEXE
 40
1.0
  9
$DIMTP
 40
0.0
  9
$DIMTM
 40
0.0
  9
$DIMTXT
 40
3.5
  9
$DIMCEN
 40
2.5
  9
$DIMTSZ
 40
0.0
  9
$DIMTOL
 70
     0
  9
$DIMLIM
 70
     0
  9
$DIMTIH
 70
     1
  9
$DIMTOH
 70
     1
  9
$DIMSE1
 70
     0
  9
$DIMSE2
 70
     0
  9
$DIMTAD
 70
     1
  9
$DIMZIN
 70
     1
  9
$DIMBLK
  1

  9
$DIMASO
 70
     1
  9
$DIMSHO
 70
     1
  9
$DIMPOST
  1

  9
$DIMAPOST
  1

  9
$DIMALT
 70
     0
  9
$DIMALTD
 70
     3
  9
$DIMALTF
 40
0.0393700787
  9
$DIMLFAC
 40
1.0
  9
$DIMTOFL
 70
     1
  9
$DIMTVP
 40
0.0
  9
$DIMTIX
 70
     0
  9
$DIMSOXD
 70
     0
  9
$DIMSAH
 70
     0
  9
$DIMBLK1
  1

  9
$DIMBLK2
  1

  9
$DIMSTYLE
  2
ISO-25
  9
$DIMCLRD
 70
     0
  9
$DIMCLRE
 70
     0
  9
$DIMCLRT
 70
     0
  9
$DIMTFAC
 40
1.0
  9
$DIMGAP
 40
1.524
  9
$LUNITS
 70
     2
  9
$LUPREC
 70
     2
  9
$SKETCHINC
 40
1.0
  9
$FILLETRAD
 40
10.0
  9
$AUNITS
 70
     0
  9
$AUPREC
 70
     2
  9
$MENU
  1
.
  9
$ELEVATION
 40
0.0
  9
$PELEVATION
 40
0.0
  9
$THICKNESS
 40
0.0
  9
$LIMCHECK
 70
     0
  9
$CHAMFERA
 40
0.0
  9
$CHAMFERB
 40
0.0
  9
$SKPOLY
 70
     0
  9
$TDCREATE
 40
2459594.467291574
  9
$TDUPDATE
 40
2459594.467393437
  9
$TDINDWG
 40
0.0000000116
  9
$TDUSRTIMER
 40
0.0000000116
  9
$USRTIMER
 70
     1
  9
$ANGBASE
 50
0.0
  9
$ANGDIR
 70
     0
  9
$PDMODE
 70
     0
  9
$PDSIZE
 40
-1.0
  9
$PLINEWID
 40
0.0
  9
$COORDS
 70
     1
  9
$SPLFRAME
 70
     0
  9
$SPLINETYPE
 70
     6
  9
$SPLINESEGS
 70
     8
  9
$ATTDIA
 70
     0
  9
$ATTREQ
 70
     1
  9
$HANDLING
 70
     1
  9
$HANDSEED
  5
3DA
  9
$SURFTAB1
 70
     6
  9
$SURFTAB2
 70
     6
  9
$SURFTYPE
 70
     6
  9
$SURFU
 70
     6
  9
$SURFV
 70
     6
  9
$UCSNAME
  2

  9
$UCSORG
 10
0.0
 20
0.0
 30
0.0
  9
$UCSXDIR
 10
1.0
 20
0.0
 30
0.0
  9
$UCSYDIR
 10
0.0
 20
1.0
 30
0.0
  9
$PUCSNAME
  2

  9
$PUCSORG
 10
0.0
 20
0.0
 30
0.0
  9
$PUCSXDIR
 10
1.0
 20
0.0
 30
0.0
  9
$PUCSYDIR
 10
0.0
 20
1.0
 30
0.0
  9
$USERI1
 70
     0
  9
$USERI2
 70
     0
  9
$USERI3
 70
     0
  9
$USERI4
 70
     0
  9
$USERI5
 70
     0
  9
$USERR1
 40
0.0
  9
$USERR2
 40
0.0
  9
$USERR3
 40
0.0
  9
$USERR4
 40
0.0
  9
$USERR5
 40
0.0
  9
$WORLDVIEW
 70
     1
  9
$SHADEDGE
 70
     3
  9
$SHADEDIF
 70
    70
  9
$TILEMODE
 70
     1
  9
$MAXACTVP
 70
    64
  9
$PLIMCHECK
 70
     0
  9
$PEXTMIN
 10
1.0000000000E+20
 20
1.0000000000E+20
 30
1.0000000000E+20
  9
$PEXTMAX
 10
-1.0000000000E+20
 20
-1.0000000000E+20
 30
-1.0000000000E+20
  9
$PLIMMIN
 10
0.0
 20
0.0
  9
$PLIMMAX
 10
420.0
 20
297.0
  9
$UNITMODE
 70
     0
  9
$VISRETAIN
 70
     1
  9
$PLINEGEN
 70
     0
  9
$PSLTSCALE
 70
     1
  0
ENDSEC
  0
SECTION
  2
TABLES
  0
TABLE
  2
VPORT
 70
     1
  0
VPORT
  2
*ACTIVE
 70
     0
 10
0.0
 20
0.0
 11
1.0
 21
1.0
 12
210.0
 22
148.5
 13
0.0
 23
0.0
 14
10.0
 24
10.0
 15
10.0
 25
10.0
 16
0.0
 26
0.0
 36
1.0
 17
0.0
 27
0.0
 37
0.0
 40
297.0
 41
1.4141414141
 42
50.0
 43
0.0
 44
0.0
 50
0.0
 51
0.0
 71
     0
 72
  2000
 73
     1
 74
     3
 75
     0
 76
     0
 77
     0
 78
     0
  0
ENDTAB
  0
TABLE
  2
LTYPE
 70
     6
  0
LTYPE
  2
CONTINUOUS
 70
     0
  3
Solid line
 72
    65
 73
     0
 40
0.0
  0
LTYPE
  2
HIDDEN
 70
     0
  3
Hidden __ __ __ __ __ __ __ __ __ __ __ __ __ __
 72
    65
 73
     2
 40
1.905
 49
1.27
 49
-0.635
  0
LTYPE
  2
PHANTOM
 70
     0
  3
Phantom ______  __  __  ______  __  __  ______
 72
    65
 73
     6
 40
12.7
 49
6.35
 49
-1.27
 49
1.27
 49
-1.27
 49
1.27
 49
-1.27
  0
LTYPE
  2
CENTER
 70
     0
  3
Center ____ _ ____ _ ____ _ ____ _ ____ _ ____
 72
    65
 73
     4
 40
10.16
 49
6.35
 49
-1.27
 49
1.27
 49
-1.27
  0
LTYPE
  2
CENTERX2
 70
     0
  3
Center (2x) ________  __  ________  __  _____
 72
    65
 73
     4
 40
20.32
 49
12.7
 49
-2.54
 49
2.54
 49
-2.54
  0
LTYPE
  2
DOT2
 70
     0
  3
Dot (.5x) ........................................
 72
    65
 73
     2
 40
0.635
 49
0.0
 49
-0.635
  0
ENDTAB
  0
TABLE
  2
LAYER
 70
     1
  0
LAYER
  2
0
 70
     0
 62
     7
  6
CONTINUOUS
  0
ENDTAB
  0
TABLE
  2
STYLE
 70
     1
  0
STYLE
  2
STANDARD
 70
     0
 40
0.0
 41
1.0
 50
0.0
 71
     0
 42
3.5
  3
txt
  4

  0
ENDTAB
  0
TABLE
  2
VIEW
 70
     0
  0
ENDTAB
  0
TABLE
  2
UCS
 70
     0
  0
ENDTAB
  0
TABLE
  2
APPID
 70
     1
  0
APPID
  2
ACAD
 70
     0
  0
ENDTAB
  0
TABLE
  2
DIMSTYLE
 70
     7
  0
DIMSTYLE
  2
ISO-25
 70
     0
  3

  4

  5

  6

  7

 40
1.0
 41
2.5
 42
0.625
 43
3.75
 44
1.25
 45
0.0
 46
0.0
 47
0.0
 48
0.0
140
2.5
141
2.5
142
0.0
143
0.0393700787
144
1.0
145
0.0
146
1.0
147
0.625
 71
     0
 72
     0
 73
     0
 74
     0
 75
     0
 76
     0
 77
     1
 78
     8
170
     0
171
     3
172
     1
173
     0
174
     0
175
     0
176
     0
177
     0
178
     0
  0
DIMSTYLE
  2
SLDDIMSTYLE0
 70
     0
  3

  4

  5

  6

  7

 40
1.0
 41
3.302
 42
0.0625
 43
0.38
 44
0.0
 45
0.000000001
 46
0.0
 47
0.0
 48
0.0
140
3.5
141
0.09
142
0.0
143
25.4
144
1.0
145
0.0
146
1.0
147
0.875
 71
     0
 72
     0
 73
     0
 74
     0
 75
     0
 76
     0
 77
     1
 78
    12
170
     0
171
     2
172
     0
173
     1
174
     0
175
     0
176
     0
177
     0
178
     0
  0
DIMSTYLE
  2
SLDDIMSTYLE1
 70
     0
  3

  4

  5

  6

  7

 40
1.0
 41
3.302
 42
0.0625
 43
0.38
 44
0.0
 45
0.000000001
 46
0.0
 47
0.0
 48
0.0
140
3.5
141
0.09
142
0.0
143
25.4
144
1.0
145
0.0
146
1.0
147
0.875
 71
     0
 72
     0
 73
     0
 74
     0
 75
     0
 76
     0
 77
     1
 78
    12
170
     0
171
     2
172
     1
173
     1
174
     0
175
     0
176
     0
177
     0
178
     0
  0
DIMSTYLE
  2
SLDDIMSTYLE2
 70
     0
  3

  4

  5

  6

  7

 40
1.0
 41
3.302
 42
0.0625
 43
0.38
 44
0.0
 45
0.000000001
 46
0.0
 47
0.0
 48
0.0
140
3.5
141
0.09
142
0.0
143
25.4
144
1.0
145
0.0
146
1.0
147
0.875
 71
     0
 72
     0
 73
     0
 74
     0
 75
     0
 76
     0
 77
     1
 78
    12
170
     0
171
     2
172
     1
173
     1
174
     0
175
     0
176
     0
177
     0
178
     0
  0
DIMSTYLE
  2
SLDDIMSTYLE3
 70
     0
  3

  4

  5

  6

  7

 40
1.0
 41
3.302
 42
0.0625
 43
0.38
 44
0.0
 45
0.000000001
 46
0.0
 47
0.0
 48
0.0
140
3.5
141
0.0
142
0.0
143
25.4
144
1.0
145
0.0
146
1.0
147
0.875
 71
     0
 72
     0
 73
     0
 74
     0
 75
     0
 76
     0
 77
     1
 78
    12
170
     0
171
     2
172
     0
173
     1
174
     0
175
     0
176
     0
177
     0
178
     0
  0
DIMSTYLE
  2
SLDDIMSTYLE4
 70
     0
  3

  4

  5

  6

  7

 40
1.0
 41
3.302
 42
0.0625
 43
0.38
 44
0.0
 45
0.000000001
 46
0.0
 47
0.0
 48
0.0
140
3.5
141
0.09
142
0.0
143
25.4
144
1.0
145
0.0
146
1.0
147
0.875
 71
     0
 72
     0
 73
     0
 74
     0
 75
     0
 76
     0
 77
     1
 78
    12
170
     0
171
     2
172
     0
173
     1
174
     0
175
     0
176
     0
177
     0
178
     0
  0
DIMSTYLE
  2
SLDDIMSTYLE5
 70
     0
  3

  4

  5

  6

  7

 40
1.0
 41
3.302
 42
0.0625
 43
0.38
 44
0.0
 45
0.000000001
 46
0.0
 47
0.0
 48
0.0
140
3.5
141
0.09
142
0.0
143
25.4
144
1.0
145
0.0
146
1.0
147
0.875
 71
     0
 72
     0
 73
     0
 74
     0
 75
     0
 76
     0
 77
     1
 78
    12
170
     0
171
     2
172
     0
173
     1
174
     0
175
     0
176
     0
177
     0
178
     0
  0
ENDTAB
  0
ENDSEC
  0
SECTION
  2
BLOCKS
  0
BLOCK
  8
0
  2
$MODEL_SPACE
 70
     0
 10
0.0
 20
0.0
 30
0.0
  3
$MODEL_SPACE
  1

  0
ENDBLK
  5
21
  8
0
  0
BLOCK
 67
     1
  8
0
  2
$PAPER_SPACE
 70
     0
 10
0.0
 20
0.0
 30
0.0
  3
$PAPER_SPACE
  1

  0
ENDBLK
  5
1D
 67
     1
  8
0
  0
BLOCK
  8
0
  2
SW_NOTE_0
 70
     0
 10
0.0
 20
0.0
 30
0.0
  3
SW_NOTE_0
  1

  0
TEXT
  5
D0
  8
0
  6
CONTINUOUS
 62
     0
 10
0.0
 20
0.8831501548
 30
0.0
 40
2.5
  1
Maßstab:      
 41
0.55
 11
0.0
 21
0.0
 31
0.0
 73
     1
  0
TEXT
  5
D1
  8
0
  6
CONTINUOUS
 62
     0
 10
19.7052955627
 20
0.9475215793
 30
0.0
 40
3.5
  1
1:1
 41
0.7
 11
19.7052955627
 21
-0.2888886374
 31
0.0
 73
     1
  0
ENDBLK
  5
CF
  8
0
  0
BLOCK
  8
0
  2
SW_NOTE_0_1
 70
     0
 10
0.0
 20
0.0
 30
0.0
  3
SW_NOTE_0_1
  1

  0
TEXT
  5
E1
  8
0
  6
CONTINUOUS
 62
     0
 10
0.0
 20
0.8831501548
 30
0.0
 40
2.5
  1
Breuer & Schmitz
 41
0.65625
 11
0.0
 21
0.0
 31
0.0
 73
     1
  0
TEXT
  5
E2
  8
0
  6
CONTINUOUS
 62
     0
 10
0.6718747318
 20
-2.6168499532
 30
0.0
 40
2.5
  1
GmbH & Co. KG
 41
0.6192307692
 11
0.6718747318
 21
-3.500000108
 31
0.0
 73
     1
  0
TEXT
  5
E3
  8
0
  6
CONTINUOUS
 62
     0
 10
1.2413188815
 20
-6.1168500613
 30
0.0
 40
2.5
  1
Solingen - Wald
 41
0.6533333333
 11
1.2413188815
 21
-7.0000002161
 31
0.0
 73
     1
  0
TEXT
  5
E4
  8
0
  6
CONTINUOUS
 62
     0
 10
-0.7673613727
 20
-9.6168501693
 30
0.0
 40
2.5
  1
Baubeschlagfabrik
 41
0.7
 11
-0.7673613727
 21
-10.5000003241
 31
0.0
 73
     1
  0
ENDBLK
  5
E0
  8
0
  0
BLOCK
  8
0
  2
SW_NOTE_0_2
 70
     0
 10
0.0
 20
0.0
 30
0.0
  3
SW_NOTE_0_2
  1

  0
TEXT
  5
E9
  8
0
  6
CONTINUOUS
 62
     0
 10
0.0
 20
0.5608003483
 30
0.0
 40
1.5875
  1
Diese Zeichung ist unser Eigentum und darf weder
 41
0.6489583333
 11
0.0
 21
0.0
 31
0.0
 73
     1
  0
TEXT
  5
EA
  8
0
  6
CONTINUOUS
 62
     0
 10
0.0
 20
-1.5558662928
 30
0.0
 40
1.5875
  1
verwertet, vervielfältigt noch Dritten zugänglich 
 41
0.665
 11
0.0
 21
-2.1166666411
 31
0.0
 73
     1
  0
TEXT
  5
EB
  8
0
  6
CONTINUOUS
 62
     0
 10
0.0
 20
-3.6725329339
 30
0.0
 40
1.5875
  1
gemacht werden.
 41
0.7
 11
0.0
 21
-4.2333332822
 31
0.0
 73
     1
  0
TEXT
  5
EC
  8
0
  6
CONTINUOUS
 62
     0
 10
0.0
 20
-7.905866216
 30
0.0
 40
1.5875
  1
This drawing is our property and cannot either be 
 41
0.637
 11
0.0
 21
-8.4666665643
 31
0.0
 73
     1
  0
TEXT
  5
ED
  8
0
  6
CONTINUOUS
 62
     0
 10
0.0
 20
-10.0225328571
 30
0.0
 40
1.5875
  1
utilized for an other purpose or copied nor made 
 41
0.6357142857
 11
0.0
 21
-10.5833332054
 31
0.0
 73
     1
  0
TEXT
  5
EE
  8
0
  6
CONTINUOUS
 62
     0
 10
0.0
 20
-12.1391994982
 30
0.0
 40
1.5875
  1
available to a third.
 41
0.65
 11
0.0
 21
-12.6999998465
 31
0.0
 73
     1
  0
ENDBLK
  5
E8
  8
0
  0
BLOCK
  8
0
  2
_D
 70
     0
 10
0.0
 20
0.0
 30
0.0
  3
_D
  1

  0
SOLID
  5
14F
  8
0
  6
CONTINUOUS
 62
     7
 10
217.8754242688
 20
246.9957903306
 30
0.0
 11
217.1554242688
 21
243.6937903306
 31
0.0
 12
218.5954242688
 22
243.6937903306
 32
0.0
 13
218.5954242688
 23
243.6937903306
 33
0.0
  0
SOLID
  5
150
  8
0
  6
CONTINUOUS
 62
     7
 10
217.8754242688
 20
157.9957903306
 30
0.0
 11
218.5954242688
 21
161.2977903306
 31
0.0
 12
217.1554242688
 22
161.2977903306
 32
0.0
 13
217.1554242688
 23
161.2977903306
 33
0.0
  0
LINE
  5
151
  8
0
  6
CONTINUOUS
 62
     7
 10
194.8754242688
 20
246.9957903306
 30
0.0
 11
218.8754242688
 21
246.9957903306
 31
0.0
  0
LINE
  5
152
  8
0
  6
CONTINUOUS
 62
     7
 10
194.8754242688
 20
157.9957903306
 30
0.0
 11
218.8754242688
 21
157.9957903306
 31
0.0
  0
LINE
  5
153
  8
0
  6
CONTINUOUS
 62
     7
 10
217.8754242688
 20
246.9957903306
 30
0.0
 11
217.8754242688
 21
157.9957903306
 31
0.0
  0
TEXT
  5
154
  8
0
  6
CONTINUOUS
 62
     7
 10
216.6390142267
 20
198.3535922726
 30
6.7966153235
 40
3.5
  1
89
 50
90.0
 41
0.7
 11
217.8754244434
 21
198.3535922726
 31
6.7966153235
 73
     1
  0
ENDBLK
  5
14E
  8
0
  0
BLOCK
  8
0
  2
_D_1
 70
     0
 10
0.0
 20
0.0
 30
0.0
  3
_D_1
  1

  0
SOLID
  5
159
  8
0
  6
CONTINUOUS
 62
     7
 10
205.8754242688
 20
184.4957903306
 30
0.0
 11
206.5954242688
 21
187.7977903306
 31
0.0
 12
205.1554242688
 22
187.7977903306
 32
0.0
 13
205.1554242688
 23
187.7977903306
 33
0.0
  0
SOLID
  5
15A
  8
0
  6
CONTINUOUS
 62
     7
 10
205.8754242688
 20
220.4957903306
 30
0.0
 11
205.1554242688
 21
217.1937903306
 31
0.0
 12
206.5954242688
 22
217.1937903306
 32
0.0
 13
206.5954242688
 23
217.1937903306
 33
0.0
  0
LINE
  5
15B
  8
0
  6
CONTINUOUS
 62
     7
 10
195.1254242688
 20
184.4957903306
 30
0.0
 11
206.8754242688
 21
184.4957903306
 31
0.0
  0
LINE
  5
15C
  8
0
  6
CONTINUOUS
 62
     7
 10
195.1254242688
 20
220.4957903306
 30
0.0
 11
206.8754242688
 21
220.4957903306
 31
0.0
  0
LINE
  5
15D
  8
0
  6
CONTINUOUS
 62
     7
 10
205.8754242688
 20
184.4957903306
 30
0.0
 11
205.8754242688
 21
220.4957903306
 31
0.0
  0
TEXT
  5
15E
  8
0
  6
CONTINUOUS
 62
     7
 10
204.6390142267
 20
198.3535922726
 30
6.7966153235
 40
3.5
  1
36
 50
90.0
 41
0.7
 11
205.8754244434
 21
198.3535922726
 31
6.7966153235
 73
     1
  0
ENDBLK
  5
158
  8
0
  0
BLOCK
  8
0
  2
_D_2
 70
     0
 10
0.0
 20
0.0
 30
0.0
  3
_D_2
  1

  0
SOLID
  5
163
  8
0
  6
CONTINUOUS
 62
     7
 10
195.8754242688
 20
145.4957903306
 30
0.0
 11
192.5734242688
 21
146.2157903306
 31
0.0
 12
192.5734242688
 22
144.7757903306
 32
0.0
 13
192.5734242688
 23
144.7757903306
 33
0.0
  0
SOLID
  5
164
  8
0
  6
CONTINUOUS
 62
     7
 10
68.8754242688
 20
145.4957903306
 30
0.0
 11
72.1774242688
 21
144.7757903306
 31
0.0
 12
72.1774242688
 22
146.2157903306
 32
0.0
 13
72.1774242688
 23
146.2157903306
 33
0.0
  0
LINE
  5
165
  8
0
  6
CONTINUOUS
 62
     7
 10
195.8754242688
 20
158.9957903306
 30
0.0
 11
195.8754242688
 21
144.4957903306
 31
0.0
  0
LINE
  5
166
  8
0
  6
CONTINUOUS
 62
     7
 10
68.8754242688
 20
158.9957903306
 30
0.0
 11
68.8754242688
 21
144.4957903306
 31
0.0
  0
LINE
  5
167
  8
0
  6
CONTINUOUS
 62
     7
 10
195.8754242688
 20
145.4957903306
 30
0.0
 11
68.8754242688
 21
145.4957903306
 31
0.0
  0
TEXT
  5
168
  8
0
  6
CONTINUOUS
 62
     7
 10
130.7606292878
 20
146.7322003727
 30
6.7966153235
 40
3.5
  1
127
 50
0.0
 41
0.7
 11
130.7606292878
 21
145.495790156
 31
6.7966153235
 73
     1
  0
ENDBLK
  5
162
  8
0
  0
BLOCK
  8
0
  2
_D_3
 70
     0
 10
0.0
 20
0.0
 30
0.0
  3
_D_3
  1

  0
SOLID
  5
16D
  8
0
  6
CONTINUOUS
 62
     7
 10
211.8754242688
 20
167.4957903306
 30
0.0
 11
212.5954242688
 21
170.7977903306
 31
0.0
 12
211.1554242688
 22
170.7977903306
 32
0.0
 13
211.1554242688
 23
170.7977903306
 33
0.0
  0
SOLID
  5
16E
  8
0
  6
CONTINUOUS
 62
     7
 10
211.8754242688
 20
237.4957903306
 30
0.0
 11
211.1554242688
 21
234.1937903306
 31
0.0
 12
212.5954242688
 22
234.1937903306
 32
0.0
 13
212.5954242688
 23
234.1937903306
 33
0.0
  0
LINE
  5
16F
  8
0
  6
CONTINUOUS
 62
     7
 10
186.1254242688
 20
167.4957903306
 30
0.0
 11
212.8754242688
 21
167.4957903306
 31
0.0
  0
LINE
  5
170
  8
0
  6
CONTINUOUS
 62
     7
 10
186.1254242688
 20
237.4957903306
 30
0.0
 11
212.8754242688
 21
237.4957903306
 31
0.0
  0
LINE
  5
171
  8
0
  6
CONTINUOUS
 62
     7
 10
211.8754242688
 20
167.4957903306
 30
0.0
 11
211.8754242688
 21
237.4957903306
 31
0.0
  0
TEXT
  5
172
  8
0
  6
CONTINUOUS
 62
     7
 10
210.6390142267
 20
198.3535922726
 30
6.7966153235
 40
3.5
  1
70
 50
90.0
 41
0.7
 11
211.8754244434
 21
198.3535922726
 31
6.7966153235
 73
     1
  0
ENDBLK
  5
16C
  8
0
  0
BLOCK
  8
0
  2
_D_4
 70
     0
 10
0.0
 20
0.0
 30
0.0
  3
_D_4
  1

  0
SOLID
  5
178
  8
0
  6
CONTINUOUS
 62
     7
 10
86.8754242688
 20
266.6993756
 30
0.0
 11
83.5734242688
 21
267.4193756
 31
0.0
 12
83.5734242688
 22
265.9793756
 32
0.0
 13
83.5734242688
 23
265.9793756
 33
0.0
  0
SOLID
  5
179
  8
0
  6
CONTINUOUS
 62
     7
 10
68.8754242688
 20
266.6993756
 30
0.0
 11
72.1774242688
 21
265.9793756
 31
0.0
 12
72.1774242688
 22
267.4193756
 32
0.0
 13
72.1774242688
 23
267.4193756
 33
0.0
  0
LINE
  5
17A
  8
0
  6
CONTINUOUS
 62
     7
 10
86.8754242688
 20
245.7457903306
 30
0.0
 11
86.8754242688
 21
267.6993756
 31
0.0
  0
LINE
  5
17B
  8
0
  6
CONTINUOUS
 62
     7
 10
68.8754242688
 20
245.9957903306
 30
0.0
 11
68.8754242688
 21
267.6993756
 31
0.0
  0
LINE
  5
17C
  8
0
  6
CONTINUOUS
 62
     7
 10
86.8754242688
 20
266.6993756
 30
0.0
 11
68.8754242688
 21
266.6993756
 31
0.0
  0
TEXT
  5
17D
  8
0
  6
CONTINUOUS
 62
     7
 10
74.9550856666
 20
267.9357856421
 30
6.7966153235
 40
3.5
  1
18
 50
0.0
 41
0.7
 11
74.9550856666
 21
266.6993754254
 31
6.7966153235
 73
     1
  0
ENDBLK
  5
177
  8
0
  0
BLOCK
  8
0
  2
_D_5
 70
     0
 10
0.0
 20
0.0
 30
0.0
  3
_D_5
  1

  0
SOLID
  5
182
  8
0
  6
CONTINUOUS
 62
     7
 10
77.8754242688
 20
253.422784123
 30
0.0
 11
81.1774242688
 21
252.702784123
 31
0.0
 12
81.1774242688
 22
254.142784123
 32
0.0
 13
81.1774242688
 23
254.142784123
 33
0.0
  0
SOLID
  5
183
  8
0
  6
CONTINUOUS
 62
     7
 10
68.8754242688
 20
253.422784123
 30
0.0
 11
65.5734242688
 21
254.142784123
 31
0.0
 12
65.5734242688
 22
252.702784123
 32
0.0
 13
65.5734242688
 23
252.702784123
 33
0.0
  0
LINE
  5
184
  8
0
  6
CONTINUOUS
 62
     7
 10
77.8754242688
 20
228.7457903306
 30
0.0
 11
77.8754242688
 21
254.422784123
 31
0.0
  0
LINE
  5
185
  8
0
  6
CONTINUOUS
 62
     7
 10
68.8754242688
 20
245.9957903306
 30
0.0
 11
68.8754242688
 21
254.422784123
 31
0.0
  0
LINE
  5
186
  8
0
  6
CONTINUOUS
 62
     7
 10
77.8754242688
 20
253.422784123
 30
0.0
 11
84.2254242688
 21
253.422784123
 31
0.0
  0
LINE
  5
187
  8
0
  6
CONTINUOUS
 62
     7
 10
77.8754242688
 20
253.422784123
 30
0.0
 11
68.8754242688
 21
253.422784123
 31
0.0
  0
LINE
  5
188
  8
0
  6
CONTINUOUS
 62
     7
 10
68.8754242688
 20
253.422784123
 30
0.0
 11
62.5254242688
 21
253.422784123
 31
0.0
  0
TEXT
  5
189
  8
0
  6
CONTINUOUS
 62
     7
 10
70.2390066191
 20
254.6591941651
 30
6.7966153235
 40
3.5
  1
9
 50
0.0
 41
0.7
 11
70.2390066191
 21
253.4227839484
 31
6.7966153235
 73
     1
  0
ENDBLK
  5
181
  8
0
  0
BLOCK
  8
0
  2
_D_6
 70
     0
 10
0.0
 20
0.0
 30
0.0
  3
_D_6
  1

  0
SOLID
  5
18F
  8
0
  6
CONTINUOUS
 62
     7
 10
79.3754242688
 20
259.4957903306
 30
0.0
 11
82.6774242688
 21
258.7757903306
 31
0.0
 12
82.6774242688
 22
260.2157903306
 32
0.0
 13
82.6774242688
 23
260.2157903306
 33
0.0
  0
SOLID
  5
190
  8
0
  6
CONTINUOUS
 62
     7
 10
68.8754242688
 20
259.4957903306
 30
0.0
 11
65.5734242688
 21
260.2157903306
 31
0.0
 12
65.5734242688
 22
258.7757903306
 32
0.0
 13
65.5734242688
 23
258.7757903306
 33
0.0
  0
LINE
  5
191
  8
0
  6
CONTINUOUS
 62
     7
 10
79.3754242688
 20
213.4957903306
 30
0.0
 11
79.3754242688
 21
260.4957903306
 31
0.0
  0
LINE
  5
192
  8
0
  6
CONTINUOUS
 62
     7
 10
68.8754242688
 20
245.9957903306
 30
0.0
 11
68.8754242688
 21
260.4957903306
 31
0.0
  0
LINE
  5
193
  8
0
  6
CONTINUOUS
 62
     7
 10
79.3754242688
 20
259.4957903306
 30
0.0
 11
85.7254242688
 21
259.4957903306
 31
0.0
  0
LINE
  5
194
  8
0
  6
CONTINUOUS
 62
     7
 10
79.3754242688
 20
259.4957903306
 30
0.0
 11
68.8754242688
 21
259.4957903306
 31
0.0
  0
LINE
  5
195
  8
0
  6
CONTINUOUS
 62
     7
 10
68.8754242688
 20
259.4957903306
 30
0.0
 11
62.5254242688
 21
259.4957903306
 31
0.0
  0
TEXT
  5
196
  8
0
  6
CONTINUOUS
 62
     7
 10
67.0063676854
 20
260.7322003727
 30
6.7966153235
 40
3.5
  1
10,5
 50
0.0
 41
0.7
 11
67.0063676854
 21
259.495790156
 31
6.7966153235
 73
     1
  0
ENDBLK
  5
18E
  8
0
  0
BLOCK
  8
0
  2
_D_7
 70
     0
 10
0.0
 20
0.0
 30
0.0
  3
_D_7
  1

  0
SOLID
  5
19C
  8
0
  6
CONTINUOUS
 62
     7
 10
69.4612107064
 20
158.5815767683
 30
0.0
 11
66.6172272325
 21
156.7558270592
 31
0.0
 12
67.6354609974
 22
155.7375932943
 32
0.0
 13
67.6354609974
 23
155.7375932943
 33
0.0
  0
LINE
  5
19D
  8
0
  6
CONTINUOUS
 62
     7
 10
69.4612107064
 20
158.5815767683
 30
0.0
 11
62.1794097085
 21
151.2997757703
 31
0.0
  0
LINE
  5
19E
  8
0
  6
CONTINUOUS
 62
     7
 10
69.4612107064
 20
158.5815767683
 30
0.0
 11
70.8754242688
 21
159.9957903306
 31
0.0
  0
TEXT
  5
19F
  8
0
  6
CONTINUOUS
 62
     7
 10
61.3774423131
 20
152.1017431657
 30
6.7966153235
 40
3.5
  1
R2
 50
45.0
 41
0.7
 11
62.2517163617
 21
151.2274691171
 31
6.7966153235
 73
     1
  0
ENDBLK
  5
19B
  8
0
  0
BLOCK
  8
0
  2
_D_8
 70
     0
 10
0.0
 20
0.0
 30
0.0
  3
_D_8
  1

  0
SOLID
  5
1A4
  8
0
  6
CONTINUOUS
 62
     7
 10
182.6254242688
 20
259.4957903306
 30
0.0
 11
185.9274242688
 21
258.7757903306
 31
0.0
 12
185.9274242688
 22
260.2157903306
 32
0.0
 13
185.9274242688
 23
260.2157903306
 33
0.0
  0
SOLID
  5
1A5
  8
0
  6
CONTINUOUS
 62
     7
 10
173.1254242688
 20
259.4957903306
 30
0.0
 11
169.8234242688
 21
260.2157903306
 31
0.0
 12
169.8234242688
 22
258.7757903306
 32
0.0
 13
169.8234242688
 23
258.7757903306
 33
0.0
  0
LINE
  5
1A6
  8
0
  6
CONTINUOUS
 62
     7
 10
182.6254242688
 20
238.4957903306
 30
0.0
 11
182.6254242688
 21
260.4957903306
 31
0.0
  0
LINE
  5
1A7
  8
0
  6
CONTINUOUS
 62
     7
 10
173.1254242688
 20
238.4957903306
 30
0.0
 11
173.1254242688
 21
260.4957903306
 31
0.0
  0
LINE
  5
1A8
  8
0
  6
CONTINUOUS
 62
     7
 10
182.6254242688
 20
259.4957903306
 30
0.0
 11
188.9754242688
 21
259.4957903306
 31
0.0
  0
LINE
  5
1A9
  8
0
  6
CONTINUOUS
 62
     7
 10
182.6254242688
 20
259.4957903306
 30
0.0
 11
173.1254242688
 21
259.4957903306
 31
0.0
  0
LINE
  5
1AA
  8
0
  6
CONTINUOUS
 62
     7
 10
173.1254242688
 20
259.4957903306
 30
0.0
 11
166.7754242688
 21
259.4957903306
 31
0.0
  0
TEXT
  5
1AB
  8
0
  6
CONTINUOUS
 62
     7
 10
167.3208188868
 20
260.7322005473
 30
6.7966153235
 40
3.5
  1
%%c
 50
0.0
 41
0.7
 11
167.3208188868
 21
259.4957903306
 31
6.7966153235
 73
     1
  0
TEXT
  5
1AC
  8
0
  6
CONTINUOUS
 62
     7
 10
172.5992562851
 20
260.785672724
 30
6.7966153235
 40
3.5
  1
9,5
 50
0.0
 41
0.7
 11
172.5992562851
 21
259.5492625073
 31
6.7966153235
 73
     1
  0
TEXT
  5
1AD
  8
0
  6
CONTINUOUS
 62
     7
 10
179.0645339197
 20
260.785672724
 30
6.7966153235
 40
3.5
  1
x90°
 50
0.0
 41
0.7
 11
179.0645339197
 21
259.5492625073
 31
6.7966153235
 73
     1
  0
ENDBLK
  5
1A3
  8
0
  0
BLOCK
  8
0
  2
_D_9
 70
     0
 10
0.0
 20
0.0
 30
0.0
  3
_D_9
  1

  0
SOLID
  5
1B2
  8
0
  6
CONTINUOUS
 62
     7
 10
180.8754242688
 20
253.422784123
 30
0.0
 11
184.1774242688
 21
252.702784123
 31
0.0
 12
184.1774242688
 22
254.142784123
 32
0.0
 13
184.1774242688
 23
254.142784123
 33
0.0
  0
SOLID
  5
1B3
  8
0
  6
CONTINUOUS
 62
     7
 10
174.8754242688
 20
253.422784123
 30
0.0
 11
171.5734242688
 21
254.142784123
 31
0.0
 12
171.5734242688
 22
252.702784123
 32
0.0
 13
171.5734242688
 23
252.702784123
 33
0.0
  0
LINE
  5
1B4
  8
0
  6
CONTINUOUS
 62
     7
 10
180.8754242688
 20
238.4957903306
 30
0.0
 11
180.8754242688
 21
254.422784123
 31
0.0
  0
LINE
  5
1B5
  8
0
  6
CONTINUOUS
 62
     7
 10
174.8754242688
 20
238.4957903306
 30
0.0
 11
174.8754242688
 21
254.422784123
 31
0.0
  0
LINE
  5
1B6
  8
0
  6
CONTINUOUS
 62
     7
 10
180.8754242688
 20
253.422784123
 30
0.0
 11
187.2254242688
 21
253.422784123
 31
0.0
  0
LINE
  5
1B7
  8
0
  6
CONTINUOUS
 62
     7
 10
180.8754242688
 20
253.422784123
 30
0.0
 11
174.8754242688
 21
253.422784123
 31
0.0
  0
LINE
  5
1B8
  8
0
  6
CONTINUOUS
 62
     7
 10
174.8754242688
 20
253.422784123
 30
0.0
 11
168.5254242688
 21
253.422784123
 31
0.0
  0
TEXT
  5
1B9
  8
0
  6
CONTINUOUS
 62
     7
 10
173.900333014
 20
254.6591943397
 30
6.7966153235
 40
3.5
  1
%%c
 50
0.0
 41
0.7
 11
173.900333014
 21
253.422784123
 31
6.7966153235
 73
     1
  0
TEXT
  5
1BA
  8
0
  6
CONTINUOUS
 62
     7
 10
179.1787704124
 20
254.7126665164
 30
6.7966153235
 40
3.5
  1
6
 50
0.0
 41
0.7
 11
179.1787704124
 21
253.4762562996
 31
6.7966153235
 73
     1
  0
ENDBLK
  5
1B1
  8
0
  0
BLOCK
  8
0
  2
SW_NOTE_0_3
 70
     0
 10
0.0
 20
0.0
 30
0.0
  3
SW_NOTE_0_3
  1

  0
LINE
  5
1BE
  8
0
  6
CONTINUOUS
 62
     0
 10
-37.7749048835
 20
10.1440996405
 30
0.0
 11
-7.0615312702
 21
10.1440996405
 31
0.0
  0
TEXT
  5
1BF
  8
0
  6
CONTINUOUS
 62
     0
 10
-38.158505495
 20
11.4307781786
 30
0.0
 40
3.5
  1
alternativ R10
 41
0.7
 11
-38.158505495
 21
10.1943679618
 31
0.0
 73
     1
  0
LINE
  5
1C0
  8
0
  6
CONTINUOUS
 62
     0
 10
-7.0615312702
 20
10.1440996405
 30
0.0
 11
0.0
 21
0.0
 31
0.0
  0
SOLID
  5
1C1
  8
0
  6
CONTINUOUS
 62
     0
 10
0.0
 20
0.0
 30
0.0
 11
-1.295591371
 21
3.1213854295
 31
0.0
 12
-2.4774344832
 22
2.2986783989
 32
0.0
 13
-2.4774344832
 23
2.2986783989
 33
0.0
  0
ENDBLK
  5
1BD
  8
0
  0
BLOCK
  8
0
  2
SW_CENTERMARKSYMBOL_0
 70
     0
 10
0.0
 20
0.0
 30
0.0
  3
SW_CENTERMARKSYMBOL_0
  1

  0
LINE
  5
1C6
  8
0
  6
CONTINUOUS
 62
     0
 10
0.0
 20
0.0
 30
0.0
 11
0.0
 21
2.5
 31
0.0
  0
LINE
  5
1C7
  8
0
  6
CONTINUOUS
 62
     0
 10
0.0
 20
0.0
 30
0.0
 11
-2.5
 21
0.0
 31
0.0
  0
LINE
  5
1C8
  8
0
  6
CONTINUOUS
 62
     0
 10
0.0
 20
0.0
 30
0.0
 11
0.0
 21
-2.5
 31
0.0
  0
LINE
  5
1C9
  8
0
  6
CONTINUOUS
 62
     0
 10
0.0
 20
0.0
 30
0.0
 11
2.5
 21
0.0
 31
0.0
  0
LINE
  5
1CA
  8
0
  6
CONTINUOUS
 62
     0
 10
0.0
 20
5.0
 30
0.0
 11
0.0
 21
7.25
 31
0.0
  0
LINE
  5
1CB
  8
0
  6
CONTINUOUS
 62
     0
 10
-5.0
 20
0.0
 30
0.0
 11
-7.25
 21
0.0
 31
0.0
  0
LINE
  5
1CC
  8
0
  6
CONTINUOUS
 62
     0
 10
0.0
 20
-5.0
 30
0.0
 11
0.0
 21
-7.25
 31
0.0
  0
LINE
  5
1CD
  8
0
  6
CONTINUOUS
 62
     0
 10
5.0
 20
0.0
 30
0.0
 11
7.25
 21
0.0
 31
0.0
  0
ENDBLK
  5
1C5
  8
0
  0
BLOCK
  8
0
  2
SW_CENTERMARKSYMBOL_1
 70
     0
 10
0.0
 20
0.0
 30
0.0
  3
SW_CENTERMARKSYMBOL_1
  1

  0
LINE
  5
1D2
  8
0
  6
CONTINUOUS
 62
     0
 10
0.0
 20
0.0
 30
0.0
 11
0.0
 21
2.5
 31
0.0
  0
LINE
  5
1D3
  8
0
  6
CONTINUOUS
 62
     0
 10
0.0
 20
0.0
 30
0.0
 11
-2.5
 21
0.0
 31
0.0
  0
LINE
  5
1D4
  8
0
  6
CONTINUOUS
 62
     0
 10
0.0
 20
0.0
 30
0.0
 11
0.0
 21
-2.5
 31
0.0
  0
LINE
  5
1D5
  8
0
  6
CONTINUOUS
 62
     0
 10
0.0
 20
0.0
 30
0.0
 11
2.5
 21
0.0
 31
0.0
  0
LINE
  5
1D6
  8
0
  6
CONTINUOUS
 62
     0
 10
0.0
 20
5.0
 30
0.0
 11
0.0
 21
7.25
 31
0.0
  0
LINE
  5
1D7
  8
0
  6
CONTINUOUS
 62
     0
 10
-5.0
 20
0.0
 30
0.0
 11
-7.25
 21
0.0
 31
0.0
  0
LINE
  5
1D8
  8
0
  6
CONTINUOUS
 62
     0
 10
0.0
 20
-5.0
 30
0.0
 11
0.0
 21
-7.25
 31
0.0
  0
LINE
  5
1D9
  8
0
  6
CONTINUOUS
 62
     0
 10
5.0
 20
0.0
 30
0.0
 11
7.25
 21
0.0
 31
0.0
  0
ENDBLK
  5
1D1
  8
0
  0
BLOCK
  8
0
  2
SW_CENTERMARKSYMBOL_2
 70
     0
 10
0.0
 20
0.0
 30
0.0
  3
SW_CENTERMARKSYMBOL_2
  1

  0
LINE
  5
1DE
  8
0
  6
CONTINUOUS
 62
     0
 10
0.0
 20
0.0
 30
0.0
 11
0.0
 21
2.5
 31
0.0
  0
LINE
  5
1DF
  8
0
  6
CONTINUOUS
 62
     0
 10
0.0
 20
0.0
 30
0.0
 11
-2.5
 21
0.0
 31
0.0
  0
LINE
  5
1E0
  8
0
  6
CONTINUOUS
 62
     0
 10
0.0
 20
0.0
 30
0.0
 11
0.0
 21
-2.5
 31
0.0
  0
LINE
  5
1E1
  8
0
  6
CONTINUOUS
 62
     0
 10
0.0
 20
0.0
 30
0.0
 11
2.5
 21
0.0
 31
0.0
  0
LINE
  5
1E2
  8
0
  6
CONTINUOUS
 62
     0
 10
0.0
 20
5.0
 30
0.0
 11
0.0
 21
10.0
 31
0.0
  0
LINE
  5
1E3
  8
0
  6
CONTINUOUS
 62
     0
 10
-5.0
 20
0.0
 30
0.0
 11
-10.0
 21
0.0
 31
0.0
  0
LINE
  5
1E4
  8
0
  6
CONTINUOUS
 62
     0
 10
0.0
 20
-5.0
 30
0.0
 11
0.0
 21
-10.0
 31
0.0
  0
LINE
  5
1E5
  8
0
  6
CONTINUOUS
 62
     0
 10
5.0
 20
0.0
 30
0.0
 11
10.0
 21
0.0
 31
0.0
  0
ENDBLK
  5
1DD
  8
0
  0
BLOCK
  8
0
  2
SW_CENTERMARKSYMBOL_3
 70
     0
 10
0.0
 20
0.0
 30
0.0
  3
SW_CENTERMARKSYMBOL_3
  1

  0
LINE
  5
1EA
  8
0
  6
CONTINUOUS
 62
     0
 10
0.0
 20
0.0
 30
0.0
 11
0.0
 21
2.5
 31
0.0
  0
LINE
  5
1EB
  8
0
  6
CONTINUOUS
 62
     0
 10
0.0
 20
0.0
 30
0.0
 11
-2.5
 21
0.0
 31
0.0
  0
LINE
  5
1EC
  8
0
  6
CONTINUOUS
 62
     0
 10
0.0
 20
0.0
 30
0.0
 11
0.0
 21
-2.5
 31
0.0
  0
LINE
  5
1ED
  8
0
  6
CONTINUOUS
 62
     0
 10
0.0
 20
0.0
 30
0.0
 11
2.5
 21
0.0
 31
0.0
  0
LINE
  5
1EE
  8
0
  6
CONTINUOUS
 62
     0
 10
0.0
 20
5.0
 30
0.0
 11
0.0
 21
7.25
 31
0.0
  0
LINE
  5
1EF
  8
0
  6
CONTINUOUS
 62
     0
 10
-5.0
 20
0.0
 30
0.0
 11
-7.25
 21
0.0
 31
0.0
  0
LINE
  5
1F0
  8
0
  6
CONTINUOUS
 62
     0
 10
0.0
 20
-5.0
 30
0.0
 11
0.0
 21
-7.25
 31
0.0
  0
LINE
  5
1F1
  8
0
  6
CONTINUOUS
 62
     0
 10
5.0
 20
0.0
 30
0.0
 11
7.25
 21
0.0
 31
0.0
  0
ENDBLK
  5
1E9
  8
0
  0
BLOCK
  8
0
  2
SW_CENTERMARKSYMBOL_4
 70
     0
 10
0.0
 20
0.0
 30
0.0
  3
SW_CENTERMARKSYMBOL_4
  1

  0
LINE
  5
1F6
  8
0
  6
CONTINUOUS
 62
     0
 10
0.0
 20
0.0
 30
0.0
 11
0.0
 21
2.5
 31
0.0
  0
LINE
  5
1F7
  8
0
  6
CONTINUOUS
 62
     0
 10
0.0
 20
0.0
 30
0.0
 11
-2.5
 21
0.0
 31
0.0
  0
LINE
  5
1F8
  8
0
  6
CONTINUOUS
 62
     0
 10
0.0
 20
0.0
 30
0.0
 11
0.0
 21
-2.5
 31
0.0
  0
LINE
  5
1F9
  8
0
  6
CONTINUOUS
 62
     0
 10
0.0
 20
0.0
 30
0.0
 11
2.5
 21
0.0
 31
0.0
  0
LINE
  5
1FA
  8
0
  6
CONTINUOUS
 62
     0
 10
0.0
 20
5.0
 30
0.0
 11
0.0
 21
7.25
 31
0.0
  0
LINE
  5
1FB
  8
0
  6
CONTINUOUS
 62
     0
 10
-5.0
 20
0.0
 30
0.0
 11
-7.25
 21
0.0
 31
0.0
  0
LINE
  5
1FC
  8
0
  6
CONTINUOUS
 62
     0
 10
0.0
 20
-5.0
 30
0.0
 11
0.0
 21
-7.25
 31
0.0
  0
LINE
  5
1FD
  8
0
  6
CONTINUOUS
 62
     0
 10
5.0
 20
0.0
 30
0.0
 11
7.25
 21
0.0
 31
0.0
  0
ENDBLK
  5
1F5
  8
0
  0
BLOCK
  8
0
  2
SW_CENTERMARKSYMBOL_5
 70
     0
 10
0.0
 20
0.0
 30
0.0
  3
SW_CENTERMARKSYMBOL_5
  1

  0
LINE
  5
202
  8
0
  6
CONTINUOUS
 62
     0
 10
0.0
 20
0.0
 30
0.0
 11
0.0
 21
2.5
 31
0.0
  0
LINE
  5
203
  8
0
  6
CONTINUOUS
 62
     0
 10
0.0
 20
0.0
 30
0.0
 11
-2.5
 21
0.0
 31
0.0
  0
LINE
  5
204
  8
0
  6
CONTINUOUS
 62
     0
 10
0.0
 20
0.0
 30
0.0
 11
0.0
 21
-2.5
 31
0.0
  0
LINE
  5
205
  8
0
  6
CONTINUOUS
 62
     0
 10
0.0
 20
0.0
 30
0.0
 11
2.5
 21
0.0
 31
0.0
  0
LINE
  5
206
  8
0
  6
CONTINUOUS
 62
     0
 10
0.0
 20
5.0
 30
0.0
 11
0.0
 21
7.25
 31
0.0
  0
LINE
  5
207
  8
0
  6
CONTINUOUS
 62
     0
 10
-5.0
 20
0.0
 30
0.0
 11
-7.25
 21
0.0
 31
0.0
  0
LINE
  5
208
  8
0
  6
CONTINUOUS
 62
     0
 10
0.0
 20
-5.0
 30
0.0
 11
0.0
 21
-7.25
 31
0.0
  0
LINE
  5
209
  8
0
  6
CONTINUOUS
 62
     0
 10
5.0
 20
0.0
 30
0.0
 11
7.25
 21
0.0
 31
0.0
  0
ENDBLK
  5
201
  8
0
  0
BLOCK
  8
0
  2
SW_CENTERMARKSYMBOL_6
 70
     0
 10
0.0
 20
0.0
 30
0.0
  3
SW_CENTERMARKSYMBOL_6
  1

  0
LINE
  5
20E
  8
0
  6
CONTINUOUS
 62
     0
 10
0.0
 20
0.0
 30
0.0
 11
0.0
 21
2.5
 31
0.0
  0
LINE
  5
20F
  8
0
  6
CONTINUOUS
 62
     0
 10
0.0
 20
0.0
 30
0.0
 11
-2.5
 21
0.0
 31
0.0
  0
LINE
  5
210
  8
0
  6
CONTINUOUS
 62
     0
 10
0.0
 20
0.0
 30
0.0
 11
0.0
 21
-2.5
 31
0.0
  0
LINE
  5
211
  8
0
  6
CONTINUOUS
 62
     0
 10
0.0
 20
0.0
 30
0.0
 11
2.5
 21
0.0
 31
0.0
  0
LINE
  5
212
  8
0
  6
CONTINUOUS
 62
     0
 10
0.0
 20
5.0
 30
0.0
 11
0.0
 21
7.25
 31
0.0
  0
LINE
  5
213
  8
0
  6
CONTINUOUS
 62
     0
 10
-5.0
 20
0.0
 30
0.0
 11
-7.25
 21
0.0
 31
0.0
  0
LINE
  5
214
  8
0
  6
CONTINUOUS
 62
     0
 10
0.0
 20
-5.0
 30
0.0
 11
0.0
 21
-7.25
 31
0.0
  0
LINE
  5
215
  8
0
  6
CONTINUOUS
 62
     0
 10
5.0
 20
0.0
 30
0.0
 11
7.25
 21
0.0
 31
0.0
  0
ENDBLK
  5
20D
  8
0
  0
BLOCK
  8
0
  2
SW_CENTERMARKSYMBOL_7
 70
     0
 10
0.0
 20
0.0
 30
0.0
  3
SW_CENTERMARKSYMBOL_7
  1

  0
LINE
  5
21A
  8
0
  6
CONTINUOUS
 62
     0
 10
0.0
 20
0.0
 30
0.0
 11
0.0
 21
2.5
 31
0.0
  0
LINE
  5
21B
  8
0
  6
CONTINUOUS
 62
     0
 10
0.0
 20
0.0
 30
0.0
 11
-2.5
 21
0.0
 31
0.0
  0
LINE
  5
21C
  8
0
  6
CONTINUOUS
 62
     0
 10
0.0
 20
0.0
 30
0.0
 11
0.0
 21
-2.5
 31
0.0
  0
LINE
  5
21D
  8
0
  6
CONTINUOUS
 62
     0
 10
0.0
 20
0.0
 30
0.0
 11
2.5
 21
0.0
 31
0.0
  0
LINE
  5
21E
  8
0
  6
CONTINUOUS
 62
     0
 10
0.0
 20
5.0
 30
0.0
 11
0.0
 21
7.25
 31
0.0
  0
LINE
  5
21F
  8
0
  6
CONTINUOUS
 62
     0
 10
-5.0
 20
0.0
 30
0.0
 11
-7.25
 21
0.0
 31
0.0
  0
LINE
  5
220
  8
0
  6
CONTINUOUS
 62
     0
 10
0.0
 20
-5.0
 30
0.0
 11
0.0
 21
-7.25
 31
0.0
  0
LINE
  5
221
  8
0
  6
CONTINUOUS
 62
     0
 10
5.0
 20
0.0
 30
0.0
 11
7.25
 21
0.0
 31
0.0
  0
ENDBLK
  5
219
  8
0
  0
BLOCK
  8
0
  2
SW_CENTERMARKSYMBOL_8
 70
     0
 10
0.0
 20
0.0
 30
0.0
  3
SW_CENTERMARKSYMBOL_8
  1

  0
LINE
  5
226
  8
0
  6
CONTINUOUS
 62
     0
 10
0.0
 20
0.0
 30
0.0
 11
0.0
 21
2.5
 31
0.0
  0
LINE
  5
227
  8
0
  6
CONTINUOUS
 62
     0
 10
0.0
 20
0.0
 30
0.0
 11
-2.5
 21
0.0
 31
0.0
  0
LINE
  5
228
  8
0
  6
CONTINUOUS
 62
     0
 10
0.0
 20
0.0
 30
0.0
 11
0.0
 21
-2.5
 31
0.0
  0
LINE
  5
229
  8
0
  6
CONTINUOUS
 62
     0
 10
0.0
 20
0.0
 30
0.0
 11
2.5
 21
0.0
 31
0.0
  0
LINE
  5
22A
  8
0
  6
CONTINUOUS
 62
     0
 10
0.0
 20
5.0
 30
0.0
 11
0.0
 21
7.25
 31
0.0
  0
LINE
  5
22B
  8
0
  6
CONTINUOUS
 62
     0
 10
-5.0
 20
0.0
 30
0.0
 11
-7.25
 21
0.0
 31
0.0
  0
LINE
  5
22C
  8
0
  6
CONTINUOUS
 62
     0
 10
0.0
 20
-5.0
 30
0.0
 11
0.0
 21
-7.25
 31
0.0
  0
LINE
  5
22D
  8
0
  6
CONTINUOUS
 62
     0
 10
5.0
 20
0.0
 30
0.0
 11
7.25
 21
0.0
 31
0.0
  0
ENDBLK
  5
225
  8
0
  0
BLOCK
  8
0
  2
SW_CENTERMARKSYMBOL_9
 70
     0
 10
0.0
 20
0.0
 30
0.0
  3
SW_CENTERMARKSYMBOL_9
  1

  0
LINE
  5
232
  8
0
  6
CONTINUOUS
 62
     0
 10
0.0
 20
0.0
 30
0.0
 11
0.0
 21
2.5
 31
0.0
  0
LINE
  5
233
  8
0
  6
CONTINUOUS
 62
     0
 10
0.0
 20
0.0
 30
0.0
 11
-2.5
 21
0.0
 31
0.0
  0
LINE
  5
234
  8
0
  6
CONTINUOUS
 62
     0
 10
0.0
 20
0.0
 30
0.0
 11
0.0
 21
-2.5
 31
0.0
  0
LINE
  5
235
  8
0
  6
CONTINUOUS
 62
     0
 10
0.0
 20
0.0
 30
0.0
 11
2.5
 21
0.0
 31
0.0
  0
LINE
  5
236
  8
0
  6
CONTINUOUS
 62
     0
 10
0.0
 20
5.0
 30
0.0
 11
0.0
 21
10.0
 31
0.0
  0
LINE
  5
237
  8
0
  6
CONTINUOUS
 62
     0
 10
-5.0
 20
0.0
 30
0.0
 11
-10.0
 21
0.0
 31
0.0
  0
LINE
  5
238
  8
0
  6
CONTINUOUS
 62
     0
 10
0.0
 20
-5.0
 30
0.0
 11
0.0
 21
-10.0
 31
0.0
  0
LINE
  5
239
  8
0
  6
CONTINUOUS
 62
     0
 10
5.0
 20
0.0
 30
0.0
 11
10.0
 21
0.0
 31
0.0
  0
ENDBLK
  5
231
  8
0
  0
BLOCK
  8
0
  2
_D_10
 70
     0
 10
0.0
 20
0.0
 30
0.0
  3
_D_10
  1

  0
SOLID
  5
31C
  8
0
  6
CONTINUOUS
 62
     7
 10
364.7808915972
 20
168.1876125334
 30
0.0
 11
361.4788915972
 21
168.9076125334
 31
0.0
 12
361.4788915972
 22
167.4676125334
 32
0.0
 13
361.4788915972
 23
167.4676125334
 33
0.0
  0
SOLID
  5
31D
  8
0
  6
CONTINUOUS
 62
     7
 10
353.2808915777
 20
168.1876125334
 30
0.0
 11
356.5828915777
 21
167.4676125334
 31
0.0
 12
356.5828915777
 22
168.9076125334
 32
0.0
 13
356.5828915777
 23
168.9076125334
 33
0.0
  0
LINE
  5
31E
  8
0
  6
CONTINUOUS
 62
     7
 10
364.7808915972
 20
188.4957903306
 30
0.0
 11
364.7808915972
 21
167.1876125334
 31
0.0
  0
LINE
  5
31F
  8
0
  6
CONTINUOUS
 62
     7
 10
353.2808915777
 20
212.3677759573
 30
0.0
 11
353.2808915777
 21
167.1876125334
 31
0.0
  0
LINE
  5
320
  8
0
  6
CONTINUOUS
 62
     7
 10
364.7808915972
 20
168.1876125334
 30
0.0
 11
375.580987128
 21
168.1876125334
 31
0.0
  0
LINE
  5
321
  8
0
  6
CONTINUOUS
 62
     7
 10
364.7808915972
 20
168.1876125334
 30
0.0
 11
353.2808915777
 21
168.1876125334
 31
0.0
  0
TEXT
  5
322
  8
0
  6
CONTINUOUS
 62
     7
 10
366.5295980671
 20
169.4240225755
 30
0.0
 40
3.5
  1
11,5
 50
0.0
 41
0.7
 11
366.5295980671
 21
168.1876123588
 31
0.0
 73
     1
  0
ENDBLK
  5
31B
  8
0
  0
BLOCK
  8
0
  2
_D_11
 70
     0
 10
0.0
 20
0.0
 30
0.0
  3
_D_11
  1

  0
SOLID
  5
327
  8
0
  6
CONTINUOUS
 62
     7
 10
301.2808915972
 20
168.1876125334
 30
0.0
 11
304.5828915972
 21
167.4676125334
 31
0.0
 12
304.5828915972
 22
168.9076125334
 32
0.0
 13
304.5828915972
 23
168.9076125334
 33
0.0
  0
SOLID
  5
328
  8
0
  6
CONTINUOUS
 62
     7
 10
353.2808915972
 20
168.1876125334
 30
0.0
 11
349.9788915972
 21
168.9076125334
 31
0.0
 12
349.9788915972
 22
167.4676125334
 32
0.0
 13
349.9788915972
 23
167.4676125334
 33
0.0
  0
LINE
  5
329
  8
0
  6
CONTINUOUS
 62
     7
 10
301.2808915972
 20
199.9957903306
 30
0.0
 11
301.2808915972
 21
167.1876125334
 31
0.0
  0
LINE
  5
32A
  8
0
  6
CONTINUOUS
 62
     7
 10
353.2808915972
 20
199.9957903306
 30
0.0
 11
353.2808915972
 21
167.1876125334
 31
0.0
  0
LINE
  5
32B
  8
0
  6
CONTINUOUS
 62
     7
 10
301.2808915972
 20
168.1876125334
 30
0.0
 11
353.2808915972
 21
168.1876125334
 31
0.0
  0
TEXT
  5
32C
  8
0
  6
CONTINUOUS
 62
     7
 10
327.124285072
 20
169.4240225755
 30
0.0
 40
3.5
  1
52
 41
0.7
 11
327.124285072
 21
168.1876123588
 31
0.0
 73
     1
  0
ENDBLK
  5
326
  8
0
  0
BLOCK
  8
0
  2
_D_12
 70
     0
 10
0.0
 20
0.0
 30
0.0
  3
_D_12
  1

  0
SOLID
  5
331
  8
0
  6
CONTINUOUS
 62
     7
 10
273.5372881719
 20
198.9957903306
 30
0.0
 11
272.8172881719
 21
195.6937903306
 31
0.0
 12
274.2572881719
 22
195.6937903306
 32
0.0
 13
274.2572881719
 23
195.6937903306
 33
0.0
  0
SOLID
  5
332
  8
0
  6
CONTINUOUS
 62
     7
 10
273.5372881719
 20
200.9957903306
 30
0.0
 11
274.2572881719
 21
204.2977903306
 31
0.0
 12
272.8172881719
 22
204.2977903306
 32
0.0
 13
272.8172881719
 23
204.2977903306
 33
0.0
  0
LINE
  5
333
  8
0
  6
CONTINUOUS
 62
     7
 10
282.2808915972
 20
198.9957903306
 30
0.0
 11
272.5372881719
 21
198.9957903306
 31
0.0
  0
LINE
  5
334
  8
0
  6
CONTINUOUS
 62
     7
 10
277.2808915972
 20
200.9957903306
 30
0.0
 11
272.5372881719
 21
200.9957903306
 31
0.0
  0
LINE
  5
335
  8
0
  6
CONTINUOUS
 62
     7
 10
273.5372881719
 20
198.9957903306
 30
0.0
 11
273.5372881719
 21
184.136008011
 31
0.0
  0
LINE
  5
336
  8
0
  6
CONTINUOUS
 62
     7
 10
273.5372881719
 20
198.9957903306
 30
0.0
 11
273.5372881719
 21
200.9957903306
 31
0.0
  0
LINE
  5
337
  8
0
  6
CONTINUOUS
 62
     7
 10
273.5372881719
 20
200.9957903306
 30
0.0
 11
273.5372881719
 21
207.3457903306
 31
0.0
  0
TEXT
  5
338
  8
0
  6
CONTINUOUS
 62
     7
 10
272.3008781298
 20
184.136008011
 30
0.0
 40
3.5
  1
2
 50
90.0
 41
0.7
 11
273.5372883465
 21
184.136008011
 31
0.0
 73
     1
  0
ENDBLK
  5
330
  8
0
  0
BLOCK
  8
0
  2
SW_CENTERMARKSYMBOL_10
 70
     0
 10
0.0
 20
0.0
 30
0.0
  3
SW_CENTERMARKSYMBOL_10
  1

  0
LINE
  5
33C
  8
0
  6
CONTINUOUS
 62
     0
 10
0.0
 20
0.0
 30
0.0
 11
0.0
 21
2.5
 31
0.0
  0
LINE
  5
33D
  8
0
  6
CONTINUOUS
 62
     0
 10
0.0
 20
0.0
 30
0.0
 11
-2.5
 21
0.0
 31
0.0
  0
LINE
  5
33E
  8
0
  6
CONTINUOUS
 62
     0
 10
0.0
 20
0.0
 30
0.0
 11
0.0
 21
-2.5
 31
0.0
  0
LINE
  5
33F
  8
0
  6
CONTINUOUS
 62
     0
 10
0.0
 20
0.0
 30
0.0
 11
2.5
 21
0.0
 31
0.0
  0
LINE
  5
340
  8
0
  6
CONTINUOUS
 62
     0
 10
0.0
 20
5.0
 30
0.0
 11
0.0
 21
10.5
 31
0.0
  0
LINE
  5
341
  8
0
  6
CONTINUOUS
 62
     0
 10
-5.0
 20
0.0
 30
0.0
 11
-10.5
 21
0.0
 31
0.0
  0
LINE
  5
342
  8
0
  6
CONTINUOUS
 62
     0
 10
0.0
 20
-5.0
 30
0.0
 11
0.0
 21
-10.5
 31
0.0
  0
LINE
  5
343
  8
0
  6
CONTINUOUS
 62
     0
 10
5.0
 20
0.0
 30
0.0
 11
10.5
 21
0.0
 31
0.0
  0
ENDBLK
  5
33B
  8
0
  0
BLOCK
  8
0
  2
_D_13
 70
     0
 10
0.0
 20
0.0
 30
0.0
  3
_D_13
  1

  0
SOLID
  5
377
  8
0
  6
CONTINUOUS
 62
     7
 10
195.8754242688
 20
109.8508359504
 30
0.0
 11
199.1774242688
 21
109.1308359504
 31
0.0
 12
199.1774242688
 22
110.5708359504
 32
0.0
 13
199.1774242688
 23
110.5708359504
 33
0.0
  0
SOLID
  5
378
  8
0
  6
CONTINUOUS
 62
     7
 10
183.8754242688
 20
109.8508359504
 30
0.0
 11
180.5734242688
 21
110.5708359504
 31
0.0
 12
180.5734242688
 22
109.1308359504
 32
0.0
 13
180.5734242688
 23
109.1308359504
 33
0.0
  0
LINE
  5
379
  8
0
  6
CONTINUOUS
 62
     7
 10
195.8754242688
 20
97.352490219
 30
0.0
 11
195.8754242688
 21
110.8508359504
 31
0.0
  0
LINE
  5
37A
  8
0
  6
CONTINUOUS
 62
     7
 10
183.8754242688
 20
93.852490219
 30
0.0
 11
183.8754242688
 21
110.8508359504
 31
0.0
  0
LINE
  5
37B
  8
0
  6
CONTINUOUS
 62
     7
 10
195.8754242688
 20
109.8508359504
 30
0.0
 11
202.2254242688
 21
109.8508359504
 31
0.0
  0
LINE
  5
37C
  8
0
  6
CONTINUOUS
 62
     7
 10
195.8754242688
 20
109.8508359504
 30
0.0
 11
183.8754242688
 21
109.8508359504
 31
0.0
  0
LINE
  5
37D
  8
0
  6
CONTINUOUS
 62
     7
 10
183.8754242688
 20
109.8508359504
 30
0.0
 11
177.5254242688
 21
109.8508359504
 31
0.0
  0
TEXT
  5
37E
  8
0
  6
CONTINUOUS
 62
     7
 10
188.1309647141
 20
111.0872459925
 30
0.0
 40
3.5
  1
12
 50
0.0
 41
0.7
 11
188.1309647141
 21
109.8508357757
 31
0.0
 73
     1
  0
ENDBLK
  5
376
  8
0
  0
BLOCK
  8
0
  2
_D_14
 70
     0
 10
0.0
 20
0.0
 30
0.0
  3
_D_14
  1

  0
SOLID
  5
383
  8
0
  6
CONTINUOUS
 62
     7
 10
204.3213015905
 20
75.352490219
 30
0.0
 11
205.0413015905
 21
78.654490219
 31
0.0
 12
203.6013015905
 22
78.654490219
 32
0.0
 13
203.6013015905
 23
78.654490219
 33
0.0
  0
SOLID
  5
384
  8
0
  6
CONTINUOUS
 62
     7
 10
204.3213015905
 20
96.352490219
 30
0.0
 11
203.6013015905
 21
93.050490219
 31
0.0
 12
205.0413015905
 22
93.050490219
 32
0.0
 13
205.0413015905
 23
93.050490219
 33
0.0
  0
LINE
  5
385
  8
0
  6
CONTINUOUS
 62
     7
 10
188.3754242688
 20
75.352490219
 30
0.0
 11
205.3213015905
 21
75.352490219
 31
0.0
  0
LINE
  5
386
  8
0
  6
CONTINUOUS
 62
     7
 10
196.8754242688
 20
96.352490219
 30
0.0
 11
205.3213015905
 21
96.352490219
 31
0.0
  0
LINE
  5
387
  8
0
  6
CONTINUOUS
 62
     7
 10
204.3213015905
 20
75.352490219
 30
0.0
 11
204.3213015905
 21
96.352490219
 31
0.0
  0
TEXT
  5
388
  8
0
  6
CONTINUOUS
 62
     7
 10
203.0848915484
 20
83.18810531
 30
0.0
 40
3.5
  1
21
 50
90.0
 41
0.7
 11
204.3213017651
 21
83.18810531
 31
0.0
 73
     1
  0
ENDBLK
  5
382
  8
0
  0
BLOCK
  8
0
  2
_D_15
 70
     0
 10
0.0
 20
0.0
 30
0.0
  3
_D_15
  1

  0
SOLID
  5
38E
  8
0
  6
CONTINUOUS
 62
     7
 10
68.8754242688
 20
118.3028637231
 30
0.0
 11
72.1774242688
 21
117.5828637231
 31
0.0
 12
72.1774242688
 22
119.0228637231
 32
0.0
 13
72.1774242688
 23
119.0228637231
 33
0.0
  0
SOLID
  5
38F
  8
0
  6
CONTINUOUS
 62
     7
 10
132.3754242688
 20
118.3028637231
 30
0.0
 11
129.0734242688
 21
119.0228637231
 31
0.0
 12
129.0734242688
 22
117.5828637231
 32
0.0
 13
129.0734242688
 23
117.5828637231
 33
0.0
  0
LINE
  5
390
  8
0
  6
CONTINUOUS
 62
     7
 10
68.8754242688
 20
94.352490219
 30
0.0
 11
68.8754242688
 21
119.3028637231
 31
0.0
  0
LINE
  5
391
  8
0
  6
CONTINUOUS
 62
     7
 10
132.3754242688
 20
103.852490219
 30
0.0
 11
132.3754242688
 21
119.3028637231
 31
0.0
  0
LINE
  5
392
  8
0
  6
CONTINUOUS
 62
     7
 10
68.8754242688
 20
118.3028637231
 30
0.0
 11
132.3754242688
 21
118.3028637231
 31
0.0
  0
TEXT
  5
393
  8
0
  6
CONTINUOUS
 62
     7
 10
98.1105216414
 20
119.5392737652
 30
0.0
 40
3.5
  1
63,5
 41
0.7
 11
98.1105216414
 21
118.3028635485
 31
0.0
 73
     1
  0
ENDBLK
  5
38D
  8
0
  0
BLOCK
  8
0
  2
_D_16
 70
     0
 10
0.0
 20
0.0
 30
0.0
  3
_D_16
  1

  0
SOLID
  5
398
  8
0
  6
CONTINUOUS
 62
     7
 10
132.3754242688
 20
118.3028637231
 30
0.0
 11
135.6774242688
 21
117.5828637231
 31
0.0
 12
135.6774242688
 22
119.0228637231
 32
0.0
 13
135.6774242688
 23
119.0228637231
 33
0.0
  0
SOLID
  5
399
  8
0
  6
CONTINUOUS
 62
     7
 10
195.8754242688
 20
118.3028637231
 30
0.0
 11
192.5734242688
 21
119.0228637231
 31
0.0
 12
192.5734242688
 22
117.5828637231
 32
0.0
 13
192.5734242688
 23
117.5828637231
 33
0.0
  0
LINE
  5
39A
  8
0
  6
CONTINUOUS
 62
     7
 10
132.3754242688
 20
103.852490219
 30
0.0
 11
132.3754242688
 21
119.3028637231
 31
0.0
  0
LINE
  5
39B
  8
0
  6
CONTINUOUS
 62
     7
 10
195.8754242688
 20
97.352490219
 30
0.0
 11
195.8754242688
 21
119.3028637231
 31
0.0
  0
LINE
  5
39C
  8
0
  6
CONTINUOUS
 62
     7
 10
132.3754242688
 20
118.3028637231
 30
0.0
 11
195.8754242688
 21
118.3028637231
 31
0.0
  0
TEXT
  5
39D
  8
0
  6
CONTINUOUS
 62
     7
 10
163.2378616445
 20
119.5392737652
 30
0.0
 40
3.5
  1
63,5
 41
0.7
 11
163.2378616445
 21
118.3028635485
 31
0.0
 73
     1
  0
ENDBLK
  5
397
  8
0
  0
BLOCK
  8
0
  2
SW_CENTERMARKSYMBOL_11
 70
     0
 10
0.0
 20
0.0
 30
0.0
  3
SW_CENTERMARKSYMBOL_11
  1

  0
LINE
  5
3A1
  8
0
  6
CONTINUOUS
 62
     0
 10
0.0
 20
0.0
 30
0.0
 11
0.0
 21
-2.5
 31
0.0
  0
LINE
  5
3A2
  8
0
  6
CONTINUOUS
 62
     0
 10
0.0
 20
0.0
 30
0.0
 11
2.5
 21
0.0
 31
0.0
  0
LINE
  5
3A3
  8
0
  6
CONTINUOUS
 62
     0
 10
0.0
 20
0.0
 30
0.0
 11
0.0
 21
2.5
 31
0.0
  0
LINE
  5
3A4
  8
0
  6
CONTINUOUS
 62
     0
 10
0.0
 20
0.0
 30
0.0
 11
-2.5
 21
0.0
 31
0.0
  0
LINE
  5
3A5
  8
0
  6
CONTINUOUS
 62
     0
 10
0.0
 20
-5.0
 30
0.0
 11
0.0
 21
-10.5
 31
0.0
  0
LINE
  5
3A6
  8
0
  6
CONTINUOUS
 62
     0
 10
5.0
 20
0.0
 30
0.0
 11
10.5
 21
0.0
 31
0.0
  0
LINE
  5
3A7
  8
0
  6
CONTINUOUS
 62
     0
 10
0.0
 20
5.0
 30
0.0
 11
0.0
 21
10.5
 31
0.0
  0
LINE
  5
3A8
  8
0
  6
CONTINUOUS
 62
     0
 10
-5.0
 20
0.0
 30
0.0
 11
-10.5
 21
0.0
 31
0.0
  0
ENDBLK
  5
3A0
  8
0
  0
ENDSEC
  0
SECTION
  2
ENTITIES
  0
LINE
  5
75
  8
0
  6
CONTINUOUS
 62
     7
 10
227.8
 20
60.25
 30
0.0
 11
227.8
 21
5.0
 31
0.0
  0
LINE
  5
76
  8
0
  6
CONTINUOUS
 62
     7
 10
235.42
 20
43.25
 30
0.0
 11
235.42
 21
5.0
 31
0.0
  0
LINE
  5
77
  8
0
  6
CONTINUOUS
 62
     7
 10
260.82
 20
5.0
 30
0.0
 11
260.82
 21
43.25
 31
0.0
  0
LINE
  5
78
  8
0
  6
CONTINUOUS
 62
     7
 10
410.0
 20
287.0
 30
0.0
 11
410.0
 21
60.25
 31
0.0
  0
LINE
  5
79
  8
0
  6
CONTINUOUS
 62
     7
 10
281.14
 20
22.0
 30
0.0
 11
415.0
 21
22.0
 31
0.0
  0
LINE
  5
7A
  8
0
  6
CONTINUOUS
 62
     7
 10
415.0
 20
43.25
 30
0.0
 11
227.8
 21
43.25
 31
0.0
  0
LINE
  5
7B
  8
0
  6
CONTINUOUS
 62
     7
 10
227.8
 20
60.25
 30
0.0
 11
415.0
 21
60.25
 31
0.0
  0
LINE
  5
7C
  8
0
  6
CONTINUOUS
 62
     7
 10
281.14
 20
38.9447711707
 30
0.0
 11
227.8
 21
38.9447711707
 31
0.0
  0
LINE
  5
7D
  8
0
  6
CONTINUOUS
 62
     7
 10
281.14
 20
5.0
 30
0.0
 11
281.14
 21
60.25
 31
0.0
  0
LINE
  5
7E
  8
0
  6
CONTINUOUS
 62
     7
 10
324.32
 20
60.25
 30
0.0
 11
324.32
 21
5.0
 31
0.0
  0
LINE
  5
7F
  8
0
  6
CONTINUOUS
 62
     7
 10
273.52
 20
43.25
 30
0.0
 11
273.52
 21
5.0
 31
0.0
  0
LINE
  5
80
  8
0
  6
CONTINUOUS
 62
     7
 10
290.5491845626
 20
22.0
 30
0.0
 11
290.5491845626
 21
43.25
 31
0.0
  0
LINE
  5
81
  8
0
  6
CONTINUOUS
 62
     7
 10
281.14
 20
13.5
 30
0.0
 11
227.8
 21
13.5
 31
0.0
  0
LINE
  5
82
  8
0
  6
CONTINUOUS
 62
     7
 10
306.6969257405
 20
43.25
 30
0.0
 11
306.6969257405
 21
22.0
 31
0.0
  0
LINE
  5
83
  8
0
  6
CONTINUOUS
 62
     7
 10
368.48
 20
5.0
 30
0.0
 11
368.48
 21
9.25
 31
0.0
  0
LINE
  5
84
  8
0
  6
CONTINUOUS
 62
     7
 10
376.28
 20
53.875
 30
0.0
 11
376.28
 21
60.25
 31
0.0
  0
LINE
  5
85
  8
0
  6
CONTINUOUS
 62
     7
 10
227.8
 20
9.23
 30
0.0
 11
281.14
 21
9.23
 31
0.0
  0
LINE
  5
86
  8
0
  6
CONTINUOUS
 62
     7
 10
399.68
 20
9.25
 30
0.0
 11
399.68
 21
22.0
 31
0.0
  0
LINE
  5
87
  8
0
  6
CONTINUOUS
 62
     7
 10
415.0
 20
53.875
 30
0.0
 11
324.32
 21
53.875
 31
0.0
  0
LINE
  5
88
  8
0
  6
CONTINUOUS
 62
     7
 10
415.0
 20
5.0
 30
0.0
 11
415.0
 21
60.25
 31
0.0
  0
LINE
  5
89
  8
0
  6
CONTINUOUS
 62
     7
 10
227.8
 20
5.0
 30
0.0
 11
415.0
 21
5.0
 31
0.0
  0
LINE
  5
8A
  8
0
  6
CONTINUOUS
 62
     7
 10
281.14
 20
17.75
 30
0.0
 11
227.8
 21
17.75
 31
0.0
  0
LINE
  5
8B
  8
0
  6
CONTINUOUS
 62
     7
 10
281.14
 20
22.0
 30
0.0
 11
227.8
 21
22.0
 31
0.0
  0
LINE
  5
8C
  8
0
  6
CONTINUOUS
 62
     7
 10
324.32
 20
26.25
 30
0.0
 11
227.8
 21
26.25
 31
0.0
  0
LINE
  5
8D
  8
0
  6
CONTINUOUS
 62
     7
 10
324.32
 20
30.5
 30
0.0
 11
227.8
 21
30.5
 31
0.0
  0
LINE
  5
8E
  8
0
  6
CONTINUOUS
 62
     7
 10
324.32
 20
34.75
 30
0.0
 11
227.8
 21
34.75
 31
0.0
  0
LINE
  5
8F
  8
0
  6
CONTINUOUS
 62
     7
 10
324.32
 20
38.9447711707
 30
0.0
 11
281.14
 21
38.9447711707
 31
0.0
  0
LINE
  5
90
  8
0
  6
CONTINUOUS
 62
     7
 10
415.0
 20
13.5
 30
0.0
 11
399.68
 21
13.5
 31
0.0
  0
LINE
  5
91
  8
0
  6
CONTINUOUS
 62
     7
 10
324.32
 20
9.23
 30
0.0
 11
415.0
 21
9.23
 31
0.0
  0
LINE
  5
92
  8
0
  6
CONTINUOUS
 62
     7
 10
222.8
 20
5.0
 30
0.0
 11
227.8
 21
5.0
 31
0.0
  0
LINE
  5
93
  8
0
  6
CONTINUOUS
 62
     7
 10
415.0
 20
292.0
 30
0.0
 11
5.0
 21
292.0
 31
0.0
  0
LINE
  5
94
  8
0
  6
CONTINUOUS
 62
     7
 10
410.0
 20
287.0
 30
0.0
 11
10.0
 21
287.0
 31
0.0
  0
LINE
  5
95
  8
0
  6
CONTINUOUS
 62
     7
 10
5.0
 20
292.0
 30
0.0
 11
5.0
 21
5.0
 31
0.0
  0
LINE
  5
96
  8
0
  6
CONTINUOUS
 62
     7
 10
10.0
 20
287.0
 30
0.0
 11
10.0
 21
10.0
 31
0.0
  0
LINE
  5
97
  8
0
  6
CONTINUOUS
 62
     7
 10
10.0
 20
48.5
 30
0.0
 11
5.0
 21
48.5
 31
0.0
  0
LINE
  5
98
  8
0
  6
CONTINUOUS
 62
     7
 10
5.0
 20
98.5
 30
0.0
 11
10.0
 21
98.5
 31
0.0
  0
LINE
  5
99
  8
0
  6
CONTINUOUS
 62
     7
 10
5.0
 20
198.5
 30
0.0
 11
10.0
 21
198.5
 31
0.0
  0
LINE
  5
9A
  8
0
  6
CONTINUOUS
 62
     7
 10
5.0
 20
148.5
 30
0.0
 11
15.0
 21
148.5
 31
0.0
  0
LINE
  5
9B
  8
0
  6
CONTINUOUS
 62
     7
 10
5.0
 20
5.0
 30
0.0
 11
227.8
 21
5.0
 31
0.0
  0
LINE
  5
9C
  8
0
  6
CONTINUOUS
 62
     7
 10
10.0
 20
10.0
 30
0.0
 11
227.8
 21
10.0
 31
0.0
  0
LINE
  5
9D
  8
0
  6
CONTINUOUS
 62
     7
 10
60.0
 20
5.0
 30
0.0
 11
60.0
 21
10.0
 31
0.0
  0
LINE
  5
9E
  8
0
  6
CONTINUOUS
 62
     7
 10
110.0
 20
10.0
 30
0.0
 11
110.0
 21
5.0
 31
0.0
  0
LINE
  5
9F
  8
0
  6
CONTINUOUS
 62
     7
 10
160.0
 20
5.0
 30
0.0
 11
160.0
 21
10.0
 31
0.0
  0
LINE
  5
A0
  8
0
  6
CONTINUOUS
 62
     7
 10
10.0
 20
248.5
 30
0.0
 11
5.0
 21
248.5
 31
0.0
  0
LINE
  5
A1
  8
0
  6
CONTINUOUS
 62
     7
 10
60.0
 20
287.0
 30
0.0
 11
60.0
 21
292.0
 31
0.0
  0
LINE
  5
A2
  8
0
  6
CONTINUOUS
 62
     7
 10
110.0
 20
292.0
 30
0.0
 11
110.0
 21
287.0
 31
0.0
  0
LINE
  5
A3
  8
0
  6
CONTINUOUS
 62
     7
 10
160.0
 20
287.0
 30
0.0
 11
160.0
 21
292.0
 31
0.0
  0
LINE
  5
A4
  8
0
  6
CONTINUOUS
 62
     7
 10
260.0
 20
287.0
 30
0.0
 11
260.0
 21
292.0
 31
0.0
  0
LINE
  5
A5
  8
0
  6
CONTINUOUS
 62
     7
 10
415.0
 20
60.25
 30
0.0
 11
415.0
 21
292.0
 31
0.0
  0
LINE
  5
A6
  8
0
  6
CONTINUOUS
 62
     7
 10
210.0
 20
5.0
 30
0.0
 11
210.0
 21
15.0
 31
0.0
  0
LINE
  5
A7
  8
0
  6
CONTINUOUS
 62
     7
 10
410.0
 20
198.5
 30
0.0
 11
415.0
 21
198.5
 31
0.0
  0
LINE
  5
A8
  8
0
  6
CONTINUOUS
 62
     7
 10
410.0
 20
98.5
 30
0.0
 11
415.0
 21
98.5
 31
0.0
  0
LINE
  5
A9
  8
0
  6
CONTINUOUS
 62
     7
 10
415.0
 20
148.5
 30
0.0
 11
405.0
 21
148.5
 31
0.0
  0
LINE
  5
AA
  8
0
  6
CONTINUOUS
 62
     7
 10
310.0
 20
292.0
 30
0.0
 11
310.0
 21
287.0
 31
0.0
  0
LINE
  5
AB
  8
0
  6
CONTINUOUS
 62
     7
 10
360.0
 20
287.0
 30
0.0
 11
360.0
 21
292.0
 31
0.0
  0
LINE
  5
AC
  8
0
  6
CONTINUOUS
 62
     7
 10
210.0
 20
292.0
 30
0.0
 11
210.0
 21
282.0
 31
0.0
  0
LINE
  5
AD
  8
0
  6
CONTINUOUS
 62
     7
 10
415.0
 20
248.5
 30
0.0
 11
410.0
 21
248.5
 31
0.0
  0
TEXT
  5
AE
  8
0
  6
CONTINUOUS
 62
     7
 10
294.3009205725
 20
36.1638582733
 30
0.0
 40
2.1166666667
  1
10.01.21
 41
0.7
 11
294.3009205725
 21
35.4161244756
 31
0.0
 73
     1
  0
TEXT
  5
AF
  8
0
  6
CONTINUOUS
 62
     7
 10
309.0113335911
 20
36.1638582733
 30
0.0
 40
2.1166666667
  1
Hammad
 41
0.7
 11
309.0113335911
 21
35.4161244756
 31
0.0
 73
     1
  0
TEXT
  5
B0
  8
0
  6
CONTINUOUS
 62
     7
 10
350.0221820068
 20
36.2500809876
 30
0.0
 40
3.5
  1
V 807 (RD) 89x127
 41
0.6382352941
 11
350.0221820068
 21
35.0136707709
 31
0.0
 73
     1
  0
TEXT
  5
B1
  8
0
  6
CONTINUOUS
 62
     7
 10
6.6666666667
 20
122.9348266002
 30
0.0
 40
1.8520833333
  1
D
 41
0.7
 11
6.6666666667
 21
122.2805595272
 31
0.0
 73
     1
  0
TEXT
  5
B2
  8
0
  6
CONTINUOUS
 62
     7
 10
6.6666666667
 20
72.9348266002
 30
0.0
 40
1.8520833333
  1
E
 41
0.7
 11
6.6666666667
 21
72.2805595272
 31
0.0
 73
     1
  0
TEXT
  5
B3
  8
0
  6
CONTINUOUS
 62
     7
 10
6.6666666667
 20
22.9348266002
 30
0.0
 40
1.8520833333
  1
F
 41
0.7
 11
6.6666666667
 21
22.2805595272
 31
0.0
 73
     1
  0
TEXT
  5
B4
  8
0
  6
CONTINUOUS
 62
     7
 10
6.6666666667
 20
172.9348266002
 30
0.0
 40
1.8520833333
  1
C
 41
0.7
 11
6.6666666667
 21
172.2805595272
 31
0.0
 73
     1
  0
TEXT
  5
B5
  8
0
  6
CONTINUOUS
 62
     7
 10
34.5833333333
 20
6.9348306002
 30
0.0
 40
1.8520833333
  1
1
 41
0.7
 11
34.5833333333
 21
6.2805635272
 31
0.0
 73
     1
  0
TEXT
  5
B6
  8
0
  6
CONTINUOUS
 62
     7
 10
84.1666666667
 20
6.9348306002
 30
0.0
 40
1.8520833333
  1
2
 41
0.7
 11
84.1666666667
 21
6.2805635272
 31
0.0
 73
     1
  0
TEXT
  5
B7
  8
0
  6
CONTINUOUS
 62
     7
 10
134.1666666667
 20
6.9348306002
 30
0.0
 40
1.8520833333
  1
3
 41
0.7
 11
134.1666666667
 21
6.2805635272
 31
0.0
 73
     1
  0
TEXT
  5
B8
  8
0
  6
CONTINUOUS
 62
     7
 10
184.1666666667
 20
6.9348306002
 30
0.0
 40
1.8520833333
  1
4
 41
0.7
 11
184.1666666667
 21
6.2805635272
 31
0.0
 73
     1
  0
TEXT
  5
B9
  8
0
  6
CONTINUOUS
 62
     7
 10
6.6666666667
 20
222.9348266002
 30
0.0
 40
1.8520833333
  1
B
 41
0.7
 11
6.6666666667
 21
222.2805595272
 31
0.0
 73
     1
  0
TEXT
  5
BA
  8
0
  6
CONTINUOUS
 62
     7
 10
6.6666666667
 20
272.9348266002
 30
0.0
 40
1.8520833333
  1
A
 41
0.7
 11
6.6666666667
 21
272.2805595272
 31
0.0
 73
     1
  0
TEXT
  5
BB
  8
0
  6
CONTINUOUS
 62
     7
 10
134.1666666667
 20
288.9348306002
 30
0.0
 40
1.8520833333
  1
3
 41
0.7
 11
134.1666666667
 21
288.2805635272
 31
0.0
 73
     1
  0
TEXT
  5
BC
  8
0
  6
CONTINUOUS
 62
     7
 10
84.1666666667
 20
288.9348306002
 30
0.0
 40
1.8520833333
  1
2
 41
0.7
 11
84.1666666667
 21
288.2805635272
 31
0.0
 73
     1
  0
TEXT
  5
BD
  8
0
  6
CONTINUOUS
 62
     7
 10
34.5833333333
 20
288.9348306002
 30
0.0
 40
1.8520833333
  1
1
 41
0.7
 11
34.5833333333
 21
288.2805635272
 31
0.0
 73
     1
  0
TEXT
  5
BE
  8
0
  6
CONTINUOUS
 62
     7
 10
234.1666666667
 20
288.9348306002
 30
0.0
 40
1.8520833333
  1
5
 41
0.7
 11
234.1666666667
 21
288.2805635272
 31
0.0
 73
     1
  0
TEXT
  5
BF
  8
0
  6
CONTINUOUS
 62
     7
 10
411.6666666667
 20
172.9348266002
 30
0.0
 40
1.8520833333
  1
C
 41
0.7
 11
411.6666666667
 21
172.2805595272
 31
0.0
 73
     1
  0
TEXT
  5
C0
  8
0
  6
CONTINUOUS
 62
     7
 10
411.6666666667
 20
122.9348266002
 30
0.0
 40
1.8520833333
  1
D
 41
0.7
 11
411.6666666667
 21
122.2805595272
 31
0.0
 73
     1
  0
TEXT
  5
C1
  8
0
  6
CONTINUOUS
 62
     7
 10
184.1666666667
 20
288.9348306002
 30
0.0
 40
1.8520833333
  1
4
 41
0.7
 11
184.1666666667
 21
288.2805635272
 31
0.0
 73
     1
  0
TEXT
  5
C2
  8
0
  6
CONTINUOUS
 62
     7
 10
284.1666666667
 20
288.9348306002
 30
0.0
 40
1.8520833333
  1
6
 41
0.7
 11
284.1666666667
 21
288.2805635272
 31
0.0
 73
     1
  0
TEXT
  5
C3
  8
0
  6
CONTINUOUS
 62
     7
 10
334.1666666667
 20
288.9348306002
 30
0.0
 40
1.8520833333
  1
7
 41
0.7
 11
334.1666666667
 21
288.2805635272
 31
0.0
 73
     1
  0
TEXT
  5
C4
  8
0
  6
CONTINUOUS
 62
     7
 10
384.1666666667
 20
288.9348306002
 30
0.0
 40
1.8520833333
  1
8
 41
0.7
 11
384.1666666667
 21
288.2805635272
 31
0.0
 73
     1
  0
TEXT
  5
C5
  8
0
  6
CONTINUOUS
 62
     7
 10
411.6666666667
 20
272.9348266002
 30
0.0
 40
1.8520833333
  1
A
 41
0.7
 11
411.6666666667
 21
272.2805595272
 31
0.0
 73
     1
  0
TEXT
  5
C6
  8
0
  6
CONTINUOUS
 62
     7
 10
411.6666666667
 20
222.9348266002
 30
0.0
 40
1.8520833333
  1
B
 41
0.7
 11
411.6666666667
 21
222.2805595272
 31
0.0
 73
     1
  0
TEXT
  5
C7
  8
0
  6
CONTINUOUS
 62
     7
 10
228.6542475233
 20
5.8405442472
 30
0.0
 40
2.0
  1
Zust.
 41
0.7
 11
228.6542475233
 21
5.1340241233
 31
0.0
 73
     1
  0
TEXT
  5
C8
  8
0
  6
CONTINUOUS
 62
     7
 10
242.3236265502
 20
5.8405442472
 30
0.0
 40
2.0
  1
Änderung
 41
0.7
 11
242.3236265502
 21
5.1340241233
 31
0.0
 73
     1
  0
TEXT
  5
C9
  8
0
  6
CONTINUOUS
 62
     7
 10
273.7487245318
 20
5.8293213552
 30
0.0
 40
2.0
  1
Name
 41
0.7
 11
273.7487245318
 21
5.1228012314
 31
0.0
 73
     1
  0
TEXT
  5
CA
  8
0
  6
CONTINUOUS
 62
     7
 10
281.9346052427
 20
36.0024961334
 30
0.0
 40
2.0
  1
Bearb.
 41
0.7
 11
281.9346052427
 21
35.2959760096
 31
0.0
 73
     1
  0
TEXT
  5
CB
  8
0
  6
CONTINUOUS
 62
     7
 10
282.5538425523
 20
31.8123005822
 30
0.0
 40
2.0
  1
Gepr.
 41
0.7
 11
282.5538425523
 21
31.1057804584
 31
0.0
 73
     1
  0
TEXT
  5
CC
  8
0
  6
CONTINUOUS
 62
     7
 10
282.568021583
 20
27.5024931334
 30
0.0
 40
2.0
  1
Norm
 41
0.7
 11
282.568021583
 21
26.7959730096
 31
0.0
 73
     1
  0
INSERT
  5
D2
  8
0
  6
CONTINUOUS
 62
     7
  2
SW_NOTE_0
 10
326.1421941634
 20
54.7004161895
 30
0.0
  0
TEXT
  5
D3
  8
0
  6
CONTINUOUS
 62
     7
 10
293.8208978724
 20
40.2378571451
 30
0.0
 40
2.0
  1
Datum
 41
0.7
 11
293.8208978724
 21
39.5313370213
 31
0.0
 73
     1
  0
TEXT
  5
D4
  8
0
  6
CONTINUOUS
 62
     7
 10
310.9758605414
 20
40.2399684874
 30
0.0
 40
2.0
  1
Name
 41
0.7
 11
310.9758605414
 21
39.5334483635
 31
0.0
 73
     1
  0
TEXT
  5
D5
  8
0
  6
CONTINUOUS
 62
     7
 10
400.679992
 20
18.8834825574
 30
0.0
 40
2.5
  1
Blatt
 41
0.7
 11
400.679992
 21
18.0003324026
 31
0.0
 73
     1
  0
TEXT
  5
D6
  8
0
  6
CONTINUOUS
 62
     7
 10
401.6114022462
 20
14.9434680153
 30
0.0
 40
2.0
  1
1 (A3)
 41
0.7
 11
401.6114022462
 21
14.2369478915
 31
0.0
 73
     1
  0
TEXT
  5
D7
  8
0
  6
CONTINUOUS
 62
     7
 10
401.6114022462
 20
10.7163935227
 30
0.0
 40
2.0
  1
1 von 1
 41
0.6
 11
401.6114022462
 21
10.0098733989
 31
0.0
 73
     1
  0
TEXT
  5
D8
  8
0
  6
CONTINUOUS
 62
     7
 10
325.769379396
 20
6.0126746831
 30
0.0
 40
2.0
  1
Ers. für:
 41
0.7
 11
325.769379396
 21
5.3061545592
 31
0.0
 73
     1
  0
TEXT
  5
D9
  8
0
  6
CONTINUOUS
 62
     7
 10
369.3744127484
 20
6.1456631557
 30
0.0
 40
2.0
  1
Ers. durch: 
 41
0.6416666667
 11
369.3744127484
 21
5.4391430318
 31
0.0
 73
     1
  0
TEXT
  5
DA
  8
0
  6
CONTINUOUS
 62
     7
 10
325.8260642912
 20
38.8860690348
 30
0.0
 40
2.5
  1
Benennung:
 41
0.7
 11
325.8260642912
 21
38.00291888
 31
0.0
 73
     1
  0
TEXT
  5
DB
  8
0
  6
CONTINUOUS
 62
     7
 10
326.3720674831
 20
17.4450861174
 30
0.0
 40
2.5
  1
ZEICHNUNGSNR.   ZK 10766
 41
0.6416666667
 11
326.3720674831
 21
16.5619359626
 31
0.0
 73
     1
  0
TEXT
  5
DC
  8
0
  6
CONTINUOUS
 62
     7
 10
326.4245832263
 20
11.7244404863
 30
0.0
 40
2.5
  1
TEILENUMMER   
 41
0.625
 11
326.4245832263
 21
10.8412903315
 31
0.0
 73
     1
  0
TEXT
  5
DD
  8
0
  6
CONTINUOUS
 62
     7
 10
263.2346620132
 20
5.8293213552
 30
0.0
 40
2.0
  1
Datum
 41
0.7
 11
263.2346620132
 21
5.1228012314
 31
0.0
 73
     1
  0
INSERT
  5
E5
  8
0
  6
CONTINUOUS
 62
     7
  2
SW_NOTE_0_1
 10
290.4226877706
 20
16.7269093507
 30
0.0
  0
INSERT
  5
EF
  8
0
  6
CONTINUOUS
 62
     7
  2
SW_NOTE_0_2
 10
230.3638616607
 20
56.9426173561
 30
0.0
  0
TEXT
  5
F0
  8
0
  6
CONTINUOUS
 62
     7
 10
380.8494930471
 20
55.6933776061
 30
0.0
 40
3.5
  1
ISO2768-m-K
 41
0.7
 11
380.8494930471
 21
54.4569673894
 31
0.0
 73
     1
  0
TEXT
  5
F1
  8
0
  6
CONTINUOUS
 62
     7
 10
326.1548865668
 20
50.1794325104
 30
0.0
 40
2.5
  1
Material:
 41
0.7
 11
326.1548865668
 21
49.2962823556
 31
0.0
 73
     1
  0
CIRCLE
  5
F2
  8
0
  6
CENTERX2
 62
     7
 10
183.8754242688
 20
202.4957903306
 30
0.0
 40
4.999999999999988
  0
LINE
  5
F3
  8
0
  6
CENTERX2
 62
     7
 10
183.8754242688
 20
202.4957903306
 30
0.0
 11
187.4109581747
 21
206.0313242366
 31
0.0
  0
LINE
  5
F4
  8
0
  6
CENTERX2
 62
     7
 10
183.8754242688
 20
202.4957903306
 30
0.0
 11
187.4109581747
 21
198.9602564247
 31
0.0
  0
LINE
  5
F5
  8
0
  6
CENTERX2
 62
     7
 10
183.8754242688
 20
202.4957903306
 30
0.0
 11
180.3398903629
 21
198.9602564247
 31
0.0
  0
LINE
  5
F6
  8
0
  6
CENTERX2
 62
     7
 10
183.8754242688
 20
202.4957903306
 30
0.0
 11
180.3398903629
 21
206.0313242366
 31
0.0
  0
LINE
  5
F7
  8
0
  6
CONTINUOUS
 62
     7
 10
124.3754231029
 20
204.4957904256
 30
0.0
 11
124.3754231029
 21
200.4957902356
 31
0.0
  0
LINE
  5
F8
  8
0
  6
CONTINUOUS
 62
     7
 10
140.3754220002
 20
200.4957902356
 30
0.0
 11
140.3754220002
 21
204.4957904256
 31
0.0
  0
LINE
  5
F9
  8
0
  6
CONTINUOUS
 62
     7
 10
140.3754220002
 20
155.49579194
 30
0.0
 11
140.3754220002
 21
157.9957895558
 31
0.0
  0
LINE
  5
FA
  8
0
  6
CONTINUOUS
 62
     7
 10
124.3754231029
 20
157.9957895558
 30
0.0
 11
124.3754231029
 21
155.49579194
 31
0.0
  0
LINE
  5
FB
  8
0
  6
CONTINUOUS
 62
     7
 10
137.3754233712
 20
200.2957903425
 30
0.0
 11
137.3754233712
 21
200.4957902356
 31
0.0
  0
LINE
  5
FC
  8
0
  6
CONTINUOUS
 62
     7
 10
137.3754233712
 20
204.4957904256
 30
0.0
 11
137.3754233712
 21
204.6957903187
 31
0.0
  0
LINE
  5
FD
  8
0
  6
CONTINUOUS
 62
     7
 10
127.3754254573
 20
204.6957903187
 30
0.0
 11
127.3754254573
 21
204.4957904256
 31
0.0
  0
LINE
  5
FE
  8
0
  6
CONTINUOUS
 62
     7
 10
127.3754254573
 20
200.4957902356
 30
0.0
 11
127.3754254573
 21
200.2957903425
 31
0.0
  0
LINE
  5
FF
  8
0
  6
CONTINUOUS
 62
     7
 10
124.3754231029
 20
249.4957887213
 30
0.0
 11
124.3754231029
 21
246.9957911055
 31
0.0
  0
LINE
  5
100
  8
0
  6
CONTINUOUS
 62
     7
 10
140.3754220002
 20
246.9957911055
 30
0.0
 11
140.3754220002
 21
249.4957887213
 31
0.0
  0
LINE
  5
101
  8
0
  6
CONTINUOUS
 62
     7
 10
124.3754231029
 20
200.2957903425
 30
0.0
 11
124.3754231029
 21
157.9957895558
 31
0.0
  0
LINE
  5
102
  8
0
  6
CONTINUOUS
 62
     7
 10
140.3754220002
 20
158.1532799284
 30
0.0
 11
140.3754220002
 21
200.1636196039
 31
0.0
  0
LINE
  5
103
  8
0
  6
CONTINUOUS
 62
     7
 10
140.3754220002
 20
204.6957903187
 30
0.0
 11
140.3754220002
 21
246.9957911055
 31
0.0
  0
LINE
  5
104
  8
0
  6
CONTINUOUS
 62
     7
 10
124.3754231029
 20
246.8383007328
 30
0.0
 11
124.3754231029
 21
204.8279610574
 31
0.0
  0
CIRCLE
  5
105
  8
0
  6
CONTINUOUS
 62
     7
 10
183.8754242688
 20
202.4957903306
 30
0.0
 40
3.50000000000009
  0
CIRCLE
  5
106
  8
0
  6
CONTINUOUS
 62
     7
 10
183.8754242688
 20
202.4957903306
 30
0.0
 40
5.000000000000162
  0
CIRCLE
  5
107
  8
0
  6
CONTINUOUS
 62
     7
 10
183.8754242688
 20
202.4957903306
 30
0.0
 40
6.00000000000016
  0
CIRCLE
  5
108
  8
0
  6
CONTINUOUS
 62
     7
 10
183.8754242688
 20
202.4957903306
 30
0.0
 40
7.500000000000209
  0
LINE
  5
109
  8
0
  6
CONTINUOUS
 62
     7
 10
132.3910669082
 20
204.4957904256
 30
0.0
 11
124.3754231029
 21
204.4957904256
 31
0.0
  0
LINE
  5
10A
  8
0
  6
CONTINUOUS
 62
     7
 10
140.3754220002
 20
204.4957904256
 30
0.0
 11
132.3910669082
 21
204.4957904256
 31
0.0
  0
LINE
  5
10B
  8
0
  6
CONTINUOUS
 62
     7
 10
132.3910669082
 20
200.4957902356
 30
0.0
 11
124.3754231029
 21
200.4957902356
 31
0.0
  0
LINE
  5
10C
  8
0
  6
CONTINUOUS
 62
     7
 10
140.3754220002
 20
200.4957902356
 30
0.0
 11
132.3910669082
 21
200.4957902356
 31
0.0
  0
LINE
  5
10D
  8
0
  6
CONTINUOUS
 62
     7
 10
140.3754220002
 20
155.49579194
 30
0.0
 11
124.3754231029
 21
155.49579194
 31
0.0
  0
LINE
  5
10E
  8
0
  6
CONTINUOUS
 62
     7
 10
140.3754220002
 20
157.9957895558
 30
0.0
 11
124.3754231029
 21
157.9957895558
 31
0.0
  0
LINE
  5
10F
  8
0
  6
CONTINUOUS
 62
     7
 10
124.5435044759
 20
246.9957911055
 30
0.0
 11
140.3754220002
 21
246.9957911055
 31
0.0
  0
LINE
  5
110
  8
0
  6
CONTINUOUS
 62
     7
 10
124.3754231029
 20
246.9957911055
 30
0.0
 11
124.5435044759
 21
246.9957911055
 31
0.0
  0
LINE
  5
111
  8
0
  6
CONTINUOUS
 62
     7
 10
124.5435044759
 20
249.4957887213
 30
0.0
 11
140.3754220002
 21
249.4957887213
 31
0.0
  0
LINE
  5
112
  8
0
  6
CONTINUOUS
 62
     7
 10
124.3754231029
 20
249.4957887213
 30
0.0
 11
124.5435044759
 21
249.4957887213
 31
0.0
  0
LINE
  5
113
  8
0
  6
CONTINUOUS
 62
     7
 10
140.366667568
 20
200.1636196039
 30
0.0
 11
140.3441891664
 21
200.2957903425
 31
0.0
  0
LINE
  5
114
  8
0
  6
CONTINUOUS
 62
     7
 10
140.3441891664
 20
157.9957895558
 30
0.0
 11
140.3640151614
 21
158.1532799284
 31
0.0
  0
LINE
  5
115
  8
0
  6
CONTINUOUS
 62
     7
 10
140.3441891664
 20
200.2957903425
 30
0.0
 11
124.3754231029
 21
200.2957903425
 31
0.0
  0
LINE
  5
116
  8
0
  6
CONTINUOUS
 62
     7
 10
124.3754231029
 20
157.9957895558
 30
0.0
 11
140.3441891664
 21
157.9957895558
 31
0.0
  0
LINE
  5
117
  8
0
  6
CONTINUOUS
 62
     7
 10
140.843847453
 20
157.9957895558
 30
0.0
 11
140.843847453
 21
200.2957903425
 31
0.0
  0
LINE
  5
118
  8
0
  6
CONTINUOUS
 62
     7
 10
140.843847453
 20
200.2957903425
 30
0.0
 11
141.5998131626
 21
200.2957903425
 31
0.0
  0
LINE
  5
119
  8
0
  6
CONTINUOUS
 62
     7
 10
141.5998131626
 20
200.2957903425
 30
0.0
 11
142.6078320139
 21
200.4347210861
 31
0.0
  0
LINE
  5
11A
  8
0
  6
CONTINUOUS
 62
     7
 10
142.6078320139
 20
157.9957895558
 30
0.0
 11
142.6078320139
 21
200.4347210861
 31
0.0
  0
LINE
  5
11B
  8
0
  6
CONTINUOUS
 62
     7
 10
142.6078320139
 20
157.9957895558
 30
0.0
 11
140.843847453
 21
157.9957895558
 31
0.0
  0
CIRCLE
  5
11C
  8
0
  6
CONTINUOUS
 62
     7
 10
177.8754242688
 20
237.4957903306
 30
0.0
 40
4.75
  0
CIRCLE
  5
11D
  8
0
  6
CONTINUOUS
 62
     7
 10
186.8754242688
 20
220.4957903306
 30
0.0
 40
4.749999999999972
  0
CIRCLE
  5
11E
  8
0
  6
CONTINUOUS
 62
     7
 10
186.8754242688
 20
184.4957903306
 30
0.0
 40
4.750000000000028
  0
CIRCLE
  5
11F
  8
0
  6
CONTINUOUS
 62
     7
 10
177.8754242688
 20
167.4957903306
 30
0.0
 40
4.75
  0
ARC
  5
120
  8
0
  6
CONTINUOUS
 62
     7
 10
193.8754242688
 20
244.9957903306
 30
0.0
 40
2.0
 50
0.0
 51
90.0
  0
LINE
  5
121
  8
0
  6
CONTINUOUS
 62
     7
 10
195.8754301661
 20
159.9957898836
 30
0.0
 11
195.8754301661
 21
244.9957907777
 31
0.0
  0
ARC
  5
122
  8
0
  6
CONTINUOUS
 62
     7
 10
193.8754242688
 20
159.9957903306
 30
0.0
 40
2.0
 50
270.0
 51
0.0
  0
LINE
  5
123
  8
0
  6
CONTINUOUS
 62
     7
 10
142.6078320139
 20
157.9957895558
 30
0.0
 11
193.875426113
 21
157.9957895558
 31
0.0
  0
ARC
  5
124
  8
0
  6
CONTINUOUS
 62
     7
 10
141.8754242688
 20
202.2957903306
 30
0.0
 40
2.0
 50
291.4817014345
 51
0.0
  0
LINE
  5
125
  8
0
  6
CONTINUOUS
 62
     7
 10
143.8754216426
 20
202.2957903357
 30
0.0
 11
143.8754216426
 21
244.9957907777
 31
0.0
  0
ARC
  5
126
  8
0
  6
CONTINUOUS
 62
     7
 10
145.8754242688
 20
244.9957903306
 30
0.0
 40
2.0
 50
90.0
 51
180.0
  0
LINE
  5
127
  8
0
  6
CONTINUOUS
 62
     7
 10
145.8754256957
 20
246.9957911055
 30
0.0
 11
193.875426113
 21
246.9957911055
 31
0.0
  0
CIRCLE
  5
128
  8
0
  6
CONTINUOUS
 62
     7
 10
177.8754242688
 20
167.4957903306
 30
0.0
 40
3.0
  0
CIRCLE
  5
129
  8
0
  6
CONTINUOUS
 62
     7
 10
177.8754242688
 20
237.4957903306
 30
0.0
 40
3.0
  0
CIRCLE
  5
12A
  8
0
  6
CONTINUOUS
 62
     7
 10
186.8754242688
 20
184.4957903306
 30
0.0
 40
3.000000000000028
  0
CIRCLE
  5
12B
  8
0
  6
CONTINUOUS
 62
     7
 10
186.8754242688
 20
220.4957903306
 30
0.0
 40
2.999999999999972
  0
LINE
  5
12C
  8
0
  6
CONTINUOUS
 62
     7
 10
140.3754220002
 20
157.9957895558
 30
0.0
 11
140.843847453
 21
157.9957895558
 31
0.0
  0
LINE
  5
12D
  8
0
  6
CONTINUOUS
 62
     7
 10
140.3441891664
 20
200.2957903425
 30
0.0
 11
140.843847453
 21
200.2957903425
 31
0.0
  0
LINE
  5
12E
  8
0
  6
CONTINUOUS
 62
     7
 10
124.3841812604
 20
204.8279610574
 30
0.0
 11
124.4066596621
 21
204.6957903187
 31
0.0
  0
LINE
  5
12F
  8
0
  6
CONTINUOUS
 62
     7
 10
124.4066596621
 20
246.9957911055
 30
0.0
 11
124.3868336671
 21
246.8383007328
 31
0.0
  0
LINE
  5
130
  8
0
  6
CONTINUOUS
 62
     7
 10
140.3754220002
 20
246.9957911055
 30
0.0
 11
124.4066596621
 21
246.9957911055
 31
0.0
  0
LINE
  5
131
  8
0
  6
CONTINUOUS
 62
     7
 10
124.4066596621
 20
204.6957903187
 30
0.0
 11
140.3754220002
 21
204.6957903187
 31
0.0
  0
CIRCLE
  5
132
  8
0
  6
CONTINUOUS
 62
     7
 10
86.8754242688
 20
167.4957903306
 30
0.0
 40
4.75
  0
CIRCLE
  5
133
  8
0
  6
CONTINUOUS
 62
     7
 10
77.8754242688
 20
184.4957903306
 30
0.0
 40
4.749999999999972
  0
CIRCLE
  5
134
  8
0
  6
CONTINUOUS
 62
     7
 10
77.8754242688
 20
220.4957903306
 30
0.0
 40
4.75
  0
CIRCLE
  5
135
  8
0
  6
CONTINUOUS
 62
     7
 10
86.8754242688
 20
237.4957903306
 30
0.0
 40
4.749999999999972
  0
ARC
  5
136
  8
0
  6
CONTINUOUS
 62
     7
 10
70.8754242688
 20
159.9957903306
 30
0.0
 40
2.0
 50
180.0
 51
270.0
  0
LINE
  5
137
  8
0
  6
CONTINUOUS
 62
     7
 10
68.8754242503
 20
244.9957907777
 30
0.0
 11
68.8754242503
 21
159.9957898836
 31
0.0
  0
ARC
  5
138
  8
0
  6
CONTINUOUS
 62
     7
 10
70.8754242688
 20
244.9957903306
 30
0.0
 40
2.000000000000085
 50
90.0
 51
180.0
  0
LINE
  5
139
  8
0
  6
CONTINUOUS
 62
     7
 10
122.1430168145
 20
246.9957911055
 30
0.0
 11
70.875424258
 21
246.9957911055
 31
0.0
  0
LINE
  5
13A
  8
0
  6
CONTINUOUS
 62
     7
 10
122.1430168145
 20
246.9957911055
 30
0.0
 11
122.1430168145
 21
204.5568595751
 31
0.0
  0
ARC
  5
13B
  8
0
  6
CONTINUOUS
 62
     7
 10
122.8754242688
 20
202.6957903306
 30
0.0
 40
2.0
 50
111.4817014345
 51
180.0
  0
LINE
  5
13C
  8
0
  6
CONTINUOUS
 62
     7
 10
120.8754234606
 20
202.6957903256
 30
0.0
 11
120.8754234606
 21
159.9957898836
 31
0.0
  0
ARC
  5
13D
  8
0
  6
CONTINUOUS
 62
     7
 10
118.8754242688
 20
159.9957903306
 30
0.0
 40
2.0
 50
270.0
 51
0.0
  0
LINE
  5
13E
  8
0
  6
CONTINUOUS
 62
     7
 10
118.8754231327
 20
157.9957895558
 30
0.0
 11
70.875424258
 21
157.9957895558
 31
0.0
  0
CIRCLE
  5
13F
  8
0
  6
CONTINUOUS
 62
     7
 10
79.3754242688
 20
202.4957903306
 30
0.0
 40
7.500000000000014
  0
LINE
  5
140
  8
0
  6
CONTINUOUS
 62
     7
 10
123.1510319405
 20
204.6957903187
 30
0.0
 11
122.1430168145
 21
204.5568595751
 31
0.0
  0
LINE
  5
141
  8
0
  6
CONTINUOUS
 62
     7
 10
123.9070013755
 20
246.9957911055
 30
0.0
 11
123.9070013755
 21
204.6957903187
 31
0.0
  0
LINE
  5
142
  8
0
  6
CONTINUOUS
 62
     7
 10
123.9070013755
 20
204.6957903187
 30
0.0
 11
123.1510319405
 21
204.6957903187
 31
0.0
  0
LINE
  5
143
  8
0
  6
CONTINUOUS
 62
     7
 10
122.1430168145
 20
246.9957911055
 30
0.0
 11
123.9070013755
 21
246.9957911055
 31
0.0
  0
CIRCLE
  5
144
  8
0
  6
CONTINUOUS
 62
     7
 10
77.8754242688
 20
184.4957903306
 30
0.0
 40
2.999999999999972
  0
CIRCLE
  5
145
  8
0
  6
CONTINUOUS
 62
     7
 10
86.8754242688
 20
167.4957903306
 30
0.0
 40
2.999999999999972
  0
CIRCLE
  5
146
  8
0
  6
CONTINUOUS
 62
     7
 10
77.8754242688
 20
220.4957903306
 30
0.0
 40
2.999999999999972
  0
CIRCLE
  5
147
  8
0
  6
CONTINUOUS
 62
     7
 10
86.8754242688
 20
237.4957903306
 30
0.0
 40
2.999999999999972
  0
LINE
  5
148
  8
0
  6
CONTINUOUS
 62
     7
 10
124.3754231029
 20
246.9957911055
 30
0.0
 11
123.9070013755
 21
246.9957911055
 31
0.0
  0
LINE
  5
149
  8
0
  6
CONTINUOUS
 62
     7
 10
124.4066596621
 20
204.6957903187
 30
0.0
 11
123.9070013755
 21
204.6957903187
 31
0.0
  0
DIMENSION
  5
14A
  8
0
  6
CONTINUOUS
 62
     7
  2
_D
 10
217.8754242688
 20
157.9957903306
 30
0.0
 11
217.8754242688
 21
200.9397034661
 31
0.0
 70
   160
  1
<>
  3
SLDDIMSTYLE0
 13
193.8754242688
 23
246.9957903306
 33
0.0
 14
193.8754242688
 24
157.9957903306
 34
0.0
 50
90.0
  0
DIMENSION
  5
155
  8
0
  6
CONTINUOUS
 62
     7
  2
_D_1
 10
205.8754242688
 20
220.4957903306
 30
0.0
 11
205.8754242688
 21
200.9397034661
 31
0.0
 70
   160
  1
<>
  3
SLDDIMSTYLE0
 13
194.1254242688
 23
184.4957903306
 33
0.0
 14
194.1254242688
 24
220.4957903306
 34
0.0
 50
90.0
  0
DIMENSION
  5
15F
  8
0
  6
CONTINUOUS
 62
     7
  2
_D_2
 10
68.8754242688
 20
145.4957903306
 30
0.0
 11
134.6397959617
 21
145.4957903306
 31
0.0
 70
   160
  1
<>
  3
SLDDIMSTYLE0
 13
195.8754242688
 23
159.9957903306
 33
0.0
 14
68.8754242688
 24
159.9957903306
 34
0.0
 50
0.0
  0
DIMENSION
  5
169
  8
0
  6
CONTINUOUS
 62
     7
  2
_D_3
 10
211.8754242688
 20
237.4957903306
 30
0.0
 11
211.8754242688
 21
200.9397034661
 31
0.0
 70
   160
  1
<>
  3
SLDDIMSTYLE0
 13
185.1254242688
 23
167.4957903306
 33
0.0
 14
185.1254242688
 24
237.4957903306
 34
0.0
 50
90.0
  0
DIMENSION
  5
173
  8
0
  6
CONTINUOUS
 62
     7
  2
_D_4
 10
68.8754242688
 20
266.6993756
 30
0.0
 11
77.5411968601
 21
266.6993756
 31
0.0
 70
   160
  1
<>
  3
SLDDIMSTYLE1
 13
86.8754242688
 23
244.7457903306
 33
0.0
 14
68.8754242688
 24
244.9957903306
 34
0.0
 50
0.0
  0
DIMENSION
  5
17E
  8
0
  6
CONTINUOUS
 62
     7
  2
_D_5
 10
68.8754242688
 20
253.422784123
 30
0.0
 11
71.5320622159
 21
253.422784123
 31
0.0
 70
   160
  1
<>
  3
SLDDIMSTYLE1
 13
77.8754242688
 23
227.7457903306
 33
0.0
 14
68.8754242688
 24
244.9957903306
 34
0.0
 50
0.0
  0
DIMENSION
  5
18A
  8
0
  6
CONTINUOUS
 62
     7
  2
_D_6
 10
68.8754242688
 20
259.4957903306
 30
0.0
 11
71.5320622159
 21
259.4957903306
 31
0.0
 70
   160
  1
<>
  3
SLDDIMSTYLE2
 13
79.3754242688
 23
212.4957903306
 33
0.0
 14
68.8754242688
 24
244.9957903306
 34
0.0
 50
0.0
  0
DIMENSION
  5
197
  8
0
  6
CONTINUOUS
 62
     7
  2
_D_7
 10
70.8754242688
 20
159.9957903306
 30
0.0
 11
63.8366453961
 21
152.9570114579
 31
0.0
 70
   164
  1
<>
  3
SLDDIMSTYLE3
 15
69.4612107064
 25
158.5815767683
 35
0.0
 40
0.0
  0
DIMENSION
  5
1A0
  8
0
  6
CONTINUOUS
 62
     7
  2
_D_8
 10
173.1254242688
 20
259.4957903306
 30
0.0
 11
177.8326074264
 21
259.4957903306
 31
0.0
 70
   160
  1
%%c<>x90°
  3
SLDDIMSTYLE2
 13
182.6254242688
 23
237.4957903306
 33
0.0
 14
173.1254242688
 24
237.4957903306
 34
0.0
 50
0.0
  0
DIMENSION
  5
1AE
  8
0
  6
CONTINUOUS
 62
     7
  2
_D_9
 10
174.8754242688
 20
253.422784123
 30
0.0
 11
177.8326074264
 21
253.422784123
 31
0.0
 70
   160
  1
%%c<>
  3
SLDDIMSTYLE1
 13
180.8754242688
 23
237.4957903306
 33
0.0
 14
174.8754242688
 24
237.4957903306
 34
0.0
 50
0.0
  0
INSERT
  5
1C2
  8
0
  6
CONTINUOUS
 62
     7
  2
SW_NOTE_0_3
 10
195.3671034651
 20
158.6635391623
 30
0.0
  0
INSERT
  5
1CE
  8
0
  6
CONTINUOUS
 62
     7
  2
SW_CENTERMARKSYMBOL_0
 10
177.8754242688
 20
237.4957903306
 30
0.0
  0
INSERT
  5
1DA
  8
0
  6
CONTINUOUS
 62
     7
  2
SW_CENTERMARKSYMBOL_1
 10
186.8754242688
 20
220.4957903306
 30
0.0
  0
INSERT
  5
1E6
  8
0
  6
CONTINUOUS
 62
     7
  2
SW_CENTERMARKSYMBOL_2
 10
183.8754242688
 20
202.4957903306
 30
0.0
  0
INSERT
  5
1F2
  8
0
  6
CONTINUOUS
 62
     7
  2
SW_CENTERMARKSYMBOL_3
 10
186.8754242688
 20
184.4957903306
 30
0.0
  0
INSERT
  5
1FE
  8
0
  6
CONTINUOUS
 62
     7
  2
SW_CENTERMARKSYMBOL_4
 10
177.8754242688
 20
167.4957903306
 30
0.0
  0
INSERT
  5
20A
  8
0
  6
CONTINUOUS
 62
     7
  2
SW_CENTERMARKSYMBOL_5
 10
86.8754242688
 20
167.4957903306
 30
0.0
  0
INSERT
  5
216
  8
0
  6
CONTINUOUS
 62
     7
  2
SW_CENTERMARKSYMBOL_6
 10
77.8754242688
 20
184.4957903306
 30
0.0
  0
INSERT
  5
222
  8
0
  6
CONTINUOUS
 62
     7
  2
SW_CENTERMARKSYMBOL_7
 10
77.8754242688
 20
220.4957903306
 30
0.0
  0
INSERT
  5
22E
  8
0
  6
CONTINUOUS
 62
     7
  2
SW_CENTERMARKSYMBOL_8
 10
86.8754242688
 20
237.4957903306
 30
0.0
  0
INSERT
  5
23A
  8
0
  6
CONTINUOUS
 62
     7
  2
SW_CENTERMARKSYMBOL_9
 10
79.3754242688
 20
202.4957903306
 30
0.0
  0
LINE
  5
23B
  8
0
  6
CENTERX2
 62
     7
 10
132.3754242688
 20
246.9957903306
 30
0.0
 11
132.3754242688
 21
157.9957903306
 31
0.0
  0
LINE
  5
23C
  8
0
  6
CENTERX2
 62
     7
 10
198.5974765452
 20
202.4957903306
 30
0.0
 11
68.8754242688
 21
202.4957903306
 31
0.0
  0
LINE
  5
23D
  8
0
  6
CONTINUOUS
 62
     7
 10
320.4915281944
 20
200.9957900667
 30
0.0
 11
323.4915286862
 21
203.9957905584
 31
0.0
  0
LINE
  5
23E
  8
0
  6
CONTINUOUS
 62
     7
 10
347.4322967791
 20
200.9957900667
 30
0.0
 11
350.4322954082
 21
203.9957905584
 31
0.0
  0
LINE
  5
23F
  8
0
  6
CONTINUOUS
 62
     7
 10
324.9816559814
 20
200.9957900667
 30
0.0
 11
327.9816564732
 21
203.9957905584
 31
0.0
  0
LINE
  5
240
  8
0
  6
CONTINUOUS
 62
     7
 10
351.9224264287
 20
200.9957900667
 30
0.0
 11
353.2808907889
 21
202.3542572209
 31
0.0
  0
LINE
  5
241
  8
0
  6
CONTINUOUS
 62
     7
 10
302.5310159987
 20
200.9957900667
 30
0.0
 11
305.5310159084
 21
203.9957905584
 31
0.0
  0
LINE
  5
242
  8
0
  6
CONTINUOUS
 62
     7
 10
329.4717837684
 20
200.9957900667
 30
0.0
 11
332.4717842602
 21
203.9957905584
 31
0.0
  0
LINE
  5
243
  8
0
  6
CONTINUOUS
 62
     7
 10
307.0211439021
 20
200.9957900667
 30
0.0
 11
310.0211439282
 21
203.9957905584
 31
0.0
  0
LINE
  5
244
  8
0
  6
CONTINUOUS
 62
     7
 10
333.9619115554
 20
200.9957900667
 30
0.0
 11
336.9619139098
 21
203.9957905584
 31
0.0
  0
LINE
  5
245
  8
0
  6
CONTINUOUS
 62
     7
 10
342.4322978221
 20
195.9957901784
 30
0.0
 11
345.4322964512
 21
198.9957906702
 31
0.0
  0
LINE
  5
246
  8
0
  6
CONTINUOUS
 62
     7
 10
319.9816570245
 20
195.9957901784
 30
0.0
 11
322.9816556536
 21
198.9957906702
 31
0.0
  0
LINE
  5
247
  8
0
  6
CONTINUOUS
 62
     7
 10
346.9224237465
 20
195.9957901784
 30
0.0
 11
349.9224261009
 21
198.9957906702
 31
0.0
  0
LINE
  5
248
  8
0
  6
CONTINUOUS
 62
     7
 10
324.4717848115
 20
195.9957901784
 30
0.0
 11
327.4717834406
 21
198.9957906702
 31
0.0
  0
LINE
  5
249
  8
0
  6
CONTINUOUS
 62
     7
 10
351.4125533961
 20
195.9957901784
 30
0.0
 11
353.2808907889
 21
197.8641294339
 31
0.0
  0
LINE
  5
24A
  8
0
  6
CONTINUOUS
 62
     7
 10
328.9619125985
 20
195.9957901784
 30
0.0
 11
331.9619130902
 21
198.9957906702
 31
0.0
  0
LINE
  5
24B
  8
0
  6
CONTINUOUS
 62
     7
 10
302.0211440721
 20
195.9957901784
 30
0.0
 11
304.2808916048
 21
198.255538235
 31
0.0
  0
LINE
  5
24C
  8
0
  6
CONTINUOUS
 62
     7
 10
318.2808915712
 20
194.908515776
 30
0.0
 11
312.1936172806
 21
200.9957900667
 31
0.0
  0
LINE
  5
24D
  8
0
  6
CONTINUOUS
 62
     7
 10
318.5268827342
 20
199.1526533314
 30
0.0
 11
316.6837450676
 21
200.9957900667
 31
0.0
  0
LINE
  5
24E
  8
0
  6
CONTINUOUS
 62
     7
 10
312.2331044265
 20
182.9957908415
 30
0.0
 11
308.2808917948
 21
186.9480034732
 31
0.0
  0
LINE
  5
24F
  8
0
  6
CONTINUOUS
 62
     7
 10
316.7232331448
 20
182.9957908415
 30
0.0
 11
308.2808917948
 21
191.4381312602
 31
0.0
  0
LINE
  5
250
  8
0
  6
CONTINUOUS
 62
     7
 10
290.1721885987
 20
200.9957900667
 30
0.0
 11
290.1721885987
 21
203.228199149
 31
0.0
  0
LINE
  5
251
  8
0
  6
CONTINUOUS
 62
     7
 10
293.3471883275
 20
200.9957900667
 30
0.0
 11
293.3471883275
 21
215.4133433872
 31
0.0
  0
LINE
  5
252
  8
0
  6
CONTINUOUS
 62
     7
 10
296.522188522
 20
200.9957900667
 30
0.0
 11
296.522188522
 21
221.3653412112
 31
0.0
  0
LINE
  5
253
  8
0
  6
CONTINUOUS
 62
     7
 10
299.6971884836
 20
200.9957900667
 30
0.0
 11
299.6971884836
 21
225.592445808
 31
0.0
  0
LINE
  5
254
  8
0
  6
CONTINUOUS
 62
     7
 10
302.8721884452
 20
203.9957905584
 30
0.0
 11
302.8721884452
 21
228.7566254311
 31
0.0
  0
LINE
  5
255
  8
0
  6
CONTINUOUS
 62
     7
 10
306.0471884069
 20
203.9957905584
 30
0.0
 11
306.0471884069
 21
231.1208604299
 31
0.0
  0
LINE
  5
256
  8
0
  6
CONTINUOUS
 62
     7
 10
309.2221883685
 20
203.9957905584
 30
0.0
 11
309.2221883685
 21
232.8193841898
 31
0.0
  0
LINE
  5
257
  8
0
  6
CONTINUOUS
 62
     7
 10
312.397188563
 20
203.9957905584
 30
0.0
 11
312.397188563
 21
233.9301037067
 31
0.0
  0
LINE
  5
258
  8
0
  6
CONTINUOUS
 62
     7
 10
315.5721882917
 20
203.9957905584
 30
0.0
 11
315.5721882917
 21
234.5311643952
 31
0.0
  0
LINE
  5
259
  8
0
  6
CONTINUOUS
 62
     7
 10
318.7471889519
 20
203.9957905584
 30
0.0
 11
318.7471889519
 21
234.707996475
 31
0.0
  0
LINE
  5
25A
  8
0
  6
CONTINUOUS
 62
     7
 10
321.9221886807
 20
203.9957905584
 30
0.0
 11
321.9221886807
 21
234.5178129547
 31
0.0
  0
LINE
  5
25B
  8
0
  6
CONTINUOUS
 62
     7
 10
325.0971884095
 20
203.9957905584
 30
0.0
 11
325.0971884095
 21
233.9975016587
 31
0.0
  0
LINE
  5
25C
  8
0
  6
CONTINUOUS
 62
     7
 10
328.2721881383
 20
203.9957905584
 30
0.0
 11
328.2721881383
 21
233.1694068783
 31
0.0
  0
LINE
  5
25D
  8
0
  6
CONTINUOUS
 62
     7
 10
331.4471878671
 20
203.9957905584
 30
0.0
 11
331.4471878671
 21
232.0440600091
 31
0.0
  0
LINE
  5
25E
  8
0
  6
CONTINUOUS
 62
     7
 10
334.6221894585
 20
203.9957905584
 30
0.0
 11
334.6221894585
 21
230.6208519661
 31
0.0
  0
LINE
  5
25F
  8
0
  6
CONTINUOUS
 62
     7
 10
337.7971873247
 20
203.9957905584
 30
0.0
 11
337.7971873247
 21
228.8866864913
 31
0.0
  0
LINE
  5
260
  8
0
  6
CONTINUOUS
 62
     7
 10
340.9721889161
 20
203.9957905584
 30
0.0
 11
340.9721889161
 21
226.8118450814
 31
0.0
  0
LINE
  5
261
  8
0
  6
CONTINUOUS
 62
     7
 10
344.1471867823
 20
203.9957905584
 30
0.0
 11
344.1471867823
 21
224.3403291726
 31
0.0
  0
LINE
  5
262
  8
0
  6
CONTINUOUS
 62
     7
 10
347.3221883737
 20
203.9957905584
 30
0.0
 11
347.3221883737
 21
221.366654376
 31
0.0
  0
LINE
  5
263
  8
0
  6
CONTINUOUS
 62
     7
 10
350.4971899651
 20
203.9957905584
 30
0.0
 11
350.4971899651
 21
217.6688562543
 31
0.0
  0
LINE
  5
264
  8
0
  6
CONTINUOUS
 62
     7
 10
353.2808907889
 20
209.9259221507
 30
0.0
 11
352.0846888982
 21
208.7297190377
 31
0.0
  0
LINE
  5
265
  8
0
  6
CONTINUOUS
 62
     7
 10
348.9096873068
 20
205.5547188432
 30
0.0
 11
347.3507613503
 21
203.9957905584
 31
0.0
  0
LINE
  5
266
  8
0
  6
CONTINUOUS
 62
     7
 10
348.9096873068
 20
218.2547191554
 30
0.0
 11
345.7346894406
 21
215.0797189609
 31
0.0
  0
LINE
  5
267
  8
0
  6
CONTINUOUS
 62
     7
 10
342.5596878492
 20
211.9047189993
 30
0.0
 11
339.384689983
 21
208.7297190377
 31
0.0
  0
LINE
  5
268
  8
0
  6
CONTINUOUS
 62
     7
 10
336.2096883916
 20
205.5547188432
 30
0.0
 11
334.6507587098
 21
203.9957905584
 31
0.0
  0
LINE
  5
269
  8
0
  6
CONTINUOUS
 62
     7
 10
342.5596878492
 20
224.604718613
 30
0.0
 11
339.384689983
 21
221.4297188842
 31
0.0
  0
LINE
  5
26A
  8
0
  6
CONTINUOUS
 62
     7
 10
336.2096883916
 20
218.2547191554
 30
0.0
 11
333.0346886628
 21
215.0797189609
 31
0.0
  0
LINE
  5
26B
  8
0
  6
CONTINUOUS
 62
     7
 10
329.859688934
 20
211.9047189993
 30
0.0
 11
326.6846892052
 21
208.7297189212
 31
0.0
  0
LINE
  5
26C
  8
0
  6
CONTINUOUS
 62
     7
 10
323.5096876137
 20
205.5547188432
 30
0.0
 11
321.9507597946
 21
203.9957905584
 31
0.0
  0
LINE
  5
26D
  8
0
  6
CONTINUOUS
 62
     7
 10
335.4529589974
 20
230.197990539
 30
0.0
 11
333.0346886628
 21
227.7797183418
 31
0.0
  0
LINE
  5
26E
  8
0
  6
CONTINUOUS
 62
     7
 10
329.859688934
 20
224.604718613
 30
0.0
 11
326.6846892052
 21
221.4297188842
 31
0.0
  0
LINE
  5
26F
  8
0
  6
CONTINUOUS
 62
     7
 10
323.5096876137
 20
218.2547191554
 30
0.0
 11
320.3346878849
 21
215.0797189609
 31
0.0
  0
LINE
  5
270
  8
0
  6
CONTINUOUS
 62
     7
 10
317.1596881561
 20
211.9047188829
 30
0.0
 11
313.9846884273
 21
208.7297189212
 31
0.0
  0
LINE
  5
271
  8
0
  6
CONTINUOUS
 62
     7
 10
310.8096886986
 20
205.5547188432
 30
0.0
 11
309.2507599481
 21
203.9957905584
 31
0.0
  0
LINE
  5
272
  8
0
  6
CONTINUOUS
 62
     7
 10
323.5096876137
 20
230.9547180706
 30
0.0
 11
320.3346878849
 21
227.7797183418
 31
0.0
  0
LINE
  5
273
  8
0
  6
CONTINUOUS
 62
     7
 10
317.1596881561
 20
224.604718613
 30
0.0
 11
313.9846884273
 21
221.4297188842
 31
0.0
  0
LINE
  5
274
  8
0
  6
CONTINUOUS
 62
     7
 10
310.8096886986
 20
218.2547191554
 30
0.0
 11
307.6346885041
 21
215.0797189609
 31
0.0
  0
LINE
  5
275
  8
0
  6
CONTINUOUS
 62
     7
 10
304.459688426
 20
211.9047188829
 30
0.0
 11
301.2846884644
 21
208.7297189212
 31
0.0
  0
LINE
  5
276
  8
0
  6
CONTINUOUS
 62
     7
 10
298.1096883864
 20
205.5547188432
 30
0.0
 11
294.9346881919
 21
202.3797186487
 31
0.0
  0
LINE
  5
277
  8
0
  6
CONTINUOUS
 62
     7
 10
314.1789539345
 20
234.3239842379
 30
0.0
 11
313.9846884273
 21
234.129719662
 31
0.0
  0
LINE
  5
278
  8
0
  6
CONTINUOUS
 62
     7
 10
310.8096886986
 20
230.9547180706
 30
0.0
 11
307.6346885041
 21
227.7797183418
 31
0.0
  0
LINE
  5
279
  8
0
  6
CONTINUOUS
 62
     7
 10
304.459688426
 20
224.604718613
 30
0.0
 11
301.2846884644
 21
221.4297188842
 31
0.0
  0
LINE
  5
27A
  8
0
  6
CONTINUOUS
 62
     7
 10
298.1096883864
 20
218.2547191554
 30
0.0
 11
294.9346881919
 21
215.0797189609
 31
0.0
  0
LINE
  5
27B
  8
0
  6
CONTINUOUS
 62
     7
 10
353.2808907889
 20
210.7196721411
 30
0.0
 11
352.0846888982
 21
209.5234690281
 31
0.0
  0
LINE
  5
27C
  8
0
  6
CONTINUOUS
 62
     7
 10
348.9096873068
 20
206.3484692411
 30
0.0
 11
346.5570100211
 21
203.9957905584
 31
0.0
  0
LINE
  5
27D
  8
0
  6
CONTINUOUS
 62
     7
 10
348.9096873068
 20
219.0484686219
 30
0.0
 11
345.7346894406
 21
215.8734688931
 31
0.0
  0
LINE
  5
27E
  8
0
  6
CONTINUOUS
 62
     7
 10
342.5596878492
 20
212.6984689315
 30
0.0
 11
339.384689983
 21
209.5234689699
 31
0.0
  0
LINE
  5
27F
  8
0
  6
CONTINUOUS
 62
     7
 10
336.2096883916
 20
206.3484687754
 30
0.0
 11
333.8570092433
 21
203.9957905584
 31
0.0
  0
LINE
  5
280
  8
0
  6
CONTINUOUS
 62
     7
 10
342.5596878492
 20
225.3984690108
 30
0.0
 11
339.384689983
 21
222.223469282
 31
0.0
  0
LINE
  5
281
  8
0
  6
CONTINUOUS
 62
     7
 10
336.2096883916
 20
219.0484686219
 30
0.0
 11
333.0346886628
 21
215.8734688931
 31
0.0
  0
LINE
  5
282
  8
0
  6
CONTINUOUS
 62
     7
 10
329.859688934
 20
212.6984689315
 30
0.0
 11
326.6846892052
 21
209.5234689699
 31
0.0
  0
LINE
  5
283
  8
0
  6
CONTINUOUS
 62
     7
 10
323.5096876137
 20
206.3484687754
 30
0.0
 11
321.1570103281
 21
203.9957905584
 31
0.0
  0
LINE
  5
284
  8
0
  6
CONTINUOUS
 62
     7
 10
334.9285983108
 20
230.4673774564
 30
0.0
 11
333.0346886628
 21
228.573469671
 31
0.0
  0
LINE
  5
285
  8
0
  6
CONTINUOUS
 62
     7
 10
329.859688934
 20
225.3984690108
 30
0.0
 11
326.6846892052
 21
222.223469282
 31
0.0
  0
LINE
  5
286
  8
0
  6
CONTINUOUS
 62
     7
 10
323.5096876137
 20
219.0484686219
 30
0.0
 11
320.3346878849
 21
215.8734688931
 31
0.0
  0
LINE
  5
287
  8
0
  6
CONTINUOUS
 62
     7
 10
317.1596881561
 20
212.6984689315
 30
0.0
 11
313.9846884273
 21
209.5234689116
 31
0.0
  0
LINE
  5
288
  8
0
  6
CONTINUOUS
 62
     7
 10
310.8096886986
 20
206.3484687754
 30
0.0
 11
308.4570100159
 21
203.9957905584
 31
0.0
  0
LINE
  5
289
  8
0
  6
CONTINUOUS
 62
     7
 10
323.5096876137
 20
231.7484693998
 30
0.0
 11
320.3346878849
 21
228.573469671
 31
0.0
  0
LINE
  5
28A
  8
0
  6
CONTINUOUS
 62
     7
 10
317.1596881561
 20
225.3984690108
 30
0.0
 11
313.9846884273
 21
222.223469282
 31
0.0
  0
LINE
  5
28B
  8
0
  6
CONTINUOUS
 62
     7
 10
310.8096886986
 20
219.0484686219
 30
0.0
 11
307.6346885041
 21
215.8734688931
 31
0.0
  0
LINE
  5
28C
  8
0
  6
CONTINUOUS
 62
     7
 10
304.459688426
 20
212.6984689315
 30
0.0
 11
301.2846884644
 21
209.5234689116
 31
0.0
  0
LINE
  5
28D
  8
0
  6
CONTINUOUS
 62
     7
 10
298.1096883864
 20
206.3484687754
 30
0.0
 11
294.9346881919
 21
203.1734690466
 31
0.0
  0
LINE
  5
28E
  8
0
  6
CONTINUOUS
 62
     7
 10
310.8096886986
 20
231.7484693998
 30
0.0
 11
307.6346885041
 21
228.573469671
 31
0.0
  0
LINE
  5
28F
  8
0
  6
CONTINUOUS
 62
     7
 10
304.459688426
 20
225.3984690108
 30
0.0
 11
301.2846884644
 21
222.223469282
 31
0.0
  0
LINE
  5
290
  8
0
  6
CONTINUOUS
 62
     7
 10
298.1096883864
 20
219.0484686219
 30
0.0
 11
294.9346881919
 21
215.8734688931
 31
0.0
  0
LINE
  5
291
  8
0
  6
CONTINUOUS
 62
     7
 10
353.2808907889
 20
211.5134221897
 30
0.0
 11
352.0846888982
 21
210.3172190331
 31
0.0
  0
LINE
  5
292
  8
0
  6
CONTINUOUS
 62
     7
 10
348.9096873068
 20
207.1422189404
 30
0.0
 11
345.7632586919
 21
203.9957905584
 31
0.0
  0
LINE
  5
293
  8
0
  6
CONTINUOUS
 62
     7
 10
348.8115557097
 20
219.7440874227
 30
0.0
 11
345.7346894406
 21
216.6672188253
 31
0.0
  0
LINE
  5
294
  8
0
  6
CONTINUOUS
 62
     7
 10
342.5596878492
 20
213.4922190965
 30
0.0
 11
339.384689983
 21
210.3172189972
 31
0.0
  0
LINE
  5
295
  8
0
  6
CONTINUOUS
 62
     7
 10
336.2096883916
 20
207.1422189404
 30
0.0
 11
333.0632597767
 21
203.9957905584
 31
0.0
  0
LINE
  5
296
  8
0
  6
CONTINUOUS
 62
     7
 10
342.2424868309
 20
225.875017459
 30
0.0
 11
339.384689983
 21
223.0172187486
 31
0.0
  0
LINE
  5
297
  8
0
  6
CONTINUOUS
 62
     7
 10
336.2096883916
 20
219.8422190198
 30
0.0
 11
333.0346886628
 21
216.6672188253
 31
0.0
  0
LINE
  5
298
  8
0
  6
CONTINUOUS
 62
     7
 10
329.859688934
 20
213.4922188637
 30
0.0
 11
326.6846892052
 21
210.3172189613
 31
0.0
  0
LINE
  5
299
  8
0
  6
CONTINUOUS
 62
     7
 10
323.5096876137
 20
207.1422189404
 30
0.0
 11
320.3632589989
 21
203.9957905584
 31
0.0
  0
LINE
  5
29A
  8
0
  6
CONTINUOUS
 62
     7
 10
334.3985267543
 20
230.731057229
 30
0.0
 11
333.0346886628
 21
229.3672191375
 31
0.0
  0
LINE
  5
29B
  8
0
  6
CONTINUOUS
 62
     7
 10
329.859688934
 20
226.1922194087
 30
0.0
 11
326.6846892052
 21
223.0172187486
 31
0.0
  0
LINE
  5
29C
  8
0
  6
CONTINUOUS
 62
     7
 10
323.5096876137
 20
219.8422190198
 30
0.0
 11
320.3346878849
 21
216.6672188253
 31
0.0
  0
LINE
  5
29D
  8
0
  6
CONTINUOUS
 62
     7
 10
317.1596881561
 20
213.4922188637
 30
0.0
 11
313.9846884273
 21
210.3172189253
 31
0.0
  0
LINE
  5
29E
  8
0
  6
CONTINUOUS
 62
     7
 10
310.8096886986
 20
207.1422189404
 30
0.0
 11
307.6632600837
 21
203.9957905584
 31
0.0
  0
LINE
  5
29F
  8
0
  6
CONTINUOUS
 62
     7
 10
323.5096876137
 20
232.5422188663
 30
0.0
 11
320.3346878849
 21
229.3672191375
 31
0.0
  0
LINE
  5
2A0
  8
0
  6
CONTINUOUS
 62
     7
 10
317.1596881561
 20
226.1922194087
 30
0.0
 11
313.9846884273
 21
223.0172187486
 31
0.0
  0
LINE
  5
2A1
  8
0
  6
CONTINUOUS
 62
     7
 10
310.8096886986
 20
219.8422190198
 30
0.0
 11
307.6346885041
 21
216.6672188253
 31
0.0
  0
LINE
  5
2A2
  8
0
  6
CONTINUOUS
 62
     7
 10
304.459688426
 20
213.4922188637
 30
0.0
 11
301.2846884644
 21
210.3172188894
 31
0.0
  0
LINE
  5
2A3
  8
0
  6
CONTINUOUS
 62
     7
 10
298.1096883864
 20
207.1422189404
 30
0.0
 11
294.9346881919
 21
203.9672189788
 31
0.0
  0
LINE
  5
2A4
  8
0
  6
CONTINUOUS
 62
     7
 10
310.8096886986
 20
232.5422188663
 30
0.0
 11
307.6346885041
 21
229.3672191375
 31
0.0
  0
LINE
  5
2A5
  8
0
  6
CONTINUOUS
 62
     7
 10
304.459688426
 20
226.1922194087
 30
0.0
 11
301.2846884644
 21
223.0172187486
 31
0.0
  0
LINE
  5
2A6
  8
0
  6
CONTINUOUS
 62
     7
 10
298.1096883864
 20
219.8422190198
 30
0.0
 11
294.9346881919
 21
216.6672188253
 31
0.0
  0
LINE
  5
2A7
  8
0
  6
CONTINUOUS
 62
     7
 10
290.1721885987
 20
197.2703637951
 30
0.0
 11
290.1721885987
 21
198.9957906702
 31
0.0
  0
LINE
  5
2A8
  8
0
  6
CONTINUOUS
 62
     7
 10
293.3471883275
 20
187.6192355924
 30
0.0
 11
293.3471883275
 21
198.9957906702
 31
0.0
  0
LINE
  5
2A9
  8
0
  6
CONTINUOUS
 62
     7
 10
296.522188522
 20
183.8142818236
 30
0.0
 11
296.522188522
 21
198.9957906702
 31
0.0
  0
LINE
  5
2AA
  8
0
  6
CONTINUOUS
 62
     7
 10
299.6971884836
 20
181.3004354411
 30
0.0
 11
299.6971884836
 21
198.9957906702
 31
0.0
  0
LINE
  5
2AB
  8
0
  6
CONTINUOUS
 62
     7
 10
302.8721884452
 20
179.4776341342
 30
0.0
 11
302.8721884452
 21
195.9957901784
 31
0.0
  0
LINE
  5
2AC
  8
0
  6
CONTINUOUS
 62
     7
 10
306.0471884069
 20
178.1197509193
 30
0.0
 11
306.0471884069
 21
180.9957905137
 31
0.0
  0
LINE
  5
2AD
  8
0
  6
CONTINUOUS
 62
     7
 10
309.2221883685
 20
177.1141386055
 30
0.0
 11
309.2221883685
 21
180.9957905137
 31
0.0
  0
LINE
  5
2AE
  8
0
  6
CONTINUOUS
 62
     7
 10
312.397188563
 20
176.3968898379
 30
0.0
 11
312.397188563
 21
180.9957905137
 31
0.0
  0
LINE
  5
2AF
  8
0
  6
CONTINUOUS
 62
     7
 10
315.5721882917
 20
175.9295186424
 30
0.0
 11
315.5721882917
 21
180.9957905137
 31
0.0
  0
LINE
  5
2B0
  8
0
  6
CONTINUOUS
 62
     7
 10
318.7471889519
 20
175.6888648891
 30
0.0
 11
318.7471889519
 21
180.9957905137
 31
0.0
  0
LINE
  5
2B1
  8
0
  6
CONTINUOUS
 62
     7
 10
321.9221886807
 20
175.6622290635
 30
0.0
 11
321.9221886807
 21
195.9957901784
 31
0.0
  0
LINE
  5
2B2
  8
0
  6
CONTINUOUS
 62
     7
 10
325.0971884095
 20
175.8450998389
 30
0.0
 11
325.0971884095
 21
195.9957901784
 31
0.0
  0
LINE
  5
2B3
  8
0
  6
CONTINUOUS
 62
     7
 10
328.2721881383
 20
176.2403568649
 30
0.0
 11
328.2721881383
 21
195.9957901784
 31
0.0
  0
LINE
  5
2B4
  8
0
  6
CONTINUOUS
 62
     7
 10
331.4471878671
 20
176.8586991751
 30
0.0
 11
331.4471878671
 21
195.9957901784
 31
0.0
  0
LINE
  5
2B5
  8
0
  6
CONTINUOUS
 62
     7
 10
334.6221894585
 20
177.7203923487
 30
0.0
 11
334.6221894585
 21
195.9957901784
 31
0.0
  0
LINE
  5
2B6
  8
0
  6
CONTINUOUS
 62
     7
 10
337.7971873247
 20
178.8590943837
 30
0.0
 11
337.7971873247
 21
195.9957901784
 31
0.0
  0
LINE
  5
2B7
  8
0
  6
CONTINUOUS
 62
     7
 10
340.9721889161
 20
180.3243572288
 30
0.0
 11
340.9721889161
 21
195.9957901784
 31
0.0
  0
LINE
  5
2B8
  8
0
  6
CONTINUOUS
 62
     7
 10
344.1471867823
 20
182.1848268085
 30
0.0
 11
344.1471867823
 21
195.9957901784
 31
0.0
  0
LINE
  5
2B9
  8
0
  6
CONTINUOUS
 62
     7
 10
347.3221883737
 20
184.5602227771
 30
0.0
 11
347.3221883737
 21
195.9957901784
 31
0.0
  0
LINE
  5
2BA
  8
0
  6
CONTINUOUS
 62
     7
 10
350.4971899651
 20
187.6951737725
 30
0.0
 11
350.4971899651
 21
195.9957901784
 31
0.0
  0
LINE
  5
2BB
  8
0
  6
CONTINUOUS
 62
     7
 10
348.9096873068
 20
192.8547194623
 30
0.0
 11
345.7346894406
 21
189.6797197335
 31
0.0
  0
LINE
  5
2BC
  8
0
  6
CONTINUOUS
 62
     7
 10
342.5596878492
 20
186.5047181421
 30
0.0
 11
339.384689983
 21
183.3297184133
 31
0.0
  0
LINE
  5
2BD
  8
0
  6
CONTINUOUS
 62
     7
 10
336.2096883916
 20
180.1547186845
 30
0.0
 11
333.4181625955
 21
177.3631928884
 31
0.0
  0
LINE
  5
2BE
  8
0
  6
CONTINUOUS
 62
     7
 10
336.2096883916
 20
192.8547194623
 30
0.0
 11
333.0346886628
 21
189.6797197335
 31
0.0
  0
LINE
  5
2BF
  8
0
  6
CONTINUOUS
 62
     7
 10
329.859688934
 20
186.5047181421
 30
0.0
 11
326.6846892052
 21
183.3297184133
 31
0.0
  0
LINE
  5
2C0
  8
0
  6
CONTINUOUS
 62
     7
 10
323.5096876137
 20
180.1547186845
 30
0.0
 11
320.3346878849
 21
176.9797189557
 31
0.0
  0
LINE
  5
2C1
  8
0
  6
CONTINUOUS
 62
     7
 10
310.8096886986
 20
180.1547186845
 30
0.0
 11
308.0915362202
 21
177.4365662062
 31
0.0
  0
LINE
  5
2C2
  8
0
  6
CONTINUOUS
 62
     7
 10
323.5096876137
 20
192.8547194623
 30
0.0
 11
320.3346878849
 21
189.6797197335
 31
0.0
  0
LINE
  5
2C3
  8
0
  6
CONTINUOUS
 62
     7
 10
304.2808916048
 20
186.3259228342
 30
0.0
 11
301.284688348
 21
183.3297184133
 31
0.0
  0
LINE
  5
2C4
  8
0
  6
CONTINUOUS
 62
     7
 10
298.1096883864
 20
192.8547194623
 30
0.0
 11
294.9346881919
 21
189.6797197335
 31
0.0
  0
LINE
  5
2C5
  8
0
  6
CONTINUOUS
 62
     7
 10
291.5507602133
 20
198.9957906702
 30
0.0
 11
290.1425539144
 21
197.5875843712
 31
0.0
  0
LINE
  5
2C6
  8
0
  6
CONTINUOUS
 62
     7
 10
348.9096873068
 20
193.6484689289
 30
0.0
 11
345.7346894406
 21
190.4734692001
 31
0.0
  0
LINE
  5
2C7
  8
0
  6
CONTINUOUS
 62
     7
 10
342.5596878492
 20
187.2984694713
 30
0.0
 11
339.384689983
 21
184.1234697425
 31
0.0
  0
LINE
  5
2C8
  8
0
  6
CONTINUOUS
 62
     7
 10
336.2096883916
 20
180.948468151
 30
0.0
 11
333.0346886628
 21
177.7734702849
 31
0.0
  0
LINE
  5
2C9
  8
0
  6
CONTINUOUS
 62
     7
 10
336.2096883916
 20
193.6484689289
 30
0.0
 11
333.0346886628
 21
190.4734692001
 31
0.0
  0
LINE
  5
2CA
  8
0
  6
CONTINUOUS
 62
     7
 10
329.859688934
 20
187.2984694713
 30
0.0
 11
326.6846892052
 21
184.1234697425
 31
0.0
  0
LINE
  5
2CB
  8
0
  6
CONTINUOUS
 62
     7
 10
323.5096876137
 20
180.948468151
 30
0.0
 11
320.3346878849
 21
177.7734702849
 31
0.0
  0
LINE
  5
2CC
  8
0
  6
CONTINUOUS
 62
     7
 10
310.8096886986
 20
180.948468151
 30
0.0
 11
307.6346885041
 21
177.7734702849
 31
0.0
  0
LINE
  5
2CD
  8
0
  6
CONTINUOUS
 62
     7
 10
323.5096876137
 20
193.6484689289
 30
0.0
 11
320.3346878849
 21
190.4734692001
 31
0.0
  0
LINE
  5
2CE
  8
0
  6
CONTINUOUS
 62
     7
 10
304.2808916048
 20
187.1196723008
 30
0.0
 11
301.284688348
 21
184.1234697425
 31
0.0
  0
LINE
  5
2CF
  8
0
  6
CONTINUOUS
 62
     7
 10
298.1096883864
 20
193.6484689289
 30
0.0
 11
294.9346881919
 21
190.4734692001
 31
0.0
  0
LINE
  5
2D0
  8
0
  6
CONTINUOUS
 62
     7
 10
290.7570098155
 20
198.9957906702
 30
0.0
 11
290.0874522143
 21
198.3262321376
 31
0.0
  0
LINE
  5
2D1
  8
0
  6
CONTINUOUS
 62
     7
 10
348.9096873068
 20
194.4422183954
 30
0.0
 11
345.7346894406
 21
191.2672186666
 31
0.0
  0
LINE
  5
2D2
  8
0
  6
CONTINUOUS
 62
     7
 10
342.5596878492
 20
188.0922189378
 30
0.0
 11
339.384689983
 21
184.917219209
 31
0.0
  0
LINE
  5
2D3
  8
0
  6
CONTINUOUS
 62
     7
 10
336.2096883916
 20
181.7422194802
 30
0.0
 11
333.0346886628
 21
178.5672178888
 31
0.0
  0
LINE
  5
2D4
  8
0
  6
CONTINUOUS
 62
     7
 10
336.2096883916
 20
194.4422183954
 30
0.0
 11
333.0346886628
 21
191.2672186666
 31
0.0
  0
LINE
  5
2D5
  8
0
  6
CONTINUOUS
 62
     7
 10
329.859688934
 20
188.0922189378
 30
0.0
 11
326.6846892052
 21
184.917219209
 31
0.0
  0
LINE
  5
2D6
  8
0
  6
CONTINUOUS
 62
     7
 10
323.5096876137
 20
181.7422194802
 30
0.0
 11
320.3346878849
 21
178.5672178888
 31
0.0
  0
LINE
  5
2D7
  8
0
  6
CONTINUOUS
 62
     7
 10
310.063259732
 20
180.9957905137
 30
0.0
 11
307.6346885041
 21
178.5672178888
 31
0.0
  0
LINE
  5
2D8
  8
0
  6
CONTINUOUS
 62
     7
 10
323.5096876137
 20
194.4422183954
 30
0.0
 11
320.3346878849
 21
191.2672186666
 31
0.0
  0
LINE
  5
2D9
  8
0
  6
CONTINUOUS
 62
     7
 10
304.2808916048
 20
187.9134217673
 30
0.0
 11
301.284688348
 21
184.917219209
 31
0.0
  0
LINE
  5
2DA
  8
0
  6
CONTINUOUS
 62
     7
 10
298.1096883864
 20
194.4422183954
 30
0.0
 11
294.9346881919
 21
191.2672186666
 31
0.0
  0
LINE
  5
2DB
  8
0
  6
CONTINUOUS
 62
     7
 10
353.2808907889
 20
128.9957931661
 30
0.0
 11
283.2808923536
 21
128.9957931661
 31
0.0
  0
LINE
  5
2DC
  8
0
  6
CONTINUOUS
 62
     7
 10
283.2808923536
 20
128.9957931661
 30
0.0
 11
283.2808923536
 21
198.9957906702
 31
0.0
  0
POLYLINE
  5
2DD
  8
0
  6
CONTINUOUS
 62
     7
 66
     1
 10
0.0
 20
0.0
 30
0.0
 70
   128
  0
VERTEX
  5
3AB
  8
0
  6
CONTINUOUS
 62
     7
 10
290.0538156368
 20
198.9957906702
 30
0.0
  0
VERTEX
  5
3AC
  8
0
  6
CONTINUOUS
 62
     7
 10
290.3739009612
 20
195.703525322
 30
0.0
  0
VERTEX
  5
3AD
  8
0
  6
CONTINUOUS
 62
     7
 10
291.0838453658
 20
192.5807020091
 30
0.0
  0
VERTEX
  5
3AE
  8
0
  6
CONTINUOUS
 62
     7
 10
292.2005057894
 20
189.6778440499
 30
0.0
  0
VERTEX
  5
3AF
  8
0
  6
CONTINUOUS
 62
     7
 10
293.7341677584
 20
187.0396214002
 30
0.0
  0
VERTEX
  5
3B0
  8
0
  6
CONTINUOUS
 62
     7
 10
295.6576780975
 20
184.6773310029
 30
0.0
  0
VERTEX
  5
3B1
  8
0
  6
CONTINUOUS
 62
     7
 10
297.9306351021
 20
182.5904624932
 30
0.0
  0
VERTEX
  5
3B2
  8
0
  6
CONTINUOUS
 62
     7
 10
301.053379369
 20
180.4543903493
 30
0.0
  0
VERTEX
  5
3B3
  8
0
  6
CONTINUOUS
 62
     7
 10
304.5494156518
 20
178.711099776
 30
0.0
  0
VERTEX
  5
3B4
  8
0
  6
CONTINUOUS
 62
     7
 10
308.3494781144
 20
177.3596948409
 30
0.0
  0
VERTEX
  5
3B5
  8
0
  6
CONTINUOUS
 62
     7
 10
312.3843027838
 20
176.3992740237
 30
0.0
  0
VERTEX
  5
3B6
  8
0
  6
CONTINUOUS
 62
     7
 10
316.5846225434
 20
175.8289469802
 30
0.0
  0
VERTEX
  5
3B7
  8
0
  6
CONTINUOUS
 62
     7
 10
320.8811749332
 20
175.6478084647
 30
0.0
  0
VERTEX
  5
3B8
  8
0
  6
CONTINUOUS
 62
     7
 10
326.0665368848
 20
175.9429185116
 30
0.0
  0
VERTEX
  5
3B9
  8
0
  6
CONTINUOUS
 62
     7
 10
331.1710395478
 20
176.7956225597
 30
0.0
  0
VERTEX
  5
3BA
  8
0
  6
CONTINUOUS
 62
     7
 10
336.0749930703
 20
178.2043746137
 30
0.0
  0
VERTEX
  5
3BB
  8
0
  6
CONTINUOUS
 62
     7
 10
340.6610116922
 20
180.1646558964
 30
0.0
  0
VERTEX
  5
3BC
  8
0
  6
CONTINUOUS
 62
     7
 10
344.8309191131
 20
182.6472042524
 30
0.0
  0
VERTEX
  5
3BD
  8
0
  6
CONTINUOUS
 62
     7
 10
348.1360413693
 20
185.2765886509
 30
0.0
  0
VERTEX
  5
3BE
  8
0
  6
CONTINUOUS
 62
     7
 10
350.9738334083
 20
188.2608628296
 30
0.0
  0
VERTEX
  5
3BF
  8
0
  6
CONTINUOUS
 62
     7
 10
353.2808907889
 20
191.5702244663
 30
0.0
  0
SEQEND
  5
3D8
  8
0
  6
CONTINUOUS
 62
     7
  0
LINE
  5
2DE
  8
0
  6
CONTINUOUS
 62
     7
 10
353.2808907889
 20
191.5702244663
 30
0.0
 11
353.2808907889
 21
128.9957931661
 31
0.0
  0
LINE
  5
2DF
  8
0
  6
CONTINUOUS
 62
     7
 10
283.2808923536
 20
198.9957906702
 30
0.0
 11
290.0538156368
 21
198.9957906702
 31
0.0
  0
LINE
  5
2E0
  8
0
  6
CONTINUOUS
 62
     7
 10
301.2808915787
 20
198.9957906702
 30
0.0
 11
301.2808915787
 21
195.9957901784
 31
0.0
  0
LINE
  5
2E1
  8
0
  6
CONTINUOUS
 62
     7
 10
301.2808915787
 20
195.9957901784
 30
0.0
 11
304.2808916048
 21
195.9957901784
 31
0.0
  0
LINE
  5
2E2
  8
0
  6
CONTINUOUS
 62
     7
 10
304.2808916048
 20
195.9957901784
 30
0.0
 11
304.2808916048
 21
180.9957905137
 31
0.0
  0
LINE
  5
2E3
  8
0
  6
CONTINUOUS
 62
     7
 10
319.2808908038
 20
180.9957905137
 30
0.0
 11
304.2808916048
 21
180.9957905137
 31
0.0
  0
LINE
  5
2E4
  8
0
  6
CONTINUOUS
 62
     7
 10
319.2808908038
 20
180.9957905137
 30
0.0
 11
319.2808908038
 21
195.9957901784
 31
0.0
  0
LINE
  5
2E5
  8
0
  6
CONTINUOUS
 62
     7
 10
319.2808908038
 20
195.9957901784
 30
0.0
 11
353.2808907889
 21
195.9957901784
 31
0.0
  0
LINE
  5
2E6
  8
0
  6
CONTINUOUS
 62
     7
 10
353.2808907889
 20
195.9957901784
 30
0.0
 11
353.2808907889
 21
191.5702244663
 31
0.0
  0
LINE
  5
2E7
  8
0
  6
CONTINUOUS
 62
     7
 10
290.0538156368
 20
198.9957906702
 30
0.0
 11
301.2808915787
 21
198.9957906702
 31
0.0
  0
LINE
  5
2E8
  8
0
  6
CONTINUOUS
 62
     7
 10
319.2808908038
 20
195.9957901784
 30
0.0
 11
318.2808915712
 21
195.9957901784
 31
0.0
  0
LINE
  5
2E9
  8
0
  6
CONTINUOUS
 62
     7
 10
308.2808917948
 20
195.9957901784
 30
0.0
 11
304.2808916048
 21
195.9957901784
 31
0.0
  0
LINE
  5
2EA
  8
0
  6
CONTINUOUS
 62
     7
 10
278.280891534
 20
200.9957900667
 30
0.0
 11
278.280891534
 21
275.9957930469
 31
0.0
  0
LINE
  5
2EB
  8
0
  6
CONTINUOUS
 62
     7
 10
278.280891534
 20
275.9957930469
 30
0.0
 11
353.2808907889
 21
275.9957930469
 31
0.0
  0
LINE
  5
2EC
  8
0
  6
CONTINUOUS
 62
     7
 10
353.2808907889
 20
275.9957930469
 30
0.0
 11
353.2808907889
 21
213.3677760069
 31
0.0
  0
POLYLINE
  5
2ED
  8
0
  6
CONTINUOUS
 62
     7
 66
     1
 10
0.0
 20
0.0
 30
0.0
 70
   128
  0
VERTEX
  5
3C0
  8
0
  6
CONTINUOUS
 62
     7
 10
353.2808907889
 20
213.3677760069
 30
0.0
  0
VERTEX
  5
3C1
  8
0
  6
CONTINUOUS
 62
     7
 10
351.2301520072
 20
216.6647671186
 30
0.0
  0
VERTEX
  5
3C2
  8
0
  6
CONTINUOUS
 62
     7
 10
348.753221389
 20
219.8109908425
 30
0.0
  0
VERTEX
  5
3C3
  8
0
  6
CONTINUOUS
 62
     7
 10
345.9054641985
 20
222.7656843537
 30
0.0
  0
VERTEX
  5
3C4
  8
0
  6
CONTINUOUS
 62
     7
 10
342.4940519594
 20
225.6815826916
 30
0.0
  0
VERTEX
  5
3C5
  8
0
  6
CONTINUOUS
 62
     7
 10
338.7868851983
 20
228.2784490311
 30
0.0
  0
VERTEX
  5
3C6
  8
0
  6
CONTINUOUS
 62
     7
 10
334.8527178728
 20
230.5056529515
 30
0.0
  0
VERTEX
  5
3C7
  8
0
  6
CONTINUOUS
 62
     7
 10
330.7603132539
 20
232.3125696206
 30
0.0
  0
VERTEX
  5
3C8
  8
0
  6
CONTINUOUS
 62
     7
 10
326.5784290247
 20
233.6485686176
 30
0.0
  0
VERTEX
  5
3C9
  8
0
  6
CONTINUOUS
 62
     7
 10
322.3758228682
 20
234.4630251103
 30
0.0
  0
VERTEX
  5
3CA
  8
0
  6
CONTINUOUS
 62
     7
 10
318.809216898
 20
234.7076481604
 30
0.0
  0
VERTEX
  5
3CB
  8
0
  6
CONTINUOUS
 62
     7
 10
315.3212071024
 20
234.500017243
 30
0.0
  0
VERTEX
  5
3CC
  8
0
  6
CONTINUOUS
 62
     7
 10
311.9550915994
 20
233.8082531863
 30
0.0
  0
VERTEX
  5
3CD
  8
0
  6
CONTINUOUS
 62
     7
 10
308.752389215
 20
232.6066030585
 30
0.0
  0
VERTEX
  5
3CE
  8
0
  6
CONTINUOUS
 62
     7
 10
305.7392282039
 20
230.9222819679
 30
0.0
  0
VERTEX
  5
3CF
  8
0
  6
CONTINUOUS
 62
     7
 10
302.9338634856
 20
228.8096009218
 30
0.0
  0
VERTEX
  5
3D0
  8
0
  6
CONTINUOUS
 62
     7
 10
300.3544870858
 20
226.3230832689
 30
0.0
  0
VERTEX
  5
3D1
  8
0
  6
CONTINUOUS
 62
     7
 10
297.6551079751
 20
223.0224062153
 30
0.0
  0
VERTEX
  5
3D2
  8
0
  6
CONTINUOUS
 62
     7
 10
295.3169728257
 20
219.3737022975
 30
0.0
  0
VERTEX
  5
3D3
  8
0
  6
CONTINUOUS
 62
     7
 10
293.3689691686
 20
215.4635584378
 30
0.0
  0
VERTEX
  5
3D4
  8
0
  6
CONTINUOUS
 62
     7
 10
291.8399852329
 20
211.3785620243
 30
0.0
  0
VERTEX
  5
3D5
  8
0
  6
CONTINUOUS
 62
     7
 10
290.7589078509
 20
207.205299281
 30
0.0
  0
VERTEX
  5
3D6
  8
0
  6
CONTINUOUS
 62
     7
 10
290.1546257176
 20
203.0303573632
 30
0.0
  0
VERTEX
  5
3D7
  8
0
  6
CONTINUOUS
 62
     7
 10
290.0409661793
 20
200.9957900667
 30
0.0
  0
SEQEND
  5
3D9
  8
0
  6
CONTINUOUS
 62
     7
  0
LINE
  5
2EE
  8
0
  6
CONTINUOUS
 62
     7
 10
290.0409661793
 20
200.9957900667
 30
0.0
 11
278.280891534
 21
200.9957900667
 31
0.0
  0
LINE
  5
2EF
  8
0
  6
CONTINUOUS
 62
     7
 10
301.2808915787
 20
203.9957905584
 30
0.0
 11
353.2808907889
 21
203.9957905584
 31
0.0
  0
LINE
  5
2F0
  8
0
  6
CONTINUOUS
 62
     7
 10
301.2808915787
 20
203.9957905584
 30
0.0
 11
301.2808915787
 21
200.9957900667
 31
0.0
  0
LINE
  5
2F1
  8
0
  6
CONTINUOUS
 62
     7
 10
301.2808915787
 20
200.9957900667
 30
0.0
 11
290.0409661793
 21
200.9957900667
 31
0.0
  0
LINE
  5
2F2
  8
0
  6
CONTINUOUS
 62
     7
 10
353.2808907889
 20
213.3677760069
 30
0.0
 11
353.2808907889
 21
203.9957905584
 31
0.0
  0
LINE
  5
2F3
  8
0
  6
CONTINUOUS
 62
     7
 10
320.780891981
 20
200.9957900667
 30
0.0
 11
320.780891981
 21
199.4957907521
 31
0.0
  0
LINE
  5
2F4
  8
0
  6
CONTINUOUS
 62
     7
 10
305.7808916178
 20
199.4957907521
 30
0.0
 11
305.7808916178
 21
200.9957900667
 31
0.0
  0
ARC
  5
2F5
  8
0
  6
CONTINUOUS
 62
     7
 10
307.2808915972
 20
198.4957903306
 30
0.0
 40
1.0
 50
0.0
 51
90.0
  0
LINE
  5
2F6
  8
0
  6
CONTINUOUS
 62
     7
 10
307.2808916308
 20
199.4957907521
 30
0.0
 11
305.7808916178
 21
199.4957907521
 31
0.0
  0
LINE
  5
2F7
  8
0
  6
CONTINUOUS
 62
     7
 10
305.7808916178
 20
200.9957900667
 30
0.0
 11
320.780891981
 21
200.9957900667
 31
0.0
  0
LINE
  5
2F8
  8
0
  6
CONTINUOUS
 62
     7
 10
320.780891981
 20
199.4957907521
 30
0.0
 11
319.2808908038
 21
199.4957907521
 31
0.0
  0
ARC
  5
2F9
  8
0
  6
CONTINUOUS
 62
     7
 10
319.2808915972
 20
198.4957903306
 30
0.0
 40
1.0
 50
90.0
 51
180.0
  0
LINE
  5
2FA
  8
0
  6
CONTINUOUS
 62
     7
 10
318.2808915712
 20
198.4957905882
 30
0.0
 11
318.2808915712
 21
185.9957894706
 31
0.0
  0
LINE
  5
2FB
  8
0
  6
CONTINUOUS
 62
     7
 10
318.2808915712
 20
185.9957894706
 30
0.0
 11
316.7808913254
 21
182.9957908415
 31
0.0
  0
LINE
  5
2FC
  8
0
  6
CONTINUOUS
 62
     7
 10
316.7808913254
 20
182.9957908415
 30
0.0
 11
309.780891575
 21
182.9957908415
 31
0.0
  0
LINE
  5
2FD
  8
0
  6
CONTINUOUS
 62
     7
 10
309.780891575
 20
182.9957908415
 30
0.0
 11
308.2808917948
 21
185.9957894706
 31
0.0
  0
LINE
  5
2FE
  8
0
  6
CONTINUOUS
 62
     7
 10
308.2808917948
 20
185.9957894706
 30
0.0
 11
308.2808917948
 21
198.4957905882
 31
0.0
  0
CIRCLE
  5
2FF
  8
0
  6
CONTINUOUS
 62
     7
 10
364.7808915972
 20
199.9957903306
 30
0.0
 40
8.000000000000222
  0
LINE
  5
300
  8
0
  6
CONTINUOUS
 62
     7
 10
353.2808907889
 20
198.9957906702
 30
0.0
 11
353.2808907889
 21
195.9957901784
 31
0.0
  0
LINE
  5
301
  8
0
  6
CONTINUOUS
 62
     7
 10
319.2808908038
 20
195.9957901784
 30
0.0
 11
319.2808908038
 21
198.9957906702
 31
0.0
  0
LINE
  5
302
  8
0
  6
CONTINUOUS
 62
     7
 10
353.2808907889
 20
198.9957906702
 30
0.0
 11
319.2808908038
 21
198.9957906702
 31
0.0
  0
LINE
  5
303
  8
0
  6
CONTINUOUS
 62
     7
 10
304.2808916048
 20
198.9957906702
 30
0.0
 11
304.2808916048
 21
195.9957901784
 31
0.0
  0
LINE
  5
304
  8
0
  6
CONTINUOUS
 62
     7
 10
319.2808908038
 20
198.9957906702
 30
0.0
 11
318.4148660489
 21
198.9957906702
 31
0.0
  0
LINE
  5
305
  8
0
  6
CONTINUOUS
 62
     7
 10
308.1469168515
 20
198.9957906702
 30
0.0
 11
304.2808916048
 21
198.9957906702
 31
0.0
  0
LINE
  5
306
  8
0
  6
CONTINUOUS
 62
     7
 10
304.2808916048
 20
198.9957906702
 30
0.0
 11
301.2808915787
 21
198.9957906702
 31
0.0
  0
LINE
  5
307
  8
0
  6
CONTINUOUS
 62
     7
 10
354.5484841429
 20
198.9957906702
 30
0.0
 11
354.5484841429
 21
195.9957901784
 31
0.0
  0
LINE
  5
308
  8
0
  6
CONTINUOUS
 62
     7
 10
353.2808907889
 20
198.9957906702
 30
0.0
 11
354.5484841429
 21
198.9957906702
 31
0.0
  0
LINE
  5
309
  8
0
  6
CONTINUOUS
 62
     7
 10
354.5484841429
 20
195.9957901784
 30
0.0
 11
353.2808907889
 21
195.9957901784
 31
0.0
  0
LINE
  5
30A
  8
0
  6
CONTINUOUS
 62
     7
 10
354.8004888557
 20
195.9635161259
 30
0.0
 11
354.5484841429
 21
195.9957901784
 31
0.0
  0
LINE
  5
30B
  8
0
  6
CONTINUOUS
 62
     7
 10
355.5564992689
 20
198.8666953915
 30
0.0
 11
354.5484841429
 21
198.9957906702
 31
0.0
  0
LINE
  5
30C
  8
0
  6
CONTINUOUS
 62
     7
 10
355.5564992689
 20
198.8666953915
 30
0.0
 11
354.8004888557
 21
195.9635161259
 31
0.0
  0
LINE
  5
30D
  8
0
  6
CONTINUOUS
 62
     7
 10
354.9894802832
 20
195.8932990604
 30
0.0
 11
356.3124687039
 21
198.5858252668
 31
0.0
  0
ARC
  5
30E
  8
0
  6
CONTINUOUS
 62
     7
 10
354.5484834764
 20
194.9957903306
 30
0.0
 40
3.999999999999988
 50
63.8325232605
 51
75.4038628868
  0
ARC
  5
30F
  8
0
  6
CONTINUOUS
 62
     7
 10
354.5484834764
 20
194.9957903306
 30
0.0
 40
0.9999999999999939
 50
63.8325232606
 51
75.4038628868
  0
LINE
  5
310
  8
0
  6
CONTINUOUS
 62
     7
 10
356.9709696435
 20
198.2622679719
 30
0.0
 11
356.3124687039
 21
198.5858252668
 31
0.0
  0
LINE
  5
311
  8
0
  6
CONTINUOUS
 62
     7
 10
361.2529188954
 20
192.8157193982
 30
0.0
 11
354.9894802832
 21
195.8932990604
 31
0.0
  0
LINE
  5
312
  8
0
  6
CONTINUOUS
 62
     7
 10
356.1857455038
 20
204.6860738122
 30
0.0
 11
356.3124687039
 21
201.4057545387
 31
0.0
  0
LINE
  5
313
  8
0
  6
CONTINUOUS
 62
     7
 10
361.2529188954
 20
207.1758611058
 30
0.0
 11
356.1857455038
 21
204.6860738122
 31
0.0
  0
LINE
  5
314
  8
0
  6
CONTINUOUS
 62
     7
 10
356.9709696435
 20
201.7293127649
 30
0.0
 11
356.3124687039
 21
201.4057545387
 31
0.0
  0
LINE
  5
315
  8
0
  6
CONTINUOUS
 62
     7
 10
353.2808907889
 20
203.9957905584
 30
0.0
 11
353.2808907889
 21
200.9957900667
 31
0.0
  0
LINE
  5
316
  8
0
  6
CONTINUOUS
 62
     7
 10
301.2808915787
 20
200.9957900667
 30
0.0
 11
353.2808907889
 21
200.9957900667
 31
0.0
  0
DIMENSION
  5
317
  8
0
  6
CONTINUOUS
 62
     7
  2
_D_10
 10
353.2808915777
 20
168.1876125334
 30
0.0
 11
371.0552925975
 21
168.1876125334
 31
0.0
 70
   160
  1
<>
  3
SLDDIMSTYLE4
 13
364.7808915972
 23
189.4957903306
 33
0.0
 14
353.2808915777
 24
213.3677759573
 34
0.0
  0
DIMENSION
  5
323
  8
0
  6
CONTINUOUS
 62
     7
  2
_D_11
 10
353.2808915972
 20
168.1876125334
 30
0.0
 11
329.7103962655
 21
168.1876125334
 31
0.0
 70
   160
  1
<>
  3
SLDDIMSTYLE0
 13
301.2808915972
 23
200.9957903306
 33
0.0
 14
353.2808915972
 24
200.9957903306
 34
0.0
  0
DIMENSION
  5
32D
  8
0
  6
CONTINUOUS
 62
     7
  2
_D_12
 10
273.5372881719
 20
200.9957903306
 30
0.0
 11
273.5372881719
 21
185.4290636078
 31
0.0
 70
   160
  1
<>
  3
SLDDIMSTYLE1
 13
283.2808915972
 23
198.9957903306
 33
0.0
 14
278.2808915972
 24
200.9957903306
 34
0.0
 50
90.0
  0
INSERT
  5
344
  8
0
  6
CONTINUOUS
 62
     7
  2
SW_CENTERMARKSYMBOL_10
 10
364.7808915972
 20
199.9957903306
 30
0.0
  0
LINE
  5
345
  8
0
  6
CONTINUOUS
 62
     7
 10
176.3754279011
 20
93.3524898794
 30
0.0
 11
176.3754279011
 21
91.8524905649
 31
0.0
  0
LINE
  5
346
  8
0
  6
CONTINUOUS
 62
     7
 10
191.3754210466
 20
91.8524905649
 30
0.0
 11
191.3754210466
 21
93.3524898794
 31
0.0
  0
ARC
  5
347
  8
0
  6
CONTINUOUS
 62
     7
 10
177.8754242688
 20
90.852490219
 30
0.0
 40
1.0
 50
0.0
 51
90.0
  0
ARC
  5
348
  8
0
  6
CONTINUOUS
 62
     7
 10
189.8754242688
 20
90.852490219
 30
0.0
 40
1.0
 50
90.0
 51
180.0
  0
LINE
  5
349
  8
0
  6
CONTINUOUS
 62
     7
 10
178.8754255169
 20
78.3524902147
 30
0.0
 11
180.3754211062
 21
75.3524901886
 31
0.0
  0
LINE
  5
34A
  8
0
  6
CONTINUOUS
 62
     7
 10
187.3754278415
 20
75.3524901886
 30
0.0
 11
188.8754234308
 21
78.3524902147
 31
0.0
  0
LINE
  5
34B
  8
0
  6
CONTINUOUS
 62
     7
 10
178.8754255169
 20
90.852490401
 30
0.0
 11
178.8754255169
 21
78.3524902147
 31
0.0
  0
LINE
  5
34C
  8
0
  6
CONTINUOUS
 62
     7
 10
188.8754234308
 20
78.3524902147
 30
0.0
 11
188.8754234308
 21
90.852490401
 31
0.0
  0
LINE
  5
34D
  8
0
  6
CONTINUOUS
 62
     7
 10
176.3754279011
 20
91.8524905649
 30
0.0
 11
191.3754210466
 21
91.8524905649
 31
0.0
  0
LINE
  5
34E
  8
0
  6
CONTINUOUS
 62
     7
 10
180.3754211062
 20
75.3524901886
 30
0.0
 11
187.3754278415
 21
75.3524901886
 31
0.0
  0
LINE
  5
34F
  8
0
  6
CONTINUOUS
 62
     7
 10
178.8754255169
 20
78.3524902147
 30
0.0
 11
188.8754234308
 21
78.3524902147
 31
0.0
  0
CIRCLE
  5
350
  8
0
  6
CONTINUOUS
 62
     7
 10
132.3754242688
 20
92.352490219
 30
0.0
 40
8.000000000000172
  0
LINE
  5
351
  8
0
  6
CONTINUOUS
 62
     7
 10
195.8754301661
 20
96.3524903712
 30
0.0
 11
195.8754301661
 21
93.3524898794
 31
0.0
  0
LINE
  5
352
  8
0
  6
CONTINUOUS
 62
     7
 10
195.8754301661
 20
93.3524898794
 30
0.0
 11
193.875426113
 21
93.3524898794
 31
0.0
  0
LINE
  5
353
  8
0
  6
CONTINUOUS
 62
     7
 10
193.875426113
 20
93.3524898794
 30
0.0
 11
193.875426113
 21
96.3524903712
 31
0.0
  0
LINE
  5
354
  8
0
  6
CONTINUOUS
 62
     7
 10
193.875426113
 20
96.3524903712
 30
0.0
 11
195.8754301661
 21
96.3524903712
 31
0.0
  0
LINE
  5
355
  8
0
  6
CONTINUOUS
 62
     7
 10
145.8754256957
 20
96.3524903712
 30
0.0
 11
145.8754256957
 21
93.3524898794
 31
0.0
  0
LINE
  5
356
  8
0
  6
CONTINUOUS
 62
     7
 10
145.8754256957
 20
93.3524898794
 30
0.0
 11
143.8754216426
 21
93.3524898794
 31
0.0
  0
LINE
  5
357
  8
0
  6
CONTINUOUS
 62
     7
 10
143.8754216426
 20
93.3524898794
 30
0.0
 11
143.8754216426
 21
96.3524903712
 31
0.0
  0
LINE
  5
358
  8
0
  6
CONTINUOUS
 62
     7
 10
143.8754216426
 20
96.3524903712
 30
0.0
 11
145.8754256957
 21
96.3524903712
 31
0.0
  0
LINE
  5
359
  8
0
  6
CONTINUOUS
 62
     7
 10
145.8754256957
 20
93.3524898794
 30
0.0
 11
193.875426113
 21
93.3524898794
 31
0.0
  0
LINE
  5
35A
  8
0
  6
CONTINUOUS
 62
     7
 10
145.8754256957
 20
96.3524903712
 30
0.0
 11
193.875426113
 21
96.3524903712
 31
0.0
  0
LINE
  5
35B
  8
0
  6
CONTINUOUS
 62
     7
 10
142.6078320139
 20
93.3524898794
 30
0.0
 11
142.6078320139
 21
96.3524903712
 31
0.0
  0
LINE
  5
35C
  8
0
  6
CONTINUOUS
 62
     7
 10
143.8754216426
 20
93.3524898794
 30
0.0
 11
142.6078320139
 21
93.3524898794
 31
0.0
  0
LINE
  5
35D
  8
0
  6
CONTINUOUS
 62
     7
 10
142.6078320139
 20
96.3524903712
 30
0.0
 11
143.8754216426
 21
96.3524903712
 31
0.0
  0
LINE
  5
35E
  8
0
  6
CONTINUOUS
 62
     7
 10
142.3558310264
 20
96.3847644237
 30
0.0
 11
142.6078320139
 21
96.3524903712
 31
0.0
  0
LINE
  5
35F
  8
0
  6
CONTINUOUS
 62
     7
 10
141.5998131626
 20
93.4815851581
 30
0.0
 11
142.6078320139
 21
93.3524898794
 31
0.0
  0
LINE
  5
360
  8
0
  6
CONTINUOUS
 62
     7
 10
141.5998131626
 20
93.4815851581
 30
0.0
 11
142.3558310264
 21
96.3847644237
 31
0.0
  0
LINE
  5
361
  8
0
  6
CONTINUOUS
 62
     7
 10
142.166839599
 20
96.4549814892
 30
0.0
 11
140.843847453
 21
93.7624552828
 31
0.0
  0
ARC
  5
362
  8
0
  6
CONTINUOUS
 62
     7
 10
142.6078323896
 20
97.352490219
 30
0.0
 40
3.999999999999999
 50
243.8325232606
 51
255.4038628868
  0
ARC
  5
363
  8
0
  6
CONTINUOUS
 62
     7
 10
142.6078323896
 20
97.352490219
 30
0.0
 40
1.000000000000003
 50
243.8325232605
 51
255.4038628868
  0
LINE
  5
364
  8
0
  6
CONTINUOUS
 62
     7
 10
140.1853502386
 20
94.0860125777
 30
0.0
 11
140.843847453
 21
93.7624552828
 31
0.0
  0
LINE
  5
365
  8
0
  6
CONTINUOUS
 62
     7
 10
135.9033972615
 20
99.5325611514
 30
0.0
 11
142.166839599
 21
96.4549814892
 31
0.0
  0
LINE
  5
366
  8
0
  6
CONTINUOUS
 62
     7
 10
70.875424258
 20
96.3524903712
 30
0.0
 11
70.875424258
 21
93.3524898794
 31
0.0
  0
LINE
  5
367
  8
0
  6
CONTINUOUS
 62
     7
 10
68.8754242503
 20
93.3524898794
 30
0.0
 11
68.8754242503
 21
96.3524903712
 31
0.0
  0
LINE
  5
368
  8
0
  6
CONTINUOUS
 62
     7
 10
70.875424258
 20
93.3524898794
 30
0.0
 11
68.8754242503
 21
93.3524898794
 31
0.0
  0
LINE
  5
369
  8
0
  6
CONTINUOUS
 62
     7
 10
68.8754242503
 20
96.3524903712
 30
0.0
 11
70.875424258
 21
96.3524903712
 31
0.0
  0
LINE
  5
36A
  8
0
  6
CONTINUOUS
 62
     7
 10
124.5655023151
 20
94.0860125777
 30
0.0
 11
123.9070013755
 21
93.7624552828
 31
0.0
  0
LINE
  5
36B
  8
0
  6
CONTINUOUS
 62
     7
 10
122.5840129548
 20
96.4549814892
 30
0.0
 11
123.9070013755
 21
93.7624552828
 31
0.0
  0
LINE
  5
36C
  8
0
  6
CONTINUOUS
 62
     7
 10
128.847451567
 20
99.5325611514
 30
0.0
 11
122.5840129548
 21
96.4549814892
 31
0.0
  0
LINE
  5
36D
  8
0
  6
CONTINUOUS
 62
     7
 10
122.1430168145
 20
93.3524898794
 30
0.0
 11
122.1430168145
 21
96.3524903712
 31
0.0
  0
ARC
  5
36E
  8
0
  6
CONTINUOUS
 62
     7
 10
122.1430161481
 20
97.352490219
 30
0.0
 40
4.000000000000014
 50
270.0
 51
296.1674767395
  0
ARC
  5
36F
  8
0
  6
CONTINUOUS
 62
     7
 10
122.1430161481
 20
97.352490219
 30
0.0
 40
1.0
 50
270.0
 51
296.1674767395
  0
LINE
  5
370
  8
0
  6
CONTINUOUS
 62
     7
 10
122.1430168145
 20
93.3524898794
 30
0.0
 11
70.875424258
 21
93.3524898794
 31
0.0
  0
LINE
  5
371
  8
0
  6
CONTINUOUS
 62
     7
 10
122.1430168145
 20
96.3524903712
 30
0.0
 11
70.875424258
 21
96.3524903712
 31
0.0
  0
LINE
  5
372
  8
0
  6
CONTINUOUS
 62
     8
 10
188.8754234308
 20
90.852490401
 30
0.0
 11
178.8754255169
 21
90.852490401
 31
0.0
  0
DIMENSION
  5
373
  8
0
  6
CONTINUOUS
 62
     7
  2
_D_13
 10
183.8754242688
 20
109.8508359504
 30
0.0
 11
190.7170759077
 21
109.8508359504
 31
0.0
 70
   160
  1
<>
  3
SLDDIMSTYLE1
 13
195.8754242688
 23
96.352490219
 33
0.0
 14
183.8754242688
 24
92.852490219
 34
0.0
 50
0.0
  0
DIMENSION
  5
37F
  8
0
  6
CONTINUOUS
 62
     7
  2
_D_14
 10
204.3213015905
 20
96.352490219
 30
0.0
 11
204.3213015905
 21
85.7742165035
 31
0.0
 70
   160
  1
<>
  3
SLDDIMSTYLE0
 13
187.3754242688
 23
75.352490219
 33
0.0
 14
195.8754242688
 24
96.352490219
 34
0.0
 50
90.0
  0
DIMENSION
  5
389
  8
0
  6
CONTINUOUS
 62
     7
  2
_D_15
 10
132.3754242688
 20
118.3028637231
 30
0.0
 11
102.6362161718
 21
118.3028637231
 31
0.0
 70
   160
  1
<>
  3
SLDDIMSTYLE5
 13
68.8754242688
 23
93.352490219
 33
0.0
 14
132.3754242688
 24
102.852490219
 34
0.0
  0
DIMENSION
  5
394
  8
0
  6
CONTINUOUS
 62
     7
  2
_D_16
 10
195.8754242688
 20
118.3028637231
 30
0.0
 11
167.763556175
 21
118.3028637231
 31
0.0
 70
   160
  1
<>
  3
SLDDIMSTYLE5
 13
132.3754242688
 23
102.852490219
 33
0.0
 14
195.8754242688
 24
96.352490219
 34
0.0
  0
INSERT
  5
3A9
  8
0
  6
CONTINUOUS
 62
     7
  2
SW_CENTERMARKSYMBOL_11
 10
132.3754242688
 20
92.352490219
 30
0.0
  0
LINE
  5
3AA
  8
0
  6
CENTERX2
 62
     7
 10
183.8754242688
 20
76.352490219
 30
0.0
 11
183.8754242688
 21
92.852490219
 31
0.0
  0
ENDSEC
  0
EOF
