  0
SECTION
  2
HEADER
  9
$ACADVER
  1
AC1009
  9
$DWGCODEPAGE
  3
ansi_1252
  9
$INSBASE
 10
0.0
 20
0.0
 30
0.0
  9
$EXTMIN
 10
0.0
 20
0.0
 30
0.0
  9
$EXTMAX
 10
210.0
 20
148.5
 30
0.0
  9
$LIMMIN
 10
0.0
 20
0.0
  9
$LIMMAX
 10
210.0
 20
148.5
  9
$ORTHOMODE
 70
     0
  9
$REGENMODE
 70
     1
  9
$FILLMODE
 70
     1
  9
$QTEXTMODE
 70
     0
  9
$MIRRTEXT
 70
     1
  9
$DRAGMODE
 70
     2
  9
$LTSCALE
 40
0.5
  9
$OSMODE
 70
    37
  9
$ATTMODE
 70
     1
  9
$TEXTSIZE
 40
1.75
  9
$TRACEWID
 40
1.0
  9
$TEXTSTYLE
  7
STANDARD
  9
$CLAYER
  8
0
  9
$CELTYPE
  6
BYLAYER
  9
$CECOLOR
 62
   256
  9
$DIMSCALE
 40
1.0
  9
$DIMASZ
 40
1.651
  9
$DIMEXO
 40
0.5
  9
$DIMDLI
 40
3.75
  9
$DIMRND
 40
0.0
  9
$DIMDLE
 40
0.0
  9
$DIMEXE
 40
0.5
  9
$DIMTP
 40
0.0
  9
$DIMTM
 40
0.0
  9
$DIMTXT
 40
1.75
  9
$DIMCEN
 40
2.5
  9
$DIMTSZ
 40
0.0
  9
$DIMTOL
 70
     0
  9
$DIMLIM
 70
     0
  9
$DIMTIH
 70
     1
  9
$DIMTOH
 70
     1
  9
$DIMSE1
 70
     0
  9
$DIMSE2
 70
     0
  9
$DIMTAD
 70
     1
  9
$DIMZIN
 70
     0
  9
$DIMBLK
  1

  9
$DIMASO
 70
     1
  9
$DIMSHO
 70
     1
  9
$DIMPOST
  1

  9
$DIMAPOST
  1

  9
$DIMALT
 70
     0
  9
$DIMALTD
 70
     3
  9
$DIMALTF
 40
0.0393700787
  9
$DIMLFAC
 40
1.0
  9
$DIMTOFL
 70
     1
  9
$DIMTVP
 40
0.0
  9
$DIMTIX
 70
     0
  9
$DIMSOXD
 70
     0
  9
$DIMSAH
 70
     0
  9
$DIMBLK1
  1

  9
$DIMBLK2
  1

  9
$DIMSTYLE
  2
ISO-25
  9
$DIMCLRD
 70
     0
  9
$DIMCLRE
 70
     0
  9
$DIMCLRT
 70
     0
  9
$DIMTFAC
 40
1.0
  9
$DIMGAP
 40
0.762
  9
$LUNITS
 70
     2
  9
$LUPREC
 70
     2
  9
$SKETCHINC
 40
1.0
  9
$FILLETRAD
 40
10.0
  9
$AUNITS
 70
     0
  9
$AUPREC
 70
     2
  9
$MENU
  1
.
  9
$ELEVATION
 40
0.0
  9
$PELEVATION
 40
0.0
  9
$THICKNESS
 40
0.0
  9
$LIMCHECK
 70
     0
  9
$CHAMFERA
 40
0.0
  9
$CHAMFERB
 40
0.0
  9
$SKPOLY
 70
     0
  9
$TDCREATE
 40
2459597.564370127
  9
$TDUPDATE
 40
2459597.5643861
  9
$TDINDWG
 40
0.0000000116
  9
$TDUSRTIMER
 40
0.0000000116
  9
$USRTIMER
 70
     1
  9
$ANGBASE
 50
0.0
  9
$ANGDIR
 70
     0
  9
$PDMODE
 70
     0
  9
$PDSIZE
 40
-1.0
  9
$PLINEWID
 40
0.0
  9
$COORDS
 70
     1
  9
$SPLFRAME
 70
     0
  9
$SPLINETYPE
 70
     6
  9
$SPLINESEGS
 70
     8
  9
$ATTDIA
 70
     0
  9
$ATTREQ
 70
     1
  9
$HANDLING
 70
     1
  9
$HANDSEED
  5
3C5
  9
$SURFTAB1
 70
     6
  9
$SURFTAB2
 70
     6
  9
$SURFTYPE
 70
     6
  9
$SURFU
 70
     6
  9
$SURFV
 70
     6
  9
$UCSNAME
  2

  9
$UCSORG
 10
0.0
 20
0.0
 30
0.0
  9
$UCSXDIR
 10
1.0
 20
0.0
 30
0.0
  9
$UCSYDIR
 10
0.0
 20
1.0
 30
0.0
  9
$PUCSNAME
  2

  9
$PUCSORG
 10
0.0
 20
0.0
 30
0.0
  9
$PUCSXDIR
 10
1.0
 20
0.0
 30
0.0
  9
$PUCSYDIR
 10
0.0
 20
1.0
 30
0.0
  9
$USERI1
 70
     0
  9
$USERI2
 70
     0
  9
$USERI3
 70
     0
  9
$USERI4
 70
     0
  9
$USERI5
 70
     0
  9
$USERR1
 40
0.0
  9
$USERR2
 40
0.0
  9
$USERR3
 40
0.0
  9
$USERR4
 40
0.0
  9
$USERR5
 40
0.0
  9
$WORLDVIEW
 70
     1
  9
$SHADEDGE
 70
     3
  9
$SHADEDIF
 70
    70
  9
$TILEMODE
 70
     1
  9
$MAXACTVP
 70
    64
  9
$PLIMCHECK
 70
     0
  9
$PEXTMIN
 10
1.0000000000E+20
 20
1.0000000000E+20
 30
1.0000000000E+20
  9
$PEXTMAX
 10
-1.0000000000E+20
 20
-1.0000000000E+20
 30
-1.0000000000E+20
  9
$PLIMMIN
 10
0.0
 20
0.0
  9
$PLIMMAX
 10
420.0
 20
297.0
  9
$UNITMODE
 70
     0
  9
$VISRETAIN
 70
     1
  9
$PLINEGEN
 70
     0
  9
$PSLTSCALE
 70
     1
  0
ENDSEC
  0
SECTION
  2
TABLES
  0
TABLE
  2
VPORT
 70
     1
  0
VPORT
  2
*ACTIVE
 70
     0
 10
0.0
 20
0.0
 11
1.0
 21
1.0
 12
105.0
 22
74.25
 13
0.0
 23
0.0
 14
10.0
 24
10.0
 15
10.0
 25
10.0
 16
0.0
 26
0.0
 36
1.0
 17
0.0
 27
0.0
 37
0.0
 40
148.5
 41
1.4141414141
 42
50.0
 43
0.0
 44
0.0
 50
0.0
 51
0.0
 71
     0
 72
  2000
 73
     1
 74
     3
 75
     0
 76
     0
 77
     0
 78
     0
  0
ENDTAB
  0
TABLE
  2
LTYPE
 70
     6
  0
LTYPE
  2
CONTINUOUS
 70
     0
  3
Solid line
 72
    65
 73
     0
 40
0.0
  0
LTYPE
  2
HIDDEN
 70
     0
  3
Hidden __ __ __ __ __ __ __ __ __ __ __ __ __ __
 72
    65
 73
     2
 40
1.905
 49
1.27
 49
-0.635
  0
LTYPE
  2
PHANTOM
 70
     0
  3
Phantom ______  __  __  ______  __  __  ______
 72
    65
 73
     6
 40
12.7
 49
6.35
 49
-1.27
 49
1.27
 49
-1.27
 49
1.27
 49
-1.27
  0
LTYPE
  2
CENTER
 70
     0
  3
Center ____ _ ____ _ ____ _ ____ _ ____ _ ____
 72
    65
 73
     4
 40
10.16
 49
6.35
 49
-1.27
 49
1.27
 49
-1.27
  0
LTYPE
  2
CENTERX2
 70
     0
  3
Center (2x) ________  __  ________  __  _____
 72
    65
 73
     4
 40
20.32
 49
12.7
 49
-2.54
 49
2.54
 49
-2.54
  0
LTYPE
  2
DOT2
 70
     0
  3
Dot (.5x) ........................................
 72
    65
 73
     2
 40
0.635
 49
0.0
 49
-0.635
  0
ENDTAB
  0
TABLE
  2
LAYER
 70
     1
  0
LAYER
  2
0
 70
     0
 62
     7
  6
CONTINUOUS
  0
ENDTAB
  0
TABLE
  2
STYLE
 70
     1
  0
STYLE
  2
STANDARD
 70
     0
 40
0.0
 41
1.0
 50
0.0
 71
     0
 42
1.75
  3
txt
  4

  0
ENDTAB
  0
TABLE
  2
VIEW
 70
     0
  0
ENDTAB
  0
TABLE
  2
UCS
 70
     0
  0
ENDTAB
  0
TABLE
  2
APPID
 70
     1
  0
APPID
  2
ACAD
 70
     0
  0
ENDTAB
  0
TABLE
  2
DIMSTYLE
 70
     7
  0
DIMSTYLE
  2
ISO-25
 70
     0
  3

  4

  5

  6

  7

 40
1.0
 41
2.5
 42
0.625
 43
3.75
 44
1.25
 45
0.0
 46
0.0
 47
0.0
 48
0.0
140
2.5
141
2.5
142
0.0
143
0.0393700787
144
1.0
145
0.0
146
1.0
147
0.625
 71
     0
 72
     0
 73
     0
 74
     0
 75
     0
 76
     0
 77
     1
 78
     8
170
     0
171
     3
172
     1
173
     0
174
     0
175
     0
176
     0
177
     0
178
     0
  0
DIMSTYLE
  2
SLDDIMSTYLE0
 70
     0
  3

  4

  5

  6

  7

 40
1.0
 41
1.651
 42
0.0625
 43
0.38
 44
0.0
 45
0.000000001
 46
0.0
 47
0.0
 48
0.0
140
1.75
141
0.09
142
0.0
143
25.4
144
1.0
145
0.0
146
1.0
147
0.4375
 71
     0
 72
     0
 73
     0
 74
     0
 75
     0
 76
     0
 77
     1
 78
    12
170
     0
171
     2
172
     0
173
     1
174
     0
175
     0
176
     0
177
     0
178
     0
  0
DIMSTYLE
  2
SLDDIMSTYLE1
 70
     0
  3

  4

  5

  6

  7

 40
1.0
 41
1.651
 42
0.0625
 43
0.38
 44
0.0
 45
0.000000001
 46
0.0
 47
0.0
 48
0.0
140
1.75
141
0.09
142
0.0
143
25.4
144
1.0
145
0.0
146
1.0
147
0.4375
 71
     0
 72
     0
 73
     0
 74
     0
 75
     0
 76
     0
 77
     1
 78
    12
170
     0
171
     2
172
     0
173
     1
174
     0
175
     0
176
     0
177
     0
178
     0
  0
DIMSTYLE
  2
SLDDIMSTYLE2
 70
     0
  3

  4

  5

  6

  7

 40
1.0
 41
1.651
 42
0.0625
 43
0.38
 44
0.0
 45
0.000000001
 46
0.0
 47
0.0
 48
0.0
140
1.75
141
0.09
142
0.0
143
25.4
144
1.0
145
0.0
146
1.0
147
0.4375
 71
     0
 72
     0
 73
     0
 74
     0
 75
     0
 76
     0
 77
     1
 78
    12
170
     0
171
     2
172
     1
173
     1
174
     0
175
     0
176
     0
177
     0
178
     0
  0
DIMSTYLE
  2
SLDDIMSTYLE3
 70
     0
  3

  4

  5

  6
NONE
  7

 40
1.0
 41
1.651
 42
0.0625
 43
0.38
 44
0.0
 45
0.000000001
 46
0.0
 47
0.0
 48
0.0
140
1.75
141
0.0
142
0.0
143
25.4
144
1.0
145
0.0
146
1.0
147
0.4375
 71
     0
 72
     0
 73
     0
 74
     0
 75
     0
 76
     0
 77
     1
 78
    12
170
     0
171
     2
172
     1
173
     1
174
     0
175
     0
176
     0
177
     0
178
     0
  0
DIMSTYLE
  2
SLDDIMSTYLE4
 70
     0
  3

  4

  5

  6

  7

 40
1.0
 41
1.651
 42
0.0625
 43
0.38
 44
0.0
 45
0.000000001
 46
0.0
 47
0.0
 48
0.0
140
1.75
141
0.09
142
0.0
143
25.4
144
2.0
145
0.0
146
1.0
147
0.4375
 71
     0
 72
     0
 73
     0
 74
     0
 75
     0
 76
     0
 77
     1
 78
    12
170
     0
171
     2
172
     0
173
     1
174
     0
175
     0
176
     0
177
     0
178
     0
  0
DIMSTYLE
  2
SLDDIMSTYLE5
 70
     0
  3

  4

  5

  6

  7

 40
1.0
 41
1.651
 42
0.0625
 43
0.38
 44
0.0
 45
0.000000001
 46
0.0
 47
0.0
 48
0.0
140
1.75
141
0.09
142
0.0
143
25.4
144
2.0
145
0.0
146
1.0
147
0.4375
 71
     0
 72
     0
 73
     0
 74
     0
 75
     0
 76
     0
 77
     1
 78
    12
170
     0
171
     2
172
     1
173
     1
174
     0
175
     0
176
     0
177
     0
178
     0
  0
ENDTAB
  0
ENDSEC
  0
SECTION
  2
BLOCKS
  0
BLOCK
  8
0
  2
$MODEL_SPACE
 70
     0
 10
0.0
 20
0.0
 30
0.0
  3
$MODEL_SPACE
  1

  0
ENDBLK
  5
21
  8
0
  0
BLOCK
 67
     1
  8
0
  2
$PAPER_SPACE
 70
     0
 10
0.0
 20
0.0
 30
0.0
  3
$PAPER_SPACE
  1

  0
ENDBLK
  5
1D
 67
     1
  8
0
  0
BLOCK
  8
0
  2
SW_NOTE_0
 70
     0
 10
0.0
 20
0.0
 30
0.0
  3
SW_NOTE_0
  1

  0
TEXT
  5
D0
  8
0
  6
CONTINUOUS
 62
     0
 10
0.0
 20
0.4415750774
 30
0.0
 40
1.25
  1
Maßstab:      
 41
0.55
 11
0.0
 21
0.0
 31
0.0
 73
     1
  0
TEXT
  5
D1
  8
0
  6
CONTINUOUS
 62
     0
 10
9.8526477814
 20
0.4737607896
 30
0.0
 40
1.75
  1
2:1
 41
0.7
 11
9.8526477814
 21
-0.1444443187
 31
0.0
 73
     1
  0
ENDBLK
  5
CF
  8
0
  0
BLOCK
  8
0
  2
SW_NOTE_0_1
 70
     0
 10
0.0
 20
0.0
 30
0.0
  3
SW_NOTE_0_1
  1

  0
TEXT
  5
E2
  8
0
  6
CONTINUOUS
 62
     0
 10
0.0
 20
0.4415750774
 30
0.0
 40
1.25
  1
Breuer & Schmitz
 41
0.65625
 11
0.0
 21
0.0
 31
0.0
 73
     1
  0
TEXT
  5
E3
  8
0
  6
CONTINUOUS
 62
     0
 10
0.3359373659
 20
-1.3084249766
 30
0.0
 40
1.25
  1
GmbH & Co. KG
 41
0.6192307692
 11
0.3359373659
 21
-1.750000054
 31
0.0
 73
     1
  0
TEXT
  5
E4
  8
0
  6
CONTINUOUS
 62
     0
 10
0.6206594408
 20
-3.0584250306
 30
0.0
 40
1.25
  1
Solingen - Wald
 41
0.6533333333
 11
0.6206594408
 21
-3.500000108
 31
0.0
 73
     1
  0
TEXT
  5
E5
  8
0
  6
CONTINUOUS
 62
     0
 10
-0.3836806864
 20
-4.8084250847
 30
0.0
 40
1.25
  1
Baubeschlagfabrik
 41
0.7
 11
-0.3836806864
 21
-5.2500001621
 31
0.0
 73
     1
  0
ENDBLK
  5
E1
  8
0
  0
BLOCK
  8
0
  2
SW_NOTE_0_2
 70
     0
 10
0.0
 20
0.0
 30
0.0
  3
SW_NOTE_0_2
  1

  0
TEXT
  5
EA
  8
0
  6
CONTINUOUS
 62
     0
 10
0.0
 20
0.2804001741
 30
0.0
 40
0.79375
  1
Diese Zeichung ist unser Eigentum und darf weder
 41
0.6489583333
 11
0.0
 21
0.0
 31
0.0
 73
     1
  0
TEXT
  5
EB
  8
0
  6
CONTINUOUS
 62
     0
 10
0.0
 20
-0.7779331464
 30
0.0
 40
0.79375
  1
verwertet, vervielfältigt noch Dritten zugänglich 
 41
0.665
 11
0.0
 21
-1.0583333205
 31
0.0
 73
     1
  0
TEXT
  5
EC
  8
0
  6
CONTINUOUS
 62
     0
 10
0.0
 20
-1.8362664669
 30
0.0
 40
0.79375
  1
gemacht werden.
 41
0.7
 11
0.0
 21
-2.1166666411
 31
0.0
 73
     1
  0
TEXT
  5
ED
  8
0
  6
CONTINUOUS
 62
     0
 10
0.0
 20
-3.952933108
 30
0.0
 40
0.79375
  1
This drawing is our property and cannot either be 
 41
0.637
 11
0.0
 21
-4.2333332822
 31
0.0
 73
     1
  0
TEXT
  5
EE
  8
0
  6
CONTINUOUS
 62
     0
 10
0.0
 20
-5.0112664286
 30
0.0
 40
0.79375
  1
utilized for an other purpose or copied nor made 
 41
0.6357142857
 11
0.0
 21
-5.2916666027
 31
0.0
 73
     1
  0
TEXT
  5
EF
  8
0
  6
CONTINUOUS
 62
     0
 10
0.0
 20
-6.0695997491
 30
0.0
 40
0.79375
  1
available to a third.
 41
0.65
 11
0.0
 21
-6.3499999233
 31
0.0
 73
     1
  0
ENDBLK
  5
E9
  8
0
  0
BLOCK
  8
0
  2
_D
 70
     0
 10
0.0
 20
0.0
 30
0.0
  3
_D
  1

  0
SOLID
  5
13F
  8
0
  6
CONTINUOUS
 62
     7
 10
90.7241572891
 20
129.7409260064
 30
0.0
 11
90.3641572891
 21
128.0899260064
 31
0.0
 12
91.0841572891
 22
128.0899260064
 32
0.0
 13
91.0841572891
 23
128.0899260064
 33
0.0
  0
SOLID
  5
140
  8
0
  6
CONTINUOUS
 62
     7
 10
90.7241572891
 20
79.7409260064
 30
0.0
 11
91.0841572891
 21
81.3919260064
 31
0.0
 12
90.3641572891
 22
81.3919260064
 32
0.0
 13
90.3641572891
 23
81.3919260064
 33
0.0
  0
LINE
  5
141
  8
0
  6
CONTINUOUS
 62
     7
 10
83.2241572891
 20
129.7409260064
 30
0.0
 11
91.2241572891
 21
129.7409260064
 31
0.0
  0
LINE
  5
142
  8
0
  6
CONTINUOUS
 62
     7
 10
83.2241572891
 20
79.7409260064
 30
0.0
 11
91.2241572891
 21
79.7409260064
 31
0.0
  0
LINE
  5
143
  8
0
  6
CONTINUOUS
 62
     7
 10
90.7241572891
 20
129.7409260064
 30
0.0
 11
90.7241572891
 21
79.7409260064
 31
0.0
  0
TEXT
  5
144
  8
0
  6
CONTINUOUS
 62
     7
 10
90.1059522681
 20
104.3780881382
 30
0.0
 40
1.75
  1
50
 50
90.0
 41
0.7
 11
90.7241573764
 21
104.3780881382
 31
0.0
 73
     1
  0
ENDBLK
  5
13E
  8
0
  0
BLOCK
  8
0
  2
_D_1
 70
     0
 10
0.0
 20
0.0
 30
0.0
  3
_D_1
  1

  0
SOLID
  5
14A
  8
0
  6
CONTINUOUS
 62
     7
 10
30.7241572891
 20
135.7847077748
 30
0.0
 11
32.3751572891
 21
135.4247077748
 31
0.0
 12
32.3751572891
 22
136.1447077748
 32
0.0
 13
32.3751572891
 23
136.1447077748
 33
0.0
  0
SOLID
  5
14B
  8
0
  6
CONTINUOUS
 62
     7
 10
82.7241572891
 20
135.7847077748
 30
0.0
 11
81.0731572891
 21
136.1447077748
 31
0.0
 12
81.0731572891
 22
135.4247077748
 32
0.0
 13
81.0731572891
 23
135.4247077748
 33
0.0
  0
LINE
  5
14C
  8
0
  6
CONTINUOUS
 62
     7
 10
30.7241572891
 20
130.2409260064
 30
0.0
 11
30.7241572891
 21
136.2847077748
 31
0.0
  0
LINE
  5
14D
  8
0
  6
CONTINUOUS
 62
     7
 10
82.7241572891
 20
130.2409260064
 30
0.0
 11
82.7241572891
 21
136.2847077748
 31
0.0
  0
LINE
  5
14E
  8
0
  6
CONTINUOUS
 62
     7
 10
30.7241572891
 20
135.7847077748
 30
0.0
 11
82.7241572891
 21
135.7847077748
 31
0.0
  0
TEXT
  5
14F
  8
0
  6
CONTINUOUS
 62
     7
 10
54.2422792173
 20
136.4029127959
 30
0.0
 40
1.75
  1
52
 41
0.7
 11
54.2422792173
 21
135.7847076875
 31
0.0
 73
     1
  0
ENDBLK
  5
149
  8
0
  0
BLOCK
  8
0
  2
_D_2
 70
     0
 10
0.0
 20
0.0
 30
0.0
  3
_D_2
  1

  0
SOLID
  5
154
  8
0
  6
CONTINUOUS
 62
     7
 10
25.7241572891
 20
119.7409260064
 30
0.0
 11
25.3641572891
 21
118.0899260064
 31
0.0
 12
26.0841572891
 22
118.0899260064
 32
0.0
 13
26.0841572891
 23
118.0899260064
 33
0.0
  0
SOLID
  5
155
  8
0
  6
CONTINUOUS
 62
     7
 10
25.7241572891
 20
89.7409260064
 30
0.0
 11
26.0841572891
 21
91.3919260064
 31
0.0
 12
25.3641572891
 22
91.3919260064
 32
0.0
 13
25.3641572891
 23
91.3919260064
 33
0.0
  0
LINE
  5
156
  8
0
  6
CONTINUOUS
 62
     7
 10
40.2241572891
 20
119.7409260064
 30
0.0
 11
25.2241572891
 21
119.7409260064
 31
0.0
  0
LINE
  5
157
  8
0
  6
CONTINUOUS
 62
     7
 10
40.2241572891
 20
89.7409260064
 30
0.0
 11
25.2241572891
 21
89.7409260064
 31
0.0
  0
LINE
  5
158
  8
0
  6
CONTINUOUS
 62
     7
 10
25.7241572891
 20
119.7409260064
 30
0.0
 11
25.7241572891
 21
89.7409260064
 31
0.0
  0
TEXT
  5
159
  8
0
  6
CONTINUOUS
 62
     7
 10
25.1059522681
 20
102.9553346967
 30
0.0
 40
1.75
  1
30
 50
90.0
 41
0.7
 11
25.7241573764
 21
102.9553346967
 31
0.0
 73
     1
  0
ENDBLK
  5
153
  8
0
  0
BLOCK
  8
0
  2
_D_3
 70
     0
 10
0.0
 20
0.0
 30
0.0
  3
_D_3
  1

  0
SOLID
  5
15F
  8
0
  6
CONTINUOUS
 62
     7
 10
40.7241572891
 20
75.1276196217
 30
0.0
 11
39.0731572891
 21
75.4876196217
 31
0.0
 12
39.0731572891
 22
74.7676196217
 32
0.0
 13
39.0731572891
 23
74.7676196217
 33
0.0
  0
SOLID
  5
160
  8
0
  6
CONTINUOUS
 62
     7
 10
30.7241572891
 20
75.1276196217
 30
0.0
 11
32.3751572891
 21
74.7676196217
 31
0.0
 12
32.3751572891
 22
75.4876196217
 32
0.0
 13
32.3751572891
 23
75.4876196217
 33
0.0
  0
LINE
  5
161
  8
0
  6
CONTINUOUS
 62
     7
 10
40.7241572891
 20
82.2409260064
 30
0.0
 11
40.7241572891
 21
74.6276196217
 31
0.0
  0
LINE
  5
162
  8
0
  6
CONTINUOUS
 62
     7
 10
30.7241572891
 20
79.2409260064
 30
0.0
 11
30.7241572891
 21
74.6276196217
 31
0.0
  0
LINE
  5
163
  8
0
  6
CONTINUOUS
 62
     7
 10
40.7241572891
 20
75.1276196217
 30
0.0
 11
30.7241572891
 21
75.1276196217
 31
0.0
  0
TEXT
  5
164
  8
0
  6
CONTINUOUS
 62
     7
 10
33.8055354648
 20
75.7458246427
 30
0.0
 40
1.75
  1
10
 50
0.0
 41
0.7
 11
33.8055354648
 21
75.1276195344
 31
0.0
 73
     1
  0
ENDBLK
  5
15E
  8
0
  0
BLOCK
  8
0
  2
_D_4
 70
     0
 10
0.0
 20
0.0
 30
0.0
  3
_D_4
  1

  0
SOLID
  5
169
  8
0
  6
CONTINUOUS
 62
     7
 10
70.2241572891
 20
75.1276196217
 30
0.0
 11
68.5731572891
 21
75.4876196217
 31
0.0
 12
68.5731572891
 22
74.7676196217
 32
0.0
 13
68.5731572891
 23
74.7676196217
 33
0.0
  0
SOLID
  5
16A
  8
0
  6
CONTINUOUS
 62
     7
 10
75.2241572891
 20
75.1276196217
 30
0.0
 11
76.8751572891
 21
74.7676196217
 31
0.0
 12
76.8751572891
 22
75.4876196217
 32
0.0
 13
76.8751572891
 23
75.4876196217
 33
0.0
  0
LINE
  5
16B
  8
0
  6
CONTINUOUS
 62
     7
 10
70.2241572891
 20
89.2409260064
 30
0.0
 11
70.2241572891
 21
74.6276196217
 31
0.0
  0
LINE
  5
16C
  8
0
  6
CONTINUOUS
 62
     7
 10
75.2241572891
 20
89.2409260064
 30
0.0
 11
75.2241572891
 21
74.6276196217
 31
0.0
  0
LINE
  5
16D
  8
0
  6
CONTINUOUS
 62
     7
 10
70.2241572891
 20
75.1276196217
 30
0.0
 11
67.0491572891
 21
75.1276196217
 31
0.0
  0
LINE
  5
16E
  8
0
  6
CONTINUOUS
 62
     7
 10
70.2241572891
 20
75.1276196217
 30
0.0
 11
75.2241572891
 21
75.1276196217
 31
0.0
  0
LINE
  5
16F
  8
0
  6
CONTINUOUS
 62
     7
 10
75.2241572891
 20
75.1276196217
 30
0.0
 11
78.3991572891
 21
75.1276196217
 31
0.0
  0
TEXT
  5
170
  8
0
  6
CONTINUOUS
 62
     7
 10
70.6289192805
 20
75.7458247301
 30
0.0
 40
1.75
  1
%%c
 41
0.7
 11
70.6289192805
 21
75.1276196217
 31
0.0
 73
     1
  0
TEXT
  5
171
  8
0
  6
CONTINUOUS
 62
     7
 10
73.2681379797
 20
75.7725608184
 30
0.0
 40
1.75
  1
5
 41
0.7
 11
73.2681379797
 21
75.15435571
 31
0.0
 73
     1
  0
ENDBLK
  5
168
  8
0
  0
BLOCK
  8
0
  2
_D_5
 70
     0
 10
0.0
 20
0.0
 30
0.0
  3
_D_5
  1

  0
SOLID
  5
176
  8
0
  6
CONTINUOUS
 62
     7
 10
68.2241572891
 20
70.2409260064
 30
0.0
 11
66.5731572891
 21
70.6009260064
 31
0.0
 12
66.5731572891
 22
69.8809260064
 32
0.0
 13
66.5731572891
 23
69.8809260064
 33
0.0
  0
SOLID
  5
177
  8
0
  6
CONTINUOUS
 62
     7
 10
77.2241572891
 20
70.2409260064
 30
0.0
 11
78.8751572891
 21
69.8809260064
 31
0.0
 12
78.8751572891
 22
70.6009260064
 32
0.0
 13
78.8751572891
 23
70.6009260064
 33
0.0
  0
LINE
  5
178
  8
0
  6
CONTINUOUS
 62
     7
 10
68.2241572891
 20
89.2409260064
 30
0.0
 11
68.2241572891
 21
69.7409260064
 31
0.0
  0
LINE
  5
179
  8
0
  6
CONTINUOUS
 62
     7
 10
77.2241572891
 20
89.2409260064
 30
0.0
 11
77.2241572891
 21
69.7409260064
 31
0.0
  0
LINE
  5
17A
  8
0
  6
CONTINUOUS
 62
     7
 10
68.2241572891
 20
70.2409260064
 30
0.0
 11
65.0491572891
 21
70.2409260064
 31
0.0
  0
LINE
  5
17B
  8
0
  6
CONTINUOUS
 62
     7
 10
68.2241572891
 20
70.2409260064
 30
0.0
 11
77.2241572891
 21
70.2409260064
 31
0.0
  0
LINE
  5
17C
  8
0
  6
CONTINUOUS
 62
     7
 10
77.2241572891
 20
70.2409260064
 30
0.0
 11
80.3991572891
 21
70.2409260064
 31
0.0
  0
TEXT
  5
17D
  8
0
  6
CONTINUOUS
 62
     7
 10
68.3089540018
 20
70.8591311148
 30
0.0
 40
1.75
  1
%%c
 41
0.7
 11
68.3089540018
 21
70.2409260064
 31
0.0
 73
     1
  0
TEXT
  5
17E
  8
0
  6
CONTINUOUS
 62
     7
 10
70.948172701
 20
70.8858672031
 30
0.0
 40
1.75
  1
9
 41
0.7
 11
70.948172701
 21
70.2676620948
 31
0.0
 73
     1
  0
TEXT
  5
17F
  8
0
  6
CONTINUOUS
 62
     7
 10
72.2412284141
 20
70.8858672031
 30
0.0
 40
1.75
  1
x90°
 41
0.7
 11
72.2412284141
 21
70.2676620948
 31
0.0
 73
     1
  0
ENDBLK
  5
175
  8
0
  0
BLOCK
  8
0
  2
SW_CENTERMARKSYMBOL_0
 70
     0
 10
0.0
 20
0.0
 30
0.0
  3
SW_CENTERMARKSYMBOL_0
  1

  0
LINE
  5
183
  8
0
  6
CONTINUOUS
 62
     0
 10
0.0
 20
0.0
 30
0.0
 11
0.0
 21
2.5
 31
0.0
  0
LINE
  5
184
  8
0
  6
CONTINUOUS
 62
     0
 10
0.0
 20
0.0
 30
0.0
 11
-2.5
 21
0.0
 31
0.0
  0
LINE
  5
185
  8
0
  6
CONTINUOUS
 62
     0
 10
0.0
 20
0.0
 30
0.0
 11
0.0
 21
-2.5
 31
0.0
  0
LINE
  5
186
  8
0
  6
CONTINUOUS
 62
     0
 10
0.0
 20
0.0
 30
0.0
 11
2.5
 21
0.0
 31
0.0
  0
LINE
  5
187
  8
0
  6
CONTINUOUS
 62
     0
 10
0.0
 20
5.0
 30
0.0
 11
0.0
 21
7.0
 31
0.0
  0
LINE
  5
188
  8
0
  6
CONTINUOUS
 62
     0
 10
-5.0
 20
0.0
 30
0.0
 11
-7.0
 21
0.0
 31
0.0
  0
LINE
  5
189
  8
0
  6
CONTINUOUS
 62
     0
 10
0.0
 20
-5.0
 30
0.0
 11
0.0
 21
-7.0
 31
0.0
  0
LINE
  5
18A
  8
0
  6
CONTINUOUS
 62
     0
 10
5.0
 20
0.0
 30
0.0
 11
7.0
 21
0.0
 31
0.0
  0
ENDBLK
  5
182
  8
0
  0
BLOCK
  8
0
  2
SW_CENTERMARKSYMBOL_1
 70
     0
 10
0.0
 20
0.0
 30
0.0
  3
SW_CENTERMARKSYMBOL_1
  1

  0
LINE
  5
18F
  8
0
  6
CONTINUOUS
 62
     0
 10
0.0
 20
0.0
 30
0.0
 11
0.0
 21
2.5
 31
0.0
  0
LINE
  5
190
  8
0
  6
CONTINUOUS
 62
     0
 10
0.0
 20
0.0
 30
0.0
 11
-2.5
 21
0.0
 31
0.0
  0
LINE
  5
191
  8
0
  6
CONTINUOUS
 62
     0
 10
0.0
 20
0.0
 30
0.0
 11
0.0
 21
-2.5
 31
0.0
  0
LINE
  5
192
  8
0
  6
CONTINUOUS
 62
     0
 10
0.0
 20
0.0
 30
0.0
 11
2.5
 21
0.0
 31
0.0
  0
LINE
  5
193
  8
0
  6
CONTINUOUS
 62
     0
 10
0.0
 20
5.0
 30
0.0
 11
0.0
 21
7.0
 31
0.0
  0
LINE
  5
194
  8
0
  6
CONTINUOUS
 62
     0
 10
-5.0
 20
0.0
 30
0.0
 11
-7.0
 21
0.0
 31
0.0
  0
LINE
  5
195
  8
0
  6
CONTINUOUS
 62
     0
 10
0.0
 20
-5.0
 30
0.0
 11
0.0
 21
-7.0
 31
0.0
  0
LINE
  5
196
  8
0
  6
CONTINUOUS
 62
     0
 10
5.0
 20
0.0
 30
0.0
 11
7.0
 21
0.0
 31
0.0
  0
ENDBLK
  5
18E
  8
0
  0
BLOCK
  8
0
  2
SW_CENTERMARKSYMBOL_2
 70
     0
 10
0.0
 20
0.0
 30
0.0
  3
SW_CENTERMARKSYMBOL_2
  1

  0
LINE
  5
19B
  8
0
  6
CONTINUOUS
 62
     0
 10
0.0
 20
0.0
 30
0.0
 11
0.0
 21
2.5
 31
0.0
  0
LINE
  5
19C
  8
0
  6
CONTINUOUS
 62
     0
 10
0.0
 20
0.0
 30
0.0
 11
-2.5
 21
0.0
 31
0.0
  0
LINE
  5
19D
  8
0
  6
CONTINUOUS
 62
     0
 10
0.0
 20
0.0
 30
0.0
 11
0.0
 21
-2.5
 31
0.0
  0
LINE
  5
19E
  8
0
  6
CONTINUOUS
 62
     0
 10
0.0
 20
0.0
 30
0.0
 11
2.5
 21
0.0
 31
0.0
  0
LINE
  5
19F
  8
0
  6
CONTINUOUS
 62
     0
 10
0.0
 20
5.0
 30
0.0
 11
0.0
 21
7.0
 31
0.0
  0
LINE
  5
1A0
  8
0
  6
CONTINUOUS
 62
     0
 10
-5.0
 20
0.0
 30
0.0
 11
-7.0
 21
0.0
 31
0.0
  0
LINE
  5
1A1
  8
0
  6
CONTINUOUS
 62
     0
 10
0.0
 20
-5.0
 30
0.0
 11
0.0
 21
-7.0
 31
0.0
  0
LINE
  5
1A2
  8
0
  6
CONTINUOUS
 62
     0
 10
5.0
 20
0.0
 30
0.0
 11
7.0
 21
0.0
 31
0.0
  0
ENDBLK
  5
19A
  8
0
  0
BLOCK
  8
0
  2
SW_CENTERMARKSYMBOL_3
 70
     0
 10
0.0
 20
0.0
 30
0.0
  3
SW_CENTERMARKSYMBOL_3
  1

  0
LINE
  5
1A7
  8
0
  6
CONTINUOUS
 62
     0
 10
0.0
 20
0.0
 30
0.0
 11
0.0
 21
2.5
 31
0.0
  0
LINE
  5
1A8
  8
0
  6
CONTINUOUS
 62
     0
 10
0.0
 20
0.0
 30
0.0
 11
-2.5
 21
0.0
 31
0.0
  0
LINE
  5
1A9
  8
0
  6
CONTINUOUS
 62
     0
 10
0.0
 20
0.0
 30
0.0
 11
0.0
 21
-2.5
 31
0.0
  0
LINE
  5
1AA
  8
0
  6
CONTINUOUS
 62
     0
 10
0.0
 20
0.0
 30
0.0
 11
2.5
 21
0.0
 31
0.0
  0
LINE
  5
1AB
  8
0
  6
CONTINUOUS
 62
     0
 10
0.0
 20
5.0
 30
0.0
 11
0.0
 21
7.0
 31
0.0
  0
LINE
  5
1AC
  8
0
  6
CONTINUOUS
 62
     0
 10
-5.0
 20
0.0
 30
0.0
 11
-7.0
 21
0.0
 31
0.0
  0
LINE
  5
1AD
  8
0
  6
CONTINUOUS
 62
     0
 10
0.0
 20
-5.0
 30
0.0
 11
0.0
 21
-7.0
 31
0.0
  0
LINE
  5
1AE
  8
0
  6
CONTINUOUS
 62
     0
 10
5.0
 20
0.0
 30
0.0
 11
7.0
 21
0.0
 31
0.0
  0
ENDBLK
  5
1A6
  8
0
  0
BLOCK
  8
0
  2
SW_CENTERMARKSYMBOL_4
 70
     0
 10
0.0
 20
0.0
 30
0.0
  3
SW_CENTERMARKSYMBOL_4
  1

  0
LINE
  5
1B3
  8
0
  6
CONTINUOUS
 62
     0
 10
0.0
 20
0.0
 30
0.0
 11
0.0
 21
2.5
 31
0.0
  0
LINE
  5
1B4
  8
0
  6
CONTINUOUS
 62
     0
 10
0.0
 20
0.0
 30
0.0
 11
-2.5
 21
0.0
 31
0.0
  0
LINE
  5
1B5
  8
0
  6
CONTINUOUS
 62
     0
 10
0.0
 20
0.0
 30
0.0
 11
0.0
 21
-2.5
 31
0.0
  0
LINE
  5
1B6
  8
0
  6
CONTINUOUS
 62
     0
 10
0.0
 20
0.0
 30
0.0
 11
2.5
 21
0.0
 31
0.0
  0
LINE
  5
1B7
  8
0
  6
CONTINUOUS
 62
     0
 10
0.0
 20
5.0
 30
0.0
 11
0.0
 21
7.0
 31
0.0
  0
LINE
  5
1B8
  8
0
  6
CONTINUOUS
 62
     0
 10
-5.0
 20
0.0
 30
0.0
 11
-7.0
 21
0.0
 31
0.0
  0
LINE
  5
1B9
  8
0
  6
CONTINUOUS
 62
     0
 10
0.0
 20
-5.0
 30
0.0
 11
0.0
 21
-7.0
 31
0.0
  0
LINE
  5
1BA
  8
0
  6
CONTINUOUS
 62
     0
 10
5.0
 20
0.0
 30
0.0
 11
7.0
 21
0.0
 31
0.0
  0
ENDBLK
  5
1B2
  8
0
  0
BLOCK
  8
0
  2
_NONE
 70
     0
 10
0.0
 20
0.0
 30
0.0
  3
_NONE
  1

  0
ENDBLK
  5
1D9
  8
0
  0
BLOCK
  8
0
  2
_D_6
 70
     0
 10
0.0
 20
0.0
 30
0.0
  3
_D_6
  1

  0
SOLID
  5
1DD
  8
0
  6
CONTINUOUS
 62
     7
 10
56.7241572891
 20
53.6841016823
 30
0.0
 11
57.0841572891
 21
55.3351016823
 31
0.0
 12
56.3641572891
 22
55.3351016823
 32
0.0
 13
56.3641572891
 23
55.3351016823
 33
0.0
  0
LINE
  5
1DE
  8
0
  6
CONTINUOUS
 62
     7
 10
56.7241572891
 20
53.6841016823
 30
0.0
 11
56.7241572891
 21
64.2419892959
 31
0.0
  0
LINE
  5
1DF
  8
0
  6
CONTINUOUS
 62
     7
 10
56.7241572891
 20
53.6841016823
 30
0.0
 11
56.7241572891
 21
45.1841016823
 31
0.0
  0
TEXT
  5
1E0
  8
0
  6
CONTINUOUS
 62
     7
 10
56.115505988
 20
58.3701313138
 30
-1.375
 40
1.75
  1
%%c
 50
90.0
 41
0.7
 11
56.7337110963
 21
58.3701313138
 31
-1.375
 73
     1
  0
TEXT
  5
1E1
  8
0
  6
CONTINUOUS
 62
     7
 10
56.0887698997
 20
61.009350013
 30
-1.375
 40
1.75
  1
8,5
 50
90.0
 41
0.7
 11
56.706975008
 21
61.009350013
 31
-1.375
 73
     1
  0
ENDBLK
  5
1DC
  8
0
  0
BLOCK
  8
0
  2
_D_7
 70
     0
 10
0.0
 20
0.0
 30
0.0
  3
_D_7
  1

  0
SOLID
  5
1E6
  8
0
  6
CONTINUOUS
 62
     7
 10
86.8313769123
 20
50.4341016823
 30
0.0
 11
87.1913769123
 21
52.0851016823
 31
0.0
 12
86.4713769123
 22
52.0851016823
 32
0.0
 13
86.4713769123
 23
52.0851016823
 33
0.0
  0
SOLID
  5
1E7
  8
0
  6
CONTINUOUS
 62
     7
 10
86.8313769123
 20
49.4341016823
 30
0.0
 11
86.4713769123
 21
47.7831016823
 31
0.0
 12
87.1913769123
 22
47.7831016823
 32
0.0
 13
87.1913769123
 23
47.7831016823
 33
0.0
  0
LINE
  5
1E8
  8
0
  6
CONTINUOUS
 62
     7
 10
83.2241572891
 20
50.4341016823
 30
0.0
 11
87.3313769123
 21
50.4341016823
 31
0.0
  0
LINE
  5
1E9
  8
0
  6
CONTINUOUS
 62
     7
 10
61.9741572891
 20
49.4341016823
 30
0.0
 11
87.3313769123
 21
49.4341016823
 31
0.0
  0
LINE
  5
1EA
  8
0
  6
CONTINUOUS
 62
     7
 10
86.8313769123
 20
50.4341016823
 30
0.0
 11
86.8313769123
 21
53.6091016823
 31
0.0
  0
LINE
  5
1EB
  8
0
  6
CONTINUOUS
 62
     7
 10
86.8313769123
 20
50.4341016823
 30
0.0
 11
86.8313769123
 21
49.4341016823
 31
0.0
  0
LINE
  5
1EC
  8
0
  6
CONTINUOUS
 62
     7
 10
86.8313769123
 20
49.4341016823
 30
0.0
 11
86.8313769123
 21
45.1058086024
 31
0.0
  0
TEXT
  5
1ED
  8
0
  6
CONTINUOUS
 62
     7
 10
86.2131718912
 20
45.1058086024
 30
-1.375
 40
1.75
  1
1
 50
90.0
 41
0.7
 11
86.8313769996
 21
45.1058086024
 31
-1.375
 73
     1
  0
ENDBLK
  5
1E5
  8
0
  0
BLOCK
  8
0
  2
_D_8
 70
     0
 10
0.0
 20
0.0
 30
0.0
  3
_D_8
  1

  0
SOLID
  5
1F2
  8
0
  6
CONTINUOUS
 62
     7
 10
25.7241572891
 20
52.4341016823
 30
0.0
 11
26.0841572891
 21
54.0851016823
 31
0.0
 12
25.3641572891
 22
54.0851016823
 32
0.0
 13
25.3641572891
 23
54.0851016823
 33
0.0
  0
SOLID
  5
1F3
  8
0
  6
CONTINUOUS
 62
     7
 10
25.7241572891
 20
50.4341016823
 30
0.0
 11
25.3641572891
 21
48.7831016823
 31
0.0
 12
26.0841572891
 22
48.7831016823
 32
0.0
 13
26.0841572891
 23
48.7831016823
 33
0.0
  0
LINE
  5
1F4
  8
0
  6
CONTINUOUS
 62
     7
 10
30.2241572891
 20
52.4341016823
 30
0.0
 11
25.2241572891
 21
52.4341016823
 31
0.0
  0
LINE
  5
1F5
  8
0
  6
CONTINUOUS
 62
     7
 10
30.2241572891
 20
50.4341016823
 30
0.0
 11
25.2241572891
 21
50.4341016823
 31
0.0
  0
LINE
  5
1F6
  8
0
  6
CONTINUOUS
 62
     7
 10
25.7241572891
 20
52.4341016823
 30
0.0
 11
25.7241572891
 21
55.6091016823
 31
0.0
  0
LINE
  5
1F7
  8
0
  6
CONTINUOUS
 62
     7
 10
25.7241572891
 20
52.4341016823
 30
0.0
 11
25.7241572891
 21
50.4341016823
 31
0.0
  0
LINE
  5
1F8
  8
0
  6
CONTINUOUS
 62
     7
 10
25.7241572891
 20
50.4341016823
 30
0.0
 11
25.7241572891
 21
45.1058086024
 31
0.0
  0
TEXT
  5
1F9
  8
0
  6
CONTINUOUS
 62
     7
 10
25.1059522681
 20
45.1058086024
 30
-1.375
 40
1.75
  1
2
 50
90.0
 41
0.7
 11
25.7241573764
 21
45.1058086024
 31
-1.375
 73
     1
  0
ENDBLK
  5
1F1
  8
0
  0
BLOCK
  8
0
  2
_D_9
 70
     0
 10
0.0
 20
0.0
 30
0.0
  3
_D_9
  1

  0
SOLID
  5
1FE
  8
0
  6
CONTINUOUS
 62
     7
 10
30.7241572891
 20
36.6159400016
 30
0.0
 11
32.3751572891
 21
36.2559400016
 31
0.0
 12
32.3751572891
 22
36.9759400016
 32
0.0
 13
32.3751572891
 23
36.9759400016
 33
0.0
  0
SOLID
  5
1FF
  8
0
  6
CONTINUOUS
 62
     7
 10
56.7241572891
 20
36.6159400016
 30
0.0
 11
55.0731572891
 21
36.9759400016
 31
0.0
 12
55.0731572891
 22
36.2559400016
 32
0.0
 13
55.0731572891
 23
36.2559400016
 33
0.0
  0
LINE
  5
200
  8
0
  6
CONTINUOUS
 62
     7
 10
30.7241572891
 20
49.9341016823
 30
0.0
 11
30.7241572891
 21
36.1159400016
 31
0.0
  0
LINE
  5
201
  8
0
  6
CONTINUOUS
 62
     7
 10
56.7241572891
 20
48.9341016823
 30
0.0
 11
56.7241572891
 21
36.1159400016
 31
0.0
  0
LINE
  5
202
  8
0
  6
CONTINUOUS
 62
     7
 10
30.7241572891
 20
36.6159400016
 30
0.0
 11
56.7241572891
 21
36.6159400016
 31
0.0
  0
TEXT
  5
203
  8
0
  6
CONTINUOUS
 62
     7
 10
44.1086979746
 20
37.2341450226
 30
-1.375
 40
1.75
  1
26
 41
0.7
 11
44.1086979746
 21
36.6159399143
 31
-1.375
 73
     1
  0
ENDBLK
  5
1FD
  8
0
  0
BLOCK
  8
0
  2
_D_10
 70
     0
 10
0.0
 20
0.0
 30
0.0
  3
_D_10
  1

  0
SOLID
  5
208
  8
0
  6
CONTINUOUS
 62
     7
 10
56.7241572891
 20
36.5534387169
 30
0.0
 11
58.3751572891
 21
36.1934387169
 31
0.0
 12
58.3751572891
 22
36.9134387169
 32
0.0
 13
58.3751572891
 23
36.9134387169
 33
0.0
  0
SOLID
  5
209
  8
0
  6
CONTINUOUS
 62
     7
 10
82.7241572891
 20
36.5534387169
 30
0.0
 11
81.0731572891
 21
36.9134387169
 31
0.0
 12
81.0731572891
 22
36.1934387169
 32
0.0
 13
81.0731572891
 23
36.1934387169
 33
0.0
  0
LINE
  5
20A
  8
0
  6
CONTINUOUS
 62
     7
 10
56.7241572891
 20
48.9341016823
 30
0.0
 11
56.7241572891
 21
36.0534387169
 31
0.0
  0
LINE
  5
20B
  8
0
  6
CONTINUOUS
 62
     7
 10
82.7241572891
 20
49.9341016823
 30
0.0
 11
82.7241572891
 21
36.0534387169
 31
0.0
  0
LINE
  5
20C
  8
0
  6
CONTINUOUS
 62
     7
 10
56.7241572891
 20
36.5534387169
 30
0.0
 11
82.7241572891
 21
36.5534387169
 31
0.0
  0
TEXT
  5
20D
  8
0
  6
CONTINUOUS
 62
     7
 10
69.6103898031
 20
37.1716437379
 30
-1.375
 40
1.75
  1
26
 41
0.7
 11
69.6103898031
 21
36.5534386296
 31
-1.375
 73
     1
  0
ENDBLK
  5
207
  8
0
  0
BLOCK
  8
0
  2
SW_CENTERMARKSYMBOL_5
 70
     0
 10
0.0
 20
0.0
 30
0.0
  3
SW_CENTERMARKSYMBOL_5
  1

  0
LINE
  5
211
  8
0
  6
CONTINUOUS
 62
     0
 10
0.0
 20
0.0
 30
0.0
 11
0.0
 21
2.5
 31
0.0
  0
LINE
  5
212
  8
0
  6
CONTINUOUS
 62
     0
 10
0.0
 20
0.0
 30
0.0
 11
-2.5
 21
0.0
 31
0.0
  0
LINE
  5
213
  8
0
  6
CONTINUOUS
 62
     0
 10
0.0
 20
0.0
 30
0.0
 11
0.0
 21
-2.5
 31
0.0
  0
LINE
  5
214
  8
0
  6
CONTINUOUS
 62
     0
 10
0.0
 20
0.0
 30
0.0
 11
2.5
 21
0.0
 31
0.0
  0
LINE
  5
215
  8
0
  6
CONTINUOUS
 62
     0
 10
0.0
 20
2.5
 30
0.0
 11
0.0
 21
4.75
 31
0.0
  0
LINE
  5
216
  8
0
  6
CONTINUOUS
 62
     0
 10
-2.5
 20
0.0
 30
0.0
 11
-4.75
 21
0.0
 31
0.0
  0
LINE
  5
217
  8
0
  6
CONTINUOUS
 62
     0
 10
0.0
 20
-2.5
 30
0.0
 11
0.0
 21
-4.75
 31
0.0
  0
LINE
  5
218
  8
0
  6
CONTINUOUS
 62
     0
 10
2.5
 20
0.0
 30
0.0
 11
4.75
 21
0.0
 31
0.0
  0
ENDBLK
  5
210
  8
0
  0
BLOCK
  8
0
  2
_D_11
 70
     0
 10
0.0
 20
0.0
 30
0.0
  3
_D_11
  1

  0
SOLID
  5
3A3
  8
0
  6
CONTINUOUS
 62
     7
 10
145.3812628403
 20
93.0108133557
 30
0.0
 11
147.0322628403
 21
92.6508133557
 31
0.0
 12
147.0322628403
 22
93.3708133557
 32
0.0
 13
147.0322628403
 23
93.3708133557
 33
0.0
  0
SOLID
  5
3A4
  8
0
  6
CONTINUOUS
 62
     7
 10
155.3812628403
 20
93.0108133557
 30
0.0
 11
153.7302628403
 21
93.3708133557
 31
0.0
 12
153.7302628403
 22
92.6508133557
 32
0.0
 13
153.7302628403
 23
92.6508133557
 33
0.0
  0
LINE
  5
3A5
  8
0
  6
CONTINUOUS
 62
     7
 10
155.3812628403
 20
99.5725902301
 30
0.0
 11
155.3812628403
 21
92.5108133557
 31
0.0
  0
LINE
  5
3A6
  8
0
  6
CONTINUOUS
 62
     7
 10
145.3812628403
 20
93.0108133557
 30
0.0
 11
140.2117401369
 21
93.0108133557
 31
0.0
  0
LINE
  5
3A7
  8
0
  6
CONTINUOUS
 62
     7
 10
145.3812628403
 20
93.0108133557
 30
0.0
 11
155.3812628403
 21
93.0108133557
 31
0.0
  0
TEXT
  5
3A8
  8
0
  6
CONTINUOUS
 62
     7
 10
140.2117401369
 20
93.6290183767
 30
0.11
 40
1.75
  1
20
 50
0.0
 41
0.7
 11
140.2117401369
 21
93.0108132684
 31
0.11
 73
     1
  0
ENDBLK
  5
3A2
  8
0
  0
BLOCK
  8
0
  2
_D_12
 70
     0
 10
0.0
 20
0.0
 30
0.0
  3
_D_12
  1

  0
SOLID
  5
3AE
  8
0
  6
CONTINUOUS
 62
     7
 10
142.3812628403
 20
103.9468269994
 30
0.0
 11
140.7302628403
 21
104.3068269994
 31
0.0
 12
140.7302628403
 22
103.5868269994
 32
0.0
 13
140.7302628403
 23
103.5868269994
 33
0.0
  0
SOLID
  5
3AF
  8
0
  6
CONTINUOUS
 62
     7
 10
145.3812628403
 20
103.9468269994
 30
0.0
 11
147.0322628403
 21
103.5868269994
 31
0.0
 12
147.0322628403
 22
104.3068269994
 32
0.0
 13
147.0322628403
 23
104.3068269994
 33
0.0
  0
LINE
  5
3B0
  8
0
  6
CONTINUOUS
 62
     7
 10
142.3812628403
 20
100.0725902301
 30
0.0
 11
142.3812628403
 21
104.4468269994
 31
0.0
  0
LINE
  5
3B1
  8
0
  6
CONTINUOUS
 62
     7
 10
142.3812628403
 20
103.9468269994
 30
0.0
 11
139.2062628403
 21
103.9468269994
 31
0.0
  0
LINE
  5
3B2
  8
0
  6
CONTINUOUS
 62
     7
 10
142.3812628403
 20
103.9468269994
 30
0.0
 11
145.3812628403
 21
103.9468269994
 31
0.0
  0
LINE
  5
3B3
  8
0
  6
CONTINUOUS
 62
     7
 10
145.3812628403
 20
103.9468269994
 30
0.0
 11
148.5562628403
 21
103.9468269994
 31
0.0
  0
TEXT
  5
3B4
  8
0
  6
CONTINUOUS
 62
     7
 10
143.269624981
 20
104.5650320205
 30
0.11
 40
1.75
  1
6
 50
0.0
 41
0.7
 11
143.269624981
 21
103.9468269121
 31
0.11
 73
     1
  0
ENDBLK
  5
3AD
  8
0
  0
BLOCK
  8
0
  2
SW_CENTERMARKSYMBOL_6
 70
     0
 10
0.0
 20
0.0
 30
0.0
  3
SW_CENTERMARKSYMBOL_6
  1

  0
LINE
  5
3B8
  8
0
  6
CONTINUOUS
 62
     0
 10
0.0
 20
0.0
 30
0.0
 11
0.0
 21
1.25
 31
0.0
  0
LINE
  5
3B9
  8
0
  6
CONTINUOUS
 62
     0
 10
0.0
 20
0.0
 30
0.0
 11
-1.25
 21
0.0
 31
0.0
  0
LINE
  5
3BA
  8
0
  6
CONTINUOUS
 62
     0
 10
0.0
 20
0.0
 30
0.0
 11
0.0
 21
-1.25
 31
0.0
  0
LINE
  5
3BB
  8
0
  6
CONTINUOUS
 62
     0
 10
0.0
 20
0.0
 30
0.0
 11
1.25
 21
0.0
 31
0.0
  0
LINE
  5
3BC
  8
0
  6
CONTINUOUS
 62
     0
 10
0.0
 20
1.25
 30
0.0
 11
0.0
 21
2.375
 31
0.0
  0
LINE
  5
3BD
  8
0
  6
CONTINUOUS
 62
     0
 10
-1.25
 20
0.0
 30
0.0
 11
-2.375
 21
0.0
 31
0.0
  0
LINE
  5
3BE
  8
0
  6
CONTINUOUS
 62
     0
 10
0.0
 20
-1.25
 30
0.0
 11
0.0
 21
-2.375
 31
0.0
  0
LINE
  5
3BF
  8
0
  6
CONTINUOUS
 62
     0
 10
1.25
 20
0.0
 30
0.0
 11
2.375
 21
0.0
 31
0.0
  0
ENDBLK
  5
3B7
  8
0
  0
ENDSEC
  0
SECTION
  2
ENTITIES
  0
LINE
  5
75
  8
0
  6
CONTINUOUS
 62
     7
 10
113.9
 20
30.125
 30
0.0
 11
113.9
 21
2.5
 31
0.0
  0
LINE
  5
76
  8
0
  6
CONTINUOUS
 62
     7
 10
117.71
 20
21.625
 30
0.0
 11
117.71
 21
2.5
 31
0.0
  0
LINE
  5
77
  8
0
  6
CONTINUOUS
 62
     7
 10
130.41
 20
2.5
 30
0.0
 11
130.41
 21
21.625
 31
0.0
  0
LINE
  5
78
  8
0
  6
CONTINUOUS
 62
     7
 10
205.0
 20
143.5
 30
0.0
 11
205.0
 21
30.125
 31
0.0
  0
LINE
  5
79
  8
0
  6
CONTINUOUS
 62
     7
 10
140.57
 20
11.0
 30
0.0
 11
207.5
 21
11.0
 31
0.0
  0
LINE
  5
7A
  8
0
  6
CONTINUOUS
 62
     7
 10
207.5
 20
21.625
 30
0.0
 11
113.9
 21
21.625
 31
0.0
  0
LINE
  5
7B
  8
0
  6
CONTINUOUS
 62
     7
 10
113.9
 20
30.125
 30
0.0
 11
207.5
 21
30.125
 31
0.0
  0
LINE
  5
7C
  8
0
  6
CONTINUOUS
 62
     7
 10
140.57
 20
19.4723855853
 30
0.0
 11
113.9
 21
19.4723855853
 31
0.0
  0
LINE
  5
7D
  8
0
  6
CONTINUOUS
 62
     7
 10
140.57
 20
2.5
 30
0.0
 11
140.57
 21
30.125
 31
0.0
  0
LINE
  5
7E
  8
0
  6
CONTINUOUS
 62
     7
 10
162.16
 20
30.125
 30
0.0
 11
162.16
 21
2.5
 31
0.0
  0
LINE
  5
7F
  8
0
  6
CONTINUOUS
 62
     7
 10
136.76
 20
21.625
 30
0.0
 11
136.76
 21
2.5
 31
0.0
  0
LINE
  5
80
  8
0
  6
CONTINUOUS
 62
     7
 10
145.2745922813
 20
11.0
 30
0.0
 11
145.2745922813
 21
21.625
 31
0.0
  0
LINE
  5
81
  8
0
  6
CONTINUOUS
 62
     7
 10
140.57
 20
6.75
 30
0.0
 11
113.9
 21
6.75
 31
0.0
  0
LINE
  5
82
  8
0
  6
CONTINUOUS
 62
     7
 10
153.3484628702
 20
21.625
 30
0.0
 11
153.3484628702
 21
11.0
 31
0.0
  0
LINE
  5
83
  8
0
  6
CONTINUOUS
 62
     7
 10
184.24
 20
2.5
 30
0.0
 11
184.24
 21
4.625
 31
0.0
  0
LINE
  5
84
  8
0
  6
CONTINUOUS
 62
     7
 10
188.14
 20
26.9375
 30
0.0
 11
188.14
 21
30.125
 31
0.0
  0
LINE
  5
85
  8
0
  6
CONTINUOUS
 62
     7
 10
113.9
 20
4.615
 30
0.0
 11
140.57
 21
4.615
 31
0.0
  0
LINE
  5
86
  8
0
  6
CONTINUOUS
 62
     7
 10
199.84
 20
4.625
 30
0.0
 11
199.84
 21
11.0
 31
0.0
  0
LINE
  5
87
  8
0
  6
CONTINUOUS
 62
     7
 10
207.5
 20
26.9375
 30
0.0
 11
162.16
 21
26.9375
 31
0.0
  0
LINE
  5
88
  8
0
  6
CONTINUOUS
 62
     7
 10
207.5
 20
2.5
 30
0.0
 11
207.5
 21
30.125
 31
0.0
  0
LINE
  5
89
  8
0
  6
CONTINUOUS
 62
     7
 10
113.9
 20
2.5
 30
0.0
 11
207.5
 21
2.5
 31
0.0
  0
LINE
  5
8A
  8
0
  6
CONTINUOUS
 62
     7
 10
140.57
 20
8.875
 30
0.0
 11
113.9
 21
8.875
 31
0.0
  0
LINE
  5
8B
  8
0
  6
CONTINUOUS
 62
     7
 10
140.57
 20
11.0
 30
0.0
 11
113.9
 21
11.0
 31
0.0
  0
LINE
  5
8C
  8
0
  6
CONTINUOUS
 62
     7
 10
162.16
 20
13.125
 30
0.0
 11
113.9
 21
13.125
 31
0.0
  0
LINE
  5
8D
  8
0
  6
CONTINUOUS
 62
     7
 10
162.16
 20
15.25
 30
0.0
 11
113.9
 21
15.25
 31
0.0
  0
LINE
  5
8E
  8
0
  6
CONTINUOUS
 62
     7
 10
162.16
 20
17.375
 30
0.0
 11
113.9
 21
17.375
 31
0.0
  0
LINE
  5
8F
  8
0
  6
CONTINUOUS
 62
     7
 10
162.16
 20
19.4723855853
 30
0.0
 11
140.57
 21
19.4723855853
 31
0.0
  0
LINE
  5
90
  8
0
  6
CONTINUOUS
 62
     7
 10
207.5
 20
6.75
 30
0.0
 11
199.84
 21
6.75
 31
0.0
  0
LINE
  5
91
  8
0
  6
CONTINUOUS
 62
     7
 10
162.16
 20
4.615
 30
0.0
 11
207.5
 21
4.615
 31
0.0
  0
LINE
  5
92
  8
0
  6
CONTINUOUS
 62
     7
 10
111.4
 20
2.5
 30
0.0
 11
113.9
 21
2.5
 31
0.0
  0
LINE
  5
93
  8
0
  6
CONTINUOUS
 62
     7
 10
207.5
 20
146.0
 30
0.0
 11
2.5
 21
146.0
 31
0.0
  0
LINE
  5
94
  8
0
  6
CONTINUOUS
 62
     7
 10
205.0
 20
143.5
 30
0.0
 11
5.0
 21
143.5
 31
0.0
  0
LINE
  5
95
  8
0
  6
CONTINUOUS
 62
     7
 10
2.5
 20
146.0
 30
0.0
 11
2.5
 21
2.5
 31
0.0
  0
LINE
  5
96
  8
0
  6
CONTINUOUS
 62
     7
 10
5.0
 20
143.5
 30
0.0
 11
5.0
 21
5.0
 31
0.0
  0
LINE
  5
97
  8
0
  6
CONTINUOUS
 62
     7
 10
5.0
 20
24.25
 30
0.0
 11
2.5
 21
24.25
 31
0.0
  0
LINE
  5
98
  8
0
  6
CONTINUOUS
 62
     7
 10
2.5
 20
49.25
 30
0.0
 11
5.0
 21
49.25
 31
0.0
  0
LINE
  5
99
  8
0
  6
CONTINUOUS
 62
     7
 10
2.5
 20
99.25
 30
0.0
 11
5.0
 21
99.25
 31
0.0
  0
LINE
  5
9A
  8
0
  6
CONTINUOUS
 62
     7
 10
2.5
 20
74.25
 30
0.0
 11
7.5
 21
74.25
 31
0.0
  0
LINE
  5
9B
  8
0
  6
CONTINUOUS
 62
     7
 10
2.5
 20
2.5
 30
0.0
 11
113.9
 21
2.5
 31
0.0
  0
LINE
  5
9C
  8
0
  6
CONTINUOUS
 62
     7
 10
5.0
 20
5.0
 30
0.0
 11
113.9
 21
5.0
 31
0.0
  0
LINE
  5
9D
  8
0
  6
CONTINUOUS
 62
     7
 10
30.0
 20
2.5
 30
0.0
 11
30.0
 21
5.0
 31
0.0
  0
LINE
  5
9E
  8
0
  6
CONTINUOUS
 62
     7
 10
55.0
 20
5.0
 30
0.0
 11
55.0
 21
2.5
 31
0.0
  0
LINE
  5
9F
  8
0
  6
CONTINUOUS
 62
     7
 10
80.0
 20
2.5
 30
0.0
 11
80.0
 21
5.0
 31
0.0
  0
LINE
  5
A0
  8
0
  6
CONTINUOUS
 62
     7
 10
5.0
 20
124.25
 30
0.0
 11
2.5
 21
124.25
 31
0.0
  0
LINE
  5
A1
  8
0
  6
CONTINUOUS
 62
     7
 10
30.0
 20
143.5
 30
0.0
 11
30.0
 21
146.0
 31
0.0
  0
LINE
  5
A2
  8
0
  6
CONTINUOUS
 62
     7
 10
55.0
 20
146.0
 30
0.0
 11
55.0
 21
143.5
 31
0.0
  0
LINE
  5
A3
  8
0
  6
CONTINUOUS
 62
     7
 10
80.0
 20
143.5
 30
0.0
 11
80.0
 21
146.0
 31
0.0
  0
LINE
  5
A4
  8
0
  6
CONTINUOUS
 62
     7
 10
130.0
 20
143.5
 30
0.0
 11
130.0
 21
146.0
 31
0.0
  0
LINE
  5
A5
  8
0
  6
CONTINUOUS
 62
     7
 10
207.5
 20
30.125
 30
0.0
 11
207.5
 21
146.0
 31
0.0
  0
LINE
  5
A6
  8
0
  6
CONTINUOUS
 62
     7
 10
105.0
 20
2.5
 30
0.0
 11
105.0
 21
7.5
 31
0.0
  0
LINE
  5
A7
  8
0
  6
CONTINUOUS
 62
     7
 10
205.0
 20
99.25
 30
0.0
 11
207.5
 21
99.25
 31
0.0
  0
LINE
  5
A8
  8
0
  6
CONTINUOUS
 62
     7
 10
205.0
 20
49.25
 30
0.0
 11
207.5
 21
49.25
 31
0.0
  0
LINE
  5
A9
  8
0
  6
CONTINUOUS
 62
     7
 10
207.5
 20
74.25
 30
0.0
 11
202.5
 21
74.25
 31
0.0
  0
LINE
  5
AA
  8
0
  6
CONTINUOUS
 62
     7
 10
155.0
 20
146.0
 30
0.0
 11
155.0
 21
143.5
 31
0.0
  0
LINE
  5
AB
  8
0
  6
CONTINUOUS
 62
     7
 10
180.0
 20
143.5
 30
0.0
 11
180.0
 21
146.0
 31
0.0
  0
LINE
  5
AC
  8
0
  6
CONTINUOUS
 62
     7
 10
105.0
 20
146.0
 30
0.0
 11
105.0
 21
141.0
 31
0.0
  0
LINE
  5
AD
  8
0
  6
CONTINUOUS
 62
     7
 10
207.5
 20
124.25
 30
0.0
 11
205.0
 21
124.25
 31
0.0
  0
TEXT
  5
AE
  8
0
  6
CONTINUOUS
 62
     7
 10
175.8868405613
 20
18.101898173
 30
0.0
 40
1.75
  1
1804 2''x2''
 41
0.7
 11
175.8868405613
 21
17.4836930647
 31
0.0
 73
     1
  0
TEXT
  5
AF
  8
0
  6
CONTINUOUS
 62
     7
 10
153.9119018834
 20
18.0665676116
 30
0.0
 40
1.190625
  1
Hammad
 41
0.7
 11
153.9119018834
 21
17.6459673503
 31
0.0
 73
     1
  0
TEXT
  5
B0
  8
0
  6
CONTINUOUS
 62
     7
 10
146.1827070327
 20
18.0665676116
 30
0.0
 40
1.190625
  1
17.01.22
 41
0.7
 11
146.1827070327
 21
17.6459673503
 31
0.0
 73
     1
  0
TEXT
  5
B1
  8
0
  6
CONTINUOUS
 62
     7
 10
3.3333333333
 20
61.4674133001
 30
0.0
 40
0.9260416667
  1
D
 41
0.7
 11
3.3333333333
 21
61.1402797636
 31
0.0
 73
     1
  0
TEXT
  5
B2
  8
0
  6
CONTINUOUS
 62
     7
 10
3.3333333333
 20
36.4674133001
 30
0.0
 40
0.9260416667
  1
E
 41
0.7
 11
3.3333333333
 21
36.1402797636
 31
0.0
 73
     1
  0
TEXT
  5
B3
  8
0
  6
CONTINUOUS
 62
     7
 10
3.3333333333
 20
11.4674133001
 30
0.0
 40
0.9260416667
  1
F
 41
0.7
 11
3.3333333333
 21
11.1402797636
 31
0.0
 73
     1
  0
TEXT
  5
B4
  8
0
  6
CONTINUOUS
 62
     7
 10
3.3333333333
 20
86.4674133001
 30
0.0
 40
0.9260416667
  1
C
 41
0.7
 11
3.3333333333
 21
86.1402797636
 31
0.0
 73
     1
  0
TEXT
  5
B5
  8
0
  6
CONTINUOUS
 62
     7
 10
17.2916666667
 20
3.4674153001
 30
0.0
 40
0.9260416667
  1
1
 41
0.7
 11
17.2916666667
 21
3.1402817636
 31
0.0
 73
     1
  0
TEXT
  5
B6
  8
0
  6
CONTINUOUS
 62
     7
 10
42.0833333333
 20
3.4674153001
 30
0.0
 40
0.9260416667
  1
2
 41
0.7
 11
42.0833333333
 21
3.1402817636
 31
0.0
 73
     1
  0
TEXT
  5
B7
  8
0
  6
CONTINUOUS
 62
     7
 10
67.0833333333
 20
3.4674153001
 30
0.0
 40
0.9260416667
  1
3
 41
0.7
 11
67.0833333333
 21
3.1402817636
 31
0.0
 73
     1
  0
TEXT
  5
B8
  8
0
  6
CONTINUOUS
 62
     7
 10
92.0833333333
 20
3.4674153001
 30
0.0
 40
0.9260416667
  1
4
 41
0.7
 11
92.0833333333
 21
3.1402817636
 31
0.0
 73
     1
  0
TEXT
  5
B9
  8
0
  6
CONTINUOUS
 62
     7
 10
3.3333333333
 20
111.4674133001
 30
0.0
 40
0.9260416667
  1
B
 41
0.7
 11
3.3333333333
 21
111.1402797636
 31
0.0
 73
     1
  0
TEXT
  5
BA
  8
0
  6
CONTINUOUS
 62
     7
 10
3.3333333333
 20
136.4674133001
 30
0.0
 40
0.9260416667
  1
A
 41
0.7
 11
3.3333333333
 21
136.1402797636
 31
0.0
 73
     1
  0
TEXT
  5
BB
  8
0
  6
CONTINUOUS
 62
     7
 10
67.0833333333
 20
144.4674153001
 30
0.0
 40
0.9260416667
  1
3
 41
0.7
 11
67.0833333333
 21
144.1402817636
 31
0.0
 73
     1
  0
TEXT
  5
BC
  8
0
  6
CONTINUOUS
 62
     7
 10
42.0833333333
 20
144.4674153001
 30
0.0
 40
0.9260416667
  1
2
 41
0.7
 11
42.0833333333
 21
144.1402817636
 31
0.0
 73
     1
  0
TEXT
  5
BD
  8
0
  6
CONTINUOUS
 62
     7
 10
17.2916666667
 20
144.4674153001
 30
0.0
 40
0.9260416667
  1
1
 41
0.7
 11
17.2916666667
 21
144.1402817636
 31
0.0
 73
     1
  0
TEXT
  5
BE
  8
0
  6
CONTINUOUS
 62
     7
 10
117.0833333333
 20
144.4674153001
 30
0.0
 40
0.9260416667
  1
5
 41
0.7
 11
117.0833333333
 21
144.1402817636
 31
0.0
 73
     1
  0
TEXT
  5
BF
  8
0
  6
CONTINUOUS
 62
     7
 10
205.8333333333
 20
86.4674133001
 30
0.0
 40
0.9260416667
  1
C
 41
0.7
 11
205.8333333333
 21
86.1402797636
 31
0.0
 73
     1
  0
TEXT
  5
C0
  8
0
  6
CONTINUOUS
 62
     7
 10
205.8333333333
 20
61.4674133001
 30
0.0
 40
0.9260416667
  1
D
 41
0.7
 11
205.8333333333
 21
61.1402797636
 31
0.0
 73
     1
  0
TEXT
  5
C1
  8
0
  6
CONTINUOUS
 62
     7
 10
92.0833333333
 20
144.4674153001
 30
0.0
 40
0.9260416667
  1
4
 41
0.7
 11
92.0833333333
 21
144.1402817636
 31
0.0
 73
     1
  0
TEXT
  5
C2
  8
0
  6
CONTINUOUS
 62
     7
 10
142.0833333333
 20
144.4674153001
 30
0.0
 40
0.9260416667
  1
6
 41
0.7
 11
142.0833333333
 21
144.1402817636
 31
0.0
 73
     1
  0
TEXT
  5
C3
  8
0
  6
CONTINUOUS
 62
     7
 10
167.0833333333
 20
144.4674153001
 30
0.0
 40
0.9260416667
  1
7
 41
0.7
 11
167.0833333333
 21
144.1402817636
 31
0.0
 73
     1
  0
TEXT
  5
C4
  8
0
  6
CONTINUOUS
 62
     7
 10
192.0833333333
 20
144.4674153001
 30
0.0
 40
0.9260416667
  1
8
 41
0.7
 11
192.0833333333
 21
144.1402817636
 31
0.0
 73
     1
  0
TEXT
  5
C5
  8
0
  6
CONTINUOUS
 62
     7
 10
205.8333333333
 20
136.4674133001
 30
0.0
 40
0.9260416667
  1
A
 41
0.7
 11
205.8333333333
 21
136.1402797636
 31
0.0
 73
     1
  0
TEXT
  5
C6
  8
0
  6
CONTINUOUS
 62
     7
 10
205.8333333333
 20
111.4674133001
 30
0.0
 40
0.9260416667
  1
B
 41
0.7
 11
205.8333333333
 21
111.1402797636
 31
0.0
 73
     1
  0
TEXT
  5
C7
  8
0
  6
CONTINUOUS
 62
     7
 10
114.3271237616
 20
2.9202721236
 30
0.0
 40
1.0
  1
Zust.
 41
0.7
 11
114.3271237616
 21
2.5670120617
 31
0.0
 73
     1
  0
TEXT
  5
C8
  8
0
  6
CONTINUOUS
 62
     7
 10
121.1618132751
 20
2.9202721236
 30
0.0
 40
1.0
  1
Änderung
 41
0.7
 11
121.1618132751
 21
2.5670120617
 31
0.0
 73
     1
  0
TEXT
  5
C9
  8
0
  6
CONTINUOUS
 62
     7
 10
136.8743622659
 20
2.9146606776
 30
0.0
 40
1.0
  1
Name
 41
0.7
 11
136.8743622659
 21
2.5614006157
 31
0.0
 73
     1
  0
TEXT
  5
CA
  8
0
  6
CONTINUOUS
 62
     7
 10
140.9673026213
 20
18.0012480667
 30
0.0
 40
1.0
  1
Bearb.
 41
0.7
 11
140.9673026213
 21
17.6479880048
 31
0.0
 73
     1
  0
TEXT
  5
CB
  8
0
  6
CONTINUOUS
 62
     7
 10
141.2769212761
 20
15.9061502911
 30
0.0
 40
1.0
  1
Gepr.
 41
0.7
 11
141.2769212761
 21
15.5528902292
 31
0.0
 73
     1
  0
TEXT
  5
CC
  8
0
  6
CONTINUOUS
 62
     7
 10
141.2840107915
 20
13.7512465667
 30
0.0
 40
1.0
  1
Norm
 41
0.7
 11
141.2840107915
 21
13.3979865048
 31
0.0
 73
     1
  0
INSERT
  5
D2
  8
0
  6
CONTINUOUS
 62
     7
  2
SW_NOTE_0
 10
163.0710970817
 20
27.3502080947
 30
0.0
  0
TEXT
  5
D3
  8
0
  6
CONTINUOUS
 62
     7
 10
146.9104489362
 20
20.1189285726
 30
0.0
 40
1.0
  1
Datum
 41
0.7
 11
146.9104489362
 21
19.7656685106
 31
0.0
 73
     1
  0
TEXT
  5
D4
  8
0
  6
CONTINUOUS
 62
     7
 10
155.4879302707
 20
20.1199842437
 30
0.0
 40
1.0
  1
Name
 41
0.7
 11
155.4879302707
 21
19.7667241818
 31
0.0
 73
     1
  0
TEXT
  5
D5
  8
0
  6
CONTINUOUS
 62
     7
 10
200.339996
 20
9.4417412787
 30
0.0
 40
1.25
  1
Blatt
 41
0.7
 11
200.339996
 21
9.0001662013
 31
0.0
 73
     1
  0
TEXT
  5
D6
  8
0
  6
CONTINUOUS
 62
     7
 10
200.8057011231
 20
7.4717340077
 30
0.0
 40
1.0
  1
1 (A3)
 41
0.7
 11
200.8057011231
 21
7.1184739457
 31
0.0
 73
     1
  0
TEXT
  5
D7
  8
0
  6
CONTINUOUS
 62
     7
 10
200.8057011231
 20
5.3581967613
 30
0.0
 40
1.0
  1
1 von 1
 41
0.6
 11
200.8057011231
 21
5.0049366994
 31
0.0
 73
     1
  0
TEXT
  5
D8
  8
0
  6
CONTINUOUS
 62
     7
 10
162.884689698
 20
3.0063373415
 30
0.0
 40
1.0
  1
Ers. für:
 41
0.7
 11
162.884689698
 21
2.6530772796
 31
0.0
 73
     1
  0
TEXT
  5
D9
  8
0
  6
CONTINUOUS
 62
     7
 10
184.6872063742
 20
3.0728315778
 30
0.0
 40
1.0
  1
Ers. durch: 
 41
0.6416666667
 11
184.6872063742
 21
2.7195715159
 31
0.0
 73
     1
  0
TEXT
  5
DA
  8
0
  6
CONTINUOUS
 62
     7
 10
162.9130321456
 20
19.4430345174
 30
0.0
 40
1.25
  1
Benennung:
 41
0.7
 11
162.9130321456
 21
19.00145944
 31
0.0
 73
     1
  0
TEXT
  5
DB
  8
0
  6
CONTINUOUS
 62
     7
 10
113.7504561109
 20
0.8053839481
 30
0.0
 40
1.0583333333
  1
K:\Kostruktionen\Scharniere\1804\2X2\
 41
0.7
 11
113.7504561109
 21
0.4315170492
 31
0.0
 73
     1
  0
TEXT
  5
DC
  8
0
  6
CONTINUOUS
 62
     7
 10
163.1860337416
 20
8.7225430587
 30
0.0
 40
1.25
  1
ZEICHNUNGSNR.   ZK 10867
 41
0.6416666667
 11
163.1860337416
 21
8.2809679813
 31
0.0
 73
     1
  0
TEXT
  5
DD
  8
0
  6
CONTINUOUS
 62
     7
 10
163.2122916131
 20
5.8622202432
 30
0.0
 40
1.25
  1
TEILENUMMER   
 41
0.625
 11
163.2122916131
 21
5.4206451658
 31
0.0
 73
     1
  0
TEXT
  5
DE
  8
0
  6
CONTINUOUS
 62
     7
 10
131.6173310066
 20
2.9146606776
 30
0.0
 40
1.0
  1
Datum
 41
0.7
 11
131.6173310066
 21
2.5614006157
 31
0.0
 73
     1
  0
INSERT
  5
E6
  8
0
  6
CONTINUOUS
 62
     7
  2
SW_NOTE_0_1
 10
145.2113438853
 20
8.3634546754
 30
0.0
  0
INSERT
  5
F0
  8
0
  6
CONTINUOUS
 62
     7
  2
SW_NOTE_0_2
 10
115.1819308304
 20
28.4713086781
 30
0.0
  0
TEXT
  5
F1
  8
0
  6
CONTINUOUS
 62
     7
 10
190.4247465236
 20
27.846688803
 30
0.0
 40
1.75
  1
ISO2768-m-K
 41
0.7
 11
190.4247465236
 21
27.2284836947
 31
0.0
 73
     1
  0
TEXT
  5
F2
  8
0
  6
CONTINUOUS
 62
     7
 10
163.0774432834
 20
25.0897162552
 30
0.0
 40
1.25
  1
Material:
 41
0.7
 11
163.0774432834
 21
24.6481411778
 31
0.0
 73
     1
  0
ARC
  5
F3
  8
0
  6
CONTINUOUS
 62
     7
 10
56.7241572891
 20
129.7409260064
 30
0.0
 40
4.250000000000014
 50
0.0
 51
180.0
  0
LINE
  5
F4
  8
0
  6
CONTINUOUS
 62
     7
 10
54.4741572891
 20
79.7409260064
 30
0.0
 11
55.3401826929
 21
78.2409260064
 31
0.0
  0
LINE
  5
F5
  8
0
  6
CONTINUOUS
 62
     7
 10
58.1081318853
 20
78.2409260064
 30
0.0
 11
58.9741572891
 21
79.7409260064
 31
0.0
  0
LINE
  5
F6
  8
0
  6
CONTINUOUS
 62
     7
 10
58.9741572891
 20
87.6409260064
 30
0.0
 11
58.9741572891
 21
87.6909260064
 31
0.0
  0
LINE
  5
F7
  8
0
  6
CONTINUOUS
 62
     7
 10
58.9741572891
 20
99.6909260064
 30
0.0
 11
58.9741572891
 21
99.7409260064
 31
0.0
  0
LINE
  5
F8
  8
0
  6
CONTINUOUS
 62
     7
 10
58.9741572891
 20
109.7409260064
 30
0.0
 11
58.9741572891
 21
109.7909260064
 31
0.0
  0
LINE
  5
F9
  8
0
  6
CONTINUOUS
 62
     7
 10
58.9741572891
 20
121.7909260064
 30
0.0
 11
58.9741572891
 21
121.8409260064
 31
0.0
  0
LINE
  5
FA
  8
0
  6
CONTINUOUS
 62
     7
 10
54.4741572891
 20
121.8409260064
 30
0.0
 11
54.4741572891
 21
121.7909260064
 31
0.0
  0
LINE
  5
FB
  8
0
  6
CONTINUOUS
 62
     7
 10
54.4741572891
 20
109.7909260064
 30
0.0
 11
54.4741572891
 21
109.7409260064
 31
0.0
  0
LINE
  5
FC
  8
0
  6
CONTINUOUS
 62
     7
 10
54.4741572891
 20
99.7409260064
 30
0.0
 11
54.4741572891
 21
99.6909260064
 31
0.0
  0
LINE
  5
FD
  8
0
  6
CONTINUOUS
 62
     7
 10
54.4741572891
 20
87.6909260064
 30
0.0
 11
54.4741572891
 21
87.6409260064
 31
0.0
  0
LINE
  5
FE
  8
0
  6
CONTINUOUS
 62
     7
 10
52.4741572891
 20
121.7909260064
 30
0.0
 11
52.4741572891
 21
109.7909260064
 31
0.0
  0
LINE
  5
FF
  8
0
  6
CONTINUOUS
 62
     7
 10
60.9741572891
 20
109.7909260064
 30
0.0
 11
60.9741572891
 21
121.7909260064
 31
0.0
  0
LINE
  5
100
  8
0
  6
CONTINUOUS
 62
     7
 10
52.4741572891
 20
99.6909260064
 30
0.0
 11
52.4741572891
 21
87.6909260064
 31
0.0
  0
LINE
  5
101
  8
0
  6
CONTINUOUS
 62
     7
 10
60.9741572891
 20
87.6909260064
 30
0.0
 11
60.9741572891
 21
99.6909260064
 31
0.0
  0
LINE
  5
102
  8
0
  6
CONTINUOUS
 62
     7
 10
60.9741572891
 20
99.7409260064
 30
0.0
 11
60.9741572891
 21
109.7409260064
 31
0.0
  0
LINE
  5
103
  8
0
  6
CONTINUOUS
 62
     7
 10
52.4741572891
 20
109.7409260064
 30
0.0
 11
52.4741572891
 21
99.7409260064
 31
0.0
  0
LINE
  5
104
  8
0
  6
CONTINUOUS
 62
     7
 10
60.9741572891
 20
121.8409260064
 30
0.0
 11
60.9741572891
 21
129.7409260064
 31
0.0
  0
LINE
  5
105
  8
0
  6
CONTINUOUS
 62
     7
 10
52.4741572891
 20
129.7409260064
 30
0.0
 11
52.4741572891
 21
121.8409260064
 31
0.0
  0
LINE
  5
106
  8
0
  6
CONTINUOUS
 62
     7
 10
60.9741572891
 20
79.7409260064
 30
0.0
 11
60.9741572891
 21
87.6409260064
 31
0.0
  0
LINE
  5
107
  8
0
  6
CONTINUOUS
 62
     7
 10
52.4741572891
 20
87.6409260064
 30
0.0
 11
52.4741572891
 21
79.7409260064
 31
0.0
  0
LINE
  5
108
  8
0
  6
CONTINUOUS
 62
     7
 10
60.9741572891
 20
129.7409260064
 30
0.0
 11
52.4741572891
 21
129.7409260064
 31
0.0
  0
LINE
  5
109
  8
0
  6
CONTINUOUS
 62
     7
 10
58.1081318853
 20
78.2409260064
 30
0.0
 11
55.3401826929
 21
78.2409260064
 31
0.0
  0
LINE
  5
10A
  8
0
  6
CONTINUOUS
 62
     7
 10
52.4741572891
 20
121.7909260064
 30
0.0
 11
60.9741572891
 21
121.7909260064
 31
0.0
  0
LINE
  5
10B
  8
0
  6
CONTINUOUS
 62
     7
 10
60.9741572891
 20
109.7909260064
 30
0.0
 11
52.4741572891
 21
109.7909260064
 31
0.0
  0
LINE
  5
10C
  8
0
  6
CONTINUOUS
 62
     7
 10
52.4741572891
 20
99.6909260064
 30
0.0
 11
60.9741572891
 21
99.6909260064
 31
0.0
  0
LINE
  5
10D
  8
0
  6
CONTINUOUS
 62
     7
 10
60.9741572891
 20
87.6909260064
 30
0.0
 11
52.4741572891
 21
87.6909260064
 31
0.0
  0
LINE
  5
10E
  8
0
  6
CONTINUOUS
 62
     7
 10
50.8362948172
 20
79.7409260064
 30
0.0
 11
50.8362948172
 21
129.7409260064
 31
0.0
  0
LINE
  5
10F
  8
0
  6
CONTINUOUS
 62
     7
 10
50.2204037963
 20
79.7409260064
 30
0.0
 11
50.8362948172
 21
79.7409260064
 31
0.0
  0
LINE
  5
110
  8
0
  6
CONTINUOUS
 62
     7
 10
50.2204037963
 20
79.7409260064
 30
0.0
 11
50.2204037963
 21
129.7409260064
 31
0.0
  0
LINE
  5
111
  8
0
  6
CONTINUOUS
 62
     7
 10
50.8362948172
 20
129.7409260064
 30
0.0
 11
50.2204037963
 21
129.7409260064
 31
0.0
  0
LINE
  5
112
  8
0
  6
CONTINUOUS
 62
     7
 10
30.7241572891
 20
79.7409260064
 30
0.0
 11
50.2204037963
 21
79.7409260064
 31
0.0
  0
LINE
  5
113
  8
0
  6
CONTINUOUS
 62
     7
 10
30.7241572891
 20
79.7409260064
 30
0.0
 11
30.7241572891
 21
129.7409260064
 31
0.0
  0
LINE
  5
114
  8
0
  6
CONTINUOUS
 62
     7
 10
30.7241572891
 20
129.7409260064
 30
0.0
 11
50.2204037963
 21
129.7409260064
 31
0.0
  0
CIRCLE
  5
115
  8
0
  6
CONTINUOUS
 62
     7
 10
40.7241572891
 20
89.7409260064
 30
0.0
 40
4.5
  0
CIRCLE
  5
116
  8
0
  6
CONTINUOUS
 62
     7
 10
40.7241572891
 20
119.7409260064
 30
0.0
 40
4.5
  0
CIRCLE
  5
117
  8
0
  6
CONTINUOUS
 62
     7
 10
40.7241572891
 20
119.7409260064
 30
0.0
 40
2.5
  0
CIRCLE
  5
118
  8
0
  6
CONTINUOUS
 62
     7
 10
40.7241572891
 20
89.7409260064
 30
0.0
 40
2.499999999999986
  0
LINE
  5
119
  8
0
  6
CONTINUOUS
 62
     7
 10
52.4741572891
 20
109.7909260064
 30
0.0
 11
51.6891252461
 21
109.7909260064
 31
0.0
  0
LINE
  5
11A
  8
0
  6
CONTINUOUS
 62
     7
 10
51.6891252461
 20
109.7909260064
 30
0.0
 11
51.6891252461
 21
99.6909260064
 31
0.0
  0
LINE
  5
11B
  8
0
  6
CONTINUOUS
 62
     7
 10
51.6891252461
 20
99.6909260064
 30
0.0
 11
52.4741572891
 21
99.6909260064
 31
0.0
  0
LINE
  5
11C
  8
0
  6
CONTINUOUS
 62
     7
 10
52.4741572891
 20
87.6909260064
 30
0.0
 11
51.6891252461
 21
87.6909260064
 31
0.0
  0
LINE
  5
11D
  8
0
  6
CONTINUOUS
 62
     7
 10
51.6891252461
 20
87.6909260064
 30
0.0
 11
51.6891252461
 21
79.7409260064
 31
0.0
  0
LINE
  5
11E
  8
0
  6
CONTINUOUS
 62
     7
 10
50.8362948172
 20
79.7409260064
 30
0.0
 11
51.6891252461
 21
79.7409260064
 31
0.0
  0
LINE
  5
11F
  8
0
  6
CONTINUOUS
 62
     7
 10
51.6891252461
 20
129.7409260064
 30
0.0
 11
51.6891252461
 21
121.7909260064
 31
0.0
  0
LINE
  5
120
  8
0
  6
CONTINUOUS
 62
     7
 10
51.6891252461
 20
121.7909260064
 30
0.0
 11
52.4741572891
 21
121.7909260064
 31
0.0
  0
LINE
  5
121
  8
0
  6
CONTINUOUS
 62
     7
 10
50.8362948172
 20
129.7409260064
 30
0.0
 11
51.6891252461
 21
129.7409260064
 31
0.0
  0
LINE
  5
122
  8
0
  6
CONTINUOUS
 62
     7
 10
52.4741572891
 20
109.7409260064
 30
0.0
 11
60.9741572891
 21
109.7409260064
 31
0.0
  0
LINE
  5
123
  8
0
  6
CONTINUOUS
 62
     7
 10
60.9741572891
 20
99.7409260064
 30
0.0
 11
52.4741572891
 21
99.7409260064
 31
0.0
  0
LINE
  5
124
  8
0
  6
CONTINUOUS
 62
     7
 10
60.9741572891
 20
121.8409260064
 30
0.0
 11
52.4741572891
 21
121.8409260064
 31
0.0
  0
LINE
  5
125
  8
0
  6
CONTINUOUS
 62
     7
 10
52.4741572891
 20
87.6409260064
 30
0.0
 11
60.9741572891
 21
87.6409260064
 31
0.0
  0
LINE
  5
126
  8
0
  6
CONTINUOUS
 62
     7
 10
60.9741572891
 20
79.7409260064
 30
0.0
 11
52.4741572891
 21
79.7409260064
 31
0.0
  0
CIRCLE
  5
127
  8
0
  6
CONTINUOUS
 62
     7
 10
72.7241572891
 20
119.7409260064
 30
0.0
 40
4.5
  0
CIRCLE
  5
128
  8
0
  6
CONTINUOUS
 62
     7
 10
72.7241572891
 20
119.7409260064
 30
0.0
 40
2.5
  0
CIRCLE
  5
129
  8
0
  6
CONTINUOUS
 62
     7
 10
72.7241572891
 20
89.7409260064
 30
0.0
 40
4.5
  0
CIRCLE
  5
12A
  8
0
  6
CONTINUOUS
 62
     7
 10
72.7241572891
 20
89.7409260064
 30
0.0
 40
2.5
  0
LINE
  5
12B
  8
0
  6
CONTINUOUS
 62
     7
 10
63.2279107819
 20
129.7409260064
 30
0.0
 11
63.2279107819
 21
79.7409260064
 31
0.0
  0
LINE
  5
12C
  8
0
  6
CONTINUOUS
 62
     7
 10
82.7241572891
 20
129.7409260064
 30
0.0
 11
82.7241572891
 21
79.7409260064
 31
0.0
  0
LINE
  5
12D
  8
0
  6
CONTINUOUS
 62
     7
 10
82.7241572891
 20
129.7409260064
 30
0.0
 11
63.2279107819
 21
129.7409260064
 31
0.0
  0
LINE
  5
12E
  8
0
  6
CONTINUOUS
 62
     7
 10
82.7241572891
 20
79.7409260064
 30
0.0
 11
63.2279107819
 21
79.7409260064
 31
0.0
  0
LINE
  5
12F
  8
0
  6
CONTINUOUS
 62
     7
 10
62.612019761
 20
129.7409260064
 30
0.0
 11
62.612019761
 21
79.7409260064
 31
0.0
  0
LINE
  5
130
  8
0
  6
CONTINUOUS
 62
     7
 10
63.2279107819
 20
129.7409260064
 30
0.0
 11
62.612019761
 21
129.7409260064
 31
0.0
  0
LINE
  5
131
  8
0
  6
CONTINUOUS
 62
     7
 10
62.612019761
 20
79.7409260064
 30
0.0
 11
63.2279107819
 21
79.7409260064
 31
0.0
  0
LINE
  5
132
  8
0
  6
CONTINUOUS
 62
     7
 10
62.612019761
 20
79.7409260064
 30
0.0
 11
60.9741572891
 21
79.7409260064
 31
0.0
  0
LINE
  5
133
  8
0
  6
CONTINUOUS
 62
     7
 10
60.9741572891
 20
87.6409260064
 30
0.0
 11
61.6988609659
 21
87.6409260064
 31
0.0
  0
LINE
  5
134
  8
0
  6
CONTINUOUS
 62
     7
 10
61.6988609659
 20
87.6409260064
 30
0.0
 11
61.6988609659
 21
99.7409260064
 31
0.0
  0
LINE
  5
135
  8
0
  6
CONTINUOUS
 62
     7
 10
61.6988609659
 20
99.7409260064
 30
0.0
 11
60.9741572891
 21
99.7409260064
 31
0.0
  0
LINE
  5
136
  8
0
  6
CONTINUOUS
 62
     7
 10
60.9741572891
 20
109.7409260064
 30
0.0
 11
61.6988609659
 21
109.7409260064
 31
0.0
  0
LINE
  5
137
  8
0
  6
CONTINUOUS
 62
     7
 10
61.6988609659
 20
109.7409260064
 30
0.0
 11
61.6988609659
 21
121.8409260064
 31
0.0
  0
LINE
  5
138
  8
0
  6
CONTINUOUS
 62
     7
 10
61.6988609659
 20
121.8409260064
 30
0.0
 11
60.9741572891
 21
121.8409260064
 31
0.0
  0
LINE
  5
139
  8
0
  6
CONTINUOUS
 62
     7
 10
62.612019761
 20
129.7409260064
 30
0.0
 11
60.9741572891
 21
129.7409260064
 31
0.0
  0
DIMENSION
  5
13A
  8
0
  6
CONTINUOUS
 62
     7
  2
_D
 10
90.7241572891
 20
79.7409260064
 30
0.0
 11
90.7241572891
 21
105.671143735
 31
0.0
 70
   160
  1
<>
  3
SLDDIMSTYLE0
 13
82.7241572891
 23
129.7409260064
 33
0.0
 14
82.7241572891
 24
79.7409260064
 34
0.0
 50
90.0
  0
DIMENSION
  5
145
  8
0
  6
CONTINUOUS
 62
     7
  2
_D_1
 10
82.7241572891
 20
135.7847077748
 30
0.0
 11
55.5353348141
 21
135.7847077748
 31
0.0
 70
   160
  1
<>
  3
SLDDIMSTYLE1
 13
30.7241572891
 23
129.7409260064
 33
0.0
 14
82.7241572891
 24
129.7409260064
 34
0.0
  0
DIMENSION
  5
150
  8
0
  6
CONTINUOUS
 62
     7
  2
_D_2
 10
25.7241572891
 20
89.7409260064
 30
0.0
 11
25.7241572891
 21
104.2483902934
 31
0.0
 70
   160
  1
<>
  3
SLDDIMSTYLE1
 13
40.7241572891
 23
119.7409260064
 33
0.0
 14
40.7241572891
 24
89.7409260064
 34
0.0
 50
90.0
  0
DIMENSION
  5
15A
  8
0
  6
CONTINUOUS
 62
     7
  2
_D_3
 10
30.7241572891
 20
75.1276196217
 30
0.0
 11
35.0985910616
 21
75.1276196217
 31
0.0
 70
   160
  1
<>
  3
SLDDIMSTYLE2
 13
40.7241572891
 23
82.7409260064
 33
0.0
 14
30.7241572891
 24
79.7409260064
 34
0.0
  0
DIMENSION
  5
165
  8
0
  6
CONTINUOUS
 62
     7
  2
_D_4
 10
75.2241572891
 20
75.1276196217
 30
0.0
 11
72.5950564867
 21
75.1276196217
 31
0.0
 70
   160
  1
%%c<>
  3
SLDDIMSTYLE2
 13
70.2241572891
 23
89.7409260064
 33
0.0
 14
75.2241572891
 24
89.7409260064
 34
0.0
  0
DIMENSION
  5
172
  8
0
  6
CONTINUOUS
 62
     7
  2
_D_5
 10
77.2241572891
 20
70.2409260064
 30
0.0
 11
72.5950564867
 21
70.2409260064
 31
0.0
 70
   160
  1
%%c<>x90°
  3
SLDDIMSTYLE2
 13
68.2241572891
 23
89.7409260064
 33
0.0
 14
77.2241572891
 24
89.7409260064
 34
0.0
  0
INSERT
  5
18B
  8
0
  6
CONTINUOUS
 62
     7
  2
SW_CENTERMARKSYMBOL_0
 10
72.7241572891
 20
119.7409260064
 30
0.0
  0
INSERT
  5
197
  8
0
  6
CONTINUOUS
 62
     7
  2
SW_CENTERMARKSYMBOL_1
 10
72.7241572891
 20
89.7409260064
 30
0.0
  0
INSERT
  5
1A3
  8
0
  6
CONTINUOUS
 62
     7
  2
SW_CENTERMARKSYMBOL_2
 10
72.7241572891
 20
119.7409260064
 30
0.0
  0
INSERT
  5
1AF
  8
0
  6
CONTINUOUS
 62
     7
  2
SW_CENTERMARKSYMBOL_3
 10
40.7241572891
 20
89.7409260064
 30
0.0
  0
INSERT
  5
1BB
  8
0
  6
CONTINUOUS
 62
     7
  2
SW_CENTERMARKSYMBOL_4
 10
40.7241572891
 20
119.7409260064
 30
0.0
  0
LINE
  5
1BC
  8
0
  6
CENTERX2
 62
     7
 10
83.7241572891
 20
104.7409260064
 30
0.0
 11
29.2744369273
 21
104.7409260064
 31
0.0
  0
LINE
  5
1BD
  8
0
  6
CENTERX2
 62
     7
 10
56.7241572891
 20
78.7409260064
 30
0.0
 11
56.7241572891
 21
130.7409260064
 31
0.0
  0
CIRCLE
  5
1BE
  8
0
  6
CONTINUOUS
 62
     7
 10
56.7241572891
 20
49.4341016823
 30
0.0
 40
4.250000000000014
  0
LINE
  5
1BF
  8
0
  6
CONTINUOUS
 62
     7
 10
30.7241572891
 20
52.4341016823
 30
0.0
 11
30.7241572891
 21
50.4341016823
 31
0.0
  0
LINE
  5
1C0
  8
0
  6
CONTINUOUS
 62
     7
 10
30.7241572891
 20
52.4341016823
 30
0.0
 11
50.2204037963
 21
52.4341016823
 31
0.0
  0
LINE
  5
1C1
  8
0
  6
CONTINUOUS
 62
     7
 10
50.2204037963
 20
50.4341016823
 30
0.0
 11
50.2204037963
 21
52.4341016823
 31
0.0
  0
LINE
  5
1C2
  8
0
  6
CONTINUOUS
 62
     7
 10
30.7241572891
 20
50.4341016823
 30
0.0
 11
50.2204037963
 21
50.4341016823
 31
0.0
  0
ARC
  5
1C3
  8
0
  6
CONTINUOUS
 62
     7
 10
50.2204037963
 20
53.4341016823
 30
0.0
 40
3.000000000000014
 50
270.0
 51
281.8468861022
  0
ARC
  5
1C4
  8
0
  6
CONTINUOUS
 62
     7
 10
50.2204037963
 20
53.4341016823
 30
0.0
 40
1.000000000000001
 50
270.0
 51
281.8468861022
  0
LINE
  5
1C5
  8
0
  6
CONTINUOUS
 62
     7
 10
50.4257008033
 20
52.4554019639
 30
0.0
 11
50.8362948172
 21
50.4980025269
 31
0.0
  0
LINE
  5
1C6
  8
0
  6
CONTINUOUS
 62
     7
 10
50.8362948172
 20
50.4980025269
 30
0.0
 11
51.6891252461
 21
50.6768965546
 31
0.0
  0
LINE
  5
1C7
  8
0
  6
CONTINUOUS
 62
     7
 10
51.2785312321
 20
52.6342959915
 30
0.0
 11
51.6891252461
 21
50.6768965546
 31
0.0
  0
LINE
  5
1C8
  8
0
  6
CONTINUOUS
 62
     7
 10
50.4257008033
 20
52.4554019639
 30
0.0
 11
51.2785312321
 21
52.6342959915
 31
0.0
  0
LINE
  5
1C9
  8
0
  6
CONTINUOUS
 62
     7
 10
51.6891252461
 20
50.6768965546
 30
0.0
 11
52.7334870052
 21
50.8959671636
 31
0.0
  0
LINE
  5
1CA
  8
0
  6
CONTINUOUS
 62
     7
 10
51.2785312321
 20
52.6342959915
 30
0.0
 11
55.8516450095
 21
53.5935754858
 31
0.0
  0
ARC
  5
1CB
  8
0
  6
CONTINUOUS
 62
     7
 10
56.7241572891
 20
49.4341016823
 30
0.0
 40
4.249999999999999
 50
78.1531138978
 51
12.468853069
  0
LINE
  5
1CC
  8
0
  6
CONTINUOUS
 62
     7
 10
62.612019761
 20
50.4980025269
 30
0.0
 11
63.0226137749
 21
52.4554019639
 31
0.0
  0
LINE
  5
1CD
  8
0
  6
CONTINUOUS
 62
     7
 10
62.612019761
 20
50.4980025269
 30
0.0
 11
60.714827573
 21
50.8959671636
 31
0.0
  0
LINE
  5
1CE
  8
0
  6
CONTINUOUS
 62
     7
 10
63.0226137749
 20
52.4554019639
 30
0.0
 11
57.5966695687
 21
53.5935754858
 31
0.0
  0
LINE
  5
1CF
  8
0
  6
CONTINUOUS
 62
     7
 10
82.7241572891
 20
50.4341016823
 30
0.0
 11
63.2279107819
 21
50.4341016823
 31
0.0
  0
LINE
  5
1D0
  8
0
  6
CONTINUOUS
 62
     7
 10
63.2279107819
 20
52.4341016823
 30
0.0
 11
63.2279107819
 21
50.4341016823
 31
0.0
  0
LINE
  5
1D1
  8
0
  6
CONTINUOUS
 62
     7
 10
82.7241572891
 20
52.4341016823
 30
0.0
 11
63.2279107819
 21
52.4341016823
 31
0.0
  0
LINE
  5
1D2
  8
0
  6
CONTINUOUS
 62
     7
 10
82.7241572891
 20
52.4341016823
 30
0.0
 11
82.7241572891
 21
50.4341016823
 31
0.0
  0
ARC
  5
1D3
  8
0
  6
CONTINUOUS
 62
     7
 10
63.2279107819
 20
53.4341016823
 30
0.0
 40
1.0
 50
258.1531138978
 51
270.0
  0
ARC
  5
1D4
  8
0
  6
CONTINUOUS
 62
     7
 10
63.2279107819
 20
53.4341016823
 30
0.0
 40
3.0
 50
258.1531138978
 51
270.0
  0
DIMENSION
  5
1D5
  8
0
  6
CONTINUOUS
 62
     7
  2
_D_6
 10
56.7241572891
 20
45.1841016823
 30
0.0
 11
56.7241622891
 21
61.3874956267
 31
0.0
 70
   163
  1
<>
  3
SLDDIMSTYLE3
 15
56.7241572891
 25
53.6841016823
 35
0.0
 40
0.0
  0
DIMENSION
  5
1E2
  8
0
  6
CONTINUOUS
 62
     7
  2
_D_7
 10
86.8313769123
 20
49.4341016823
 30
0.0
 11
86.8313769123
 21
45.7523364008
 31
0.0
 70
   160
  1
<>
  3
SLDDIMSTYLE2
 13
82.7241572891
 23
50.4341016823
 33
0.0
 14
61.4741572891
 24
49.4341016823
 34
0.0
 50
90.0
  0
DIMENSION
  5
1EE
  8
0
  6
CONTINUOUS
 62
     7
  2
_D_8
 10
25.7241572891
 20
50.4341016823
 30
0.0
 11
25.7241572891
 21
45.7523364008
 31
0.0
 70
   160
  1
<>
  3
SLDDIMSTYLE2
 13
30.7241572891
 23
52.4341016823
 33
0.0
 14
30.7241572891
 24
50.4341016823
 34
0.0
 50
90.0
  0
DIMENSION
  5
1FA
  8
0
  6
CONTINUOUS
 62
     7
  2
_D_9
 10
56.7241572891
 20
36.6159400016
 30
0.0
 11
45.4017535714
 21
36.6159400016
 31
0.0
 70
   160
  1
<>
  3
SLDDIMSTYLE1
 13
30.7241572891
 23
50.4341016823
 33
0.0
 14
56.7241572891
 24
49.4341016823
 34
0.0
  0
DIMENSION
  5
204
  8
0
  6
CONTINUOUS
 62
     7
  2
_D_10
 10
82.7241572891
 20
36.5534387169
 30
0.0
 11
70.9034453998
 21
36.5534387169
 31
0.0
 70
   160
  1
<>
  3
SLDDIMSTYLE1
 13
56.7241572891
 23
49.4341016823
 33
0.0
 14
82.7241572891
 24
50.4341016823
 34
0.0
  0
INSERT
  5
219
  8
0
  6
CONTINUOUS
 62
     7
  2
SW_CENTERMARKSYMBOL_5
 10
56.7241572891
 20
49.4341016823
 30
0.0
  0
LINE
  5
21A
  8
0
  6
CONTINUOUS
 62
     7
 10
140.2598642801
 20
99.6962557001
 30
0.0
 11
142.2575973703
 21
101.6939887904
 31
0.0
  0
LINE
  5
21B
  8
0
  6
CONTINUOUS
 62
     7
 10
143.3314343871
 20
100.5227617769
 30
0.0
 11
144.1760313176
 21
101.3673587073
 31
0.0
  0
LINE
  5
21C
  8
0
  6
CONTINUOUS
 62
     7
 10
140.8786609303
 20
98.0699883201
 30
0.0
 11
141.5857677115
 21
98.7770951012
 31
0.0
  0
LINE
  5
21D
  8
0
  6
CONTINUOUS
 62
     7
 10
145.1872195318
 20
100.1334828912
 30
0.0
 11
146.1263268706
 21
101.0725902301
 31
0.0
  0
LINE
  5
21E
  8
0
  6
CONTINUOUS
 62
     7
 10
142.5049283103
 20
97.4511916698
 30
0.0
 11
144.5026614006
 21
99.4489247601
 31
0.0
  0
LINE
  5
21F
  8
0
  6
CONTINUOUS
 62
     7
 10
147.3713909009
 20
100.0725902301
 30
0.0
 11
148.3713909009
 21
101.0725902301
 31
0.0
  0
LINE
  5
220
  8
0
  6
CONTINUOUS
 62
     7
 10
149.6164549311
 20
100.0725902301
 30
0.0
 11
150.6164549311
 21
101.0725902301
 31
0.0
  0
LINE
  5
221
  8
0
  6
CONTINUOUS
 62
     7
 10
151.8615189614
 20
100.0725902301
 30
0.0
 11
152.8615189614
 21
101.0725902301
 31
0.0
  0
LINE
  5
222
  8
0
  6
CONTINUOUS
 62
     7
 10
154.1065829917
 20
100.0725902301
 30
0.0
 11
155.1065829917
 21
101.0725902301
 31
0.0
  0
LINE
  5
223
  8
0
  6
CONTINUOUS
 62
     7
 10
145.3156811388
 20
98.016880468
 30
0.0
 11
146.3713909009
 21
99.0725902301
 31
0.0
  0
LINE
  5
224
  8
0
  6
CONTINUOUS
 62
     7
 10
147.6164549311
 20
98.0725902301
 30
0.0
 11
148.6164549311
 21
99.0725902301
 31
0.0
  0
LINE
  5
225
  8
0
  6
CONTINUOUS
 62
     7
 10
149.8615189614
 20
98.0725902301
 30
0.0
 11
150.8615189614
 21
99.0725902301
 31
0.0
  0
LINE
  5
226
  8
0
  6
CONTINUOUS
 62
     7
 10
152.1065829917
 20
98.0725902301
 30
0.0
 11
153.1065829917
 21
99.0725902301
 31
0.0
  0
LINE
  5
227
  8
0
  6
CONTINUOUS
 62
     7
 10
154.3516470219
 20
98.0725902301
 30
0.0
 11
155.3516470219
 21
99.0725902301
 31
0.0
  0
LINE
  5
228
  8
0
  6
CONTINUOUS
 62
     7
 10
143.1767579692
 20
98.7770951012
 30
0.0
 11
141.5857677115
 21
100.3680853589
 31
0.0
  0
LINE
  5
229
  8
0
  6
CONTINUOUS
 62
     7
 10
145.5562628403
 20
69.0725902301
 30
0.0
 11
145.5562628403
 21
92.2758133557
 31
0.0
  0
LINE
  5
22A
  8
0
  6
CONTINUOUS
 62
     7
 10
147.1437628403
 20
69.0725902301
 30
0.0
 11
147.1437628403
 21
92.2758133557
 31
0.0
  0
LINE
  5
22B
  8
0
  6
CONTINUOUS
 62
     7
 10
148.7312628403
 20
69.0725902301
 30
0.0
 11
148.7312628403
 21
92.7608133557
 31
0.0
  0
LINE
  5
22C
  8
0
  6
CONTINUOUS
 62
     7
 10
150.3187628403
 20
69.0725902301
 30
0.0
 11
150.3187628403
 21
92.7608133557
 31
0.0
  0
LINE
  5
22D
  8
0
  6
CONTINUOUS
 62
     7
 10
151.9062628403
 20
69.0725902301
 30
0.0
 11
151.9062628403
 21
92.7608133557
 31
0.0
  0
LINE
  5
22E
  8
0
  6
CONTINUOUS
 62
     7
 10
153.4937628403
 20
69.0725902301
 30
0.0
 11
153.4937628403
 21
92.2758133557
 31
0.0
  0
LINE
  5
22F
  8
0
  6
CONTINUOUS
 62
     7
 10
155.0812628403
 20
69.0725902301
 30
0.0
 11
155.0812628403
 21
92.2758133557
 31
0.0
  0
LINE
  5
230
  8
0
  6
CONTINUOUS
 62
     7
 10
156.6687628403
 20
69.0725902301
 30
0.0
 11
156.6687628403
 21
99.0725902301
 31
0.0
  0
LINE
  5
231
  8
0
  6
CONTINUOUS
 62
     7
 10
158.2562628403
 20
69.0725902301
 30
0.0
 11
158.2562628403
 21
99.0725902301
 31
0.0
  0
LINE
  5
232
  8
0
  6
CONTINUOUS
 62
     7
 10
159.8437628403
 20
69.0725902301
 30
0.0
 11
159.8437628403
 21
99.0725902301
 31
0.0
  0
LINE
  5
233
  8
0
  6
CONTINUOUS
 62
     7
 10
161.4312628403
 20
69.0725902301
 30
0.0
 11
161.4312628403
 21
99.0725902301
 31
0.0
  0
LINE
  5
234
  8
0
  6
CONTINUOUS
 62
     7
 10
163.0187628403
 20
69.0725902301
 30
0.0
 11
163.0187628403
 21
99.0725902301
 31
0.0
  0
LINE
  5
235
  8
0
  6
CONTINUOUS
 62
     7
 10
164.6062628403
 20
69.0725902301
 30
0.0
 11
164.6062628403
 21
99.0725902301
 31
0.0
  0
LINE
  5
236
  8
0
  6
CONTINUOUS
 62
     7
 10
166.1937628403
 20
69.0725902301
 30
0.0
 11
166.1937628403
 21
99.0725902301
 31
0.0
  0
LINE
  5
237
  8
0
  6
CONTINUOUS
 62
     7
 10
167.7812628403
 20
69.0725902301
 30
0.0
 11
167.7812628403
 21
99.0725902301
 31
0.0
  0
LINE
  5
238
  8
0
  6
CONTINUOUS
 62
     7
 10
169.3687628403
 20
69.0725902301
 30
0.0
 11
169.3687628403
 21
99.0725902301
 31
0.0
  0
LINE
  5
239
  8
0
  6
CONTINUOUS
 62
     7
 10
170.9562628403
 20
69.0725902301
 30
0.0
 11
170.9562628403
 21
99.0725902301
 31
0.0
  0
LINE
  5
23A
  8
0
  6
CONTINUOUS
 62
     7
 10
172.5437628403
 20
69.0725902301
 30
0.0
 11
172.5437628403
 21
99.0725902301
 31
0.0
  0
LINE
  5
23B
  8
0
  6
CONTINUOUS
 62
     7
 10
174.1312628403
 20
69.0725902301
 30
0.0
 11
174.1312628403
 21
99.0725902301
 31
0.0
  0
LINE
  5
23C
  8
0
  6
CONTINUOUS
 62
     7
 10
174.925012805
 20
74.9663402907
 30
0.0
 11
173.3375127987
 21
73.3788402843
 31
0.0
  0
LINE
  5
23D
  8
0
  6
CONTINUOUS
 62
     7
 10
171.7500127924
 20
71.791340278
 30
0.0
 11
170.1625127861
 21
70.2038402717
 31
0.0
  0
LINE
  5
23E
  8
0
  6
CONTINUOUS
 62
     7
 10
174.925012823
 20
81.316340298
 30
0.0
 11
173.3375128167
 21
79.7288402917
 31
0.0
  0
LINE
  5
23F
  8
0
  6
CONTINUOUS
 62
     7
 10
171.7500128104
 20
78.1413402853
 30
0.0
 11
170.162512804
 21
76.553840279
 31
0.0
  0
LINE
  5
240
  8
0
  6
CONTINUOUS
 62
     7
 10
168.5750127977
 20
74.9663402727
 30
0.0
 11
166.9875127914
 21
73.3788402664
 31
0.0
  0
LINE
  5
241
  8
0
  6
CONTINUOUS
 62
     7
 10
165.4000127851
 20
71.7913402601
 30
0.0
 11
163.8125127788
 21
70.2038402538
 31
0.0
  0
LINE
  5
242
  8
0
  6
CONTINUOUS
 62
     7
 10
174.9250128409
 20
87.6663403053
 30
0.0
 11
173.3375128346
 21
86.078840299
 31
0.0
  0
LINE
  5
243
  8
0
  6
CONTINUOUS
 62
     7
 10
171.7500128283
 20
84.4913402926
 30
0.0
 11
170.162512822
 21
82.9038402863
 31
0.0
  0
LINE
  5
244
  8
0
  6
CONTINUOUS
 62
     7
 10
168.5750128157
 20
81.31634028
 30
0.0
 11
166.9875128094
 21
79.7288402737
 31
0.0
  0
LINE
  5
245
  8
0
  6
CONTINUOUS
 62
     7
 10
165.400012803
 20
78.1413402674
 30
0.0
 11
163.8125127967
 21
76.5538402611
 31
0.0
  0
LINE
  5
246
  8
0
  6
CONTINUOUS
 62
     7
 10
162.2250127904
 20
74.9663402547
 30
0.0
 11
160.6375127841
 21
73.3788402484
 31
0.0
  0
LINE
  5
247
  8
0
  6
CONTINUOUS
 62
     7
 10
159.0500127778
 20
71.7913402421
 30
0.0
 11
157.4625127715
 21
70.2038402358
 31
0.0
  0
LINE
  5
248
  8
0
  6
CONTINUOUS
 62
     7
 10
174.9250128589
 20
94.0163403126
 30
0.0
 11
173.3375128526
 21
92.4288403063
 31
0.0
  0
LINE
  5
249
  8
0
  6
CONTINUOUS
 62
     7
 10
171.7500128463
 20
90.8413402999
 30
0.0
 11
170.16251284
 21
89.2538402936
 31
0.0
  0
LINE
  5
24A
  8
0
  6
CONTINUOUS
 62
     7
 10
168.5750128336
 20
87.6663402873
 30
0.0
 11
166.9875128273
 21
86.078840281
 31
0.0
  0
LINE
  5
24B
  8
0
  6
CONTINUOUS
 62
     7
 10
165.400012821
 20
84.4913402747
 30
0.0
 11
163.8125128147
 21
82.9038402684
 31
0.0
  0
LINE
  5
24C
  8
0
  6
CONTINUOUS
 62
     7
 10
162.2250128084
 20
81.316340262
 30
0.0
 11
160.6375128021
 21
79.7288402557
 31
0.0
  0
LINE
  5
24D
  8
0
  6
CONTINUOUS
 62
     7
 10
159.0500127957
 20
78.1413402494
 30
0.0
 11
157.4625127894
 21
76.5538402431
 31
0.0
  0
LINE
  5
24E
  8
0
  6
CONTINUOUS
 62
     7
 10
155.8750127831
 20
74.9663402368
 30
0.0
 11
154.2875127768
 21
73.3788402305
 31
0.0
  0
LINE
  5
24F
  8
0
  6
CONTINUOUS
 62
     7
 10
152.7000127705
 20
71.7913402242
 30
0.0
 11
151.1125127642
 21
70.2038402178
 31
0.0
  0
LINE
  5
250
  8
0
  6
CONTINUOUS
 62
     7
 10
173.6312627871
 20
99.0725902301
 30
0.0
 11
173.3375128706
 21
98.7788403136
 31
0.0
  0
LINE
  5
251
  8
0
  6
CONTINUOUS
 62
     7
 10
171.7500128642
 20
97.1913403073
 30
0.0
 11
170.1625128579
 21
95.6038403009
 31
0.0
  0
LINE
  5
252
  8
0
  6
CONTINUOUS
 62
     7
 10
168.5750128516
 20
94.0163402946
 30
0.0
 11
166.9875128453
 21
92.4288402883
 31
0.0
  0
LINE
  5
253
  8
0
  6
CONTINUOUS
 62
     7
 10
165.400012839
 20
90.841340282
 30
0.0
 11
163.8125128327
 21
89.2538402757
 31
0.0
  0
LINE
  5
254
  8
0
  6
CONTINUOUS
 62
     7
 10
162.2250128263
 20
87.6663402694
 30
0.0
 11
160.63751282
 21
86.078840263
 31
0.0
  0
LINE
  5
255
  8
0
  6
CONTINUOUS
 62
     7
 10
159.0500128137
 20
84.4913402567
 30
0.0
 11
157.4625128074
 21
82.9038402504
 31
0.0
  0
LINE
  5
256
  8
0
  6
CONTINUOUS
 62
     7
 10
155.8750128011
 20
81.3163402441
 30
0.0
 11
154.2875127948
 21
79.7288402378
 31
0.0
  0
LINE
  5
257
  8
0
  6
CONTINUOUS
 62
     7
 10
152.7000127884
 20
78.1413402315
 30
0.0
 11
151.1125127821
 21
76.5538402251
 31
0.0
  0
LINE
  5
258
  8
0
  6
CONTINUOUS
 62
     7
 10
149.5250127758
 20
74.9663402188
 30
0.0
 11
147.9375127695
 21
73.3788402125
 31
0.0
  0
LINE
  5
259
  8
0
  6
CONTINUOUS
 62
     7
 10
146.3500127632
 20
71.7913402062
 30
0.0
 11
145.3812628403
 21
70.8225902834
 31
0.0
  0
LINE
  5
25A
  8
0
  6
CONTINUOUS
 62
     7
 10
167.2812627977
 20
99.0725902301
 30
0.0
 11
166.9875128632
 21
98.7788402956
 31
0.0
  0
LINE
  5
25B
  8
0
  6
CONTINUOUS
 62
     7
 10
165.4000128569
 20
97.1913402893
 30
0.0
 11
163.8125128506
 21
95.603840283
 31
0.0
  0
LINE
  5
25C
  8
0
  6
CONTINUOUS
 62
     7
 10
162.2250128443
 20
94.0163402767
 30
0.0
 11
160.637512838
 21
92.4288402703
 31
0.0
  0
LINE
  5
25D
  8
0
  6
CONTINUOUS
 62
     7
 10
159.0500128317
 20
90.841340264
 30
0.0
 11
157.4625128253
 21
89.2538402577
 31
0.0
  0
LINE
  5
25E
  8
0
  6
CONTINUOUS
 62
     7
 10
155.875012819
 20
87.6663402514
 30
0.0
 11
154.2875128127
 21
86.0788402451
 31
0.0
  0
LINE
  5
25F
  8
0
  6
CONTINUOUS
 62
     7
 10
152.7000128064
 20
84.4913402388
 30
0.0
 11
151.1125128001
 21
82.9038402324
 31
0.0
  0
LINE
  5
260
  8
0
  6
CONTINUOUS
 62
     7
 10
149.5250127938
 20
81.3163402261
 30
0.0
 11
147.9375127874
 21
79.7288402198
 31
0.0
  0
LINE
  5
261
  8
0
  6
CONTINUOUS
 62
     7
 10
146.3500127811
 20
78.1413402135
 30
0.0
 11
145.3812628403
 21
77.1725902727
 31
0.0
  0
LINE
  5
262
  8
0
  6
CONTINUOUS
 62
     7
 10
160.9312628084
 20
99.0725902301
 30
0.0
 11
160.6375128559
 21
98.7788402776
 31
0.0
  0
LINE
  5
263
  8
0
  6
CONTINUOUS
 62
     7
 10
159.0500128496
 20
97.1913402713
 30
0.0
 11
157.4625128433
 21
95.603840265
 31
0.0
  0
LINE
  5
264
  8
0
  6
CONTINUOUS
 62
     7
 10
155.875012837
 20
94.0163402587
 30
0.0
 11
155.604485934
 21
93.7458133557
 31
0.0
  0
LINE
  5
265
  8
0
  6
CONTINUOUS
 62
     7
 10
152.7000128244
 20
90.8413402461
 30
0.0
 11
151.112512818
 21
89.2538402397
 31
0.0
  0
LINE
  5
266
  8
0
  6
CONTINUOUS
 62
     7
 10
149.5250128117
 20
87.6663402334
 30
0.0
 11
147.9375128054
 21
86.0788402271
 31
0.0
  0
LINE
  5
267
  8
0
  6
CONTINUOUS
 62
     7
 10
146.3500127991
 20
84.4913402208
 30
0.0
 11
145.3812628403
 21
83.522590262
 31
0.0
  0
LINE
  5
268
  8
0
  6
CONTINUOUS
 62
     7
 10
152.7000128423
 20
97.1913402534
 30
0.0
 11
151.112512836
 21
95.6038402471
 31
0.0
  0
LINE
  5
269
  8
0
  6
CONTINUOUS
 62
     7
 10
149.5250128297
 20
94.0163402407
 30
0.0
 11
148.7694859446
 21
93.2608133557
 31
0.0
  0
LINE
  5
26A
  8
0
  6
CONTINUOUS
 62
     7
 10
146.3500128171
 20
90.8413402281
 30
0.0
 11
145.3812628403
 21
89.8725902514
 31
0.0
  0
LINE
  5
26B
  8
0
  6
CONTINUOUS
 62
     7
 10
146.350012835
 20
97.1913402354
 30
0.0
 11
145.3812628403
 21
96.2225902407
 31
0.0
  0
LINE
  5
26C
  8
0
  6
CONTINUOUS
 62
     7
 10
174.925012805
 20
75.3632152907
 30
0.0
 11
173.3375127987
 21
73.7757152843
 31
0.0
  0
LINE
  5
26D
  8
0
  6
CONTINUOUS
 62
     7
 10
171.7500127924
 20
72.188215278
 30
0.0
 11
170.1625127861
 21
70.6007152717
 31
0.0
  0
LINE
  5
26E
  8
0
  6
CONTINUOUS
 62
     7
 10
174.925012823
 20
81.713215298
 30
0.0
 11
173.3375128167
 21
80.1257152917
 31
0.0
  0
LINE
  5
26F
  8
0
  6
CONTINUOUS
 62
     7
 10
171.7500128104
 20
78.5382152853
 30
0.0
 11
170.162512804
 21
76.950715279
 31
0.0
  0
LINE
  5
270
  8
0
  6
CONTINUOUS
 62
     7
 10
168.5750127977
 20
75.3632152727
 30
0.0
 11
166.9875127914
 21
73.7757152664
 31
0.0
  0
LINE
  5
271
  8
0
  6
CONTINUOUS
 62
     7
 10
165.4000127851
 20
72.1882152601
 30
0.0
 11
163.8125127788
 21
70.6007152538
 31
0.0
  0
LINE
  5
272
  8
0
  6
CONTINUOUS
 62
     7
 10
174.9250128409
 20
88.0632153053
 30
0.0
 11
173.3375128346
 21
86.475715299
 31
0.0
  0
LINE
  5
273
  8
0
  6
CONTINUOUS
 62
     7
 10
171.7500128283
 20
84.8882152926
 30
0.0
 11
170.162512822
 21
83.3007152863
 31
0.0
  0
LINE
  5
274
  8
0
  6
CONTINUOUS
 62
     7
 10
168.5750128157
 20
81.71321528
 30
0.0
 11
166.9875128094
 21
80.1257152737
 31
0.0
  0
LINE
  5
275
  8
0
  6
CONTINUOUS
 62
     7
 10
165.400012803
 20
78.5382152674
 30
0.0
 11
163.8125127967
 21
76.9507152611
 31
0.0
  0
LINE
  5
276
  8
0
  6
CONTINUOUS
 62
     7
 10
162.2250127904
 20
75.3632152547
 30
0.0
 11
160.6375127841
 21
73.7757152484
 31
0.0
  0
LINE
  5
277
  8
0
  6
CONTINUOUS
 62
     7
 10
159.0500127778
 20
72.1882152421
 30
0.0
 11
157.4625127715
 21
70.6007152358
 31
0.0
  0
LINE
  5
278
  8
0
  6
CONTINUOUS
 62
     7
 10
174.9250128589
 20
94.4132153126
 30
0.0
 11
173.3375128526
 21
92.8257153063
 31
0.0
  0
LINE
  5
279
  8
0
  6
CONTINUOUS
 62
     7
 10
171.7500128463
 20
91.2382152999
 30
0.0
 11
170.16251284
 21
89.6507152936
 31
0.0
  0
LINE
  5
27A
  8
0
  6
CONTINUOUS
 62
     7
 10
168.5750128336
 20
88.0632152873
 30
0.0
 11
166.9875128273
 21
86.475715281
 31
0.0
  0
LINE
  5
27B
  8
0
  6
CONTINUOUS
 62
     7
 10
165.400012821
 20
84.8882152747
 30
0.0
 11
163.8125128147
 21
83.3007152684
 31
0.0
  0
LINE
  5
27C
  8
0
  6
CONTINUOUS
 62
     7
 10
162.2250128084
 20
81.713215262
 30
0.0
 11
160.6375128021
 21
80.1257152557
 31
0.0
  0
LINE
  5
27D
  8
0
  6
CONTINUOUS
 62
     7
 10
159.0500127957
 20
78.5382152494
 30
0.0
 11
157.4625127894
 21
76.9507152431
 31
0.0
  0
LINE
  5
27E
  8
0
  6
CONTINUOUS
 62
     7
 10
155.8750127831
 20
75.3632152368
 30
0.0
 11
154.2875127768
 21
73.7757152305
 31
0.0
  0
LINE
  5
27F
  8
0
  6
CONTINUOUS
 62
     7
 10
152.7000127705
 20
72.1882152242
 30
0.0
 11
151.1125127642
 21
70.6007152178
 31
0.0
  0
LINE
  5
280
  8
0
  6
CONTINUOUS
 62
     7
 10
171.7500128642
 20
97.5882153073
 30
0.0
 11
170.1625128579
 21
96.0007153009
 31
0.0
  0
LINE
  5
281
  8
0
  6
CONTINUOUS
 62
     7
 10
168.5750128516
 20
94.4132152946
 30
0.0
 11
166.9875128453
 21
92.8257152883
 31
0.0
  0
LINE
  5
282
  8
0
  6
CONTINUOUS
 62
     7
 10
165.400012839
 20
91.238215282
 30
0.0
 11
163.8125128327
 21
89.6507152757
 31
0.0
  0
LINE
  5
283
  8
0
  6
CONTINUOUS
 62
     7
 10
162.2250128263
 20
88.0632152694
 30
0.0
 11
160.63751282
 21
86.475715263
 31
0.0
  0
LINE
  5
284
  8
0
  6
CONTINUOUS
 62
     7
 10
159.0500128137
 20
84.8882152567
 30
0.0
 11
157.4625128074
 21
83.3007152504
 31
0.0
  0
LINE
  5
285
  8
0
  6
CONTINUOUS
 62
     7
 10
155.8750128011
 20
81.7132152441
 30
0.0
 11
154.2875127948
 21
80.1257152378
 31
0.0
  0
LINE
  5
286
  8
0
  6
CONTINUOUS
 62
     7
 10
152.7000127884
 20
78.5382152315
 30
0.0
 11
151.1125127821
 21
76.9507152251
 31
0.0
  0
LINE
  5
287
  8
0
  6
CONTINUOUS
 62
     7
 10
149.5250127758
 20
75.3632152188
 30
0.0
 11
147.9375127695
 21
73.7757152125
 31
0.0
  0
LINE
  5
288
  8
0
  6
CONTINUOUS
 62
     7
 10
146.3500127632
 20
72.1882152062
 30
0.0
 11
145.3812628403
 21
71.2194652834
 31
0.0
  0
LINE
  5
289
  8
0
  6
CONTINUOUS
 62
     7
 10
165.4000128569
 20
97.5882152893
 30
0.0
 11
163.8125128506
 21
96.000715283
 31
0.0
  0
LINE
  5
28A
  8
0
  6
CONTINUOUS
 62
     7
 10
162.2250128443
 20
94.4132152767
 30
0.0
 11
160.637512838
 21
92.8257152703
 31
0.0
  0
LINE
  5
28B
  8
0
  6
CONTINUOUS
 62
     7
 10
159.0500128317
 20
91.238215264
 30
0.0
 11
157.4625128253
 21
89.6507152577
 31
0.0
  0
LINE
  5
28C
  8
0
  6
CONTINUOUS
 62
     7
 10
155.875012819
 20
88.0632152514
 30
0.0
 11
154.2875128127
 21
86.4757152451
 31
0.0
  0
LINE
  5
28D
  8
0
  6
CONTINUOUS
 62
     7
 10
152.7000128064
 20
84.8882152388
 30
0.0
 11
151.1125128001
 21
83.3007152324
 31
0.0
  0
LINE
  5
28E
  8
0
  6
CONTINUOUS
 62
     7
 10
149.5250127938
 20
81.7132152261
 30
0.0
 11
147.9375127874
 21
80.1257152198
 31
0.0
  0
LINE
  5
28F
  8
0
  6
CONTINUOUS
 62
     7
 10
146.3500127811
 20
78.5382152135
 30
0.0
 11
145.3812628403
 21
77.5694652727
 31
0.0
  0
LINE
  5
290
  8
0
  6
CONTINUOUS
 62
     7
 10
159.0500128496
 20
97.5882152713
 30
0.0
 11
157.4625128433
 21
96.000715265
 31
0.0
  0
LINE
  5
291
  8
0
  6
CONTINUOUS
 62
     7
 10
155.875012837
 20
94.4132152587
 30
0.0
 11
155.207610934
 21
93.7458133557
 31
0.0
  0
LINE
  5
292
  8
0
  6
CONTINUOUS
 62
     7
 10
152.7000128244
 20
91.2382152461
 30
0.0
 11
151.112512818
 21
89.6507152397
 31
0.0
  0
LINE
  5
293
  8
0
  6
CONTINUOUS
 62
     7
 10
149.5250128117
 20
88.0632152334
 30
0.0
 11
147.9375128054
 21
86.4757152271
 31
0.0
  0
LINE
  5
294
  8
0
  6
CONTINUOUS
 62
     7
 10
146.3500127991
 20
84.8882152208
 30
0.0
 11
145.3812628403
 21
83.919465262
 31
0.0
  0
LINE
  5
295
  8
0
  6
CONTINUOUS
 62
     7
 10
152.7000128423
 20
97.5882152534
 30
0.0
 11
151.112512836
 21
96.0007152471
 31
0.0
  0
LINE
  5
296
  8
0
  6
CONTINUOUS
 62
     7
 10
149.5250128297
 20
94.4132152407
 30
0.0
 11
148.3726109446
 21
93.2608133557
 31
0.0
  0
LINE
  5
297
  8
0
  6
CONTINUOUS
 62
     7
 10
146.3500128171
 20
91.2382152281
 30
0.0
 11
145.3812628403
 21
90.2694652514
 31
0.0
  0
LINE
  5
298
  8
0
  6
CONTINUOUS
 62
     7
 10
146.350012835
 20
97.5882152354
 30
0.0
 11
145.3812628403
 21
96.6194652407
 31
0.0
  0
LINE
  5
299
  8
0
  6
CONTINUOUS
 62
     7
 10
174.9250127871
 20
69.4100902834
 30
0.0
 11
174.5875127338
 21
69.0725902301
 31
0.0
  0
LINE
  5
29A
  8
0
  6
CONTINUOUS
 62
     7
 10
174.925012805
 20
75.7600902907
 30
0.0
 11
173.3375127987
 21
74.1725902843
 31
0.0
  0
LINE
  5
29B
  8
0
  6
CONTINUOUS
 62
     7
 10
171.7500127924
 20
72.585090278
 30
0.0
 11
170.1625127861
 21
70.9975902717
 31
0.0
  0
LINE
  5
29C
  8
0
  6
CONTINUOUS
 62
     7
 10
168.5750127798
 20
69.4100902654
 30
0.0
 11
168.2375127444
 21
69.0725902301
 31
0.0
  0
LINE
  5
29D
  8
0
  6
CONTINUOUS
 62
     7
 10
174.925012823
 20
82.110090298
 30
0.0
 11
173.3375128167
 21
80.5225902917
 31
0.0
  0
LINE
  5
29E
  8
0
  6
CONTINUOUS
 62
     7
 10
171.7500128104
 20
78.9350902853
 30
0.0
 11
170.162512804
 21
77.347590279
 31
0.0
  0
LINE
  5
29F
  8
0
  6
CONTINUOUS
 62
     7
 10
168.5750127977
 20
75.7600902727
 30
0.0
 11
166.9875127914
 21
74.1725902664
 31
0.0
  0
LINE
  5
2A0
  8
0
  6
CONTINUOUS
 62
     7
 10
165.4000127851
 20
72.5850902601
 30
0.0
 11
163.8125127788
 21
70.9975902538
 31
0.0
  0
LINE
  5
2A1
  8
0
  6
CONTINUOUS
 62
     7
 10
162.2250127725
 20
69.4100902474
 30
0.0
 11
161.8875127551
 21
69.0725902301
 31
0.0
  0
LINE
  5
2A2
  8
0
  6
CONTINUOUS
 62
     7
 10
174.9250128409
 20
88.4600903053
 30
0.0
 11
173.3375128346
 21
86.872590299
 31
0.0
  0
LINE
  5
2A3
  8
0
  6
CONTINUOUS
 62
     7
 10
171.7500128283
 20
85.2850902926
 30
0.0
 11
170.162512822
 21
83.6975902863
 31
0.0
  0
LINE
  5
2A4
  8
0
  6
CONTINUOUS
 62
     7
 10
168.5750128157
 20
82.11009028
 30
0.0
 11
166.9875128094
 21
80.5225902737
 31
0.0
  0
LINE
  5
2A5
  8
0
  6
CONTINUOUS
 62
     7
 10
165.400012803
 20
78.9350902674
 30
0.0
 11
163.8125127967
 21
77.3475902611
 31
0.0
  0
LINE
  5
2A6
  8
0
  6
CONTINUOUS
 62
     7
 10
162.2250127904
 20
75.7600902547
 30
0.0
 11
160.6375127841
 21
74.1725902484
 31
0.0
  0
LINE
  5
2A7
  8
0
  6
CONTINUOUS
 62
     7
 10
159.0500127778
 20
72.5850902421
 30
0.0
 11
157.4625127715
 21
70.9975902358
 31
0.0
  0
LINE
  5
2A8
  8
0
  6
CONTINUOUS
 62
     7
 10
155.8750127651
 20
69.4100902295
 30
0.0
 11
155.5375127658
 21
69.0725902301
 31
0.0
  0
LINE
  5
2A9
  8
0
  6
CONTINUOUS
 62
     7
 10
174.9250128589
 20
94.8100903126
 30
0.0
 11
173.3375128526
 21
93.2225903063
 31
0.0
  0
LINE
  5
2AA
  8
0
  6
CONTINUOUS
 62
     7
 10
171.7500128463
 20
91.6350902999
 30
0.0
 11
170.16251284
 21
90.0475902936
 31
0.0
  0
LINE
  5
2AB
  8
0
  6
CONTINUOUS
 62
     7
 10
168.5750128336
 20
88.4600902873
 30
0.0
 11
166.9875128273
 21
86.872590281
 31
0.0
  0
LINE
  5
2AC
  8
0
  6
CONTINUOUS
 62
     7
 10
165.400012821
 20
85.2850902747
 30
0.0
 11
163.8125128147
 21
83.6975902684
 31
0.0
  0
LINE
  5
2AD
  8
0
  6
CONTINUOUS
 62
     7
 10
162.2250128084
 20
82.110090262
 30
0.0
 11
160.6375128021
 21
80.5225902557
 31
0.0
  0
LINE
  5
2AE
  8
0
  6
CONTINUOUS
 62
     7
 10
159.0500127957
 20
78.9350902494
 30
0.0
 11
157.4625127894
 21
77.3475902431
 31
0.0
  0
LINE
  5
2AF
  8
0
  6
CONTINUOUS
 62
     7
 10
155.8750127831
 20
75.7600902368
 30
0.0
 11
154.2875127768
 21
74.1725902305
 31
0.0
  0
LINE
  5
2B0
  8
0
  6
CONTINUOUS
 62
     7
 10
152.7000127705
 20
72.5850902242
 30
0.0
 11
151.1125127642
 21
70.9975902178
 31
0.0
  0
LINE
  5
2B1
  8
0
  6
CONTINUOUS
 62
     7
 10
149.5250127578
 20
69.4100902115
 30
0.0
 11
149.1875127764
 21
69.0725902301
 31
0.0
  0
LINE
  5
2B2
  8
0
  6
CONTINUOUS
 62
     7
 10
171.7500128642
 20
97.9850903073
 30
0.0
 11
170.1625128579
 21
96.3975903009
 31
0.0
  0
LINE
  5
2B3
  8
0
  6
CONTINUOUS
 62
     7
 10
168.5750128516
 20
94.8100902946
 30
0.0
 11
166.9875128453
 21
93.2225902883
 31
0.0
  0
LINE
  5
2B4
  8
0
  6
CONTINUOUS
 62
     7
 10
165.400012839
 20
91.635090282
 30
0.0
 11
163.8125128327
 21
90.0475902757
 31
0.0
  0
LINE
  5
2B5
  8
0
  6
CONTINUOUS
 62
     7
 10
162.2250128263
 20
88.4600902694
 30
0.0
 11
160.63751282
 21
86.872590263
 31
0.0
  0
LINE
  5
2B6
  8
0
  6
CONTINUOUS
 62
     7
 10
159.0500128137
 20
85.2850902567
 30
0.0
 11
157.4625128074
 21
83.6975902504
 31
0.0
  0
LINE
  5
2B7
  8
0
  6
CONTINUOUS
 62
     7
 10
155.8750128011
 20
82.1100902441
 30
0.0
 11
154.2875127948
 21
80.5225902378
 31
0.0
  0
LINE
  5
2B8
  8
0
  6
CONTINUOUS
 62
     7
 10
152.7000127884
 20
78.9350902315
 30
0.0
 11
151.1125127821
 21
77.3475902251
 31
0.0
  0
LINE
  5
2B9
  8
0
  6
CONTINUOUS
 62
     7
 10
149.5250127758
 20
75.7600902188
 30
0.0
 11
147.9375127695
 21
74.1725902125
 31
0.0
  0
LINE
  5
2BA
  8
0
  6
CONTINUOUS
 62
     7
 10
146.3500127632
 20
72.5850902062
 30
0.0
 11
145.3812628403
 21
71.6163402834
 31
0.0
  0
LINE
  5
2BB
  8
0
  6
CONTINUOUS
 62
     7
 10
165.4000128569
 20
97.9850902893
 30
0.0
 11
163.8125128506
 21
96.397590283
 31
0.0
  0
LINE
  5
2BC
  8
0
  6
CONTINUOUS
 62
     7
 10
162.2250128443
 20
94.8100902767
 30
0.0
 11
160.637512838
 21
93.2225902703
 31
0.0
  0
LINE
  5
2BD
  8
0
  6
CONTINUOUS
 62
     7
 10
159.0500128317
 20
91.635090264
 30
0.0
 11
157.4625128253
 21
90.0475902577
 31
0.0
  0
LINE
  5
2BE
  8
0
  6
CONTINUOUS
 62
     7
 10
155.875012819
 20
88.4600902514
 30
0.0
 11
154.2875128127
 21
86.8725902451
 31
0.0
  0
LINE
  5
2BF
  8
0
  6
CONTINUOUS
 62
     7
 10
152.7000128064
 20
85.2850902388
 30
0.0
 11
151.1125128001
 21
83.6975902324
 31
0.0
  0
LINE
  5
2C0
  8
0
  6
CONTINUOUS
 62
     7
 10
149.5250127938
 20
82.1100902261
 30
0.0
 11
147.9375127874
 21
80.5225902198
 31
0.0
  0
LINE
  5
2C1
  8
0
  6
CONTINUOUS
 62
     7
 10
146.3500127811
 20
78.9350902135
 30
0.0
 11
145.3812628403
 21
77.9663402727
 31
0.0
  0
LINE
  5
2C2
  8
0
  6
CONTINUOUS
 62
     7
 10
159.0500128496
 20
97.9850902713
 30
0.0
 11
157.4625128433
 21
96.397590265
 31
0.0
  0
LINE
  5
2C3
  8
0
  6
CONTINUOUS
 62
     7
 10
155.875012837
 20
94.8100902587
 30
0.0
 11
154.810735934
 21
93.7458133557
 31
0.0
  0
LINE
  5
2C4
  8
0
  6
CONTINUOUS
 62
     7
 10
152.7000128244
 20
91.6350902461
 30
0.0
 11
151.112512818
 21
90.0475902397
 31
0.0
  0
LINE
  5
2C5
  8
0
  6
CONTINUOUS
 62
     7
 10
149.5250128117
 20
88.4600902334
 30
0.0
 11
147.9375128054
 21
86.8725902271
 31
0.0
  0
LINE
  5
2C6
  8
0
  6
CONTINUOUS
 62
     7
 10
146.3500127991
 20
85.2850902208
 30
0.0
 11
145.3812628403
 21
84.316340262
 31
0.0
  0
LINE
  5
2C7
  8
0
  6
CONTINUOUS
 62
     7
 10
152.7000128423
 20
97.9850902534
 30
0.0
 11
151.112512836
 21
96.3975902471
 31
0.0
  0
LINE
  5
2C8
  8
0
  6
CONTINUOUS
 62
     7
 10
149.5250128297
 20
94.8100902407
 30
0.0
 11
147.9757359446
 21
93.2608133557
 31
0.0
  0
LINE
  5
2C9
  8
0
  6
CONTINUOUS
 62
     7
 10
146.3500128171
 20
91.6350902281
 30
0.0
 11
145.3812628403
 21
90.6663402514
 31
0.0
  0
LINE
  5
2CA
  8
0
  6
CONTINUOUS
 62
     7
 10
146.350012835
 20
97.9850902354
 30
0.0
 11
145.3812628403
 21
97.0163402407
 31
0.0
  0
LINE
  5
2CB
  8
0
  6
CONTINUOUS
 62
     7
 10
145.5562628403
 20
101.0725902301
 30
0.0
 11
145.5562628403
 21
103.2118269994
 31
0.0
  0
LINE
  5
2CC
  8
0
  6
CONTINUOUS
 62
     7
 10
147.1437628403
 20
101.0725902301
 30
0.0
 11
147.1437628403
 21
103.2118269994
 31
0.0
  0
LINE
  5
2CD
  8
0
  6
CONTINUOUS
 62
     7
 10
148.7312628403
 20
101.0725902301
 30
0.0
 11
148.7312628403
 21
130.0725902301
 31
0.0
  0
LINE
  5
2CE
  8
0
  6
CONTINUOUS
 62
     7
 10
150.3187628403
 20
101.0725902301
 30
0.0
 11
150.3187628403
 21
130.0725902301
 31
0.0
  0
LINE
  5
2CF
  8
0
  6
CONTINUOUS
 62
     7
 10
151.9062628403
 20
101.0725902301
 30
0.0
 11
151.9062628403
 21
130.0725902301
 31
0.0
  0
LINE
  5
2D0
  8
0
  6
CONTINUOUS
 62
     7
 10
153.4937628403
 20
101.0725902301
 30
0.0
 11
153.4937628403
 21
130.0725902301
 31
0.0
  0
LINE
  5
2D1
  8
0
  6
CONTINUOUS
 62
     7
 10
155.0812628403
 20
101.0725902301
 30
0.0
 11
155.0812628403
 21
130.0725902301
 31
0.0
  0
LINE
  5
2D2
  8
0
  6
CONTINUOUS
 62
     7
 10
156.6687628403
 20
100.0725902301
 30
0.0
 11
156.6687628403
 21
130.0725902301
 31
0.0
  0
LINE
  5
2D3
  8
0
  6
CONTINUOUS
 62
     7
 10
158.2562628403
 20
100.0725902301
 30
0.0
 11
158.2562628403
 21
130.0725902301
 31
0.0
  0
LINE
  5
2D4
  8
0
  6
CONTINUOUS
 62
     7
 10
159.8437628403
 20
100.0725902301
 30
0.0
 11
159.8437628403
 21
130.0725902301
 31
0.0
  0
LINE
  5
2D5
  8
0
  6
CONTINUOUS
 62
     7
 10
161.4312628403
 20
100.0725902301
 30
0.0
 11
161.4312628403
 21
130.0725902301
 31
0.0
  0
LINE
  5
2D6
  8
0
  6
CONTINUOUS
 62
     7
 10
163.0187628403
 20
100.0725902301
 30
0.0
 11
163.0187628403
 21
130.0725902301
 31
0.0
  0
LINE
  5
2D7
  8
0
  6
CONTINUOUS
 62
     7
 10
164.6062628403
 20
100.0725902301
 30
0.0
 11
164.6062628403
 21
130.0725902301
 31
0.0
  0
LINE
  5
2D8
  8
0
  6
CONTINUOUS
 62
     7
 10
166.1937628403
 20
100.0725902301
 30
0.0
 11
166.1937628403
 21
130.0725902301
 31
0.0
  0
LINE
  5
2D9
  8
0
  6
CONTINUOUS
 62
     7
 10
167.7812628403
 20
100.0725902301
 30
0.0
 11
167.7812628403
 21
130.0725902301
 31
0.0
  0
LINE
  5
2DA
  8
0
  6
CONTINUOUS
 62
     7
 10
169.3687628403
 20
100.0725902301
 30
0.0
 11
169.3687628403
 21
130.0725902301
 31
0.0
  0
LINE
  5
2DB
  8
0
  6
CONTINUOUS
 62
     7
 10
170.9562628403
 20
100.0725902301
 30
0.0
 11
170.9562628403
 21
130.0725902301
 31
0.0
  0
LINE
  5
2DC
  8
0
  6
CONTINUOUS
 62
     7
 10
172.5437628403
 20
100.0725902301
 30
0.0
 11
172.5437628403
 21
130.0725902301
 31
0.0
  0
LINE
  5
2DD
  8
0
  6
CONTINUOUS
 62
     7
 10
174.1312628403
 20
100.0725902301
 30
0.0
 11
174.1312628403
 21
130.0725902301
 31
0.0
  0
LINE
  5
2DE
  8
0
  6
CONTINUOUS
 62
     7
 10
174.9250128769
 20
100.3663403199
 30
0.0
 11
174.6312627871
 21
100.0725902301
 31
0.0
  0
LINE
  5
2DF
  8
0
  6
CONTINUOUS
 62
     7
 10
174.9250128948
 20
106.7163403272
 30
0.0
 11
173.3375128885
 21
105.1288403209
 31
0.0
  0
LINE
  5
2E0
  8
0
  6
CONTINUOUS
 62
     7
 10
171.7500128822
 20
103.5413403146
 30
0.0
 11
170.1625128759
 21
101.9538403082
 31
0.0
  0
LINE
  5
2E1
  8
0
  6
CONTINUOUS
 62
     7
 10
168.5750128696
 20
100.3663403019
 30
0.0
 11
168.2812627977
 21
100.0725902301
 31
0.0
  0
LINE
  5
2E2
  8
0
  6
CONTINUOUS
 62
     7
 10
174.9250129128
 20
113.0663403345
 30
0.0
 11
173.3375129065
 21
111.4788403282
 31
0.0
  0
LINE
  5
2E3
  8
0
  6
CONTINUOUS
 62
     7
 10
171.7500129002
 20
109.8913403219
 30
0.0
 11
170.1625128938
 21
108.3038403155
 31
0.0
  0
LINE
  5
2E4
  8
0
  6
CONTINUOUS
 62
     7
 10
168.5750128875
 20
106.7163403092
 30
0.0
 11
166.9875128812
 21
105.1288403029
 31
0.0
  0
LINE
  5
2E5
  8
0
  6
CONTINUOUS
 62
     7
 10
165.4000128749
 20
103.5413402966
 30
0.0
 11
163.8125128686
 21
101.9538402903
 31
0.0
  0
LINE
  5
2E6
  8
0
  6
CONTINUOUS
 62
     7
 10
162.2250128623
 20
100.366340284
 30
0.0
 11
161.9312628084
 21
100.0725902301
 31
0.0
  0
LINE
  5
2E7
  8
0
  6
CONTINUOUS
 62
     7
 10
174.9250129307
 20
119.4163403418
 30
0.0
 11
173.3375129244
 21
117.8288403355
 31
0.0
  0
LINE
  5
2E8
  8
0
  6
CONTINUOUS
 62
     7
 10
171.7500129181
 20
116.2413403292
 30
0.0
 11
170.1625129118
 21
114.6538403229
 31
0.0
  0
LINE
  5
2E9
  8
0
  6
CONTINUOUS
 62
     7
 10
168.5750129055
 20
113.0663403165
 30
0.0
 11
166.9875128992
 21
111.4788403102
 31
0.0
  0
LINE
  5
2EA
  8
0
  6
CONTINUOUS
 62
     7
 10
165.4000128929
 20
109.8913403039
 30
0.0
 11
163.8125128865
 21
108.3038402976
 31
0.0
  0
LINE
  5
2EB
  8
0
  6
CONTINUOUS
 62
     7
 10
162.2250128802
 20
106.7163402913
 30
0.0
 11
160.6375128739
 21
105.128840285
 31
0.0
  0
LINE
  5
2EC
  8
0
  6
CONTINUOUS
 62
     7
 10
159.0500128676
 20
103.5413402786
 30
0.0
 11
157.4625128613
 21
101.9538402723
 31
0.0
  0
LINE
  5
2ED
  8
0
  6
CONTINUOUS
 62
     7
 10
155.875012855
 20
100.366340266
 30
0.0
 11
155.581262819
 21
100.0725902301
 31
0.0
  0
LINE
  5
2EE
  8
0
  6
CONTINUOUS
 62
     7
 10
174.9250129487
 20
125.7663403491
 30
0.0
 11
173.3375129424
 21
124.1788403428
 31
0.0
  0
LINE
  5
2EF
  8
0
  6
CONTINUOUS
 62
     7
 10
171.7500129361
 20
122.5913403365
 30
0.0
 11
170.1625129298
 21
121.0038403302
 31
0.0
  0
LINE
  5
2F0
  8
0
  6
CONTINUOUS
 62
     7
 10
168.5750129234
 20
119.4163403238
 30
0.0
 11
166.9875129171
 21
117.8288403175
 31
0.0
  0
LINE
  5
2F1
  8
0
  6
CONTINUOUS
 62
     7
 10
165.4000129108
 20
116.2413403112
 30
0.0
 11
163.8125129045
 21
114.6538403049
 31
0.0
  0
LINE
  5
2F2
  8
0
  6
CONTINUOUS
 62
     7
 10
162.2250128982
 20
113.0663402986
 30
0.0
 11
160.6375128919
 21
111.4788402923
 31
0.0
  0
LINE
  5
2F3
  8
0
  6
CONTINUOUS
 62
     7
 10
159.0500128855
 20
109.8913402859
 30
0.0
 11
157.4625128792
 21
108.3038402796
 31
0.0
  0
LINE
  5
2F4
  8
0
  6
CONTINUOUS
 62
     7
 10
155.8750128729
 20
106.7163402733
 30
0.0
 11
154.2875128666
 21
105.128840267
 31
0.0
  0
LINE
  5
2F5
  8
0
  6
CONTINUOUS
 62
     7
 10
152.7000128603
 20
103.5413402607
 30
0.0
 11
151.112512854
 21
101.9538402544
 31
0.0
  0
LINE
  5
2F6
  8
0
  6
CONTINUOUS
 62
     7
 10
171.750012954
 20
128.9413403438
 30
0.0
 11
170.1625129477
 21
127.3538403375
 31
0.0
  0
LINE
  5
2F7
  8
0
  6
CONTINUOUS
 62
     7
 10
168.5750129414
 20
125.7663403311
 30
0.0
 11
166.9875129351
 21
124.1788403248
 31
0.0
  0
LINE
  5
2F8
  8
0
  6
CONTINUOUS
 62
     7
 10
165.4000129288
 20
122.5913403185
 30
0.0
 11
163.8125129225
 21
121.0038403122
 31
0.0
  0
LINE
  5
2F9
  8
0
  6
CONTINUOUS
 62
     7
 10
162.2250129161
 20
119.4163403059
 30
0.0
 11
160.6375129098
 21
117.8288402996
 31
0.0
  0
LINE
  5
2FA
  8
0
  6
CONTINUOUS
 62
     7
 10
159.0500129035
 20
116.2413402932
 30
0.0
 11
157.4625128972
 21
114.6538402869
 31
0.0
  0
LINE
  5
2FB
  8
0
  6
CONTINUOUS
 62
     7
 10
155.8750128909
 20
113.0663402806
 30
0.0
 11
154.2875128846
 21
111.4788402743
 31
0.0
  0
LINE
  5
2FC
  8
0
  6
CONTINUOUS
 62
     7
 10
152.7000128782
 20
109.891340268
 30
0.0
 11
151.1125128719
 21
108.3038402617
 31
0.0
  0
LINE
  5
2FD
  8
0
  6
CONTINUOUS
 62
     7
 10
149.5250128656
 20
106.7163402553
 30
0.0
 11
147.9375128593
 21
105.128840249
 31
0.0
  0
LINE
  5
2FE
  8
0
  6
CONTINUOUS
 62
     7
 10
146.0204996097
 20
103.2118269994
 30
0.0
 11
145.3812628403
 21
102.5725902301
 31
0.0
  0
LINE
  5
2FF
  8
0
  6
CONTINUOUS
 62
     7
 10
165.4000129467
 20
128.9413403258
 30
0.0
 11
163.8125129404
 21
127.3538403195
 31
0.0
  0
LINE
  5
300
  8
0
  6
CONTINUOUS
 62
     7
 10
162.2250129341
 20
125.7663403132
 30
0.0
 11
160.6375129278
 21
124.1788403069
 31
0.0
  0
LINE
  5
301
  8
0
  6
CONTINUOUS
 62
     7
 10
159.0500129215
 20
122.5913403006
 30
0.0
 11
157.4625129151
 21
121.0038402942
 31
0.0
  0
LINE
  5
302
  8
0
  6
CONTINUOUS
 62
     7
 10
155.8750129088
 20
119.4163402879
 30
0.0
 11
154.2875129025
 21
117.8288402816
 31
0.0
  0
LINE
  5
303
  8
0
  6
CONTINUOUS
 62
     7
 10
152.7000128962
 20
116.2413402753
 30
0.0
 11
151.1125128899
 21
114.653840269
 31
0.0
  0
LINE
  5
304
  8
0
  6
CONTINUOUS
 62
     7
 10
149.5250128836
 20
113.0663402627
 30
0.0
 11
147.9375128773
 21
111.4788402563
 31
0.0
  0
LINE
  5
305
  8
0
  6
CONTINUOUS
 62
     7
 10
146.3500128709
 20
109.89134025
 30
0.0
 11
145.3812628403
 21
108.9225902194
 31
0.0
  0
LINE
  5
306
  8
0
  6
CONTINUOUS
 62
     7
 10
159.0500129394
 20
128.9413403079
 30
0.0
 11
157.4625129331
 21
127.3538403015
 31
0.0
  0
LINE
  5
307
  8
0
  6
CONTINUOUS
 62
     7
 10
155.8750129268
 20
125.7663402952
 30
0.0
 11
154.2875129205
 21
124.1788402889
 31
0.0
  0
LINE
  5
308
  8
0
  6
CONTINUOUS
 62
     7
 10
152.7000129142
 20
122.5913402826
 30
0.0
 11
151.1125129078
 21
121.0038402763
 31
0.0
  0
LINE
  5
309
  8
0
  6
CONTINUOUS
 62
     7
 10
149.5250129015
 20
119.41634027
 30
0.0
 11
147.9375128952
 21
117.8288402636
 31
0.0
  0
LINE
  5
30A
  8
0
  6
CONTINUOUS
 62
     7
 10
146.3500128889
 20
116.2413402573
 30
0.0
 11
145.3812628403
 21
115.2725902088
 31
0.0
  0
LINE
  5
30B
  8
0
  6
CONTINUOUS
 62
     7
 10
152.7000129321
 20
128.9413402899
 30
0.0
 11
151.1125129258
 21
127.3538402836
 31
0.0
  0
LINE
  5
30C
  8
0
  6
CONTINUOUS
 62
     7
 10
149.5250129195
 20
125.7663402773
 30
0.0
 11
147.9375129132
 21
124.1788402709
 31
0.0
  0
LINE
  5
30D
  8
0
  6
CONTINUOUS
 62
     7
 10
146.3500129069
 20
122.5913402646
 30
0.0
 11
145.3812628403
 21
121.6225901981
 31
0.0
  0
LINE
  5
30E
  8
0
  6
CONTINUOUS
 62
     7
 10
146.3500129248
 20
128.9413402719
 30
0.0
 11
145.3812628403
 21
127.9725901875
 31
0.0
  0
LINE
  5
30F
  8
0
  6
CONTINUOUS
 62
     7
 10
174.9250128769
 20
100.7632153199
 30
0.0
 11
174.2343877871
 21
100.0725902301
 31
0.0
  0
LINE
  5
310
  8
0
  6
CONTINUOUS
 62
     7
 10
174.9250128948
 20
107.1132153272
 30
0.0
 11
173.3375128885
 21
105.5257153209
 31
0.0
  0
LINE
  5
311
  8
0
  6
CONTINUOUS
 62
     7
 10
171.7500128822
 20
103.9382153146
 30
0.0
 11
170.1625128759
 21
102.3507153082
 31
0.0
  0
LINE
  5
312
  8
0
  6
CONTINUOUS
 62
     7
 10
168.5750128696
 20
100.7632153019
 30
0.0
 11
167.8843877977
 21
100.0725902301
 31
0.0
  0
LINE
  5
313
  8
0
  6
CONTINUOUS
 62
     7
 10
174.9250129128
 20
113.4632153345
 30
0.0
 11
173.3375129065
 21
111.8757153282
 31
0.0
  0
LINE
  5
314
  8
0
  6
CONTINUOUS
 62
     7
 10
171.7500129002
 20
110.2882153219
 30
0.0
 11
170.1625128938
 21
108.7007153155
 31
0.0
  0
LINE
  5
315
  8
0
  6
CONTINUOUS
 62
     7
 10
168.5750128875
 20
107.1132153092
 30
0.0
 11
166.9875128812
 21
105.5257153029
 31
0.0
  0
LINE
  5
316
  8
0
  6
CONTINUOUS
 62
     7
 10
165.4000128749
 20
103.9382152966
 30
0.0
 11
163.8125128686
 21
102.3507152903
 31
0.0
  0
LINE
  5
317
  8
0
  6
CONTINUOUS
 62
     7
 10
162.2250128623
 20
100.763215284
 30
0.0
 11
161.5343878084
 21
100.0725902301
 31
0.0
  0
LINE
  5
318
  8
0
  6
CONTINUOUS
 62
     7
 10
174.9250129307
 20
119.8132153418
 30
0.0
 11
173.3375129244
 21
118.2257153355
 31
0.0
  0
LINE
  5
319
  8
0
  6
CONTINUOUS
 62
     7
 10
171.7500129181
 20
116.6382153292
 30
0.0
 11
170.1625129118
 21
115.0507153229
 31
0.0
  0
LINE
  5
31A
  8
0
  6
CONTINUOUS
 62
     7
 10
168.5750129055
 20
113.4632153165
 30
0.0
 11
166.9875128992
 21
111.8757153102
 31
0.0
  0
LINE
  5
31B
  8
0
  6
CONTINUOUS
 62
     7
 10
165.4000128929
 20
110.2882153039
 30
0.0
 11
163.8125128865
 21
108.7007152976
 31
0.0
  0
LINE
  5
31C
  8
0
  6
CONTINUOUS
 62
     7
 10
162.2250128802
 20
107.1132152913
 30
0.0
 11
160.6375128739
 21
105.525715285
 31
0.0
  0
LINE
  5
31D
  8
0
  6
CONTINUOUS
 62
     7
 10
159.0500128676
 20
103.9382152786
 30
0.0
 11
157.4625128613
 21
102.3507152723
 31
0.0
  0
LINE
  5
31E
  8
0
  6
CONTINUOUS
 62
     7
 10
155.875012855
 20
100.763215266
 30
0.0
 11
155.3812628403
 21
100.2694652514
 31
0.0
  0
LINE
  5
31F
  8
0
  6
CONTINUOUS
 62
     7
 10
174.9250129487
 20
126.1632153491
 30
0.0
 11
173.3375129424
 21
124.5757153428
 31
0.0
  0
LINE
  5
320
  8
0
  6
CONTINUOUS
 62
     7
 10
171.7500129361
 20
122.9882153365
 30
0.0
 11
170.1625129298
 21
121.4007153302
 31
0.0
  0
LINE
  5
321
  8
0
  6
CONTINUOUS
 62
     7
 10
168.5750129234
 20
119.8132153238
 30
0.0
 11
166.9875129171
 21
118.2257153175
 31
0.0
  0
LINE
  5
322
  8
0
  6
CONTINUOUS
 62
     7
 10
165.4000129108
 20
116.6382153112
 30
0.0
 11
163.8125129045
 21
115.0507153049
 31
0.0
  0
LINE
  5
323
  8
0
  6
CONTINUOUS
 62
     7
 10
162.2250128982
 20
113.4632152986
 30
0.0
 11
160.6375128919
 21
111.8757152923
 31
0.0
  0
LINE
  5
324
  8
0
  6
CONTINUOUS
 62
     7
 10
159.0500128855
 20
110.2882152859
 30
0.0
 11
157.4625128792
 21
108.7007152796
 31
0.0
  0
LINE
  5
325
  8
0
  6
CONTINUOUS
 62
     7
 10
155.8750128729
 20
107.1132152733
 30
0.0
 11
154.2875128666
 21
105.525715267
 31
0.0
  0
LINE
  5
326
  8
0
  6
CONTINUOUS
 62
     7
 10
152.7000128603
 20
103.9382152607
 30
0.0
 11
151.112512854
 21
102.3507152544
 31
0.0
  0
LINE
  5
327
  8
0
  6
CONTINUOUS
 62
     7
 10
171.750012954
 20
129.3382153438
 30
0.0
 11
170.1625129477
 21
127.7507153375
 31
0.0
  0
LINE
  5
328
  8
0
  6
CONTINUOUS
 62
     7
 10
168.5750129414
 20
126.1632153311
 30
0.0
 11
166.9875129351
 21
124.5757153248
 31
0.0
  0
LINE
  5
329
  8
0
  6
CONTINUOUS
 62
     7
 10
165.4000129288
 20
122.9882153185
 30
0.0
 11
163.8125129225
 21
121.4007153122
 31
0.0
  0
LINE
  5
32A
  8
0
  6
CONTINUOUS
 62
     7
 10
162.2250129161
 20
119.8132153059
 30
0.0
 11
160.6375129098
 21
118.2257152996
 31
0.0
  0
LINE
  5
32B
  8
0
  6
CONTINUOUS
 62
     7
 10
159.0500129035
 20
116.6382152932
 30
0.0
 11
157.4625128972
 21
115.0507152869
 31
0.0
  0
LINE
  5
32C
  8
0
  6
CONTINUOUS
 62
     7
 10
155.8750128909
 20
113.4632152806
 30
0.0
 11
154.2875128846
 21
111.8757152743
 31
0.0
  0
LINE
  5
32D
  8
0
  6
CONTINUOUS
 62
     7
 10
152.7000128782
 20
110.288215268
 30
0.0
 11
151.1125128719
 21
108.7007152617
 31
0.0
  0
LINE
  5
32E
  8
0
  6
CONTINUOUS
 62
     7
 10
149.5250128656
 20
107.1132152553
 30
0.0
 11
147.9375128593
 21
105.525715249
 31
0.0
  0
LINE
  5
32F
  8
0
  6
CONTINUOUS
 62
     7
 10
145.6236246097
 20
103.2118269994
 30
0.0
 11
145.3812628403
 21
102.9694652301
 31
0.0
  0
LINE
  5
330
  8
0
  6
CONTINUOUS
 62
     7
 10
165.4000129467
 20
129.3382153258
 30
0.0
 11
163.8125129404
 21
127.7507153195
 31
0.0
  0
LINE
  5
331
  8
0
  6
CONTINUOUS
 62
     7
 10
162.2250129341
 20
126.1632153132
 30
0.0
 11
160.6375129278
 21
124.5757153069
 31
0.0
  0
LINE
  5
332
  8
0
  6
CONTINUOUS
 62
     7
 10
159.0500129215
 20
122.9882153006
 30
0.0
 11
157.4625129151
 21
121.4007152942
 31
0.0
  0
LINE
  5
333
  8
0
  6
CONTINUOUS
 62
     7
 10
155.8750129088
 20
119.8132152879
 30
0.0
 11
154.2875129025
 21
118.2257152816
 31
0.0
  0
LINE
  5
334
  8
0
  6
CONTINUOUS
 62
     7
 10
152.7000128962
 20
116.6382152753
 30
0.0
 11
151.1125128899
 21
115.050715269
 31
0.0
  0
LINE
  5
335
  8
0
  6
CONTINUOUS
 62
     7
 10
149.5250128836
 20
113.4632152627
 30
0.0
 11
147.9375128773
 21
111.8757152563
 31
0.0
  0
LINE
  5
336
  8
0
  6
CONTINUOUS
 62
     7
 10
146.3500128709
 20
110.28821525
 30
0.0
 11
145.3812628403
 21
109.3194652194
 31
0.0
  0
LINE
  5
337
  8
0
  6
CONTINUOUS
 62
     7
 10
159.0500129394
 20
129.3382153079
 30
0.0
 11
157.4625129331
 21
127.7507153015
 31
0.0
  0
LINE
  5
338
  8
0
  6
CONTINUOUS
 62
     7
 10
155.8750129268
 20
126.1632152952
 30
0.0
 11
154.2875129205
 21
124.5757152889
 31
0.0
  0
LINE
  5
339
  8
0
  6
CONTINUOUS
 62
     7
 10
152.7000129142
 20
122.9882152826
 30
0.0
 11
151.1125129078
 21
121.4007152763
 31
0.0
  0
LINE
  5
33A
  8
0
  6
CONTINUOUS
 62
     7
 10
149.5250129015
 20
119.81321527
 30
0.0
 11
147.9375128952
 21
118.2257152636
 31
0.0
  0
LINE
  5
33B
  8
0
  6
CONTINUOUS
 62
     7
 10
146.3500128889
 20
116.6382152573
 30
0.0
 11
145.3812628403
 21
115.6694652088
 31
0.0
  0
LINE
  5
33C
  8
0
  6
CONTINUOUS
 62
     7
 10
152.7000129321
 20
129.3382152899
 30
0.0
 11
151.1125129258
 21
127.7507152836
 31
0.0
  0
LINE
  5
33D
  8
0
  6
CONTINUOUS
 62
     7
 10
149.5250129195
 20
126.1632152773
 30
0.0
 11
147.9375129132
 21
124.5757152709
 31
0.0
  0
LINE
  5
33E
  8
0
  6
CONTINUOUS
 62
     7
 10
146.3500129069
 20
122.9882152646
 30
0.0
 11
145.3812628403
 21
122.0194651981
 31
0.0
  0
LINE
  5
33F
  8
0
  6
CONTINUOUS
 62
     7
 10
146.3500129248
 20
129.3382152719
 30
0.0
 11
145.3812628403
 21
128.3694651875
 31
0.0
  0
LINE
  5
340
  8
0
  6
CONTINUOUS
 62
     7
 10
174.9250128769
 20
101.1600903199
 30
0.0
 11
173.8375127871
 21
100.0725902301
 31
0.0
  0
LINE
  5
341
  8
0
  6
CONTINUOUS
 62
     7
 10
174.9250128948
 20
107.5100903272
 30
0.0
 11
173.3375128885
 21
105.9225903209
 31
0.0
  0
LINE
  5
342
  8
0
  6
CONTINUOUS
 62
     7
 10
171.7500128822
 20
104.3350903146
 30
0.0
 11
170.1625128759
 21
102.7475903082
 31
0.0
  0
LINE
  5
343
  8
0
  6
CONTINUOUS
 62
     7
 10
168.5750128696
 20
101.1600903019
 30
0.0
 11
167.4875127977
 21
100.0725902301
 31
0.0
  0
LINE
  5
344
  8
0
  6
CONTINUOUS
 62
     7
 10
174.9250129128
 20
113.8600903345
 30
0.0
 11
173.3375129065
 21
112.2725903282
 31
0.0
  0
LINE
  5
345
  8
0
  6
CONTINUOUS
 62
     7
 10
171.7500129002
 20
110.6850903219
 30
0.0
 11
170.1625128938
 21
109.0975903155
 31
0.0
  0
LINE
  5
346
  8
0
  6
CONTINUOUS
 62
     7
 10
168.5750128875
 20
107.5100903092
 30
0.0
 11
166.9875128812
 21
105.9225903029
 31
0.0
  0
LINE
  5
347
  8
0
  6
CONTINUOUS
 62
     7
 10
165.4000128749
 20
104.3350902966
 30
0.0
 11
163.8125128686
 21
102.7475902903
 31
0.0
  0
LINE
  5
348
  8
0
  6
CONTINUOUS
 62
     7
 10
162.2250128623
 20
101.160090284
 30
0.0
 11
161.1375128084
 21
100.0725902301
 31
0.0
  0
LINE
  5
349
  8
0
  6
CONTINUOUS
 62
     7
 10
174.9250129307
 20
120.2100903418
 30
0.0
 11
173.3375129244
 21
118.6225903355
 31
0.0
  0
LINE
  5
34A
  8
0
  6
CONTINUOUS
 62
     7
 10
171.7500129181
 20
117.0350903292
 30
0.0
 11
170.1625129118
 21
115.4475903229
 31
0.0
  0
LINE
  5
34B
  8
0
  6
CONTINUOUS
 62
     7
 10
168.5750129055
 20
113.8600903165
 30
0.0
 11
166.9875128992
 21
112.2725903102
 31
0.0
  0
LINE
  5
34C
  8
0
  6
CONTINUOUS
 62
     7
 10
165.4000128929
 20
110.6850903039
 30
0.0
 11
163.8125128865
 21
109.0975902976
 31
0.0
  0
LINE
  5
34D
  8
0
  6
CONTINUOUS
 62
     7
 10
162.2250128802
 20
107.5100902913
 30
0.0
 11
160.6375128739
 21
105.922590285
 31
0.0
  0
LINE
  5
34E
  8
0
  6
CONTINUOUS
 62
     7
 10
159.0500128676
 20
104.3350902786
 30
0.0
 11
157.4625128613
 21
102.7475902723
 31
0.0
  0
LINE
  5
34F
  8
0
  6
CONTINUOUS
 62
     7
 10
155.875012855
 20
101.160090266
 30
0.0
 11
155.3812628403
 21
100.6663402514
 31
0.0
  0
LINE
  5
350
  8
0
  6
CONTINUOUS
 62
     7
 10
174.9250129487
 20
126.5600903491
 30
0.0
 11
173.3375129424
 21
124.9725903428
 31
0.0
  0
LINE
  5
351
  8
0
  6
CONTINUOUS
 62
     7
 10
171.7500129361
 20
123.3850903365
 30
0.0
 11
170.1625129298
 21
121.7975903302
 31
0.0
  0
LINE
  5
352
  8
0
  6
CONTINUOUS
 62
     7
 10
168.5750129234
 20
120.2100903238
 30
0.0
 11
166.9875129171
 21
118.6225903175
 31
0.0
  0
LINE
  5
353
  8
0
  6
CONTINUOUS
 62
     7
 10
165.4000129108
 20
117.0350903112
 30
0.0
 11
163.8125129045
 21
115.4475903049
 31
0.0
  0
LINE
  5
354
  8
0
  6
CONTINUOUS
 62
     7
 10
162.2250128982
 20
113.8600902986
 30
0.0
 11
160.6375128919
 21
112.2725902923
 31
0.0
  0
LINE
  5
355
  8
0
  6
CONTINUOUS
 62
     7
 10
159.0500128855
 20
110.6850902859
 30
0.0
 11
157.4625128792
 21
109.0975902796
 31
0.0
  0
LINE
  5
356
  8
0
  6
CONTINUOUS
 62
     7
 10
155.8750128729
 20
107.5100902733
 30
0.0
 11
154.2875128666
 21
105.922590267
 31
0.0
  0
LINE
  5
357
  8
0
  6
CONTINUOUS
 62
     7
 10
152.7000128603
 20
104.3350902607
 30
0.0
 11
151.112512854
 21
102.7475902544
 31
0.0
  0
LINE
  5
358
  8
0
  6
CONTINUOUS
 62
     7
 10
149.5250128476
 20
101.160090248
 30
0.0
 11
149.4375128297
 21
101.0725902301
 31
0.0
  0
LINE
  5
359
  8
0
  6
CONTINUOUS
 62
     7
 10
171.750012954
 20
129.7350903438
 30
0.0
 11
170.1625129477
 21
128.1475903375
 31
0.0
  0
LINE
  5
35A
  8
0
  6
CONTINUOUS
 62
     7
 10
168.5750129414
 20
126.5600903311
 30
0.0
 11
166.9875129351
 21
124.9725903248
 31
0.0
  0
LINE
  5
35B
  8
0
  6
CONTINUOUS
 62
     7
 10
165.4000129288
 20
123.3850903185
 30
0.0
 11
163.8125129225
 21
121.7975903122
 31
0.0
  0
LINE
  5
35C
  8
0
  6
CONTINUOUS
 62
     7
 10
162.2250129161
 20
120.2100903059
 30
0.0
 11
160.6375129098
 21
118.6225902996
 31
0.0
  0
LINE
  5
35D
  8
0
  6
CONTINUOUS
 62
     7
 10
159.0500129035
 20
117.0350902932
 30
0.0
 11
157.4625128972
 21
115.4475902869
 31
0.0
  0
LINE
  5
35E
  8
0
  6
CONTINUOUS
 62
     7
 10
155.8750128909
 20
113.8600902806
 30
0.0
 11
154.2875128846
 21
112.2725902743
 31
0.0
  0
LINE
  5
35F
  8
0
  6
CONTINUOUS
 62
     7
 10
152.7000128782
 20
110.685090268
 30
0.0
 11
151.1125128719
 21
109.0975902617
 31
0.0
  0
LINE
  5
360
  8
0
  6
CONTINUOUS
 62
     7
 10
149.5250128656
 20
107.5100902553
 30
0.0
 11
147.9375128593
 21
105.922590249
 31
0.0
  0
LINE
  5
361
  8
0
  6
CONTINUOUS
 62
     7
 10
165.4000129467
 20
129.7350903258
 30
0.0
 11
163.8125129404
 21
128.1475903195
 31
0.0
  0
LINE
  5
362
  8
0
  6
CONTINUOUS
 62
     7
 10
162.2250129341
 20
126.5600903132
 30
0.0
 11
160.6375129278
 21
124.9725903069
 31
0.0
  0
LINE
  5
363
  8
0
  6
CONTINUOUS
 62
     7
 10
159.0500129215
 20
123.3850903006
 30
0.0
 11
157.4625129151
 21
121.7975902942
 31
0.0
  0
LINE
  5
364
  8
0
  6
CONTINUOUS
 62
     7
 10
155.8750129088
 20
120.2100902879
 30
0.0
 11
154.2875129025
 21
118.6225902816
 31
0.0
  0
LINE
  5
365
  8
0
  6
CONTINUOUS
 62
     7
 10
152.7000128962
 20
117.0350902753
 30
0.0
 11
151.1125128899
 21
115.447590269
 31
0.0
  0
LINE
  5
366
  8
0
  6
CONTINUOUS
 62
     7
 10
149.5250128836
 20
113.8600902627
 30
0.0
 11
147.9375128773
 21
112.2725902563
 31
0.0
  0
LINE
  5
367
  8
0
  6
CONTINUOUS
 62
     7
 10
146.3500128709
 20
110.68509025
 30
0.0
 11
145.3812628403
 21
109.7163402194
 31
0.0
  0
LINE
  5
368
  8
0
  6
CONTINUOUS
 62
     7
 10
159.0500129394
 20
129.7350903079
 30
0.0
 11
157.4625129331
 21
128.1475903015
 31
0.0
  0
LINE
  5
369
  8
0
  6
CONTINUOUS
 62
     7
 10
155.8750129268
 20
126.5600902952
 30
0.0
 11
154.2875129205
 21
124.9725902889
 31
0.0
  0
LINE
  5
36A
  8
0
  6
CONTINUOUS
 62
     7
 10
152.7000129142
 20
123.3850902826
 30
0.0
 11
151.1125129078
 21
121.7975902763
 31
0.0
  0
LINE
  5
36B
  8
0
  6
CONTINUOUS
 62
     7
 10
149.5250129015
 20
120.21009027
 30
0.0
 11
147.9375128952
 21
118.6225902636
 31
0.0
  0
LINE
  5
36C
  8
0
  6
CONTINUOUS
 62
     7
 10
146.3500128889
 20
117.0350902573
 30
0.0
 11
145.3812628403
 21
116.0663402088
 31
0.0
  0
LINE
  5
36D
  8
0
  6
CONTINUOUS
 62
     7
 10
152.7000129321
 20
129.7350902899
 30
0.0
 11
151.1125129258
 21
128.1475902836
 31
0.0
  0
LINE
  5
36E
  8
0
  6
CONTINUOUS
 62
     7
 10
149.5250129195
 20
126.5600902773
 30
0.0
 11
147.9375129132
 21
124.9725902709
 31
0.0
  0
LINE
  5
36F
  8
0
  6
CONTINUOUS
 62
     7
 10
146.3500129069
 20
123.3850902646
 30
0.0
 11
145.3812628403
 21
122.4163401981
 31
0.0
  0
LINE
  5
370
  8
0
  6
CONTINUOUS
 62
     7
 10
146.3500129248
 20
129.7350902719
 30
0.0
 11
145.3812628403
 21
128.7663401875
 31
0.0
  0
LINE
  5
371
  8
0
  6
CONTINUOUS
 62
     7
 10
145.5562628403
 20
93.7458133557
 30
0.0
 11
145.5562628403
 21
98.0725902301
 31
0.0
  0
LINE
  5
372
  8
0
  6
CONTINUOUS
 62
     7
 10
147.1437628403
 20
93.7458133557
 30
0.0
 11
147.1437628403
 21
98.0725902301
 31
0.0
  0
LINE
  5
373
  8
0
  6
CONTINUOUS
 62
     7
 10
148.7312628403
 20
93.2608133557
 30
0.0
 11
148.7312628403
 21
98.0725902301
 31
0.0
  0
LINE
  5
374
  8
0
  6
CONTINUOUS
 62
     7
 10
150.3187628403
 20
93.2608133557
 30
0.0
 11
150.3187628403
 21
98.0725902301
 31
0.0
  0
LINE
  5
375
  8
0
  6
CONTINUOUS
 62
     7
 10
151.9062628403
 20
93.2608133557
 30
0.0
 11
151.9062628403
 21
98.0725902301
 31
0.0
  0
LINE
  5
376
  8
0
  6
CONTINUOUS
 62
     7
 10
153.4937628403
 20
93.7458133557
 30
0.0
 11
153.4937628403
 21
98.0725902301
 31
0.0
  0
LINE
  5
377
  8
0
  6
CONTINUOUS
 62
     7
 10
155.0812628403
 20
93.7458133557
 30
0.0
 11
155.0812628403
 21
98.0725902301
 31
0.0
  0
LINE
  5
378
  8
0
  6
CONTINUOUS
 62
     7
 10
148.2694859446
 20
92.7608133557
 30
0.0
 11
147.9375128234
 21
92.4288402344
 31
0.0
  0
LINE
  5
379
  8
0
  6
CONTINUOUS
 62
     7
 10
145.5562628403
 20
104.6818269994
 30
0.0
 11
145.5562628403
 21
130.0725902301
 31
0.0
  0
LINE
  5
37A
  8
0
  6
CONTINUOUS
 62
     7
 10
147.1437628403
 20
104.6818269994
 30
0.0
 11
147.1437628403
 21
130.0725902301
 31
0.0
  0
LINE
  5
37B
  8
0
  6
CONTINUOUS
 62
     7
 10
175.3812628403
 20
130.0725902301
 30
0.0
 11
175.3812628403
 21
100.0725902301
 31
0.0
  0
LINE
  5
37C
  8
0
  6
CONTINUOUS
 62
     7
 10
175.3812628403
 20
100.0725902301
 30
0.0
 11
155.3812628403
 21
100.0725902301
 31
0.0
  0
LINE
  5
37D
  8
0
  6
CONTINUOUS
 62
     7
 10
155.3812628403
 20
100.0725902301
 30
0.0
 11
155.3812628403
 21
101.0725902301
 31
0.0
  0
LINE
  5
37E
  8
0
  6
CONTINUOUS
 62
     7
 10
145.3812628403
 20
101.0725902301
 30
0.0
 11
155.3812628403
 21
101.0725902301
 31
0.0
  0
LINE
  5
37F
  8
0
  6
CONTINUOUS
 62
     7
 10
145.3812628403
 20
101.0725902301
 30
0.0
 11
145.3812628403
 21
130.0725902301
 31
0.0
  0
LINE
  5
380
  8
0
  6
CONTINUOUS
 62
     7
 10
145.3812628403
 20
130.0725902301
 30
0.0
 11
175.3812628403
 21
130.0725902301
 31
0.0
  0
LINE
  5
381
  8
0
  6
CONTINUOUS
 62
     7
 10
145.3812628403
 20
100.0725902301
 30
0.0
 11
145.6331395867
 21
100.0725902301
 31
0.0
  0
LINE
  5
382
  8
0
  6
CONTINUOUS
 62
     7
 10
145.3812628403
 20
100.0938887373
 30
0.0
 11
145.3812628403
 21
100.0725902301
 31
0.0
  0
LINE
  5
383
  8
0
  6
CONTINUOUS
 62
     7
 10
175.3812628403
 20
69.0725902301
 30
0.0
 11
145.3812628403
 21
69.0725902301
 31
0.0
  0
LINE
  5
384
  8
0
  6
CONTINUOUS
 62
     7
 10
175.3812628403
 20
99.0725902301
 30
0.0
 11
175.3812628403
 21
69.0725902301
 31
0.0
  0
LINE
  5
385
  8
0
  6
CONTINUOUS
 62
     7
 10
155.3812628403
 20
98.0725902301
 30
0.0
 11
155.3812628403
 21
99.0725902301
 31
0.0
  0
LINE
  5
386
  8
0
  6
CONTINUOUS
 62
     7
 10
155.3812628403
 20
99.0725902301
 30
0.0
 11
175.3812628403
 21
99.0725902301
 31
0.0
  0
LINE
  5
387
  8
0
  6
CONTINUOUS
 62
     7
 10
145.3812628403
 20
69.0725902301
 30
0.0
 11
145.3812628403
 21
98.0725902301
 31
0.0
  0
LINE
  5
388
  8
0
  6
CONTINUOUS
 62
     7
 10
145.3812628403
 20
98.0725902301
 30
0.0
 11
155.3812628403
 21
98.0725902301
 31
0.0
  0
LINE
  5
389
  8
0
  6
CONTINUOUS
 62
     7
 10
145.3812628403
 20
99.0512917228
 30
0.0
 11
145.3812628403
 21
99.0725902301
 31
0.0
  0
CIRCLE
  5
38A
  8
0
  6
CONTINUOUS
 62
     7
 10
142.3812628403
 20
99.5725902301
 30
0.0
 40
1.125
  0
LINE
  5
38B
  8
0
  6
CONTINUOUS
 62
     7
 10
155.3812628403
 20
98.0725902301
 30
0.0
 11
145.6331395867
 21
98.0725902301
 31
0.0
  0
ARC
  5
38C
  8
0
  6
CONTINUOUS
 62
     7
 10
145.6331395867
 20
97.5725902301
 30
0.0
 40
0.500000000000005
 50
90.0
 51
101.8468861022
  0
LINE
  5
38D
  8
0
  6
CONTINUOUS
 62
     7
 10
145.5304910833
 20
98.0619400893
 30
0.0
 11
145.1040758688
 21
97.9724930755
 31
0.0
  0
ARC
  5
38E
  8
0
  6
CONTINUOUS
 62
     7
 10
145.6331395867
 20
97.5725902301
 30
0.0
 40
1.500000000000017
 50
90.0
 51
101.8468861022
  0
LINE
  5
38F
  8
0
  6
CONTINUOUS
 62
     7
 10
155.3812628403
 20
99.0725902301
 30
0.0
 11
145.6331395867
 21
99.0725902301
 31
0.0
  0
LINE
  5
390
  8
0
  6
CONTINUOUS
 62
     7
 10
145.1040758688
 20
97.9724930755
 30
0.0
 11
144.8987788619
 21
98.951192794
 31
0.0
  0
LINE
  5
391
  8
0
  6
CONTINUOUS
 62
     7
 10
145.3251940763
 20
99.0406398078
 30
0.0
 11
144.8987788619
 21
98.951192794
 31
0.0
  0
POLYLINE
  5
392
  8
0
  6
CONTINUOUS
 62
     7
 66
     1
 10
0.0
 20
0.0
 30
0.0
 70
   128
  0
VERTEX
  5
3C1
  8
0
  6
CONTINUOUS
 62
     7
 10
144.4561415767
 20
100.0313965392
 30
0.0
  0
VERTEX
  5
3C2
  8
0
  6
CONTINUOUS
 62
     7
 10
144.432667403
 20
100.1269947038
 30
0.0
  0
VERTEX
  5
3C3
  8
0
  6
CONTINUOUS
 62
     7
 10
144.3765979823
 20
100.3035229707
 30
0.0
  0
SEQEND
  5
3C4
  8
0
  6
CONTINUOUS
 62
     7
  0
LINE
  5
393
  8
0
  6
CONTINUOUS
 62
     7
 10
145.1040758688
 20
97.9724930755
 30
0.0
 11
142.8175189801
 21
97.4928533283
 31
0.0
  0
LINE
  5
394
  8
0
  6
CONTINUOUS
 62
     7
 10
144.8987788619
 20
98.951192794
 30
0.0
 11
144.3765979823
 21
98.8416574895
 31
0.0
  0
LINE
  5
395
  8
0
  6
CONTINUOUS
 62
     7
 10
142.6122219732
 20
100.6736274134
 30
0.0
 11
145.3251940763
 21
100.1045406524
 31
0.0
  0
ARC
  5
396
  8
0
  6
CONTINUOUS
 62
     7
 10
142.3812628403
 20
99.5725902301
 30
0.0
 40
1.125000000000012
 50
78.1531138978
 51
12.468853069
  0
LINE
  5
397
  8
0
  6
CONTINUOUS
 62
     7
 10
142.8175189801
 20
101.6523271318
 30
0.0
 11
145.5304910833
 21
101.0832403708
 31
0.0
  0
ARC
  5
398
  8
0
  6
CONTINUOUS
 62
     7
 10
145.6331395867
 20
101.5725902301
 30
0.0
 40
0.5
 50
258.1531138978
 51
270.0
  0
LINE
  5
399
  8
0
  6
CONTINUOUS
 62
     7
 10
145.6331395867
 20
100.0725902301
 30
0.0
 11
155.3812628403
 21
100.0725902301
 31
0.0
  0
ARC
  5
39A
  8
0
  6
CONTINUOUS
 62
     7
 10
142.3812628403
 20
99.5725902301
 30
0.0
 40
2.125000000000016
 50
78.1531138978
 51
12.468853069
  0
ARC
  5
39B
  8
0
  6
CONTINUOUS
 62
     7
 10
145.6331395867
 20
101.5725902301
 30
0.0
 40
1.49999999999999
 50
258.1531138978
 51
270.0
  0
LINE
  5
39C
  8
0
  6
CONTINUOUS
 62
     7
 10
144.4561415767
 20
100.0313965392
 30
0.0
 11
143.4797280537
 21
99.8154876879
 31
0.0
  0
LINE
  5
39D
  8
0
  6
CONTINUOUS
 62
     7
 10
145.6331395867
 20
101.0725902301
 30
0.0
 11
155.3812628403
 21
101.0725902301
 31
0.0
  0
DIMENSION
  5
39E
  8
0
  6
CONTINUOUS
 62
     7
  2
_D_11
 10
155.3812628403
 20
93.0108133557
 30
0.0
 11
141.5047957337
 21
93.0108133557
 31
0.0
 70
   160
  1
<>
  3
SLDDIMSTYLE4
 13
145.3812628403
 23
99.0725902301
 33
0.0
 14
155.3812628403
 24
100.0725902301
 34
0.0
  0
DIMENSION
  5
3A9
  8
0
  6
CONTINUOUS
 62
     7
  2
_D_12
 10
145.3812628403
 20
103.9468269994
 30
0.0
 11
143.9161527793
 21
103.9468269994
 31
0.0
 70
   160
  1
<>
  3
SLDDIMSTYLE5
 13
142.3812628403
 23
99.5725902301
 33
0.0
 14
145.3812628403
 24
100.0725902301
 34
0.0
  0
INSERT
  5
3C0
  8
0
  6
CONTINUOUS
 62
     7
  2
SW_CENTERMARKSYMBOL_6
 10
142.3812628403
 20
99.5725902301
 30
0.0
  0
ENDSEC
  0
EOF
