  0
SECTION
  2
HEADER
  9
$ACADVER
  1
AC1009
  9
$DWGCODEPAGE
  3
ansi_1252
  9
$INSBASE
 10
0.0
 20
0.0
 30
0.0
  9
$EXTMIN
 10
0.0
 20
0.0
 30
0.0
  9
$EXTMAX
 10
420.0
 20
297.0
 30
0.0
  9
$LIMMIN
 10
0.0
 20
0.0
  9
$LIMMAX
 10
420.0
 20
297.0
  9
$ORTHOMODE
 70
     0
  9
$REGENMODE
 70
     1
  9
$FILLMODE
 70
     1
  9
$QTEXTMODE
 70
     0
  9
$MIRRTEXT
 70
     1
  9
$DRAGMODE
 70
     2
  9
$LTSCALE
 40
1.0
  9
$OSMODE
 70
    37
  9
$ATTMODE
 70
     1
  9
$TEXTSIZE
 40
3.5
  9
$TRACEWID
 40
1.0
  9
$TEXTSTYLE
  7
STANDARD
  9
$CLAYER
  8
0
  9
$CELTYPE
  6
BYLAYER
  9
$CECOLOR
 62
   256
  9
$DIMSCALE
 40
1.0
  9
$DIMASZ
 40
3.3
  9
$DIMEXO
 40
1.0
  9
$DIMDLI
 40
3.75
  9
$DIMRND
 40
0.0
  9
$DIMDLE
 40
0.0
  9
$DIMEXE
 40
1.0
  9
$DIMTP
 40
0.0
  9
$DIMTM
 40
0.0
  9
$DIMTXT
 40
3.5277777778
  9
$DIMCEN
 40
2.5
  9
$DIMTSZ
 40
0.0
  9
$DIMTOL
 70
     0
  9
$DIMLIM
 70
     0
  9
$DIMTIH
 70
     1
  9
$DIMTOH
 70
     1
  9
$DIMSE1
 70
     0
  9
$DIMSE2
 70
     0
  9
$DIMTAD
 70
     1
  9
$DIMZIN
 70
     0
  9
$DIMBLK
  1

  9
$DIMASO
 70
     1
  9
$DIMSHO
 70
     1
  9
$DIMPOST
  1

  9
$DIMAPOST
  1

  9
$DIMALT
 70
     0
  9
$DIMALTD
 70
     3
  9
$DIMALTF
 40
0.0393700787
  9
$DIMLFAC
 40
1.0
  9
$DIMTOFL
 70
     1
  9
$DIMTVP
 40
0.0
  9
$DIMTIX
 70
     0
  9
$DIMSOXD
 70
     0
  9
$DIMSAH
 70
     0
  9
$DIMBLK1
  1

  9
$DIMBLK2
  1

  9
$DIMSTYLE
  2
ISO-25
  9
$DIMCLRD
 70
     0
  9
$DIMCLRE
 70
     0
  9
$DIMCLRT
 70
     0
  9
$DIMTFAC
 40
1.0
  9
$DIMGAP
 40
1.524
  9
$LUNITS
 70
     2
  9
$LUPREC
 70
     2
  9
$SKETCHINC
 40
1.0
  9
$FILLETRAD
 40
10.0
  9
$AUNITS
 70
     0
  9
$AUPREC
 70
     2
  9
$MENU
  1
.
  9
$ELEVATION
 40
0.0
  9
$PELEVATION
 40
0.0
  9
$THICKNESS
 40
0.0
  9
$LIMCHECK
 70
     0
  9
$CHAMFERA
 40
0.0
  9
$CHAMFERB
 40
0.0
  9
$SKPOLY
 70
     0
  9
$TDCREATE
 40
2459606.342862871
  9
$TDUPDATE
 40
2459606.342941956
  9
$TDINDWG
 40
0.0000000116
  9
$TDUSRTIMER
 40
0.0000000116
  9
$USRTIMER
 70
     1
  9
$ANGBASE
 50
0.0
  9
$ANGDIR
 70
     0
  9
$PDMODE
 70
     0
  9
$PDSIZE
 40
-1.0
  9
$PLINEWID
 40
0.0
  9
$COORDS
 70
     1
  9
$SPLFRAME
 70
     0
  9
$SPLINETYPE
 70
     6
  9
$SPLINESEGS
 70
     8
  9
$ATTDIA
 70
     0
  9
$ATTREQ
 70
     1
  9
$HANDLING
 70
     1
  9
$HANDSEED
  5
7C2
  9
$SURFTAB1
 70
     6
  9
$SURFTAB2
 70
     6
  9
$SURFTYPE
 70
     6
  9
$SURFU
 70
     6
  9
$SURFV
 70
     6
  9
$UCSNAME
  2

  9
$UCSORG
 10
0.0
 20
0.0
 30
0.0
  9
$UCSXDIR
 10
1.0
 20
0.0
 30
0.0
  9
$UCSYDIR
 10
0.0
 20
1.0
 30
0.0
  9
$PUCSNAME
  2

  9
$PUCSORG
 10
0.0
 20
0.0
 30
0.0
  9
$PUCSXDIR
 10
1.0
 20
0.0
 30
0.0
  9
$PUCSYDIR
 10
0.0
 20
1.0
 30
0.0
  9
$USERI1
 70
     0
  9
$USERI2
 70
     0
  9
$USERI3
 70
     0
  9
$USERI4
 70
     0
  9
$USERI5
 70
     0
  9
$USERR1
 40
0.0
  9
$USERR2
 40
0.0
  9
$USERR3
 40
0.0
  9
$USERR4
 40
0.0
  9
$USERR5
 40
0.0
  9
$WORLDVIEW
 70
     1
  9
$SHADEDGE
 70
     3
  9
$SHADEDIF
 70
    70
  9
$TILEMODE
 70
     1
  9
$MAXACTVP
 70
    64
  9
$PLIMCHECK
 70
     0
  9
$PEXTMIN
 10
1.0000000000E+20
 20
1.0000000000E+20
 30
1.0000000000E+20
  9
$PEXTMAX
 10
-1.0000000000E+20
 20
-1.0000000000E+20
 30
-1.0000000000E+20
  9
$PLIMMIN
 10
0.0
 20
0.0
  9
$PLIMMAX
 10
420.0
 20
297.0
  9
$UNITMODE
 70
     0
  9
$VISRETAIN
 70
     1
  9
$PLINEGEN
 70
     0
  9
$PSLTSCALE
 70
     1
  0
ENDSEC
  0
SECTION
  2
TABLES
  0
TABLE
  2
VPORT
 70
     1
  0
VPORT
  2
*ACTIVE
 70
     0
 10
0.0
 20
0.0
 11
1.0
 21
1.0
 12
210.0
 22
148.5
 13
0.0
 23
0.0
 14
10.0
 24
10.0
 15
10.0
 25
10.0
 16
0.0
 26
0.0
 36
1.0
 17
0.0
 27
0.0
 37
0.0
 40
297.0
 41
1.4141414141
 42
50.0
 43
0.0
 44
0.0
 50
0.0
 51
0.0
 71
     0
 72
  2000
 73
     1
 74
     3
 75
     0
 76
     0
 77
     0
 78
     0
  0
ENDTAB
  0
TABLE
  2
LTYPE
 70
     6
  0
LTYPE
  2
CONTINUOUS
 70
     0
  3
Solid line
 72
    65
 73
     0
 40
0.0
  0
LTYPE
  2
HIDDEN
 70
     0
  3
Hidden __ __ __ __ __ __ __ __ __ __ __ __ __ __
 72
    65
 73
     2
 40
1.905
 49
1.27
 49
-0.635
  0
LTYPE
  2
PHANTOM
 70
     0
  3
Phantom ______  __  __  ______  __  __  ______
 72
    65
 73
     6
 40
12.7
 49
6.35
 49
-1.27
 49
1.27
 49
-1.27
 49
1.27
 49
-1.27
  0
LTYPE
  2
CENTER
 70
     0
  3
Center ____ _ ____ _ ____ _ ____ _ ____ _ ____
 72
    65
 73
     4
 40
10.16
 49
6.35
 49
-1.27
 49
1.27
 49
-1.27
  0
LTYPE
  2
CENTERX2
 70
     0
  3
Center (2x) ________  __  ________  __  _____
 72
    65
 73
     4
 40
20.32
 49
12.7
 49
-2.54
 49
2.54
 49
-2.54
  0
LTYPE
  2
DOT2
 70
     0
  3
Dot (.5x) ........................................
 72
    65
 73
     2
 40
0.635
 49
0.0
 49
-0.635
  0
ENDTAB
  0
TABLE
  2
LAYER
 70
     1
  0
LAYER
  2
0
 70
     0
 62
     7
  6
CONTINUOUS
  0
ENDTAB
  0
TABLE
  2
STYLE
 70
     1
  0
STYLE
  2
STANDARD
 70
     0
 40
0.0
 41
1.0
 50
0.0
 71
     0
 42
3.5
  3
txt
  4

  0
ENDTAB
  0
TABLE
  2
VIEW
 70
     0
  0
ENDTAB
  0
TABLE
  2
UCS
 70
     0
  0
ENDTAB
  0
TABLE
  2
APPID
 70
     1
  0
APPID
  2
ACAD
 70
     0
  0
ENDTAB
  0
TABLE
  2
DIMSTYLE
 70
     4
  0
DIMSTYLE
  2
ISO-25
 70
     0
  3

  4

  5

  6

  7

 40
1.0
 41
2.5
 42
0.625
 43
3.75
 44
1.25
 45
0.0
 46
0.0
 47
0.0
 48
0.0
140
2.5
141
2.5
142
0.0
143
0.0393700787
144
1.0
145
0.0
146
1.0
147
0.625
 71
     0
 72
     0
 73
     0
 74
     0
 75
     0
 76
     0
 77
     1
 78
     8
170
     0
171
     3
172
     1
173
     0
174
     0
175
     0
176
     0
177
     0
178
     0
  0
DIMSTYLE
  2
SLDDIMSTYLE0
 70
     0
  3

  4

  5

  6

  7

 40
1.0
 41
3.3
 42
0.0625
 43
0.38
 44
0.0
 45
0.000000001
 46
0.0
 47
0.0
 48
0.0
140
2.5683186849
141
0.09
142
0.0
143
25.4
144
1.0
145
0.0
146
1.0
147
0.6420796712
 71
     0
 72
     0
 73
     0
 74
     0
 75
     0
 76
     0
 77
     1
 78
    12
170
     0
171
     2
172
     0
173
     1
174
     0
175
     0
176
     0
177
     0
178
     0
  0
DIMSTYLE
  2
SLDDIMSTYLE1
 70
     0
  3

  4

  5

  6

  7

 40
1.0
 41
3.3
 42
0.0625
 43
0.38
 44
0.0
 45
0.000000001
 46
0.0
 47
0.0
 48
0.0
140
2.5683186849
141
0.09
142
0.0
143
25.4
144
1.0
145
0.0
146
1.0
147
0.6420796712
 71
     0
 72
     0
 73
     0
 74
     0
 75
     0
 76
     0
 77
     1
 78
    12
170
     0
171
     2
172
     1
173
     1
174
     0
175
     0
176
     0
177
     0
178
     0
  0
DIMSTYLE
  2
SLDDIMSTYLE2
 70
     0
  3

  4

  5

  6
NONE
  7

 40
1.0
 41
3.3
 42
0.0625
 43
0.38
 44
0.0
 45
0.000000001
 46
0.0
 47
0.0
 48
0.0
140
2.5683186849
141
0.0
142
0.0
143
25.4
144
1.0
145
0.0
146
1.0
147
0.6420796712
 71
     0
 72
     0
 73
     0
 74
     0
 75
     0
 76
     0
 77
     1
 78
    12
170
     0
171
     2
172
     1
173
     1
174
     0
175
     0
176
     0
177
     0
178
     0
  0
ENDTAB
  0
ENDSEC
  0
SECTION
  2
BLOCKS
  0
BLOCK
  8
0
  2
$MODEL_SPACE
 70
     0
 10
0.0
 20
0.0
 30
0.0
  3
$MODEL_SPACE
  1

  0
ENDBLK
  5
21
  8
0
  0
BLOCK
 67
     1
  8
0
  2
$PAPER_SPACE
 70
     0
 10
0.0
 20
0.0
 30
0.0
  3
$PAPER_SPACE
  1

  0
ENDBLK
  5
1D
 67
     1
  8
0
  0
BLOCK
  8
0
  2
SW_NOTE_0
 70
     0
 10
0.0
 20
0.0
 30
0.0
  3
SW_NOTE_0
  1

  0
TEXT
  5
D0
  8
0
  6
CONTINUOUS
 62
     0
 10
0.0
 20
0.8831501548
 30
0.0
 40
2.5
  1
Maßstab:      
 41
0.55
 11
0.0
 21
0.0
 31
0.0
 73
     1
  0
TEXT
  5
D1
  8
0
  6
CONTINUOUS
 62
     0
 10
19.7052955627
 20
0.9475215793
 30
0.0
 40
3.5
  1
1:1
 41
0.7
 11
19.7052955627
 21
-0.2888886374
 31
0.0
 73
     1
  0
ENDBLK
  5
CF
  8
0
  0
BLOCK
  8
0
  2
SW_NOTE_0_1
 70
     0
 10
0.0
 20
0.0
 30
0.0
  3
SW_NOTE_0_1
  1

  0
TEXT
  5
E1
  8
0
  6
CONTINUOUS
 62
     0
 10
0.0
 20
0.8831501548
 30
0.0
 40
2.5
  1
Breuer & Schmitz
 41
0.65625
 11
0.0
 21
0.0
 31
0.0
 73
     1
  0
TEXT
  5
E2
  8
0
  6
CONTINUOUS
 62
     0
 10
0.6718747318
 20
-2.6168499532
 30
0.0
 40
2.5
  1
GmbH & Co. KG
 41
0.6192307692
 11
0.6718747318
 21
-3.500000108
 31
0.0
 73
     1
  0
TEXT
  5
E3
  8
0
  6
CONTINUOUS
 62
     0
 10
1.2413188815
 20
-6.1168500613
 30
0.0
 40
2.5
  1
Solingen - Wald
 41
0.6533333333
 11
1.2413188815
 21
-7.0000002161
 31
0.0
 73
     1
  0
TEXT
  5
E4
  8
0
  6
CONTINUOUS
 62
     0
 10
-0.7673613727
 20
-9.6168501693
 30
0.0
 40
2.5
  1
Baubeschlagfabrik
 41
0.7
 11
-0.7673613727
 21
-10.5000003241
 31
0.0
 73
     1
  0
ENDBLK
  5
E0
  8
0
  0
BLOCK
  8
0
  2
SW_NOTE_0_2
 70
     0
 10
0.0
 20
0.0
 30
0.0
  3
SW_NOTE_0_2
  1

  0
TEXT
  5
E9
  8
0
  6
CONTINUOUS
 62
     0
 10
0.0
 20
0.5608003483
 30
0.0
 40
1.5875
  1
Diese Zeichung ist unser Eigentum und darf weder
 41
0.6489583333
 11
0.0
 21
0.0
 31
0.0
 73
     1
  0
TEXT
  5
EA
  8
0
  6
CONTINUOUS
 62
     0
 10
0.0
 20
-1.5558662928
 30
0.0
 40
1.5875
  1
verwertet, vervielfältigt noch Dritten zugänglich 
 41
0.665
 11
0.0
 21
-2.1166666411
 31
0.0
 73
     1
  0
TEXT
  5
EB
  8
0
  6
CONTINUOUS
 62
     0
 10
0.0
 20
-3.6725329339
 30
0.0
 40
1.5875
  1
gemacht werden.
 41
0.7
 11
0.0
 21
-4.2333332822
 31
0.0
 73
     1
  0
TEXT
  5
EC
  8
0
  6
CONTINUOUS
 62
     0
 10
0.0
 20
-7.905866216
 30
0.0
 40
1.5875
  1
This drawing is our property and cannot either be 
 41
0.637
 11
0.0
 21
-8.4666665643
 31
0.0
 73
     1
  0
TEXT
  5
ED
  8
0
  6
CONTINUOUS
 62
     0
 10
0.0
 20
-10.0225328571
 30
0.0
 40
1.5875
  1
utilized for an other purpose or copied nor made 
 41
0.6357142857
 11
0.0
 21
-10.5833332054
 31
0.0
 73
     1
  0
TEXT
  5
EE
  8
0
  6
CONTINUOUS
 62
     0
 10
0.0
 20
-12.1391994982
 30
0.0
 40
1.5875
  1
available to a third.
 41
0.65
 11
0.0
 21
-12.6999998465
 31
0.0
 73
     1
  0
ENDBLK
  5
E8
  8
0
  0
BLOCK
  8
0
  2
_D
 70
     0
 10
0.0
 20
0.0
 30
0.0
  3
_D
  1

  0
SOLID
  5
2AC
  8
0
  6
CONTINUOUS
 62
     7
 10
52.6625541033
 20
241.5883284256
 30
0.0
 11
52.1625541033
 21
238.2883284256
 31
0.0
 12
53.1625541033
 22
238.2883284256
 32
0.0
 13
53.1625541033
 23
238.2883284256
 33
0.0
  0
SOLID
  5
2AD
  8
0
  6
CONTINUOUS
 62
     7
 10
52.6625541033
 20
152.5883284256
 30
0.0
 11
53.1625541033
 21
155.8883284256
 31
0.0
 12
52.1625541033
 22
155.8883284256
 32
0.0
 13
52.1625541033
 23
155.8883284256
 33
0.0
  0
LINE
  5
2AE
  8
0
  6
CONTINUOUS
 62
     7
 10
87.5477500384
 20
241.5883284256
 30
0.0
 11
51.6625541033
 21
241.5883284256
 31
0.0
  0
LINE
  5
2AF
  8
0
  6
CONTINUOUS
 62
     7
 10
87.5477500384
 20
152.5883284256
 30
0.0
 11
51.6625541033
 21
152.5883284256
 31
0.0
  0
LINE
  5
2B0
  8
0
  6
CONTINUOUS
 62
     7
 10
52.6625541033
 20
241.5883284256
 30
0.0
 11
52.6625541033
 21
152.5883284256
 31
0.0
  0
TEXT
  5
2B1
  8
0
  6
CONTINUOUS
 62
     7
 10
51.7278866815
 20
195.1284518026
 30
0.0
 40
2.6458333333
  1
89
 50
90.0
 41
0.7
 11
52.6625539287
 21
195.1284518026
 31
0.0
 73
     1
  0
ENDBLK
  5
2AB
  8
0
  0
BLOCK
  8
0
  2
_D_1
 70
     0
 10
0.0
 20
0.0
 30
0.0
  3
_D_1
  1

  0
SOLID
  5
2B6
  8
0
  6
CONTINUOUS
 62
     7
 10
58.5084565354
 20
232.0883284256
 30
0.0
 11
58.0084565354
 21
228.7883284256
 31
0.0
 12
59.0084565354
 22
228.7883284256
 32
0.0
 13
59.0084565354
 23
228.7883284256
 33
0.0
  0
SOLID
  5
2B7
  8
0
  6
CONTINUOUS
 62
     7
 10
58.5084565354
 20
162.0883284256
 30
0.0
 11
59.0084565354
 21
165.3883284256
 31
0.0
 12
58.0084565354
 22
165.3883284256
 32
0.0
 13
58.0084565354
 23
165.3883284256
 33
0.0
  0
LINE
  5
2B8
  8
0
  6
CONTINUOUS
 62
     7
 10
88.2977500384
 20
232.0883284256
 30
0.0
 11
57.5084565354
 21
232.0883284256
 31
0.0
  0
LINE
  5
2B9
  8
0
  6
CONTINUOUS
 62
     7
 10
88.2977500384
 20
162.0883284256
 30
0.0
 11
57.5084565354
 21
162.0883284256
 31
0.0
  0
LINE
  5
2BA
  8
0
  6
CONTINUOUS
 62
     7
 10
58.5084565354
 20
232.0883284256
 30
0.0
 11
58.5084565354
 21
162.0883284256
 31
0.0
  0
TEXT
  5
2BB
  8
0
  6
CONTINUOUS
 62
     7
 10
57.5737891137
 20
195.1284518026
 30
0.0
 40
2.6458333333
  1
70
 50
90.0
 41
0.7
 11
58.5084563608
 21
195.1284518026
 31
0.0
 73
     1
  0
ENDBLK
  5
2B5
  8
0
  0
BLOCK
  8
0
  2
_D_2
 70
     0
 10
0.0
 20
0.0
 30
0.0
  3
_D_2
  1

  0
SOLID
  5
2C0
  8
0
  6
CONTINUOUS
 62
     7
 10
66.5563286859
 20
215.0883284256
 30
0.0
 11
66.0563286859
 21
211.7883284256
 31
0.0
 12
67.0563286859
 22
211.7883284256
 32
0.0
 13
67.0563286859
 23
211.7883284256
 33
0.0
  0
SOLID
  5
2C1
  8
0
  6
CONTINUOUS
 62
     7
 10
66.5563286859
 20
179.0883284256
 30
0.0
 11
67.0563286859
 21
182.3883284256
 31
0.0
 12
66.0563286859
 22
182.3883284256
 32
0.0
 13
66.0563286859
 23
182.3883284256
 33
0.0
  0
LINE
  5
2C2
  8
0
  6
CONTINUOUS
 62
     7
 10
79.2977500384
 20
215.0883284256
 30
0.0
 11
65.5563286859
 21
215.0883284256
 31
0.0
  0
LINE
  5
2C3
  8
0
  6
CONTINUOUS
 62
     7
 10
79.2977500384
 20
179.0883284256
 30
0.0
 11
65.5563286859
 21
179.0883284256
 31
0.0
  0
LINE
  5
2C4
  8
0
  6
CONTINUOUS
 62
     7
 10
66.5563286859
 20
215.0883284256
 30
0.0
 11
66.5563286859
 21
179.0883284256
 31
0.0
  0
TEXT
  5
2C5
  8
0
  6
CONTINUOUS
 62
     7
 10
65.6216612641
 20
195.1284518026
 30
0.0
 40
2.6458333333
  1
36
 50
90.0
 41
0.7
 11
66.5563285113
 21
195.1284518026
 31
0.0
 73
     1
  0
ENDBLK
  5
2BF
  8
0
  0
BLOCK
  8
0
  2
_D_3
 70
     0
 10
0.0
 20
0.0
 30
0.0
  3
_D_3
  1

  0
SOLID
  5
2CB
  8
0
  6
CONTINUOUS
 62
     7
 10
78.5477500384
 20
154.4813774539
 30
0.0
 11
81.8477500384
 21
153.9813774539
 31
0.0
 12
81.8477500384
 22
154.9813774539
 32
0.0
 13
81.8477500384
 23
154.9813774539
 33
0.0
  0
SOLID
  5
2CC
  8
0
  6
CONTINUOUS
 62
     7
 10
96.5477500384
 20
154.4813774539
 30
0.0
 11
93.2477500384
 21
154.9813774539
 31
0.0
 12
93.2477500384
 22
153.9813774539
 32
0.0
 13
93.2477500384
 23
153.9813774539
 33
0.0
  0
LINE
  5
2CD
  8
0
  6
CONTINUOUS
 62
     7
 10
78.5477500384
 20
161.5883284256
 30
0.0
 11
78.5477500384
 21
153.4813774539
 31
0.0
  0
LINE
  5
2CE
  8
0
  6
CONTINUOUS
 62
     7
 10
96.5477500384
 20
153.8383284256
 30
0.0
 11
96.5477500384
 21
153.4813774539
 31
0.0
  0
LINE
  5
2CF
  8
0
  6
CONTINUOUS
 62
     7
 10
78.5477500384
 20
154.4813774539
 30
0.0
 11
96.5477500384
 21
154.4813774539
 31
0.0
  0
TEXT
  5
2D0
  8
0
  6
CONTINUOUS
 62
     7
 10
85.5878734154
 20
155.4160448757
 30
0.0
 40
2.6458333333
  1
18
 50
0.0
 41
0.7
 11
85.5878734154
 21
154.4813776285
 31
0.0
 73
     1
  0
ENDBLK
  5
2CA
  8
0
  0
BLOCK
  8
0
  2
_D_4
 70
     0
 10
0.0
 20
0.0
 30
0.0
  3
_D_4
  1

  0
SOLID
  5
2D5
  8
0
  6
CONTINUOUS
 62
     7
 10
87.5477500384
 20
168.0782637851
 30
0.0
 11
90.8477500384
 21
167.5782637851
 31
0.0
 12
90.8477500384
 22
168.5782637851
 32
0.0
 13
90.8477500384
 23
168.5782637851
 33
0.0
  0
SOLID
  5
2D6
  8
0
  6
CONTINUOUS
 62
     7
 10
78.5477500384
 20
168.0782637851
 30
0.0
 11
75.2477500384
 21
168.5782637851
 31
0.0
 12
75.2477500384
 22
167.5782637851
 32
0.0
 13
75.2477500384
 23
167.5782637851
 33
0.0
  0
LINE
  5
2D7
  8
0
  6
CONTINUOUS
 62
     7
 10
87.5477500384
 20
170.8383284256
 30
0.0
 11
87.5477500384
 21
167.0782637851
 31
0.0
  0
LINE
  5
2D8
  8
0
  6
CONTINUOUS
 62
     7
 10
87.5477500384
 20
168.0782637851
 30
0.0
 11
93.7977500384
 21
168.0782637851
 31
0.0
  0
LINE
  5
2D9
  8
0
  6
CONTINUOUS
 62
     7
 10
87.5477500384
 20
168.0782637851
 30
0.0
 11
78.5477500384
 21
168.0782637851
 31
0.0
  0
LINE
  5
2DA
  8
0
  6
CONTINUOUS
 62
     7
 10
78.5477500384
 20
168.0782637851
 30
0.0
 11
72.2977500384
 21
168.0782637851
 31
0.0
  0
TEXT
  5
2DB
  8
0
  6
CONTINUOUS
 62
     7
 10
82.0678117269
 20
169.0129312069
 30
0.0
 40
2.6458333333
  1
9
 50
0.0
 41
0.7
 11
82.0678117269
 21
168.0782639597
 31
0.0
 73
     1
  0
ENDBLK
  5
2D4
  8
0
  0
BLOCK
  8
0
  2
_D_5
 70
     0
 10
0.0
 20
0.0
 30
0.0
  3
_D_5
  1

  0
SOLID
  5
2E0
  8
0
  6
CONTINUOUS
 62
     7
 10
90.5477500384
 20
187.5139276762
 30
0.0
 11
93.8477500384
 21
187.0139276762
 31
0.0
 12
93.8477500384
 22
188.0139276762
 32
0.0
 13
93.8477500384
 23
188.0139276762
 33
0.0
  0
SOLID
  5
2E1
  8
0
  6
CONTINUOUS
 62
     7
 10
78.5477500384
 20
187.5139276762
 30
0.0
 11
75.2477500384
 21
188.0139276762
 31
0.0
 12
75.2477500384
 22
187.0139276762
 32
0.0
 13
75.2477500384
 23
187.0139276762
 33
0.0
  0
LINE
  5
2E2
  8
0
  6
CONTINUOUS
 62
     7
 10
90.5477500384
 20
187.4883284256
 30
0.0
 11
90.5477500384
 21
186.5139276762
 31
0.0
  0
LINE
  5
2E3
  8
0
  6
CONTINUOUS
 62
     7
 10
90.5477500384
 20
187.5139276762
 30
0.0
 11
96.7977500384
 21
187.5139276762
 31
0.0
  0
LINE
  5
2E4
  8
0
  6
CONTINUOUS
 62
     7
 10
90.5477500384
 20
187.5139276762
 30
0.0
 11
78.5477500384
 21
187.5139276762
 31
0.0
  0
LINE
  5
2E5
  8
0
  6
CONTINUOUS
 62
     7
 10
78.5477500384
 20
187.5139276762
 30
0.0
 11
72.2977500384
 21
187.5139276762
 31
0.0
  0
TEXT
  5
2E6
  8
0
  6
CONTINUOUS
 62
     7
 10
82.5878734154
 20
188.448595098
 30
0.0
 40
2.6458333333
  1
12
 50
0.0
 41
0.7
 11
82.5878734154
 21
187.5139278508
 31
0.0
 73
     1
  0
ENDBLK
  5
2DF
  8
0
  0
BLOCK
  8
0
  2
_NONE
 70
     0
 10
0.0
 20
0.0
 30
0.0
  3
_NONE
  1

  0
ENDBLK
  5
2EB
  8
0
  0
BLOCK
  8
0
  2
_D_6
 70
     0
 10
0.0
 20
0.0
 30
0.0
  3
_D_6
  1

  0
SOLID
  5
2EF
  8
0
  6
CONTINUOUS
 62
     7
 10
162.6613707063
 20
217.4633284256
 30
0.0
 11
165.7692545388
 21
218.6803157237
 31
0.0
 12
165.2692545388
 22
219.5463411275
 32
0.0
 13
165.2692545388
 23
219.5463411275
 33
0.0
  0
LINE
  5
2F0
  8
0
  6
CONTINUOUS
 62
     7
 10
162.6613707063
 20
217.4633284256
 30
0.0
 11
186.2132712357
 21
231.0610245362
 31
0.0
  0
LINE
  5
2F1
  8
0
  6
CONTINUOUS
 62
     7
 10
162.6613707063
 20
217.4633284256
 30
0.0
 11
154.4341293704
 21
212.7133284256
 31
0.0
  0
TEXT
  5
2F2
  8
0
  6
CONTINUOUS
 62
     7
 10
172.1175764672
 20
223.9925192892
 30
0.0
 40
2.6458333333
  1
%%c
 50
30.0
 41
0.7
 11
172.5849100908
 21
223.183073709
 31
0.0
 73
     1
  0
TEXT
  5
2F3
  8
0
  6
CONTINUOUS
 62
     7
 10
175.3626074378
 20
225.8660387936
 30
0.0
 40
2.6458333333
  1
9,5
 50
30.0
 41
0.7
 11
175.8299410614
 21
225.0565932135
 31
0.0
 73
     1
  0
TEXT
  5
2F4
  8
0
  6
CONTINUOUS
 62
     7
 10
179.6058645957
 20
228.3158844559
 30
0.0
 40
2.6458333333
  1
x90°
 50
30.0
 41
0.7
 11
180.0731982193
 21
227.5064388758
 31
0.0
 73
     1
  0
ENDBLK
  5
2EE
  8
0
  0
BLOCK
  8
0
  2
_D_7
 70
     0
 10
0.0
 20
0.0
 30
0.0
  3
_D_7
  1

  0
SOLID
  5
2F9
  8
0
  6
CONTINUOUS
 62
     7
 10
160.8305050015
 20
200.1383284256
 30
0.0
 11
163.9383888339
 21
201.3553157237
 31
0.0
 12
163.4383888339
 22
202.2213411275
 32
0.0
 13
163.4383888339
 23
202.2213411275
 33
0.0
  0
LINE
  5
2FA
  8
0
  6
CONTINUOUS
 62
     7
 10
160.8305050015
 20
200.1383284256
 30
0.0
 11
181.5907738396
 21
212.1242752278
 31
0.0
  0
LINE
  5
2FB
  8
0
  6
CONTINUOUS
 62
     7
 10
160.8305050015
 20
200.1383284256
 30
0.0
 11
150.2649950753
 21
194.0383284256
 31
0.0
  0
TEXT
  5
2FC
  8
0
  6
CONTINUOUS
 62
     7
 10
171.9417841915
 20
207.6236006956
 30
0.0
 40
2.6458333333
  1
%%c
 50
30.0
 41
0.7
 11
172.409117815
 21
206.8141551155
 31
0.0
 73
     1
  0
TEXT
  5
2FD
  8
0
  6
CONTINUOUS
 62
     7
 10
175.1868151621
 20
209.4971202001
 30
0.0
 40
2.6458333333
  1
12,2
 50
30.0
 41
0.7
 11
175.6541487857
 21
208.68767462
 31
0.0
 73
     1
  0
ENDBLK
  5
2F8
  8
0
  0
BLOCK
  8
0
  2
_D_8
 70
     0
 10
0.0
 20
0.0
 30
0.0
  3
_D_8
  1

  0
SOLID
  5
302
  8
0
  6
CONTINUOUS
 62
     7
 10
177.077210258
 20
182.0883284256
 30
0.0
 11
177.577210258
 21
185.3883284256
 31
0.0
 12
176.577210258
 22
185.3883284256
 32
0.0
 13
176.577210258
 23
185.3883284256
 33
0.0
  0
SOLID
  5
303
  8
0
  6
CONTINUOUS
 62
     7
 10
177.077210258
 20
176.0883284256
 30
0.0
 11
176.577210258
 21
172.7883284256
 31
0.0
 12
177.577210258
 22
172.7883284256
 32
0.0
 13
177.577210258
 23
172.7883284256
 33
0.0
  0
LINE
  5
304
  8
0
  6
CONTINUOUS
 62
     7
 10
161.2798008459
 20
182.0883284256
 30
0.0
 11
178.077210258
 21
182.0883284256
 31
0.0
  0
LINE
  5
305
  8
0
  6
CONTINUOUS
 62
     7
 10
161.2798008459
 20
176.0883284256
 30
0.0
 11
178.077210258
 21
176.0883284256
 31
0.0
  0
LINE
  5
306
  8
0
  6
CONTINUOUS
 62
     7
 10
177.077210258
 20
182.0883284256
 30
0.0
 11
177.077210258
 21
188.3383284256
 31
0.0
  0
LINE
  5
307
  8
0
  6
CONTINUOUS
 62
     7
 10
177.077210258
 20
182.0883284256
 30
0.0
 11
177.077210258
 21
176.0883284256
 31
0.0
  0
LINE
  5
308
  8
0
  6
CONTINUOUS
 62
     7
 10
177.077210258
 20
176.0883284256
 30
0.0
 11
177.077210258
 21
169.8383284256
 31
0.0
  0
TEXT
  5
309
  8
0
  6
CONTINUOUS
 62
     7
 10
176.1425428362
 20
178.1083901141
 30
0.0
 40
2.6458333333
  1
6
 50
90.0
 41
0.7
 11
177.0772100833
 21
178.1083901141
 31
0.0
 73
     1
  0
ENDBLK
  5
301
  8
0
  0
BLOCK
  8
0
  2
_D_9
 70
     0
 10
0.0
 20
0.0
 30
0.0
  3
_D_9
  1

  0
SOLID
  5
30E
  8
0
  6
CONTINUOUS
 62
     7
 10
78.5477500384
 20
251.9778753309
 30
0.0
 11
81.8477500384
 21
251.4778753309
 31
0.0
 12
81.8477500384
 22
252.4778753309
 32
0.0
 13
81.8477500384
 23
252.4778753309
 33
0.0
  0
SOLID
  5
30F
  8
0
  6
CONTINUOUS
 62
     7
 10
167.5477500384
 20
251.9778753309
 30
0.0
 11
164.2477500384
 21
252.4778753309
 31
0.0
 12
164.2477500384
 22
251.4778753309
 32
0.0
 13
164.2477500384
 23
251.4778753309
 33
0.0
  0
LINE
  5
310
  8
0
  6
CONTINUOUS
 62
     7
 10
78.5477500384
 20
232.5883284256
 30
0.0
 11
78.5477500384
 21
252.9778753309
 31
0.0
  0
LINE
  5
311
  8
0
  6
CONTINUOUS
 62
     7
 10
167.5477500384
 20
232.5883284256
 30
0.0
 11
167.5477500384
 21
252.9778753309
 31
0.0
  0
LINE
  5
312
  8
0
  6
CONTINUOUS
 62
     7
 10
78.5477500384
 20
251.9778753309
 30
0.0
 11
167.5477500384
 21
251.9778753309
 31
0.0
  0
TEXT
  5
313
  8
0
  6
CONTINUOUS
 62
     7
 10
121.0878734154
 20
252.9125427527
 30
0.0
 40
2.6458333333
  1
89
 50
0.0
 41
0.7
 11
121.0878734154
 21
251.9778755055
 31
0.0
 73
     1
  0
ENDBLK
  5
30D
  8
0
  0
BLOCK
  8
0
  2
SW_CENTERMARKSYMBOL_0
 70
     0
 10
0.0
 20
0.0
 30
0.0
  3
SW_CENTERMARKSYMBOL_0
  1

  0
LINE
  5
317
  8
0
  6
CONTINUOUS
 62
     0
 10
0.0
 20
0.0
 30
0.0
 11
0.0
 21
2.5
 31
0.0
  0
LINE
  5
318
  8
0
  6
CONTINUOUS
 62
     0
 10
0.0
 20
0.0
 30
0.0
 11
-2.5
 21
0.0
 31
0.0
  0
LINE
  5
319
  8
0
  6
CONTINUOUS
 62
     0
 10
0.0
 20
0.0
 30
0.0
 11
0.0
 21
-2.5
 31
0.0
  0
LINE
  5
31A
  8
0
  6
CONTINUOUS
 62
     0
 10
0.0
 20
0.0
 30
0.0
 11
2.5
 21
0.0
 31
0.0
  0
LINE
  5
31B
  8
0
  6
CONTINUOUS
 62
     0
 10
0.0
 20
5.0
 30
0.0
 11
0.0
 21
7.25
 31
0.0
  0
LINE
  5
31C
  8
0
  6
CONTINUOUS
 62
     0
 10
-5.0
 20
0.0
 30
0.0
 11
-7.25
 21
0.0
 31
0.0
  0
LINE
  5
31D
  8
0
  6
CONTINUOUS
 62
     0
 10
0.0
 20
-5.0
 30
0.0
 11
0.0
 21
-7.25
 31
0.0
  0
LINE
  5
31E
  8
0
  6
CONTINUOUS
 62
     0
 10
5.0
 20
0.0
 30
0.0
 11
7.25
 21
0.0
 31
0.0
  0
ENDBLK
  5
316
  8
0
  0
BLOCK
  8
0
  2
SW_CENTERMARKSYMBOL_1
 70
     0
 10
0.0
 20
0.0
 30
0.0
  3
SW_CENTERMARKSYMBOL_1
  1

  0
LINE
  5
323
  8
0
  6
CONTINUOUS
 62
     0
 10
0.0
 20
0.0
 30
0.0
 11
0.0
 21
2.5
 31
0.0
  0
LINE
  5
324
  8
0
  6
CONTINUOUS
 62
     0
 10
0.0
 20
0.0
 30
0.0
 11
-2.5
 21
0.0
 31
0.0
  0
LINE
  5
325
  8
0
  6
CONTINUOUS
 62
     0
 10
0.0
 20
0.0
 30
0.0
 11
0.0
 21
-2.5
 31
0.0
  0
LINE
  5
326
  8
0
  6
CONTINUOUS
 62
     0
 10
0.0
 20
0.0
 30
0.0
 11
2.5
 21
0.0
 31
0.0
  0
LINE
  5
327
  8
0
  6
CONTINUOUS
 62
     0
 10
0.0
 20
5.0
 30
0.0
 11
0.0
 21
7.25
 31
0.0
  0
LINE
  5
328
  8
0
  6
CONTINUOUS
 62
     0
 10
-5.0
 20
0.0
 30
0.0
 11
-7.25
 21
0.0
 31
0.0
  0
LINE
  5
329
  8
0
  6
CONTINUOUS
 62
     0
 10
0.0
 20
-5.0
 30
0.0
 11
0.0
 21
-7.25
 31
0.0
  0
LINE
  5
32A
  8
0
  6
CONTINUOUS
 62
     0
 10
5.0
 20
0.0
 30
0.0
 11
7.25
 21
0.0
 31
0.0
  0
ENDBLK
  5
322
  8
0
  0
BLOCK
  8
0
  2
SW_CENTERMARKSYMBOL_2
 70
     0
 10
0.0
 20
0.0
 30
0.0
  3
SW_CENTERMARKSYMBOL_2
  1

  0
LINE
  5
32F
  8
0
  6
CONTINUOUS
 62
     0
 10
0.0
 20
0.0
 30
0.0
 11
0.0
 21
2.5
 31
0.0
  0
LINE
  5
330
  8
0
  6
CONTINUOUS
 62
     0
 10
0.0
 20
0.0
 30
0.0
 11
-2.5
 21
0.0
 31
0.0
  0
LINE
  5
331
  8
0
  6
CONTINUOUS
 62
     0
 10
0.0
 20
0.0
 30
0.0
 11
0.0
 21
-2.5
 31
0.0
  0
LINE
  5
332
  8
0
  6
CONTINUOUS
 62
     0
 10
0.0
 20
0.0
 30
0.0
 11
2.5
 21
0.0
 31
0.0
  0
LINE
  5
333
  8
0
  6
CONTINUOUS
 62
     0
 10
0.0
 20
5.0
 30
0.0
 11
0.0
 21
7.25
 31
0.0
  0
LINE
  5
334
  8
0
  6
CONTINUOUS
 62
     0
 10
-5.0
 20
0.0
 30
0.0
 11
-7.25
 21
0.0
 31
0.0
  0
LINE
  5
335
  8
0
  6
CONTINUOUS
 62
     0
 10
0.0
 20
-5.0
 30
0.0
 11
0.0
 21
-7.25
 31
0.0
  0
LINE
  5
336
  8
0
  6
CONTINUOUS
 62
     0
 10
5.0
 20
0.0
 30
0.0
 11
7.25
 21
0.0
 31
0.0
  0
ENDBLK
  5
32E
  8
0
  0
BLOCK
  8
0
  2
SW_CENTERMARKSYMBOL_3
 70
     0
 10
0.0
 20
0.0
 30
0.0
  3
SW_CENTERMARKSYMBOL_3
  1

  0
LINE
  5
33B
  8
0
  6
CONTINUOUS
 62
     0
 10
0.0
 20
0.0
 30
0.0
 11
0.0
 21
2.5
 31
0.0
  0
LINE
  5
33C
  8
0
  6
CONTINUOUS
 62
     0
 10
0.0
 20
0.0
 30
0.0
 11
-2.5
 21
0.0
 31
0.0
  0
LINE
  5
33D
  8
0
  6
CONTINUOUS
 62
     0
 10
0.0
 20
0.0
 30
0.0
 11
0.0
 21
-2.5
 31
0.0
  0
LINE
  5
33E
  8
0
  6
CONTINUOUS
 62
     0
 10
0.0
 20
0.0
 30
0.0
 11
2.5
 21
0.0
 31
0.0
  0
LINE
  5
33F
  8
0
  6
CONTINUOUS
 62
     0
 10
0.0
 20
5.0
 30
0.0
 11
0.0
 21
7.25
 31
0.0
  0
LINE
  5
340
  8
0
  6
CONTINUOUS
 62
     0
 10
-5.0
 20
0.0
 30
0.0
 11
-7.25
 21
0.0
 31
0.0
  0
LINE
  5
341
  8
0
  6
CONTINUOUS
 62
     0
 10
0.0
 20
-5.0
 30
0.0
 11
0.0
 21
-7.25
 31
0.0
  0
LINE
  5
342
  8
0
  6
CONTINUOUS
 62
     0
 10
5.0
 20
0.0
 30
0.0
 11
7.25
 21
0.0
 31
0.0
  0
ENDBLK
  5
33A
  8
0
  0
BLOCK
  8
0
  2
SW_CENTERMARKSYMBOL_4
 70
     0
 10
0.0
 20
0.0
 30
0.0
  3
SW_CENTERMARKSYMBOL_4
  1

  0
LINE
  5
347
  8
0
  6
CONTINUOUS
 62
     0
 10
0.0
 20
0.0
 30
0.0
 11
0.0
 21
2.5
 31
0.0
  0
LINE
  5
348
  8
0
  6
CONTINUOUS
 62
     0
 10
0.0
 20
0.0
 30
0.0
 11
-2.5
 21
0.0
 31
0.0
  0
LINE
  5
349
  8
0
  6
CONTINUOUS
 62
     0
 10
0.0
 20
0.0
 30
0.0
 11
0.0
 21
-2.5
 31
0.0
  0
LINE
  5
34A
  8
0
  6
CONTINUOUS
 62
     0
 10
0.0
 20
0.0
 30
0.0
 11
2.5
 21
0.0
 31
0.0
  0
LINE
  5
34B
  8
0
  6
CONTINUOUS
 62
     0
 10
0.0
 20
5.0
 30
0.0
 11
0.0
 21
7.25
 31
0.0
  0
LINE
  5
34C
  8
0
  6
CONTINUOUS
 62
     0
 10
-5.0
 20
0.0
 30
0.0
 11
-7.25
 21
0.0
 31
0.0
  0
LINE
  5
34D
  8
0
  6
CONTINUOUS
 62
     0
 10
0.0
 20
-5.0
 30
0.0
 11
0.0
 21
-7.25
 31
0.0
  0
LINE
  5
34E
  8
0
  6
CONTINUOUS
 62
     0
 10
5.0
 20
0.0
 30
0.0
 11
7.25
 21
0.0
 31
0.0
  0
ENDBLK
  5
346
  8
0
  0
BLOCK
  8
0
  2
SW_CENTERMARKSYMBOL_5
 70
     0
 10
0.0
 20
0.0
 30
0.0
  3
SW_CENTERMARKSYMBOL_5
  1

  0
LINE
  5
353
  8
0
  6
CONTINUOUS
 62
     0
 10
0.0
 20
0.0
 30
0.0
 11
0.0
 21
2.5
 31
0.0
  0
LINE
  5
354
  8
0
  6
CONTINUOUS
 62
     0
 10
0.0
 20
0.0
 30
0.0
 11
-2.5
 21
0.0
 31
0.0
  0
LINE
  5
355
  8
0
  6
CONTINUOUS
 62
     0
 10
0.0
 20
0.0
 30
0.0
 11
0.0
 21
-2.5
 31
0.0
  0
LINE
  5
356
  8
0
  6
CONTINUOUS
 62
     0
 10
0.0
 20
0.0
 30
0.0
 11
2.5
 21
0.0
 31
0.0
  0
LINE
  5
357
  8
0
  6
CONTINUOUS
 62
     0
 10
0.0
 20
5.0
 30
0.0
 11
0.0
 21
7.25
 31
0.0
  0
LINE
  5
358
  8
0
  6
CONTINUOUS
 62
     0
 10
-5.0
 20
0.0
 30
0.0
 11
-7.25
 21
0.0
 31
0.0
  0
LINE
  5
359
  8
0
  6
CONTINUOUS
 62
     0
 10
0.0
 20
-5.0
 30
0.0
 11
0.0
 21
-7.25
 31
0.0
  0
LINE
  5
35A
  8
0
  6
CONTINUOUS
 62
     0
 10
5.0
 20
0.0
 30
0.0
 11
7.25
 21
0.0
 31
0.0
  0
ENDBLK
  5
352
  8
0
  0
BLOCK
  8
0
  2
SW_CENTERMARKSYMBOL_6
 70
     0
 10
0.0
 20
0.0
 30
0.0
  3
SW_CENTERMARKSYMBOL_6
  1

  0
LINE
  5
35F
  8
0
  6
CONTINUOUS
 62
     0
 10
0.0
 20
0.0
 30
0.0
 11
0.0
 21
2.5
 31
0.0
  0
LINE
  5
360
  8
0
  6
CONTINUOUS
 62
     0
 10
0.0
 20
0.0
 30
0.0
 11
-2.5
 21
0.0
 31
0.0
  0
LINE
  5
361
  8
0
  6
CONTINUOUS
 62
     0
 10
0.0
 20
0.0
 30
0.0
 11
0.0
 21
-2.5
 31
0.0
  0
LINE
  5
362
  8
0
  6
CONTINUOUS
 62
     0
 10
0.0
 20
0.0
 30
0.0
 11
2.5
 21
0.0
 31
0.0
  0
LINE
  5
363
  8
0
  6
CONTINUOUS
 62
     0
 10
0.0
 20
5.0
 30
0.0
 11
0.0
 21
7.25
 31
0.0
  0
LINE
  5
364
  8
0
  6
CONTINUOUS
 62
     0
 10
-5.0
 20
0.0
 30
0.0
 11
-7.25
 21
0.0
 31
0.0
  0
LINE
  5
365
  8
0
  6
CONTINUOUS
 62
     0
 10
0.0
 20
-5.0
 30
0.0
 11
0.0
 21
-7.25
 31
0.0
  0
LINE
  5
366
  8
0
  6
CONTINUOUS
 62
     0
 10
5.0
 20
0.0
 30
0.0
 11
7.25
 21
0.0
 31
0.0
  0
ENDBLK
  5
35E
  8
0
  0
BLOCK
  8
0
  2
SW_CENTERMARKSYMBOL_7
 70
     0
 10
0.0
 20
0.0
 30
0.0
  3
SW_CENTERMARKSYMBOL_7
  1

  0
LINE
  5
36B
  8
0
  6
CONTINUOUS
 62
     0
 10
0.0
 20
0.0
 30
0.0
 11
0.0
 21
2.5
 31
0.0
  0
LINE
  5
36C
  8
0
  6
CONTINUOUS
 62
     0
 10
0.0
 20
0.0
 30
0.0
 11
-2.5
 21
0.0
 31
0.0
  0
LINE
  5
36D
  8
0
  6
CONTINUOUS
 62
     0
 10
0.0
 20
0.0
 30
0.0
 11
0.0
 21
-2.5
 31
0.0
  0
LINE
  5
36E
  8
0
  6
CONTINUOUS
 62
     0
 10
0.0
 20
0.0
 30
0.0
 11
2.5
 21
0.0
 31
0.0
  0
LINE
  5
36F
  8
0
  6
CONTINUOUS
 62
     0
 10
0.0
 20
5.0
 30
0.0
 11
0.0
 21
7.25
 31
0.0
  0
LINE
  5
370
  8
0
  6
CONTINUOUS
 62
     0
 10
-5.0
 20
0.0
 30
0.0
 11
-7.25
 21
0.0
 31
0.0
  0
LINE
  5
371
  8
0
  6
CONTINUOUS
 62
     0
 10
0.0
 20
-5.0
 30
0.0
 11
0.0
 21
-7.25
 31
0.0
  0
LINE
  5
372
  8
0
  6
CONTINUOUS
 62
     0
 10
5.0
 20
0.0
 30
0.0
 11
7.25
 21
0.0
 31
0.0
  0
ENDBLK
  5
36A
  8
0
  0
BLOCK
  8
0
  2
SW_CENTERMARKSYMBOL_8
 70
     0
 10
0.0
 20
0.0
 30
0.0
  3
SW_CENTERMARKSYMBOL_8
  1

  0
LINE
  5
377
  8
0
  6
CONTINUOUS
 62
     0
 10
0.0
 20
0.0
 30
0.0
 11
0.0
 21
2.5
 31
0.0
  0
LINE
  5
378
  8
0
  6
CONTINUOUS
 62
     0
 10
0.0
 20
0.0
 30
0.0
 11
-2.5
 21
0.0
 31
0.0
  0
LINE
  5
379
  8
0
  6
CONTINUOUS
 62
     0
 10
0.0
 20
0.0
 30
0.0
 11
0.0
 21
-2.5
 31
0.0
  0
LINE
  5
37A
  8
0
  6
CONTINUOUS
 62
     0
 10
0.0
 20
0.0
 30
0.0
 11
2.5
 21
0.0
 31
0.0
  0
LINE
  5
37B
  8
0
  6
CONTINUOUS
 62
     0
 10
0.0
 20
5.0
 30
0.0
 11
0.0
 21
8.6
 31
0.0
  0
LINE
  5
37C
  8
0
  6
CONTINUOUS
 62
     0
 10
-5.0
 20
0.0
 30
0.0
 11
-31.5752112258
 21
0.0
 31
0.0
  0
LINE
  5
37D
  8
0
  6
CONTINUOUS
 62
     0
 10
0.0
 20
-5.0
 30
0.0
 11
0.0
 21
-8.6
 31
0.0
  0
LINE
  5
37E
  8
0
  6
CONTINUOUS
 62
     0
 10
5.0
 20
0.0
 30
0.0
 11
15.2905803988
 21
0.0
 31
0.0
  0
ENDBLK
  5
376
  8
0
  0
BLOCK
  8
0
  2
SW_CENTERMARKSYMBOL_9
 70
     0
 10
0.0
 20
0.0
 30
0.0
  3
SW_CENTERMARKSYMBOL_9
  1

  0
LINE
  5
383
  8
0
  6
CONTINUOUS
 62
     0
 10
0.0
 20
0.0
 30
0.0
 11
0.0
 21
2.5
 31
0.0
  0
LINE
  5
384
  8
0
  6
CONTINUOUS
 62
     0
 10
0.0
 20
0.0
 30
0.0
 11
-2.5
 21
0.0
 31
0.0
  0
LINE
  5
385
  8
0
  6
CONTINUOUS
 62
     0
 10
0.0
 20
0.0
 30
0.0
 11
0.0
 21
-2.5
 31
0.0
  0
LINE
  5
386
  8
0
  6
CONTINUOUS
 62
     0
 10
0.0
 20
0.0
 30
0.0
 11
2.5
 21
0.0
 31
0.0
  0
LINE
  5
387
  8
0
  6
CONTINUOUS
 62
     0
 10
0.0
 20
5.0
 30
0.0
 11
0.0
 21
8.6
 31
0.0
  0
LINE
  5
388
  8
0
  6
CONTINUOUS
 62
     0
 10
-5.0
 20
0.0
 30
0.0
 11
-14.8904603234
 21
0.0
 31
0.0
  0
LINE
  5
389
  8
0
  6
CONTINUOUS
 62
     0
 10
0.0
 20
-5.0
 30
0.0
 11
0.0
 21
-8.6
 31
0.0
  0
LINE
  5
38A
  8
0
  6
CONTINUOUS
 62
     0
 10
5.0
 20
0.0
 30
0.0
 11
31.0090263193
 21
0.0
 31
0.0
  0
ENDBLK
  5
382
  8
0
  0
BLOCK
  8
0
  2
_D_10
 70
     0
 10
0.0
 20
0.0
 30
0.0
  3
_D_10
  1

  0
SOLID
  5
3C0
  8
0
  6
CONTINUOUS
 62
     7
 10
70.4119272336
 20
77.611876368
 30
0.0
 11
69.9119272336
 21
74.311876368
 31
0.0
 12
70.9119272336
 22
74.311876368
 32
0.0
 13
70.9119272336
 23
74.311876368
 33
0.0
  0
SOLID
  5
3C1
  8
0
  6
CONTINUOUS
 62
     7
 10
70.4119272336
 20
80.911876368
 30
0.0
 11
70.9119272336
 21
84.211876368
 31
0.0
 12
69.9119272336
 22
84.211876368
 32
0.0
 13
69.9119272336
 23
84.211876368
 33
0.0
  0
LINE
  5
3C2
  8
0
  6
CONTINUOUS
 62
     7
 10
86.0477500384
 20
77.611876368
 30
0.0
 11
69.4119272336
 21
77.611876368
 31
0.0
  0
LINE
  5
3C3
  8
0
  6
CONTINUOUS
 62
     7
 10
77.5477500384
 20
80.911876368
 30
0.0
 11
69.4119272336
 21
80.911876368
 31
0.0
  0
LINE
  5
3C4
  8
0
  6
CONTINUOUS
 62
     7
 10
70.4119272336
 20
77.611876368
 30
0.0
 11
70.4119272336
 21
71.361876368
 31
0.0
  0
LINE
  5
3C5
  8
0
  6
CONTINUOUS
 62
     7
 10
70.4119272336
 20
77.611876368
 30
0.0
 11
70.4119272336
 21
80.911876368
 31
0.0
  0
LINE
  5
3C6
  8
0
  6
CONTINUOUS
 62
     7
 10
70.4119272336
 20
80.911876368
 30
0.0
 11
70.4119272336
 21
89.2199197487
 31
0.0
  0
TEXT
  5
3C7
  8
0
  6
CONTINUOUS
 62
     7
 10
69.4772598118
 20
84.3202279584
 30
36.5221701959
 40
2.6458333333
  1
3,3
 50
90.0
 41
0.7
 11
70.411927059
 21
84.3202279584
 31
36.5221701959
 73
     1
  0
ENDBLK
  5
3BF
  8
0
  0
BLOCK
  8
0
  2
_D_11
 70
     0
 10
0.0
 20
0.0
 30
0.0
  3
_D_11
  1

  0
SOLID
  5
3CC
  8
0
  6
CONTINUOUS
 62
     7
 10
174.118316408
 20
77.411876368
 30
0.0
 11
173.618316408
 21
74.111876368
 31
0.0
 12
174.618316408
 22
74.111876368
 32
0.0
 13
174.618316408
 23
74.111876368
 33
0.0
  0
SOLID
  5
3CD
  8
0
  6
CONTINUOUS
 62
     7
 10
174.118316408
 20
78.411876368
 30
0.0
 11
174.618316408
 21
81.711876368
 31
0.0
 12
173.618316408
 22
81.711876368
 32
0.0
 13
173.618316408
 23
81.711876368
 33
0.0
  0
LINE
  5
3CE
  8
0
  6
CONTINUOUS
 62
     7
 10
132.5477500384
 20
77.411876368
 30
0.0
 11
175.118316408
 21
77.411876368
 31
0.0
  0
LINE
  5
3CF
  8
0
  6
CONTINUOUS
 62
     7
 10
168.5477500384
 20
78.411876368
 30
0.0
 11
175.118316408
 21
78.411876368
 31
0.0
  0
LINE
  5
3D0
  8
0
  6
CONTINUOUS
 62
     7
 10
174.118316408
 20
77.411876368
 30
0.0
 11
174.118316408
 21
69.5555833824
 31
0.0
  0
LINE
  5
3D1
  8
0
  6
CONTINUOUS
 62
     7
 10
174.118316408
 20
77.411876368
 30
0.0
 11
174.118316408
 21
78.411876368
 31
0.0
  0
LINE
  5
3D2
  8
0
  6
CONTINUOUS
 62
     7
 10
174.118316408
 20
78.411876368
 30
0.0
 11
174.118316408
 21
84.661876368
 31
0.0
  0
TEXT
  5
3D3
  8
0
  6
CONTINUOUS
 62
     7
 10
173.1836489862
 20
69.5555833824
 30
36.5221701959
 40
2.6458333333
  1
1
 50
90.0
 41
0.7
 11
174.1183162334
 21
69.5555833824
 31
36.5221701959
 73
     1
  0
ENDBLK
  5
3CB
  8
0
  0
BLOCK
  8
0
  2
_D_12
 70
     0
 10
0.0
 20
0.0
 30
0.0
  3
_D_12
  1

  0
SOLID
  5
3D8
  8
0
  6
CONTINUOUS
 62
     7
 10
179.5557500616
 20
80.911876368
 30
0.0
 11
180.0557500616
 21
84.211876368
 31
0.0
 12
179.0557500616
 22
84.211876368
 32
0.0
 13
179.0557500616
 23
84.211876368
 33
0.0
  0
SOLID
  5
3D9
  8
0
  6
CONTINUOUS
 62
     7
 10
179.5557500616
 20
78.411876368
 30
0.0
 11
179.0557500616
 21
75.111876368
 31
0.0
 12
180.0557500616
 22
75.111876368
 32
0.0
 13
180.0557500616
 23
75.111876368
 33
0.0
  0
LINE
  5
3DA
  8
0
  6
CONTINUOUS
 62
     7
 10
168.5477500384
 20
80.911876368
 30
0.0
 11
180.5557500616
 21
80.911876368
 31
0.0
  0
LINE
  5
3DB
  8
0
  6
CONTINUOUS
 62
     7
 10
168.5477500384
 20
78.411876368
 30
0.0
 11
180.5557500616
 21
78.411876368
 31
0.0
  0
LINE
  5
3DC
  8
0
  6
CONTINUOUS
 62
     7
 10
179.5557500616
 20
80.911876368
 30
0.0
 11
179.5557500616
 21
87.161876368
 31
0.0
  0
LINE
  5
3DD
  8
0
  6
CONTINUOUS
 62
     7
 10
179.5557500616
 20
80.911876368
 30
0.0
 11
179.5557500616
 21
78.411876368
 31
0.0
  0
LINE
  5
3DE
  8
0
  6
CONTINUOUS
 62
     7
 10
179.5557500616
 20
78.411876368
 30
0.0
 11
179.5557500616
 21
68.0856757987
 31
0.0
  0
TEXT
  5
3DF
  8
0
  6
CONTINUOUS
 62
     7
 10
178.6210826398
 20
68.0856757987
 30
36.5221701959
 40
2.6458333333
  1
2,5
 50
90.0
 41
0.7
 11
179.555749887
 21
68.0856757987
 31
36.5221701959
 73
     1
  0
ENDBLK
  5
3D7
  8
0
  0
BLOCK
  8
0
  2
_D_13
 70
     0
 10
0.0
 20
0.0
 30
0.0
  3
_D_13
  1

  0
SOLID
  5
3E4
  8
0
  6
CONTINUOUS
 62
     7
 10
117.0477500384
 20
63.497150049
 30
0.0
 11
113.7477500384
 21
63.997150049
 31
0.0
 12
113.7477500384
 22
62.997150049
 32
0.0
 13
113.7477500384
 23
62.997150049
 33
0.0
  0
SOLID
  5
3E5
  8
0
  6
CONTINUOUS
 62
     7
 10
129.0477500384
 20
63.497150049
 30
0.0
 11
132.3477500384
 21
62.997150049
 31
0.0
 12
132.3477500384
 22
63.997150049
 32
0.0
 13
132.3477500384
 23
63.997150049
 33
0.0
  0
LINE
  5
3E6
  8
0
  6
CONTINUOUS
 62
     7
 10
117.0477500384
 20
76.411876368
 30
0.0
 11
117.0477500384
 21
62.497150049
 31
0.0
  0
LINE
  5
3E7
  8
0
  6
CONTINUOUS
 62
     7
 10
129.0477500384
 20
76.411876368
 30
0.0
 11
129.0477500384
 21
62.497150049
 31
0.0
  0
LINE
  5
3E8
  8
0
  6
CONTINUOUS
 62
     7
 10
117.0477500384
 20
63.497150049
 30
0.0
 11
110.7977500384
 21
63.497150049
 31
0.0
  0
LINE
  5
3E9
  8
0
  6
CONTINUOUS
 62
     7
 10
117.0477500384
 20
63.497150049
 30
0.0
 11
129.0477500384
 21
63.497150049
 31
0.0
  0
LINE
  5
3EA
  8
0
  6
CONTINUOUS
 62
     7
 10
129.0477500384
 20
63.497150049
 30
0.0
 11
135.2977500384
 21
63.497150049
 31
0.0
  0
TEXT
  5
3EB
  8
0
  6
CONTINUOUS
 62
     7
 10
119.2143539109
 20
64.431817238
 30
36.5221701959
 40
2.6458333333
  1
%%c
 41
0.7
 11
119.2143539109
 21
63.4971499908
 31
36.5221701959
 73
     1
  0
TEXT
  5
3EC
  8
0
  6
CONTINUOUS
 62
     7
 10
122.9613929198
 20
64.431817238
 30
36.5221701959
 40
2.6458333333
  1
12
 41
0.7
 11
122.9613929198
 21
63.4971499908
 31
36.5221701959
 73
     1
  0
ENDBLK
  5
3E3
  8
0
  0
BLOCK
  8
0
  2
_D_14
 70
     0
 10
0.0
 20
0.0
 30
0.0
  3
_D_14
  1

  0
SOLID
  5
3F1
  8
0
  6
CONTINUOUS
 62
     7
 10
78.5477500384
 20
94.2731498395
 30
0.0
 11
81.8477500384
 21
93.7731498395
 31
0.0
 12
81.8477500384
 22
94.7731498395
 32
0.0
 13
81.8477500384
 23
94.7731498395
 33
0.0
  0
SOLID
  5
3F2
  8
0
  6
CONTINUOUS
 62
     7
 10
123.0477500384
 20
94.2731498395
 30
0.0
 11
119.7477500384
 21
94.7731498395
 31
0.0
 12
119.7477500384
 22
93.7731498395
 32
0.0
 13
119.7477500384
 23
93.7731498395
 33
0.0
  0
LINE
  5
3F3
  8
0
  6
CONTINUOUS
 62
     7
 10
78.5477500384
 20
81.911876368
 30
0.0
 11
78.5477500384
 21
95.2731498395
 31
0.0
  0
LINE
  5
3F4
  8
0
  6
CONTINUOUS
 62
     7
 10
123.0477500384
 20
86.911876368
 30
0.0
 11
123.0477500384
 21
95.2731498395
 31
0.0
  0
LINE
  5
3F5
  8
0
  6
CONTINUOUS
 62
     7
 10
78.5477500384
 20
94.2731498395
 30
0.0
 11
123.0477500384
 21
94.2731498395
 31
0.0
  0
TEXT
  5
3F6
  8
0
  6
CONTINUOUS
 62
     7
 10
97.3679658317
 20
95.2078172613
 30
36.5221701959
 40
2.6458333333
  1
44,5
 50
360.0
 41
0.7
 11
97.3679658317
 21
94.2731500141
 31
36.5221701959
 73
     1
  0
ENDBLK
  5
3F0
  8
0
  0
BLOCK
  8
0
  2
_D_15
 70
     0
 10
0.0
 20
0.0
 30
0.0
  3
_D_15
  1

  0
SOLID
  5
3FB
  8
0
  6
CONTINUOUS
 62
     7
 10
123.0477500384
 20
94.2731498395
 30
0.0
 11
126.3477500384
 21
93.7731498395
 31
0.0
 12
126.3477500384
 22
94.7731498395
 32
0.0
 13
126.3477500384
 23
94.7731498395
 33
0.0
  0
SOLID
  5
3FC
  8
0
  6
CONTINUOUS
 62
     7
 10
167.5477500384
 20
94.2731498395
 30
0.0
 11
164.2477500384
 21
94.7731498395
 31
0.0
 12
164.2477500384
 22
93.7731498395
 32
0.0
 13
164.2477500384
 23
93.7731498395
 33
0.0
  0
LINE
  5
3FD
  8
0
  6
CONTINUOUS
 62
     7
 10
123.0477500384
 20
86.911876368
 30
0.0
 11
123.0477500384
 21
95.2731498395
 31
0.0
  0
LINE
  5
3FE
  8
0
  6
CONTINUOUS
 62
     7
 10
167.5477500384
 20
81.911876368
 30
0.0
 11
167.5477500384
 21
95.2731498395
 31
0.0
  0
LINE
  5
3FF
  8
0
  6
CONTINUOUS
 62
     7
 10
123.0477500384
 20
94.2731498395
 30
0.0
 11
167.5477500384
 21
94.2731498395
 31
0.0
  0
TEXT
  5
400
  8
0
  6
CONTINUOUS
 62
     7
 10
141.8679658317
 20
95.2078172613
 30
36.5221701959
 40
2.6458333333
  1
44,5
 50
360.0
 41
0.7
 11
141.8679658317
 21
94.2731500141
 31
36.5221701959
 73
     1
  0
ENDBLK
  5
3FA
  8
0
  0
BLOCK
  8
0
  2
SW_NOTE_0_3
 70
     0
 10
0.0
 20
0.0
 30
0.0
  3
SW_NOTE_0_3
  1

  0
LINE
  5
404
  8
0
  6
CONTINUOUS
 62
     0
 10
-41.4676382151
 20
-16.6368372705
 30
0.0
 11
-8.450099909
 21
-16.6368372705
 31
0.0
  0
TEXT
  5
405
  8
0
  6
CONTINUOUS
 62
     0
 10
-41.9255196625
 20
-15.4702347738
 30
0.0
 40
3.5
  1
entfällt bei STD
 41
0.65625
 11
-41.9255196625
 21
-16.7066449905
 31
0.0
 73
     1
  0
LINE
  5
406
  8
0
  6
CONTINUOUS
 62
     0
 10
-8.450099909
 20
-16.6368372705
 30
0.0
 11
0.0
 21
0.0
 31
0.0
  0
INSERT
  5
40C
  8
0
  6
CONTINUOUS
 62
     0
  2
_DOT
 10
0.0
 20
0.0
 30
3.0664916595
 50
63.0732998049
  0
ENDBLK
  5
403
  8
0
  0
BLOCK
  8
0
  2
_DOT
 70
     0
 10
0.0
 20
0.0
 30
0.0
  3
_DOT
  1

  0
POLYLINE
  5
40A
  8
0
  6
BYBLOCK
 62
     0
 66
     1
 10
0.0
 20
0.0
 30
0.0
 70
     1
 40
0.5
 41
0.5
  0
VERTEX
  5
757
  8
0
  6
BYBLOCK
 62
     0
 10
-0.25
 20
0.0
 30
0.0
 42
1.0
  0
VERTEX
  5
758
  8
0
  6
BYBLOCK
 62
     0
 10
0.25
 20
0.0
 30
0.0
 42
1.0
  0
SEQEND
  5
7C1
  8
0
  6
BYBLOCK
 62
     0
  0
LINE
  5
40B
  8
0
  6
BYBLOCK
 62
     0
 10
-0.5
 20
0.0
 30
0.0
 11
-1.0
 21
0.0
 31
0.0
  0
ENDBLK
  5
409
  8
0
  0
BLOCK
  8
0
  2
SW_CENTERMARKSYMBOL_10
 70
     0
 10
0.0
 20
0.0
 30
0.0
  3
SW_CENTERMARKSYMBOL_10
  1

  0
LINE
  5
411
  8
0
  6
CONTINUOUS
 62
     0
 10
0.0
 20
0.0
 30
0.0
 11
0.0
 21
2.5
 31
0.0
  0
LINE
  5
412
  8
0
  6
CONTINUOUS
 62
     0
 10
0.0
 20
0.0
 30
0.0
 11
-2.5
 21
0.0
 31
0.0
  0
LINE
  5
413
  8
0
  6
CONTINUOUS
 62
     0
 10
0.0
 20
0.0
 30
0.0
 11
0.0
 21
-2.5
 31
0.0
  0
LINE
  5
414
  8
0
  6
CONTINUOUS
 62
     0
 10
0.0
 20
0.0
 30
0.0
 11
2.5
 21
0.0
 31
0.0
  0
LINE
  5
415
  8
0
  6
CONTINUOUS
 62
     0
 10
0.0
 20
5.0
 30
0.0
 11
0.0
 21
8.5
 31
0.0
  0
LINE
  5
416
  8
0
  6
CONTINUOUS
 62
     0
 10
-5.0
 20
0.0
 30
0.0
 11
-8.5
 21
0.0
 31
0.0
  0
LINE
  5
417
  8
0
  6
CONTINUOUS
 62
     0
 10
0.0
 20
-5.0
 30
0.0
 11
0.0
 21
-8.5
 31
0.0
  0
LINE
  5
418
  8
0
  6
CONTINUOUS
 62
     0
 10
5.0
 20
0.0
 30
0.0
 11
8.5
 21
0.0
 31
0.0
  0
ENDBLK
  5
410
  8
0
  0
BLOCK
  8
0
  2
_D_16
 70
     0
 10
0.0
 20
0.0
 30
0.0
  3
_D_16
  1

  0
SOLID
  5
528
  8
0
  6
CONTINUOUS
 62
     7
 10
281.9139979861
 20
184.1734712041
 30
0.0
 11
285.2139979861
 21
183.6734712041
 31
0.0
 12
285.2139979861
 22
184.6734712041
 32
0.0
 13
285.2139979861
 23
184.6734712041
 33
0.0
  0
SOLID
  5
529
  8
0
  6
CONTINUOUS
 62
     7
 10
326.4139979861
 20
184.1734712041
 30
0.0
 11
323.1139979861
 21
184.6734712041
 31
0.0
 12
323.1139979861
 22
183.6734712041
 32
0.0
 13
323.1139979861
 23
183.6734712041
 33
0.0
  0
LINE
  5
52A
  8
0
  6
CONTINUOUS
 62
     7
 10
281.9139979861
 20
197.0883284256
 30
0.0
 11
281.9139979861
 21
183.1734712041
 31
0.0
  0
LINE
  5
52B
  8
0
  6
CONTINUOUS
 62
     7
 10
326.4139979861
 20
198.0883284256
 30
0.0
 11
326.4139979861
 21
183.1734712041
 31
0.0
  0
LINE
  5
52C
  8
0
  6
CONTINUOUS
 62
     7
 10
281.9139979861
 20
184.1734712041
 30
0.0
 11
326.4139979861
 21
184.1734712041
 31
0.0
  0
TEXT
  5
52D
  8
0
  6
CONTINUOUS
 62
     7
 10
300.7342137794
 20
185.1081386259
 30
37.5221701959
 40
2.6458333333
  1
44,5
 50
0.0
 41
0.7
 11
300.7342137794
 21
184.1734713787
 31
37.5221701959
 73
     1
  0
ENDBLK
  5
527
  8
0
  0
BLOCK
  8
0
  2
_D_17
 70
     0
 10
0.0
 20
0.0
 30
0.0
  3
_D_17
  1

  0
SOLID
  5
532
  8
0
  6
CONTINUOUS
 62
     7
 10
350.9139979861
 20
199.0883284256
 30
0.0
 11
351.4139979861
 21
202.3883284256
 31
0.0
 12
350.4139979861
 22
202.3883284256
 32
0.0
 13
350.4139979861
 23
202.3883284256
 33
0.0
  0
SOLID
  5
533
  8
0
  6
CONTINUOUS
 62
     7
 10
350.9139979861
 20
197.0883284256
 30
0.0
 11
350.4139979861
 21
193.7883284256
 31
0.0
 12
351.4139979861
 22
193.7883284256
 32
0.0
 13
351.4139979861
 23
193.7883284256
 33
0.0
  0
LINE
  5
534
  8
0
  6
CONTINUOUS
 62
     7
 10
334.9139979861
 20
199.0883284256
 30
0.0
 11
351.9139979861
 21
199.0883284256
 31
0.0
  0
LINE
  5
535
  8
0
  6
CONTINUOUS
 62
     7
 10
334.9139979861
 20
197.0883284256
 30
0.0
 11
351.9139979861
 21
197.0883284256
 31
0.0
  0
LINE
  5
536
  8
0
  6
CONTINUOUS
 62
     7
 10
350.9139979861
 20
199.0883284256
 30
0.0
 11
350.9139979861
 21
207.8611051424
 31
0.0
  0
LINE
  5
537
  8
0
  6
CONTINUOUS
 62
     7
 10
350.9139979861
 20
199.0883284256
 30
0.0
 11
350.9139979861
 21
197.0883284256
 31
0.0
  0
LINE
  5
538
  8
0
  6
CONTINUOUS
 62
     7
 10
350.9139979861
 20
197.0883284256
 30
0.0
 11
350.9139979861
 21
190.8383284256
 31
0.0
  0
TEXT
  5
539
  8
0
  6
CONTINUOUS
 62
     7
 10
349.9793305643
 20
205.9012285194
 30
37.5221701959
 40
2.6458333333
  1
2
 50
90.0
 41
0.7
 11
350.9139978115
 21
205.9012285194
 31
37.5221701959
 73
     1
  0
ENDBLK
  5
531
  8
0
  0
BLOCK
  8
0
  2
_D_18
 70
     0
 10
0.0
 20
0.0
 30
0.0
  3
_D_18
  1

  0
SOLID
  5
53E
  8
0
  6
CONTINUOUS
 62
     7
 10
326.4139979861
 20
212.8654985552
 30
0.0
 11
323.1139979861
 21
213.3654985552
 31
0.0
 12
323.1139979861
 22
212.3654985552
 32
0.0
 13
323.1139979861
 23
212.3654985552
 33
0.0
  0
SOLID
  5
53F
  8
0
  6
CONTINUOUS
 62
     7
 10
289.9139979861
 20
212.8654985552
 30
0.0
 11
293.2139979861
 21
212.3654985552
 31
0.0
 12
293.2139979861
 22
213.3654985552
 32
0.0
 13
293.2139979861
 23
213.3654985552
 33
0.0
  0
LINE
  5
540
  8
0
  6
CONTINUOUS
 62
     7
 10
326.4139979861
 20
202.5883284256
 30
0.0
 11
326.4139979861
 21
213.8654985552
 31
0.0
  0
LINE
  5
541
  8
0
  6
CONTINUOUS
 62
     7
 10
326.4139979861
 20
212.8654985552
 30
0.0
 11
289.9139979861
 21
212.8654985552
 31
0.0
  0
TEXT
  5
542
  8
0
  6
CONTINUOUS
 62
     7
 10
304.7342137794
 20
213.800165977
 30
37.5221701959
 40
2.6458333333
  1
36,5
 50
0.0
 41
0.7
 11
304.7342137794
 21
212.8654987298
 31
37.5221701959
 73
     1
  0
ENDBLK
  5
53D
  8
0
  0
BLOCK
  8
0
  2
SW_CENTERMARKSYMBOL_11
 70
     0
 10
0.0
 20
0.0
 30
0.0
  3
SW_CENTERMARKSYMBOL_11
  1

  0
LINE
  5
546
  8
0
  6
CONTINUOUS
 62
     0
 10
0.0
 20
0.0
 30
0.0
 11
0.0
 21
2.5
 31
0.0
  0
LINE
  5
547
  8
0
  6
CONTINUOUS
 62
     0
 10
0.0
 20
0.0
 30
0.0
 11
-2.5
 21
0.0
 31
0.0
  0
LINE
  5
548
  8
0
  6
CONTINUOUS
 62
     0
 10
0.0
 20
0.0
 30
0.0
 11
0.0
 21
-2.5
 31
0.0
  0
LINE
  5
549
  8
0
  6
CONTINUOUS
 62
     0
 10
0.0
 20
0.0
 30
0.0
 11
2.5
 21
0.0
 31
0.0
  0
LINE
  5
54A
  8
0
  6
CONTINUOUS
 62
     0
 10
0.0
 20
5.0
 30
0.0
 11
0.0
 21
5.875
 31
0.0
  0
LINE
  5
54B
  8
0
  6
CONTINUOUS
 62
     0
 10
-5.0
 20
0.0
 30
0.0
 11
-5.875
 21
0.0
 31
0.0
  0
LINE
  5
54C
  8
0
  6
CONTINUOUS
 62
     0
 10
0.0
 20
-5.0
 30
0.0
 11
0.0
 21
-5.875
 31
0.0
  0
LINE
  5
54D
  8
0
  6
CONTINUOUS
 62
     0
 10
5.0
 20
0.0
 30
0.0
 11
5.875
 21
0.0
 31
0.0
  0
ENDBLK
  5
545
  8
0
  0
ENDSEC
  0
SECTION
  2
ENTITIES
  0
LINE
  5
75
  8
0
  6
CONTINUOUS
 62
     7
 10
227.8
 20
60.25
 30
0.0
 11
227.8
 21
5.0
 31
0.0
  0
LINE
  5
76
  8
0
  6
CONTINUOUS
 62
     7
 10
235.42
 20
43.25
 30
0.0
 11
235.42
 21
5.0
 31
0.0
  0
LINE
  5
77
  8
0
  6
CONTINUOUS
 62
     7
 10
260.82
 20
5.0
 30
0.0
 11
260.82
 21
43.25
 31
0.0
  0
LINE
  5
78
  8
0
  6
CONTINUOUS
 62
     7
 10
410.0
 20
287.0
 30
0.0
 11
410.0
 21
60.25
 31
0.0
  0
LINE
  5
79
  8
0
  6
CONTINUOUS
 62
     7
 10
281.14
 20
22.0
 30
0.0
 11
415.0
 21
22.0
 31
0.0
  0
LINE
  5
7A
  8
0
  6
CONTINUOUS
 62
     7
 10
415.0
 20
43.25
 30
0.0
 11
227.8
 21
43.25
 31
0.0
  0
LINE
  5
7B
  8
0
  6
CONTINUOUS
 62
     7
 10
227.8
 20
60.25
 30
0.0
 11
415.0
 21
60.25
 31
0.0
  0
LINE
  5
7C
  8
0
  6
CONTINUOUS
 62
     7
 10
281.14
 20
38.9447711707
 30
0.0
 11
227.8
 21
38.9447711707
 31
0.0
  0
LINE
  5
7D
  8
0
  6
CONTINUOUS
 62
     7
 10
281.14
 20
5.0
 30
0.0
 11
281.14
 21
60.25
 31
0.0
  0
LINE
  5
7E
  8
0
  6
CONTINUOUS
 62
     7
 10
324.32
 20
60.25
 30
0.0
 11
324.32
 21
5.0
 31
0.0
  0
LINE
  5
7F
  8
0
  6
CONTINUOUS
 62
     7
 10
273.52
 20
43.25
 30
0.0
 11
273.52
 21
5.0
 31
0.0
  0
LINE
  5
80
  8
0
  6
CONTINUOUS
 62
     7
 10
290.5491845626
 20
22.0
 30
0.0
 11
290.5491845626
 21
43.25
 31
0.0
  0
LINE
  5
81
  8
0
  6
CONTINUOUS
 62
     7
 10
281.14
 20
13.5
 30
0.0
 11
227.8
 21
13.5
 31
0.0
  0
LINE
  5
82
  8
0
  6
CONTINUOUS
 62
     7
 10
306.6969257405
 20
43.25
 30
0.0
 11
306.6969257405
 21
22.0
 31
0.0
  0
LINE
  5
83
  8
0
  6
CONTINUOUS
 62
     7
 10
368.48
 20
5.0
 30
0.0
 11
368.48
 21
9.25
 31
0.0
  0
LINE
  5
84
  8
0
  6
CONTINUOUS
 62
     7
 10
376.28
 20
53.875
 30
0.0
 11
376.28
 21
60.25
 31
0.0
  0
LINE
  5
85
  8
0
  6
CONTINUOUS
 62
     7
 10
227.8
 20
9.23
 30
0.0
 11
281.14
 21
9.23
 31
0.0
  0
LINE
  5
86
  8
0
  6
CONTINUOUS
 62
     7
 10
399.68
 20
9.25
 30
0.0
 11
399.68
 21
22.0
 31
0.0
  0
LINE
  5
87
  8
0
  6
CONTINUOUS
 62
     7
 10
415.0
 20
53.875
 30
0.0
 11
324.32
 21
53.875
 31
0.0
  0
LINE
  5
88
  8
0
  6
CONTINUOUS
 62
     7
 10
415.0
 20
5.0
 30
0.0
 11
415.0
 21
60.25
 31
0.0
  0
LINE
  5
89
  8
0
  6
CONTINUOUS
 62
     7
 10
227.8
 20
5.0
 30
0.0
 11
415.0
 21
5.0
 31
0.0
  0
LINE
  5
8A
  8
0
  6
CONTINUOUS
 62
     7
 10
281.14
 20
17.75
 30
0.0
 11
227.8
 21
17.75
 31
0.0
  0
LINE
  5
8B
  8
0
  6
CONTINUOUS
 62
     7
 10
281.14
 20
22.0
 30
0.0
 11
227.8
 21
22.0
 31
0.0
  0
LINE
  5
8C
  8
0
  6
CONTINUOUS
 62
     7
 10
324.32
 20
26.25
 30
0.0
 11
227.8
 21
26.25
 31
0.0
  0
LINE
  5
8D
  8
0
  6
CONTINUOUS
 62
     7
 10
324.32
 20
30.5
 30
0.0
 11
227.8
 21
30.5
 31
0.0
  0
LINE
  5
8E
  8
0
  6
CONTINUOUS
 62
     7
 10
324.32
 20
34.75
 30
0.0
 11
227.8
 21
34.75
 31
0.0
  0
LINE
  5
8F
  8
0
  6
CONTINUOUS
 62
     7
 10
324.32
 20
38.9447711707
 30
0.0
 11
281.14
 21
38.9447711707
 31
0.0
  0
LINE
  5
90
  8
0
  6
CONTINUOUS
 62
     7
 10
415.0
 20
13.5
 30
0.0
 11
399.68
 21
13.5
 31
0.0
  0
LINE
  5
91
  8
0
  6
CONTINUOUS
 62
     7
 10
324.32
 20
9.23
 30
0.0
 11
415.0
 21
9.23
 31
0.0
  0
LINE
  5
92
  8
0
  6
CONTINUOUS
 62
     7
 10
222.8
 20
5.0
 30
0.0
 11
227.8
 21
5.0
 31
0.0
  0
LINE
  5
93
  8
0
  6
CONTINUOUS
 62
     7
 10
415.0
 20
292.0
 30
0.0
 11
5.0
 21
292.0
 31
0.0
  0
LINE
  5
94
  8
0
  6
CONTINUOUS
 62
     7
 10
410.0
 20
287.0
 30
0.0
 11
10.0
 21
287.0
 31
0.0
  0
LINE
  5
95
  8
0
  6
CONTINUOUS
 62
     7
 10
5.0
 20
292.0
 30
0.0
 11
5.0
 21
5.0
 31
0.0
  0
LINE
  5
96
  8
0
  6
CONTINUOUS
 62
     7
 10
10.0
 20
287.0
 30
0.0
 11
10.0
 21
10.0
 31
0.0
  0
LINE
  5
97
  8
0
  6
CONTINUOUS
 62
     7
 10
10.0
 20
48.5
 30
0.0
 11
5.0
 21
48.5
 31
0.0
  0
LINE
  5
98
  8
0
  6
CONTINUOUS
 62
     7
 10
5.0
 20
98.5
 30
0.0
 11
10.0
 21
98.5
 31
0.0
  0
LINE
  5
99
  8
0
  6
CONTINUOUS
 62
     7
 10
5.0
 20
198.5
 30
0.0
 11
10.0
 21
198.5
 31
0.0
  0
LINE
  5
9A
  8
0
  6
CONTINUOUS
 62
     7
 10
5.0
 20
148.5
 30
0.0
 11
15.0
 21
148.5
 31
0.0
  0
LINE
  5
9B
  8
0
  6
CONTINUOUS
 62
     7
 10
5.0
 20
5.0
 30
0.0
 11
227.8
 21
5.0
 31
0.0
  0
LINE
  5
9C
  8
0
  6
CONTINUOUS
 62
     7
 10
10.0
 20
10.0
 30
0.0
 11
227.8
 21
10.0
 31
0.0
  0
LINE
  5
9D
  8
0
  6
CONTINUOUS
 62
     7
 10
60.0
 20
5.0
 30
0.0
 11
60.0
 21
10.0
 31
0.0
  0
LINE
  5
9E
  8
0
  6
CONTINUOUS
 62
     7
 10
110.0
 20
10.0
 30
0.0
 11
110.0
 21
5.0
 31
0.0
  0
LINE
  5
9F
  8
0
  6
CONTINUOUS
 62
     7
 10
160.0
 20
5.0
 30
0.0
 11
160.0
 21
10.0
 31
0.0
  0
LINE
  5
A0
  8
0
  6
CONTINUOUS
 62
     7
 10
10.0
 20
248.5
 30
0.0
 11
5.0
 21
248.5
 31
0.0
  0
LINE
  5
A1
  8
0
  6
CONTINUOUS
 62
     7
 10
60.0
 20
287.0
 30
0.0
 11
60.0
 21
292.0
 31
0.0
  0
LINE
  5
A2
  8
0
  6
CONTINUOUS
 62
     7
 10
110.0
 20
292.0
 30
0.0
 11
110.0
 21
287.0
 31
0.0
  0
LINE
  5
A3
  8
0
  6
CONTINUOUS
 62
     7
 10
160.0
 20
287.0
 30
0.0
 11
160.0
 21
292.0
 31
0.0
  0
LINE
  5
A4
  8
0
  6
CONTINUOUS
 62
     7
 10
260.0
 20
287.0
 30
0.0
 11
260.0
 21
292.0
 31
0.0
  0
LINE
  5
A5
  8
0
  6
CONTINUOUS
 62
     7
 10
415.0
 20
60.25
 30
0.0
 11
415.0
 21
292.0
 31
0.0
  0
LINE
  5
A6
  8
0
  6
CONTINUOUS
 62
     7
 10
210.0
 20
5.0
 30
0.0
 11
210.0
 21
15.0
 31
0.0
  0
LINE
  5
A7
  8
0
  6
CONTINUOUS
 62
     7
 10
410.0
 20
198.5
 30
0.0
 11
415.0
 21
198.5
 31
0.0
  0
LINE
  5
A8
  8
0
  6
CONTINUOUS
 62
     7
 10
410.0
 20
98.5
 30
0.0
 11
415.0
 21
98.5
 31
0.0
  0
LINE
  5
A9
  8
0
  6
CONTINUOUS
 62
     7
 10
415.0
 20
148.5
 30
0.0
 11
405.0
 21
148.5
 31
0.0
  0
LINE
  5
AA
  8
0
  6
CONTINUOUS
 62
     7
 10
310.0
 20
292.0
 30
0.0
 11
310.0
 21
287.0
 31
0.0
  0
LINE
  5
AB
  8
0
  6
CONTINUOUS
 62
     7
 10
360.0
 20
287.0
 30
0.0
 11
360.0
 21
292.0
 31
0.0
  0
LINE
  5
AC
  8
0
  6
CONTINUOUS
 62
     7
 10
210.0
 20
292.0
 30
0.0
 11
210.0
 21
282.0
 31
0.0
  0
LINE
  5
AD
  8
0
  6
CONTINUOUS
 62
     7
 10
415.0
 20
248.5
 30
0.0
 11
410.0
 21
248.5
 31
0.0
  0
TEXT
  5
AE
  8
0
  6
CONTINUOUS
 62
     7
 10
309.6962278361
 20
36.1110557323
 30
0.0
 40
2.1166666667
  1
Hammad
 41
0.7
 11
309.6962278361
 21
35.3633219346
 31
0.0
 73
     1
  0
TEXT
  5
AF
  8
0
  6
CONTINUOUS
 62
     7
 10
293.9688764027
 20
36.1110557323
 30
0.0
 40
2.1166666667
  1
22.11.21
 41
0.7
 11
293.9688764027
 21
35.3633219346
 31
0.0
 73
     1
  0
TEXT
  5
B0
  8
0
  6
CONTINUOUS
 62
     7
 10
341.0325830099
 20
30.1340318024
 30
0.0
 40
3.5
  1
1804 RD 89x89 (3,5''x3,5'')
 41
0.6611111111
 11
341.0325830099
 21
28.8976215857
 31
0.0
 73
     1
  0
TEXT
  5
B1
  8
0
  6
CONTINUOUS
 62
     7
 10
6.6666666667
 20
122.9348266002
 30
0.0
 40
1.8520833333
  1
D
 41
0.7
 11
6.6666666667
 21
122.2805595272
 31
0.0
 73
     1
  0
TEXT
  5
B2
  8
0
  6
CONTINUOUS
 62
     7
 10
6.6666666667
 20
72.9348266002
 30
0.0
 40
1.8520833333
  1
E
 41
0.7
 11
6.6666666667
 21
72.2805595272
 31
0.0
 73
     1
  0
TEXT
  5
B3
  8
0
  6
CONTINUOUS
 62
     7
 10
6.6666666667
 20
22.9348266002
 30
0.0
 40
1.8520833333
  1
F
 41
0.7
 11
6.6666666667
 21
22.2805595272
 31
0.0
 73
     1
  0
TEXT
  5
B4
  8
0
  6
CONTINUOUS
 62
     7
 10
6.6666666667
 20
172.9348266002
 30
0.0
 40
1.8520833333
  1
C
 41
0.7
 11
6.6666666667
 21
172.2805595272
 31
0.0
 73
     1
  0
TEXT
  5
B5
  8
0
  6
CONTINUOUS
 62
     7
 10
34.5833333333
 20
6.9348306002
 30
0.0
 40
1.8520833333
  1
1
 41
0.7
 11
34.5833333333
 21
6.2805635272
 31
0.0
 73
     1
  0
TEXT
  5
B6
  8
0
  6
CONTINUOUS
 62
     7
 10
84.1666666667
 20
6.9348306002
 30
0.0
 40
1.8520833333
  1
2
 41
0.7
 11
84.1666666667
 21
6.2805635272
 31
0.0
 73
     1
  0
TEXT
  5
B7
  8
0
  6
CONTINUOUS
 62
     7
 10
134.1666666667
 20
6.9348306002
 30
0.0
 40
1.8520833333
  1
3
 41
0.7
 11
134.1666666667
 21
6.2805635272
 31
0.0
 73
     1
  0
TEXT
  5
B8
  8
0
  6
CONTINUOUS
 62
     7
 10
184.1666666667
 20
6.9348306002
 30
0.0
 40
1.8520833333
  1
4
 41
0.7
 11
184.1666666667
 21
6.2805635272
 31
0.0
 73
     1
  0
TEXT
  5
B9
  8
0
  6
CONTINUOUS
 62
     7
 10
6.6666666667
 20
222.9348266002
 30
0.0
 40
1.8520833333
  1
B
 41
0.7
 11
6.6666666667
 21
222.2805595272
 31
0.0
 73
     1
  0
TEXT
  5
BA
  8
0
  6
CONTINUOUS
 62
     7
 10
6.6666666667
 20
272.9348266002
 30
0.0
 40
1.8520833333
  1
A
 41
0.7
 11
6.6666666667
 21
272.2805595272
 31
0.0
 73
     1
  0
TEXT
  5
BB
  8
0
  6
CONTINUOUS
 62
     7
 10
134.1666666667
 20
288.9348306002
 30
0.0
 40
1.8520833333
  1
3
 41
0.7
 11
134.1666666667
 21
288.2805635272
 31
0.0
 73
     1
  0
TEXT
  5
BC
  8
0
  6
CONTINUOUS
 62
     7
 10
84.1666666667
 20
288.9348306002
 30
0.0
 40
1.8520833333
  1
2
 41
0.7
 11
84.1666666667
 21
288.2805635272
 31
0.0
 73
     1
  0
TEXT
  5
BD
  8
0
  6
CONTINUOUS
 62
     7
 10
34.5833333333
 20
288.9348306002
 30
0.0
 40
1.8520833333
  1
1
 41
0.7
 11
34.5833333333
 21
288.2805635272
 31
0.0
 73
     1
  0
TEXT
  5
BE
  8
0
  6
CONTINUOUS
 62
     7
 10
234.1666666667
 20
288.9348306002
 30
0.0
 40
1.8520833333
  1
5
 41
0.7
 11
234.1666666667
 21
288.2805635272
 31
0.0
 73
     1
  0
TEXT
  5
BF
  8
0
  6
CONTINUOUS
 62
     7
 10
411.6666666667
 20
172.9348266002
 30
0.0
 40
1.8520833333
  1
C
 41
0.7
 11
411.6666666667
 21
172.2805595272
 31
0.0
 73
     1
  0
TEXT
  5
C0
  8
0
  6
CONTINUOUS
 62
     7
 10
411.6666666667
 20
122.9348266002
 30
0.0
 40
1.8520833333
  1
D
 41
0.7
 11
411.6666666667
 21
122.2805595272
 31
0.0
 73
     1
  0
TEXT
  5
C1
  8
0
  6
CONTINUOUS
 62
     7
 10
184.1666666667
 20
288.9348306002
 30
0.0
 40
1.8520833333
  1
4
 41
0.7
 11
184.1666666667
 21
288.2805635272
 31
0.0
 73
     1
  0
TEXT
  5
C2
  8
0
  6
CONTINUOUS
 62
     7
 10
284.1666666667
 20
288.9348306002
 30
0.0
 40
1.8520833333
  1
6
 41
0.7
 11
284.1666666667
 21
288.2805635272
 31
0.0
 73
     1
  0
TEXT
  5
C3
  8
0
  6
CONTINUOUS
 62
     7
 10
334.1666666667
 20
288.9348306002
 30
0.0
 40
1.8520833333
  1
7
 41
0.7
 11
334.1666666667
 21
288.2805635272
 31
0.0
 73
     1
  0
TEXT
  5
C4
  8
0
  6
CONTINUOUS
 62
     7
 10
384.1666666667
 20
288.9348306002
 30
0.0
 40
1.8520833333
  1
8
 41
0.7
 11
384.1666666667
 21
288.2805635272
 31
0.0
 73
     1
  0
TEXT
  5
C5
  8
0
  6
CONTINUOUS
 62
     7
 10
411.6666666667
 20
272.9348266002
 30
0.0
 40
1.8520833333
  1
A
 41
0.7
 11
411.6666666667
 21
272.2805595272
 31
0.0
 73
     1
  0
TEXT
  5
C6
  8
0
  6
CONTINUOUS
 62
     7
 10
411.6666666667
 20
222.9348266002
 30
0.0
 40
1.8520833333
  1
B
 41
0.7
 11
411.6666666667
 21
222.2805595272
 31
0.0
 73
     1
  0
TEXT
  5
C7
  8
0
  6
CONTINUOUS
 62
     7
 10
228.6542475233
 20
5.8405442472
 30
0.0
 40
2.0
  1
Zust.
 41
0.7
 11
228.6542475233
 21
5.1340241233
 31
0.0
 73
     1
  0
TEXT
  5
C8
  8
0
  6
CONTINUOUS
 62
     7
 10
242.3236265502
 20
5.8405442472
 30
0.0
 40
2.0
  1
Änderung
 41
0.7
 11
242.3236265502
 21
5.1340241233
 31
0.0
 73
     1
  0
TEXT
  5
C9
  8
0
  6
CONTINUOUS
 62
     7
 10
273.7487245318
 20
5.8293213552
 30
0.0
 40
2.0
  1
Name
 41
0.7
 11
273.7487245318
 21
5.1228012314
 31
0.0
 73
     1
  0
TEXT
  5
CA
  8
0
  6
CONTINUOUS
 62
     7
 10
281.9346052427
 20
36.0024961334
 30
0.0
 40
2.0
  1
Bearb.
 41
0.7
 11
281.9346052427
 21
35.2959760096
 31
0.0
 73
     1
  0
TEXT
  5
CB
  8
0
  6
CONTINUOUS
 62
     7
 10
282.5538425523
 20
31.8123005822
 30
0.0
 40
2.0
  1
Gepr.
 41
0.7
 11
282.5538425523
 21
31.1057804584
 31
0.0
 73
     1
  0
TEXT
  5
CC
  8
0
  6
CONTINUOUS
 62
     7
 10
282.568021583
 20
27.5024931334
 30
0.0
 40
2.0
  1
Norm
 41
0.7
 11
282.568021583
 21
26.7959730096
 31
0.0
 73
     1
  0
INSERT
  5
D2
  8
0
  6
CONTINUOUS
 62
     7
  2
SW_NOTE_0
 10
326.1421941634
 20
54.7004161895
 30
0.0
  0
TEXT
  5
D3
  8
0
  6
CONTINUOUS
 62
     7
 10
293.8208978724
 20
40.2378571451
 30
0.0
 40
2.0
  1
Datum
 41
0.7
 11
293.8208978724
 21
39.5313370213
 31
0.0
 73
     1
  0
TEXT
  5
D4
  8
0
  6
CONTINUOUS
 62
     7
 10
310.9758605414
 20
40.2399684874
 30
0.0
 40
2.0
  1
Name
 41
0.7
 11
310.9758605414
 21
39.5334483635
 31
0.0
 73
     1
  0
TEXT
  5
D5
  8
0
  6
CONTINUOUS
 62
     7
 10
400.679992
 20
18.8834825574
 30
0.0
 40
2.5
  1
Blatt
 41
0.7
 11
400.679992
 21
18.0003324026
 31
0.0
 73
     1
  0
TEXT
  5
D6
  8
0
  6
CONTINUOUS
 62
     7
 10
401.6114022462
 20
14.9434680153
 30
0.0
 40
2.0
  1
1 (A3)
 41
0.7
 11
401.6114022462
 21
14.2369478915
 31
0.0
 73
     1
  0
TEXT
  5
D7
  8
0
  6
CONTINUOUS
 62
     7
 10
401.6114022462
 20
10.7163935227
 30
0.0
 40
2.0
  1
1 von 1
 41
0.6
 11
401.6114022462
 21
10.0098733989
 31
0.0
 73
     1
  0
TEXT
  5
D8
  8
0
  6
CONTINUOUS
 62
     7
 10
325.769379396
 20
6.0126746831
 30
0.0
 40
2.0
  1
Ers. für:
 41
0.7
 11
325.769379396
 21
5.3061545592
 31
0.0
 73
     1
  0
TEXT
  5
D9
  8
0
  6
CONTINUOUS
 62
     7
 10
369.3744127484
 20
6.1456631557
 30
0.0
 40
2.0
  1
Ers. durch: 
 41
0.6416666667
 11
369.3744127484
 21
5.4391430318
 31
0.0
 73
     1
  0
TEXT
  5
DA
  8
0
  6
CONTINUOUS
 62
     7
 10
325.8260642912
 20
38.8860690348
 30
0.0
 40
2.5
  1
Benennung:
 41
0.7
 11
325.8260642912
 21
38.00291888
 31
0.0
 73
     1
  0
TEXT
  5
DB
  8
0
  6
CONTINUOUS
 62
     7
 10
326.3720674831
 20
17.4450861174
 30
0.0
 40
2.5
  1
ZEICHNUNGSNR.   ZK 10871
 41
0.6416666667
 11
326.3720674831
 21
16.5619359626
 31
0.0
 73
     1
  0
TEXT
  5
DC
  8
0
  6
CONTINUOUS
 62
     7
 10
326.4245832263
 20
11.7244404863
 30
0.0
 40
2.5
  1
TEILENUMMER   
 41
0.625
 11
326.4245832263
 21
10.8412903315
 31
0.0
 73
     1
  0
TEXT
  5
DD
  8
0
  6
CONTINUOUS
 62
     7
 10
263.2346620132
 20
5.8293213552
 30
0.0
 40
2.0
  1
Datum
 41
0.7
 11
263.2346620132
 21
5.1228012314
 31
0.0
 73
     1
  0
INSERT
  5
E5
  8
0
  6
CONTINUOUS
 62
     7
  2
SW_NOTE_0_1
 10
290.4226877706
 20
16.7269093507
 30
0.0
  0
INSERT
  5
EF
  8
0
  6
CONTINUOUS
 62
     7
  2
SW_NOTE_0_2
 10
230.3638616607
 20
56.9426173561
 30
0.0
  0
TEXT
  5
F0
  8
0
  6
CONTINUOUS
 62
     7
 10
380.8494930471
 20
55.6933776061
 30
0.0
 40
3.5
  1
ISO2768-m-K
 41
0.7
 11
380.8494930471
 21
54.4569673894
 31
0.0
 73
     1
  0
TEXT
  5
F1
  8
0
  6
CONTINUOUS
 62
     7
 10
326.1548865668
 20
50.1794325104
 30
0.0
 40
2.5
  1
Material:
 41
0.7
 11
326.1548865668
 21
49.2962823556
 31
0.0
 73
     1
  0
ARC
  5
F2
  8
0
  6
CENTERX2
 62
     7
 10
157.5477500384
 20
231.5883284256
 30
0.0
 40
10.0
 50
0.0
 51
90.0
  0
ARC
  5
F3
  8
0
  6
CENTERX2
 62
     7
 10
157.5477500384
 20
162.5883284256
 30
0.0
 40
10.0
 50
270.0
 51
0.0
  0
ARC
  5
F4
  8
0
  6
CENTERX2
 62
     7
 10
88.5477500384
 20
162.5883284256
 30
0.0
 40
10.0
 50
180.0
 51
270.0
  0
ARC
  5
F5
  8
0
  6
CENTERX2
 62
     7
 10
88.5477500384
 20
231.5883284256
 30
0.0
 40
10.00000000000003
 50
90.0
 51
180.0
  0
LINE
  5
F6
  8
0
  6
CONTINUOUS
 62
     7
 10
117.0477497173
 20
244.0702074388
 30
0.0
 11
117.0477497173
 21
241.588328238
 31
0.0
  0
LINE
  5
F7
  8
0
  6
CONTINUOUS
 62
     7
 10
129.0477498216
 20
241.588328238
 30
0.0
 11
129.0477498216
 21
244.0702074388
 31
0.0
  0
ARC
  5
F8
  8
0
  6
CONTINUOUS
 62
     7
 10
123.0477500384
 20
209.5883284256
 30
0.0
 40
35.0
 50
80.1291103939
 51
99.8708896061
  0
LINE
  5
F9
  8
0
  6
CONTINUOUS
 62
     7
 10
120.1014688951
 20
152.5883308792
 30
0.0
 11
120.3694178504
 21
151.5883288527
 31
0.0
  0
LINE
  5
FA
  8
0
  6
CONTINUOUS
 62
     7
 10
125.7260816885
 20
151.5883288527
 30
0.0
 11
125.9940306438
 21
152.5883308792
 31
0.0
  0
LINE
  5
FB
  8
0
  6
CONTINUOUS
 62
     7
 10
119.6727494491
 20
227.013328317
 30
0.0
 11
119.6727494491
 21
226.5883281076
 31
0.0
  0
LINE
  5
FC
  8
0
  6
CONTINUOUS
 62
     7
 10
119.6727494491
 20
206.5883285546
 30
0.0
 11
119.6727494491
 21
205.9383287275
 31
0.0
  0
LINE
  5
FD
  8
0
  6
CONTINUOUS
 62
     7
 10
119.6727494491
 20
188.2383271301
 30
0.0
 11
119.6727494491
 21
187.5883273029
 31
0.0
  0
LINE
  5
FE
  8
0
  6
CONTINUOUS
 62
     7
 10
119.6727494491
 20
167.5883314753
 30
0.0
 11
119.6727494491
 21
167.1633280063
 31
0.0
  0
LINE
  5
FF
  8
0
  6
CONTINUOUS
 62
     7
 10
126.4227500898
 20
167.1633280063
 30
0.0
 11
126.4227500898
 21
167.5883314753
 31
0.0
  0
LINE
  5
100
  8
0
  6
CONTINUOUS
 62
     7
 10
126.4227500898
 20
187.5883273029
 30
0.0
 11
126.4227500898
 21
188.2383271301
 31
0.0
  0
LINE
  5
101
  8
0
  6
CONTINUOUS
 62
     7
 10
126.4227500898
 20
205.9383287275
 30
0.0
 11
126.4227500898
 21
206.5883285546
 31
0.0
  0
LINE
  5
102
  8
0
  6
CONTINUOUS
 62
     7
 10
126.4227500898
 20
226.5883281076
 30
0.0
 11
126.4227500898
 21
227.013328317
 31
0.0
  0
LINE
  5
103
  8
0
  6
CONTINUOUS
 62
     7
 10
129.0477498216
 20
206.5883285546
 30
0.0
 11
129.0477498216
 21
226.5883281076
 31
0.0
  0
LINE
  5
104
  8
0
  6
CONTINUOUS
 62
     7
 10
117.0477497173
 20
226.4600440109
 30
0.0
 11
117.0477497173
 21
206.6871195281
 31
0.0
  0
LINE
  5
105
  8
0
  6
CONTINUOUS
 62
     7
 10
129.0477498216
 20
167.5883314753
 30
0.0
 11
129.0477498216
 21
187.5883273029
 31
0.0
  0
LINE
  5
106
  8
0
  6
CONTINUOUS
 62
     7
 10
117.0477497173
 20
187.4600432062
 30
0.0
 11
117.0477497173
 21
167.6871187234
 31
0.0
  0
LINE
  5
107
  8
0
  6
CONTINUOUS
 62
     7
 10
117.0477497173
 20
167.1633280063
 30
0.0
 11
117.0477497173
 21
152.5883308792
 31
0.0
  0
LINE
  5
108
  8
0
  6
CONTINUOUS
 62
     7
 10
129.0477498216
 20
152.7166149759
 30
0.0
 11
129.0477498216
 21
167.0645407581
 31
0.0
  0
LINE
  5
109
  8
0
  6
CONTINUOUS
 62
     7
 10
117.0477497173
 20
241.588328238
 30
0.0
 11
117.0477497173
 21
227.013328317
 31
0.0
  0
LINE
  5
10A
  8
0
  6
CONTINUOUS
 62
     7
 10
129.0477498216
 20
227.1416128793
 30
0.0
 11
129.0477498216
 21
241.4895377302
 31
0.0
  0
LINE
  5
10B
  8
0
  6
CONTINUOUS
 62
     7
 10
117.0477497173
 20
205.9383287275
 30
0.0
 11
117.0477497173
 21
188.2383271301
 31
0.0
  0
LINE
  5
10C
  8
0
  6
CONTINUOUS
 62
     7
 10
129.0477498216
 20
188.3666112268
 30
0.0
 11
129.0477498216
 21
205.8395377541
 31
0.0
  0
LINE
  5
10D
  8
0
  6
CONTINUOUS
 62
     7
 10
117.0477497173
 20
241.588328238
 30
0.0
 11
129.0477498216
 21
241.588328238
 31
0.0
  0
LINE
  5
10E
  8
0
  6
CONTINUOUS
 62
     7
 10
117.0477497173
 20
244.0702074388
 30
0.0
 11
129.0477498216
 21
244.0702074388
 31
0.0
  0
LINE
  5
10F
  8
0
  6
CONTINUOUS
 62
     7
 10
120.3694178504
 20
151.5883288527
 30
0.0
 11
125.7260816885
 21
151.5883288527
 31
0.0
  0
LINE
  5
110
  8
0
  6
CONTINUOUS
 62
     7
 10
117.0680525494
 20
206.5883285546
 30
0.0
 11
129.0477498216
 21
206.5883285546
 31
0.0
  0
POLYLINE
  5
111
  8
0
  6
CONTINUOUS
 62
     7
 66
     1
 10
0.0
 20
0.0
 30
0.0
 70
   128
  0
VERTEX
  5
54F
  8
0
  6
CONTINUOUS
 62
     7
 10
117.0484575224
 20
206.6871195281
 30
0.0
  0
VERTEX
  5
550
  8
0
  6
CONTINUOUS
 62
     7
 10
117.0478130472
 20
206.6731999809
 30
0.0
  0
VERTEX
  5
551
  8
0
  6
CONTINUOUS
 62
     7
 10
117.0680525494
 20
206.5883285546
 30
0.0
  0
SEQEND
  5
759
  8
0
  6
CONTINUOUS
 62
     7
  0
POLYLINE
  5
112
  8
0
  6
CONTINUOUS
 62
     7
 66
     1
 10
0.0
 20
0.0
 30
0.0
 70
   128
  0
VERTEX
  5
552
  8
0
  6
CONTINUOUS
 62
     7
 10
117.0680525494
 20
226.5883281076
 30
0.0
  0
VERTEX
  5
553
  8
0
  6
CONTINUOUS
 62
     7
 10
117.0477571679
 20
226.4659923682
 30
0.0
  0
VERTEX
  5
554
  8
0
  6
CONTINUOUS
 62
     7
 10
117.0480477405
 20
226.4600440109
 30
0.0
  0
SEQEND
  5
75A
  8
0
  6
CONTINUOUS
 62
     7
  0
LINE
  5
113
  8
0
  6
CONTINUOUS
 62
     7
 10
129.0477498216
 20
226.5883281076
 30
0.0
 11
117.0680525494
 21
226.5883281076
 31
0.0
  0
POLYLINE
  5
114
  8
0
  6
CONTINUOUS
 62
     7
 66
     1
 10
0.0
 20
0.0
 30
0.0
 70
   128
  0
VERTEX
  5
555
  8
0
  6
CONTINUOUS
 62
     7
 10
117.0484575224
 20
167.6871187234
 30
0.0
  0
VERTEX
  5
556
  8
0
  6
CONTINUOUS
 62
     7
 10
117.0478130472
 20
167.6732010388
 30
0.0
  0
VERTEX
  5
557
  8
0
  6
CONTINUOUS
 62
     7
 10
117.0680525494
 20
167.5883314753
 30
0.0
  0
SEQEND
  5
75B
  8
0
  6
CONTINUOUS
 62
     7
  0
POLYLINE
  5
115
  8
0
  6
CONTINUOUS
 62
     7
 66
     1
 10
0.0
 20
0.0
 30
0.0
 70
   128
  0
VERTEX
  5
558
  8
0
  6
CONTINUOUS
 62
     7
 10
117.0680525494
 20
187.5883273029
 30
0.0
  0
VERTEX
  5
559
  8
0
  6
CONTINUOUS
 62
     7
 10
117.0477571679
 20
187.4659924948
 30
0.0
  0
VERTEX
  5
55A
  8
0
  6
CONTINUOUS
 62
     7
 10
117.0480477405
 20
187.4600432062
 30
0.0
  0
SEQEND
  5
75C
  8
0
  6
CONTINUOUS
 62
     7
  0
LINE
  5
116
  8
0
  6
CONTINUOUS
 62
     7
 10
117.0680525494
 20
167.5883314753
 30
0.0
 11
129.0477498216
 21
167.5883314753
 31
0.0
  0
LINE
  5
117
  8
0
  6
CONTINUOUS
 62
     7
 10
129.0477498216
 20
187.5883273029
 30
0.0
 11
117.0680525494
 21
187.5883273029
 31
0.0
  0
CIRCLE
  5
118
  8
0
  6
CONTINUOUS
 62
     7
 10
90.5477500384
 20
197.0883284256
 30
0.0
 40
6.099999999999994
  0
CIRCLE
  5
119
  8
0
  6
CONTINUOUS
 62
     7
 10
90.5477500384
 20
197.0883284256
 30
0.0
 40
3.5
  0
CIRCLE
  5
11A
  8
0
  6
CONTINUOUS
 62
     7
 10
87.5477500384
 20
179.0883284256
 30
0.0
 40
4.75
  0
CIRCLE
  5
11B
  8
0
  6
CONTINUOUS
 62
     7
 10
87.5477500384
 20
215.0883284256
 30
0.0
 40
4.75
  0
CIRCLE
  5
11C
  8
0
  6
CONTINUOUS
 62
     7
 10
96.5477500384
 20
162.0883284256
 30
0.0
 40
4.75
  0
CIRCLE
  5
11D
  8
0
  6
CONTINUOUS
 62
     7
 10
96.5477500384
 20
232.0883284256
 30
0.0
 40
4.75
  0
ARC
  5
11E
  8
0
  6
CONTINUOUS
 62
     7
 10
114.2477500384
 20
240.5883284256
 30
0.0
 40
1.000000000000014
 50
0.0
 51
90.0
  0
LINE
  5
11F
  8
0
  6
CONTINUOUS
 62
     7
 10
115.2477490497
 20
240.5883285397
 30
0.0
 11
115.2477490497
 21
227.5883282715
 31
0.0
  0
ARC
  5
120
  8
0
  6
CONTINUOUS
 62
     7
 10
116.2477500384
 20
227.5883284256
 30
0.0
 40
1.0
 50
180.0
 51
251.2469165733
  0
LINE
  5
121
  8
0
  6
CONTINUOUS
 62
     7
 10
115.9262585235
 20
206.5352413052
 30
0.0
 11
115.9262585235
 21
226.641415357
 31
0.0
  0
ARC
  5
122
  8
0
  6
CONTINUOUS
 62
     7
 10
116.2477500384
 20
205.5883284256
 30
0.0
 40
1.000000000000009
 50
108.7530834267
 51
180.0
  0
LINE
  5
123
  8
0
  6
CONTINUOUS
 62
     7
 10
115.2477490497
 20
205.5883283907
 30
0.0
 11
115.2477490497
 21
188.5883293295
 31
0.0
  0
ARC
  5
124
  8
0
  6
CONTINUOUS
 62
     7
 10
116.2477500384
 20
188.5883284256
 30
0.0
 40
1.000000000000031
 50
180.0
 51
251.2469165733
  0
LINE
  5
125
  8
0
  6
CONTINUOUS
 62
     7
 10
115.9262585235
 20
167.5352386379
 30
0.0
 11
115.9262585235
 21
187.641416415
 31
0.0
  0
ARC
  5
126
  8
0
  6
CONTINUOUS
 62
     7
 10
116.2477500384
 20
166.5883284256
 30
0.0
 40
1.000000000000004
 50
108.7530834267
 51
180.0
  0
LINE
  5
127
  8
0
  6
CONTINUOUS
 62
     7
 10
115.2477490497
 20
166.5883294487
 30
0.0
 11
115.2477490497
 21
153.5883254552
 31
0.0
  0
ARC
  5
128
  8
0
  6
CONTINUOUS
 62
     7
 10
114.2477500384
 20
153.5883284256
 30
0.0
 40
1.0
 50
270.0
 51
0.0
  0
LINE
  5
129
  8
0
  6
CONTINUOUS
 62
     7
 10
114.2477507485
 20
152.5883308792
 30
0.0
 11
88.547751565
 21
152.5883308792
 31
0.0
  0
ARC
  5
12A
  8
0
  6
CONTINUOUS
 62
     7
 10
88.5477500384
 20
162.5883284256
 30
0.0
 40
10.0
 50
180.0
 51
270.0
  0
LINE
  5
12B
  8
0
  6
CONTINUOUS
 62
     7
 10
78.5477499259
 20
162.5883287931
 30
0.0
 11
78.5477499259
 21
231.5883284615
 31
0.0
  0
ARC
  5
12C
  8
0
  6
CONTINUOUS
 62
     7
 10
88.5477500384
 20
231.5883284256
 30
0.0
 40
10.00000000000003
 50
90.0
 51
180.0
  0
LINE
  5
12D
  8
0
  6
CONTINUOUS
 62
     7
 10
114.2477507485
 20
241.588328238
 30
0.0
 11
88.547751565
 21
241.588328238
 31
0.0
  0
LINE
  5
12E
  8
0
  6
CONTINUOUS
 62
     7
 10
115.9262585235
 20
226.641415357
 30
0.0
 11
116.3908730043
 21
226.5883281076
 31
0.0
  0
LINE
  5
12F
  8
0
  6
CONTINUOUS
 62
     7
 10
116.3908730043
 20
206.5883285546
 30
0.0
 11
115.9262585235
 21
206.5352413052
 31
0.0
  0
LINE
  5
130
  8
0
  6
CONTINUOUS
 62
     7
 10
116.3908730043
 20
226.5883281076
 30
0.0
 11
117.1180906487
 21
226.5883281076
 31
0.0
  0
LINE
  5
131
  8
0
  6
CONTINUOUS
 62
     7
 10
117.1180906487
 20
206.5883285546
 30
0.0
 11
116.3908730043
 21
206.5883285546
 31
0.0
  0
LINE
  5
132
  8
0
  6
CONTINUOUS
 62
     7
 10
115.9262585235
 20
187.641416415
 30
0.0
 11
116.3908730043
 21
187.5883273029
 31
0.0
  0
LINE
  5
133
  8
0
  6
CONTINUOUS
 62
     7
 10
116.3908730043
 20
167.5883314753
 30
0.0
 11
115.9262585235
 21
167.5352386379
 31
0.0
  0
LINE
  5
134
  8
0
  6
CONTINUOUS
 62
     7
 10
116.3908730043
 20
187.5883273029
 30
0.0
 11
117.1180906487
 21
187.5883273029
 31
0.0
  0
LINE
  5
135
  8
0
  6
CONTINUOUS
 62
     7
 10
117.1180906487
 20
167.5883314753
 30
0.0
 11
116.3908730043
 21
167.5883314753
 31
0.0
  0
POLYLINE
  5
136
  8
0
  6
CONTINUOUS
 62
     7
 66
     1
 10
0.0
 20
0.0
 30
0.0
 70
   128
  0
VERTEX
  5
55B
  8
0
  6
CONTINUOUS
 62
     7
 10
98.2798005236
 20
229.0883285174
 30
0.0
  0
VERTEX
  5
55C
  8
0
  6
CONTINUOUS
 62
     7
 10
98.6407997799
 20
229.7135970736
 30
0.0
  0
VERTEX
  5
55D
  8
0
  6
CONTINUOUS
 62
     7
 10
99.037058909
 20
230.3999366419
 30
0.0
  0
VERTEX
  5
55E
  8
0
  6
CONTINUOUS
 62
     7
 10
99.314667542
 20
230.8807710366
 30
0.0
  0
VERTEX
  5
55F
  8
0
  6
CONTINUOUS
 62
     7
 10
99.5959716631
 20
231.3680038502
 30
0.0
  0
VERTEX
  5
560
  8
0
  6
CONTINUOUS
 62
     7
 10
100.0118518961
 20
232.0883283106
 30
0.0
  0
SEQEND
  5
75D
  8
0
  6
CONTINUOUS
 62
     7
  0
POLYLINE
  5
137
  8
0
  6
CONTINUOUS
 62
     7
 66
     1
 10
0.0
 20
0.0
 30
0.0
 70
   128
  0
VERTEX
  5
561
  8
0
  6
CONTINUOUS
 62
     7
 10
100.0118518961
 20
232.0883283106
 30
0.0
  0
VERTEX
  5
562
  8
0
  6
CONTINUOUS
 62
     7
 10
99.6508526397
 20
232.7135973325
 30
0.0
  0
VERTEX
  5
563
  8
0
  6
CONTINUOUS
 62
     7
 10
99.2545935107
 20
233.399936668
 30
0.0
  0
VERTEX
  5
564
  8
0
  6
CONTINUOUS
 62
     7
 10
98.9769848776
 20
233.8807709463
 30
0.0
  0
VERTEX
  5
565
  8
0
  6
CONTINUOUS
 62
     7
 10
98.6956807566
 20
234.3680038908
 30
0.0
  0
VERTEX
  5
566
  8
0
  6
CONTINUOUS
 62
     7
 10
98.2798005236
 20
235.088328424
 30
0.0
  0
SEQEND
  5
75E
  8
0
  6
CONTINUOUS
 62
     7
  0
LINE
  5
138
  8
0
  6
CONTINUOUS
 62
     7
 10
98.2798005236
 20
235.088328424
 30
0.0
 11
94.8156977785
 21
235.088328424
 31
0.0
  0
POLYLINE
  5
139
  8
0
  6
CONTINUOUS
 62
     7
 66
     1
 10
0.0
 20
0.0
 30
0.0
 70
   128
  0
VERTEX
  5
567
  8
0
  6
CONTINUOUS
 62
     7
 10
94.8156977785
 20
235.088328424
 30
0.0
  0
VERTEX
  5
568
  8
0
  6
CONTINUOUS
 62
     7
 10
94.4546985221
 20
234.4630595623
 30
0.0
  0
VERTEX
  5
569
  8
0
  6
CONTINUOUS
 62
     7
 10
94.0584431184
 20
233.776720154
 30
0.0
  0
VERTEX
  5
56A
  8
0
  6
CONTINUOUS
 62
     7
 10
93.7808307601
 20
233.2958859339
 30
0.0
  0
VERTEX
  5
56B
  8
0
  6
CONTINUOUS
 62
     7
 10
93.499526639
 20
232.8086530039
 30
0.0
  0
VERTEX
  5
56C
  8
0
  6
CONTINUOUS
 62
     7
 10
93.0836501313
 20
232.0883283106
 30
0.0
  0
SEQEND
  5
75F
  8
0
  6
CONTINUOUS
 62
     7
  0
POLYLINE
  5
13A
  8
0
  6
CONTINUOUS
 62
     7
 66
     1
 10
0.0
 20
0.0
 30
0.0
 70
   128
  0
VERTEX
  5
56D
  8
0
  6
CONTINUOUS
 62
     7
 10
93.0836501313
 20
232.0883283106
 30
0.0
  0
VERTEX
  5
56E
  8
0
  6
CONTINUOUS
 62
     7
 10
93.4446493877
 20
231.4630595216
 30
0.0
  0
VERTEX
  5
56F
  8
0
  6
CONTINUOUS
 62
     7
 10
93.8409047914
 20
230.7767201861
 30
0.0
  0
VERTEX
  5
570
  8
0
  6
CONTINUOUS
 62
     7
 10
94.1185171497
 20
230.2958860242
 30
0.0
  0
VERTEX
  5
571
  8
0
  6
CONTINUOUS
 62
     7
 10
94.3998212708
 20
229.8086529778
 30
0.0
  0
VERTEX
  5
572
  8
0
  6
CONTINUOUS
 62
     7
 10
94.8156977785
 20
229.0883285174
 30
0.0
  0
SEQEND
  5
760
  8
0
  6
CONTINUOUS
 62
     7
  0
LINE
  5
13B
  8
0
  6
CONTINUOUS
 62
     7
 10
94.8156977785
 20
229.0883285174
 30
0.0
 11
98.2798005236
 21
229.0883285174
 31
0.0
  0
POLYLINE
  5
13C
  8
0
  6
CONTINUOUS
 62
     7
 66
     1
 10
0.0
 20
0.0
 30
0.0
 70
   128
  0
VERTEX
  5
573
  8
0
  6
CONTINUOUS
 62
     7
 10
89.279800911
 20
218.0883276457
 30
0.0
  0
VERTEX
  5
574
  8
0
  6
CONTINUOUS
 62
     7
 10
89.6408001674
 20
217.4630600208
 30
0.0
  0
VERTEX
  5
575
  8
0
  6
CONTINUOUS
 62
     7
 10
90.0370592964
 20
216.7767199868
 30
0.0
  0
VERTEX
  5
576
  8
0
  6
CONTINUOUS
 62
     7
 10
90.3146679295
 20
216.2958855921
 30
0.0
  0
VERTEX
  5
577
  8
0
  6
CONTINUOUS
 62
     7
 10
90.5959720505
 20
215.8086530113
 30
0.0
  0
VERTEX
  5
578
  8
0
  6
CONTINUOUS
 62
     7
 10
91.0118522835
 20
215.0883290166
 30
0.0
  0
SEQEND
  5
761
  8
0
  6
CONTINUOUS
 62
     7
  0
LINE
  5
13D
  8
0
  6
CONTINUOUS
 62
     7
 10
85.8157018912
 20
218.0883276457
 30
0.0
 11
89.279800911
 21
218.0883276457
 31
0.0
  0
POLYLINE
  5
13E
  8
0
  6
CONTINUOUS
 62
     7
 66
     1
 10
0.0
 20
0.0
 30
0.0
 70
   128
  0
VERTEX
  5
579
  8
0
  6
CONTINUOUS
 62
     7
 10
84.0836505187
 20
215.0883290166
 30
0.0
  0
VERTEX
  5
57A
  8
0
  6
CONTINUOUS
 62
     7
 10
84.4446460498
 20
215.7135966414
 30
0.0
  0
VERTEX
  5
57B
  8
0
  6
CONTINUOUS
 62
     7
 10
84.8409051788
 20
216.3999366754
 30
0.0
  0
VERTEX
  5
57C
  8
0
  6
CONTINUOUS
 62
     7
 10
85.1185138119
 20
216.8807710701
 30
0.0
  0
VERTEX
  5
57D
  8
0
  6
CONTINUOUS
 62
     7
 10
85.3998179329
 20
217.3680036509
 30
0.0
  0
VERTEX
  5
57E
  8
0
  6
CONTINUOUS
 62
     7
 10
85.8157018912
 20
218.0883276457
 30
0.0
  0
SEQEND
  5
762
  8
0
  6
CONTINUOUS
 62
     7
  0
POLYLINE
  5
13F
  8
0
  6
CONTINUOUS
 62
     7
 66
     1
 10
0.0
 20
0.0
 30
0.0
 70
   128
  0
VERTEX
  5
57F
  8
0
  6
CONTINUOUS
 62
     7
 10
85.8157018912
 20
212.0883285248
 30
0.0
  0
VERTEX
  5
580
  8
0
  6
CONTINUOUS
 62
     7
 10
85.4546989096
 20
212.7135980123
 30
0.0
  0
VERTEX
  5
581
  8
0
  6
CONTINUOUS
 62
     7
 10
85.0584397805
 20
213.3999361837
 30
0.0
  0
VERTEX
  5
582
  8
0
  6
CONTINUOUS
 62
     7
 10
84.7808311475
 20
213.8807705784
 30
0.0
  0
VERTEX
  5
583
  8
0
  6
CONTINUOUS
 62
     7
 10
84.4995270265
 20
214.3680031592
 30
0.0
  0
VERTEX
  5
584
  8
0
  6
CONTINUOUS
 62
     7
 10
84.0836505187
 20
215.0883290166
 30
0.0
  0
SEQEND
  5
763
  8
0
  6
CONTINUOUS
 62
     7
  0
LINE
  5
140
  8
0
  6
CONTINUOUS
 62
     7
 10
89.279800911
 20
212.0883285248
 30
0.0
 11
85.8157018912
 21
212.0883285248
 31
0.0
  0
POLYLINE
  5
141
  8
0
  6
CONTINUOUS
 62
     7
 66
     1
 10
0.0
 20
0.0
 30
0.0
 70
   128
  0
VERTEX
  5
585
  8
0
  6
CONTINUOUS
 62
     7
 10
91.0118522835
 20
215.0883290166
 30
0.0
  0
VERTEX
  5
586
  8
0
  6
CONTINUOUS
 62
     7
 10
90.6508530272
 20
214.4630595291
 30
0.0
  0
VERTEX
  5
587
  8
0
  6
CONTINUOUS
 62
     7
 10
90.2545938981
 20
213.7767194951
 30
0.0
  0
VERTEX
  5
588
  8
0
  6
CONTINUOUS
 62
     7
 10
89.9769852651
 20
213.2958851004
 30
0.0
  0
VERTEX
  5
589
  8
0
  6
CONTINUOUS
 62
     7
 10
89.6956811441
 20
212.8086525196
 30
0.0
  0
VERTEX
  5
58A
  8
0
  6
CONTINUOUS
 62
     7
 10
89.279800911
 20
212.0883285248
 30
0.0
  0
SEQEND
  5
764
  8
0
  6
CONTINUOUS
 62
     7
  0
POLYLINE
  5
142
  8
0
  6
CONTINUOUS
 62
     7
 66
     1
 10
0.0
 20
0.0
 30
0.0
 70
   128
  0
VERTEX
  5
58B
  8
0
  6
CONTINUOUS
 62
     7
 10
84.0836505187
 20
179.0883287037
 30
0.0
  0
VERTEX
  5
58C
  8
0
  6
CONTINUOUS
 62
     7
 10
84.4446460498
 20
179.7135963285
 30
0.0
  0
VERTEX
  5
58D
  8
0
  6
CONTINUOUS
 62
     7
 10
84.8409051788
 20
180.3999363625
 30
0.0
  0
VERTEX
  5
58E
  8
0
  6
CONTINUOUS
 62
     7
 10
85.3998179329
 20
181.3680052006
 30
0.0
  0
VERTEX
  5
58F
  8
0
  6
CONTINUOUS
 62
     7
 10
85.8157018912
 20
182.0883273327
 30
0.0
  0
SEQEND
  5
765
  8
0
  6
CONTINUOUS
 62
     7
  0
POLYLINE
  5
143
  8
0
  6
CONTINUOUS
 62
     7
 66
     1
 10
0.0
 20
0.0
 30
0.0
 70
   128
  0
VERTEX
  5
590
  8
0
  6
CONTINUOUS
 62
     7
 10
85.8157018912
 20
176.0883300746
 30
0.0
  0
VERTEX
  5
591
  8
0
  6
CONTINUOUS
 62
     7
 10
85.4546989096
 20
176.7135976994
 30
0.0
  0
VERTEX
  5
592
  8
0
  6
CONTINUOUS
 62
     7
 10
85.0584397805
 20
177.3999377334
 30
0.0
  0
VERTEX
  5
593
  8
0
  6
CONTINUOUS
 62
     7
 10
84.7808311475
 20
177.8807721281
 30
0.0
  0
VERTEX
  5
594
  8
0
  6
CONTINUOUS
 62
     7
 10
84.4995270265
 20
178.3680028463
 30
0.0
  0
VERTEX
  5
595
  8
0
  6
CONTINUOUS
 62
     7
 10
84.0836505187
 20
179.0883287037
 30
0.0
  0
SEQEND
  5
766
  8
0
  6
CONTINUOUS
 62
     7
  0
LINE
  5
144
  8
0
  6
CONTINUOUS
 62
     7
 10
89.279800911
 20
176.0883300746
 30
0.0
 11
85.8157018912
 21
176.0883300746
 31
0.0
  0
POLYLINE
  5
145
  8
0
  6
CONTINUOUS
 62
     7
 66
     1
 10
0.0
 20
0.0
 30
0.0
 70
   128
  0
VERTEX
  5
596
  8
0
  6
CONTINUOUS
 62
     7
 10
91.0118522835
 20
179.0883287037
 30
0.0
  0
VERTEX
  5
597
  8
0
  6
CONTINUOUS
 62
     7
 10
90.6508530272
 20
178.4630610788
 30
0.0
  0
VERTEX
  5
598
  8
0
  6
CONTINUOUS
 62
     7
 10
90.2545938981
 20
177.7767210448
 30
0.0
  0
VERTEX
  5
599
  8
0
  6
CONTINUOUS
 62
     7
 10
89.9769852651
 20
177.2958866501
 30
0.0
  0
VERTEX
  5
59A
  8
0
  6
CONTINUOUS
 62
     7
 10
89.6956811441
 20
176.8086522067
 30
0.0
  0
VERTEX
  5
59B
  8
0
  6
CONTINUOUS
 62
     7
 10
89.279800911
 20
176.0883300746
 30
0.0
  0
SEQEND
  5
767
  8
0
  6
CONTINUOUS
 62
     7
  0
POLYLINE
  5
146
  8
0
  6
CONTINUOUS
 62
     7
 66
     1
 10
0.0
 20
0.0
 30
0.0
 70
   128
  0
VERTEX
  5
59C
  8
0
  6
CONTINUOUS
 62
     7
 10
89.279800911
 20
182.0883273327
 30
0.0
  0
VERTEX
  5
59D
  8
0
  6
CONTINUOUS
 62
     7
 10
89.6408001674
 20
181.4630597079
 30
0.0
  0
VERTEX
  5
59E
  8
0
  6
CONTINUOUS
 62
     7
 10
90.0370592964
 20
180.7767196739
 30
0.0
  0
VERTEX
  5
59F
  8
0
  6
CONTINUOUS
 62
     7
 10
90.5959720505
 20
179.8086545611
 30
0.0
  0
VERTEX
  5
5A0
  8
0
  6
CONTINUOUS
 62
     7
 10
91.0118522835
 20
179.0883287037
 30
0.0
  0
SEQEND
  5
768
  8
0
  6
CONTINUOUS
 62
     7
  0
LINE
  5
147
  8
0
  6
CONTINUOUS
 62
     7
 10
85.8157018912
 20
182.0883273327
 30
0.0
 11
89.279800911
 21
182.0883273327
 31
0.0
  0
POLYLINE
  5
148
  8
0
  6
CONTINUOUS
 62
     7
 66
     1
 10
0.0
 20
0.0
 30
0.0
 70
   128
  0
VERTEX
  5
5A1
  8
0
  6
CONTINUOUS
 62
     7
 10
93.0836501313
 20
162.0883277798
 30
0.0
  0
VERTEX
  5
5A2
  8
0
  6
CONTINUOUS
 62
     7
 10
93.4446493877
 20
162.7135954046
 30
0.0
  0
VERTEX
  5
5A3
  8
0
  6
CONTINUOUS
 62
     7
 10
93.8409047914
 20
163.3999354386
 30
0.0
  0
VERTEX
  5
5A4
  8
0
  6
CONTINUOUS
 62
     7
 10
94.1185171497
 20
163.8807735586
 30
0.0
  0
VERTEX
  5
5A5
  8
0
  6
CONTINUOUS
 62
     7
 10
94.3998212708
 20
164.3680042768
 30
0.0
  0
VERTEX
  5
5A6
  8
0
  6
CONTINUOUS
 62
     7
 10
94.8156977785
 20
165.0883264089
 30
0.0
  0
SEQEND
  5
769
  8
0
  6
CONTINUOUS
 62
     7
  0
POLYLINE
  5
149
  8
0
  6
CONTINUOUS
 62
     7
 66
     1
 10
0.0
 20
0.0
 30
0.0
 70
   128
  0
VERTEX
  5
5A7
  8
0
  6
CONTINUOUS
 62
     7
 10
94.8156977785
 20
159.0883291507
 30
0.0
  0
VERTEX
  5
5A8
  8
0
  6
CONTINUOUS
 62
     7
 10
94.4546985221
 20
159.7135967755
 30
0.0
  0
VERTEX
  5
5A9
  8
0
  6
CONTINUOUS
 62
     7
 10
94.0584431184
 20
160.3999368095
 30
0.0
  0
VERTEX
  5
5AA
  8
0
  6
CONTINUOUS
 62
     7
 10
93.7808307601
 20
160.880767479
 30
0.0
  0
VERTEX
  5
5AB
  8
0
  6
CONTINUOUS
 62
     7
 10
93.499526639
 20
161.3680056477
 30
0.0
  0
VERTEX
  5
5AC
  8
0
  6
CONTINUOUS
 62
     7
 10
93.0836501313
 20
162.0883277798
 30
0.0
  0
SEQEND
  5
76A
  8
0
  6
CONTINUOUS
 62
     7
  0
LINE
  5
14A
  8
0
  6
CONTINUOUS
 62
     7
 10
98.2798005236
 20
159.0883291507
 30
0.0
 11
94.8156977785
 21
159.0883291507
 31
0.0
  0
POLYLINE
  5
14B
  8
0
  6
CONTINUOUS
 62
     7
 66
     1
 10
0.0
 20
0.0
 30
0.0
 70
   128
  0
VERTEX
  5
5AD
  8
0
  6
CONTINUOUS
 62
     7
 10
100.0118518961
 20
162.0883277798
 30
0.0
  0
VERTEX
  5
5AE
  8
0
  6
CONTINUOUS
 62
     7
 10
99.6508526397
 20
161.4630601549
 30
0.0
  0
VERTEX
  5
5AF
  8
0
  6
CONTINUOUS
 62
     7
 10
99.2545935107
 20
160.7767201209
 30
0.0
  0
VERTEX
  5
5B0
  8
0
  6
CONTINUOUS
 62
     7
 10
98.9769848776
 20
160.2958894515
 30
0.0
  0
VERTEX
  5
5B1
  8
0
  6
CONTINUOUS
 62
     7
 10
98.6956807566
 20
159.8086512828
 30
0.0
  0
VERTEX
  5
5B2
  8
0
  6
CONTINUOUS
 62
     7
 10
98.2798005236
 20
159.0883291507
 30
0.0
  0
SEQEND
  5
76B
  8
0
  6
CONTINUOUS
 62
     7
  0
POLYLINE
  5
14C
  8
0
  6
CONTINUOUS
 62
     7
 66
     1
 10
0.0
 20
0.0
 30
0.0
 70
   128
  0
VERTEX
  5
5B3
  8
0
  6
CONTINUOUS
 62
     7
 10
98.2798005236
 20
165.0883264089
 30
0.0
  0
VERTEX
  5
5B4
  8
0
  6
CONTINUOUS
 62
     7
 10
98.6407997799
 20
164.463058784
 30
0.0
  0
VERTEX
  5
5B5
  8
0
  6
CONTINUOUS
 62
     7
 10
99.037058909
 20
163.77671875
 30
0.0
  0
VERTEX
  5
5B6
  8
0
  6
CONTINUOUS
 62
     7
 10
99.314667542
 20
163.2958880806
 30
0.0
  0
VERTEX
  5
5B7
  8
0
  6
CONTINUOUS
 62
     7
 10
99.5959716631
 20
162.8086499119
 30
0.0
  0
VERTEX
  5
5B8
  8
0
  6
CONTINUOUS
 62
     7
 10
100.0118518961
 20
162.0883277798
 30
0.0
  0
SEQEND
  5
76C
  8
0
  6
CONTINUOUS
 62
     7
  0
LINE
  5
14D
  8
0
  6
CONTINUOUS
 62
     7
 10
94.8156977785
 20
165.0883264089
 30
0.0
 11
98.2798005236
 21
165.0883264089
 31
0.0
  0
LINE
  5
14E
  8
0
  6
CONTINUOUS
 62
     7
 10
129.0274488521
 20
167.1633280063
 30
0.0
 11
117.0477497173
 21
167.1633280063
 31
0.0
  0
POLYLINE
  5
14F
  8
0
  6
CONTINUOUS
 62
     7
 66
     1
 10
0.0
 20
0.0
 30
0.0
 70
   128
  0
VERTEX
  5
5B9
  8
0
  6
CONTINUOUS
 62
     7
 10
129.0470420164
 20
167.0645407581
 30
0.0
  0
VERTEX
  5
5BA
  8
0
  6
CONTINUOUS
 62
     7
 10
129.0476883543
 20
167.0784584427
 30
0.0
  0
VERTEX
  5
5BB
  8
0
  6
CONTINUOUS
 62
     7
 10
129.0274488521
 20
167.1633280063
 30
0.0
  0
SEQEND
  5
76D
  8
0
  6
CONTINUOUS
 62
     7
  0
POLYLINE
  5
150
  8
0
  6
CONTINUOUS
 62
     7
 66
     1
 10
0.0
 20
0.0
 30
0.0
 70
   128
  0
VERTEX
  5
5BC
  8
0
  6
CONTINUOUS
 62
     7
 10
129.0274488521
 20
152.5883308792
 30
0.0
  0
VERTEX
  5
5BD
  8
0
  6
CONTINUOUS
 62
     7
 10
129.0477405084
 20
152.710661962
 30
0.0
  0
VERTEX
  5
5BE
  8
0
  6
CONTINUOUS
 62
     7
 10
129.0474517984
 20
152.7166149759
 30
0.0
  0
SEQEND
  5
76E
  8
0
  6
CONTINUOUS
 62
     7
  0
LINE
  5
151
  8
0
  6
CONTINUOUS
 62
     7
 10
117.0477497173
 20
152.5883308792
 30
0.0
 11
129.0274488521
 21
152.5883308792
 31
0.0
  0
LINE
  5
152
  8
0
  6
CONTINUOUS
 62
     7
 10
129.0274488521
 20
241.588328238
 30
0.0
 11
117.0477497173
 21
241.588328238
 31
0.0
  0
POLYLINE
  5
153
  8
0
  6
CONTINUOUS
 62
     7
 66
     1
 10
0.0
 20
0.0
 30
0.0
 70
   128
  0
VERTEX
  5
5BF
  8
0
  6
CONTINUOUS
 62
     7
 10
129.0470420164
 20
241.4895377302
 30
0.0
  0
VERTEX
  5
5C0
  8
0
  6
CONTINUOUS
 62
     7
 10
129.0476883543
 20
241.5034572774
 30
0.0
  0
VERTEX
  5
5C1
  8
0
  6
CONTINUOUS
 62
     7
 10
129.0274488521
 20
241.588328238
 30
0.0
  0
SEQEND
  5
76F
  8
0
  6
CONTINUOUS
 62
     7
  0
POLYLINE
  5
154
  8
0
  6
CONTINUOUS
 62
     7
 66
     1
 10
0.0
 20
0.0
 30
0.0
 70
   128
  0
VERTEX
  5
5C2
  8
0
  6
CONTINUOUS
 62
     7
 10
129.0274488521
 20
227.013328317
 30
0.0
  0
VERTEX
  5
5C3
  8
0
  6
CONTINUOUS
 62
     7
 10
129.0477405084
 20
227.1356645221
 30
0.0
  0
VERTEX
  5
5C4
  8
0
  6
CONTINUOUS
 62
     7
 10
129.0474517984
 20
227.1416128793
 30
0.0
  0
SEQEND
  5
770
  8
0
  6
CONTINUOUS
 62
     7
  0
LINE
  5
155
  8
0
  6
CONTINUOUS
 62
     7
 10
117.0477497173
 20
227.013328317
 30
0.0
 11
129.0274488521
 21
227.013328317
 31
0.0
  0
POLYLINE
  5
156
  8
0
  6
CONTINUOUS
 62
     7
 66
     1
 10
0.0
 20
0.0
 30
0.0
 70
   128
  0
VERTEX
  5
5C5
  8
0
  6
CONTINUOUS
 62
     7
 10
129.0470420164
 20
205.8395377541
 30
0.0
  0
VERTEX
  5
5C6
  8
0
  6
CONTINUOUS
 62
     7
 10
129.0476883543
 20
205.8534573013
 30
0.0
  0
VERTEX
  5
5C7
  8
0
  6
CONTINUOUS
 62
     7
 10
129.0274488521
 20
205.9383287275
 30
0.0
  0
SEQEND
  5
771
  8
0
  6
CONTINUOUS
 62
     7
  0
POLYLINE
  5
157
  8
0
  6
CONTINUOUS
 62
     7
 66
     1
 10
0.0
 20
0.0
 30
0.0
 70
   128
  0
VERTEX
  5
5C8
  8
0
  6
CONTINUOUS
 62
     7
 10
129.0274488521
 20
188.2383271301
 30
0.0
  0
VERTEX
  5
5C9
  8
0
  6
CONTINUOUS
 62
     7
 10
129.0477405084
 20
188.3606656635
 30
0.0
  0
VERTEX
  5
5CA
  8
0
  6
CONTINUOUS
 62
     7
 10
129.0474517984
 20
188.3666112268
 30
0.0
  0
SEQEND
  5
772
  8
0
  6
CONTINUOUS
 62
     7
  0
LINE
  5
158
  8
0
  6
CONTINUOUS
 62
     7
 10
117.0477497173
 20
188.2383271301
 30
0.0
 11
129.0274488521
 21
188.2383271301
 31
0.0
  0
LINE
  5
159
  8
0
  6
CONTINUOUS
 62
     7
 10
129.0274488521
 20
205.9383287275
 30
0.0
 11
117.0477497173
 21
205.9383287275
 31
0.0
  0
CIRCLE
  5
15A
  8
0
  6
CONTINUOUS
 62
     7
 10
155.5477500384
 20
197.0883284256
 30
0.0
 40
6.099999999999994
  0
CIRCLE
  5
15B
  8
0
  6
CONTINUOUS
 62
     7
 10
155.5477500384
 20
197.0883284256
 30
0.0
 40
3.5
  0
LINE
  5
15C
  8
0
  6
CONTINUOUS
 62
     7
 10
129.0477498216
 20
241.588328238
 30
0.0
 11
130.1692410154
 21
241.588328238
 31
0.0
  0
LINE
  5
15D
  8
0
  6
CONTINUOUS
 62
     7
 10
130.1692410154
 20
241.588328238
 30
0.0
 11
130.1692410154
 21
226.9602410676
 31
0.0
  0
LINE
  5
15E
  8
0
  6
CONTINUOUS
 62
     7
 10
130.1692410154
 20
226.9602410676
 30
0.0
 11
129.7046265346
 21
227.013328317
 31
0.0
  0
LINE
  5
15F
  8
0
  6
CONTINUOUS
 62
     7
 10
129.7046265346
 20
227.013328317
 30
0.0
 11
128.9774088902
 21
227.013328317
 31
0.0
  0
LINE
  5
160
  8
0
  6
CONTINUOUS
 62
     7
 10
129.7046265346
 20
167.1633280063
 30
0.0
 11
130.1692410154
 21
167.216413393
 31
0.0
  0
LINE
  5
161
  8
0
  6
CONTINUOUS
 62
     7
 10
130.1692410154
 20
188.1852417433
 30
0.0
 11
129.7046265346
 21
188.2383271301
 31
0.0
  0
LINE
  5
162
  8
0
  6
CONTINUOUS
 62
     7
 10
129.7046265346
 20
205.9383287275
 30
0.0
 11
130.1692410154
 21
205.9914159769
 31
0.0
  0
LINE
  5
163
  8
0
  6
CONTINUOUS
 62
     7
 10
130.1692410154
 20
205.9914159769
 30
0.0
 11
130.1692410154
 21
188.1852417433
 31
0.0
  0
LINE
  5
164
  8
0
  6
CONTINUOUS
 62
     7
 10
129.7046265346
 20
188.2383271301
 30
0.0
 11
128.9774088902
 21
188.2383271301
 31
0.0
  0
LINE
  5
165
  8
0
  6
CONTINUOUS
 62
     7
 10
128.9774088902
 20
205.9383287275
 30
0.0
 11
129.7046265346
 21
205.9383287275
 31
0.0
  0
POLYLINE
  5
166
  8
0
  6
CONTINUOUS
 62
     7
 66
     1
 10
0.0
 20
0.0
 30
0.0
 70
   128
  0
VERTEX
  5
5CB
  8
0
  6
CONTINUOUS
 62
     7
 10
141.6920118747
 20
176.3055964553
 30
0.0
  0
VERTEX
  5
5CC
  8
0
  6
CONTINUOUS
 62
     7
 10
141.6872854126
 20
176.2815161789
 30
0.0
  0
VERTEX
  5
5CD
  8
0
  6
CONTINUOUS
 62
     7
 10
141.6778851082
 20
176.2644990528
 30
0.0
  0
SEQEND
  5
773
  8
0
  6
CONTINUOUS
 62
     7
  0
POLYLINE
  5
167
  8
0
  6
CONTINUOUS
 62
     7
 66
     1
 10
0.0
 20
0.0
 30
0.0
 70
   128
  0
VERTEX
  5
5CE
  8
0
  6
CONTINUOUS
 62
     7
 10
141.6890153443
 20
176.3231462979
 30
0.0
  0
VERTEX
  5
5CF
  8
0
  6
CONTINUOUS
 62
     7
 10
141.6917864946
 20
176.3135499501
 30
0.0
  0
VERTEX
  5
5D0
  8
0
  6
CONTINUOUS
 62
     7
 10
141.6920118747
 20
176.3055964553
 30
0.0
  0
SEQEND
  5
774
  8
0
  6
CONTINUOUS
 62
     7
  0
ARC
  5
168
  8
0
  6
CONTINUOUS
 62
     7
 10
141.6353702402
 20
176.3168624176
 30
0.0
 40
0.0540118907348597
 50
6.6810665219
 51
81.194396652
  0
LINE
  5
169
  8
0
  6
CONTINUOUS
 62
     7
 10
139.7403853727
 20
176.3702376926
 30
0.0
 11
141.6436385145
 21
176.3702376926
 31
0.0
  0
ARC
  5
16A
  8
0
  6
CONTINUOUS
 62
     7
 10
139.7538560015
 20
176.3091875245
 30
0.0
 40
0.0625186441433676
 50
102.4428553951
 51
188.4219932837
  0
ARC
  5
16B
  8
0
  6
CONTINUOUS
 62
     7
 10
139.7564147146
 20
176.2951070308
 30
0.0
 40
0.0645911156444991
 50
175.6280480839
 51
253.2657371997
  0
LINE
  5
16C
  8
0
  6
CONTINUOUS
 62
     7
 10
141.3833645885
 20
176.2332513177
 30
0.0
 11
139.737816785
 21
176.2332513177
 31
0.0
  0
LINE
  5
16D
  8
0
  6
CONTINUOUS
 62
     7
 10
139.8632445154
 20
175.364241674
 30
0.0
 11
141.3833645885
 21
176.2332513177
 31
0.0
  0
LINE
  5
16E
  8
0
  6
CONTINUOUS
 62
     7
 10
139.7262581406
 20
175.2850494528
 30
0.0
 11
139.8632445154
 21
175.364241674
 31
0.0
  0
LINE
  5
16F
  8
0
  6
CONTINUOUS
 62
     7
 10
139.7091348437
 20
175.273489877
 30
0.0
 11
139.7262581406
 21
175.2850494528
 31
0.0
  0
POLYLINE
  5
170
  8
0
  6
CONTINUOUS
 62
     7
 66
     1
 10
0.0
 20
0.0
 30
0.0
 70
   128
  0
VERTEX
  5
5D1
  8
0
  6
CONTINUOUS
 62
     7
 10
139.6920115468
 20
175.2264022076
 30
0.0
  0
VERTEX
  5
5D2
  8
0
  6
CONTINUOUS
 62
     7
 10
139.6974961055
 20
175.2542562032
 30
0.0
  0
VERTEX
  5
5D3
  8
0
  6
CONTINUOUS
 62
     7
 10
139.7091348437
 20
175.273489877
 30
0.0
  0
SEQEND
  5
775
  8
0
  6
CONTINUOUS
 62
     7
  0
POLYLINE
  5
171
  8
0
  6
CONTINUOUS
 62
     7
 66
     1
 10
0.0
 20
0.0
 30
0.0
 70
   128
  0
VERTEX
  5
5D4
  8
0
  6
CONTINUOUS
 62
     7
 10
139.6950085429
 20
175.2118437731
 30
0.0
  0
VERTEX
  5
5D5
  8
0
  6
CONTINUOUS
 62
     7
 10
139.6922974629
 20
175.2197413886
 30
0.0
  0
VERTEX
  5
5D6
  8
0
  6
CONTINUOUS
 62
     7
 10
139.6920115468
 20
175.2264022076
 30
0.0
  0
SEQEND
  5
776
  8
0
  6
CONTINUOUS
 62
     7
  0
ARC
  5
172
  8
0
  6
CONTINUOUS
 62
     7
 10
139.7527227998
 20
175.2220531841
 30
0.0
 40
0.0586103021653327
 50
190.0316063822
 51
257.8483863974
  0
LINE
  5
173
  8
0
  6
CONTINUOUS
 62
     7
 10
141.6436385145
 20
175.1647561038
 30
0.0
 11
139.7403853727
 21
175.1647561038
 31
0.0
  0
POLYLINE
  5
174
  8
0
  6
CONTINUOUS
 62
     7
 66
     1
 10
0.0
 20
0.0
 30
0.0
 70
   128
  0
VERTEX
  5
5D7
  8
0
  6
CONTINUOUS
 62
     7
 10
141.6804536959
 20
175.1904419804
 30
0.0
  0
VERTEX
  5
5D8
  8
0
  6
CONTINUOUS
 62
     7
 10
141.6620363263
 20
175.172728225
 30
0.0
  0
VERTEX
  5
5D9
  8
0
  6
CONTINUOUS
 62
     7
 10
141.6436385145
 20
175.1647561038
 30
0.0
  0
SEQEND
  5
777
  8
0
  6
CONTINUOUS
 62
     7
  0
POLYLINE
  5
175
  8
0
  6
CONTINUOUS
 62
     7
 66
     1
 10
0.0
 20
0.0
 30
0.0
 70
   128
  0
VERTEX
  5
5DA
  8
0
  6
CONTINUOUS
 62
     7
 10
141.6920118747
 20
175.2349629247
 30
0.0
  0
VERTEX
  5
5DB
  8
0
  6
CONTINUOUS
 62
     7
 10
141.6889562053
 20
175.2090796077
 30
0.0
  0
VERTEX
  5
5DC
  8
0
  6
CONTINUOUS
 62
     7
 10
141.6804536959
 20
175.1904419804
 30
0.0
  0
SEQEND
  5
778
  8
0
  6
CONTINUOUS
 62
     7
  0
ARC
  5
176
  8
0
  6
CONTINUOUS
 62
     7
 10
141.6230076325
 20
175.2368810118
 30
0.0
 40
0.0690308951825211
 50
358.407779003
 51
69.9845811893
  0
LINE
  5
177
  8
0
  6
CONTINUOUS
 62
     7
 10
140.0130738286
 20
175.3017424786
 30
0.0
 11
141.6466350449
 21
175.3017424786
 31
0.0
  0
LINE
  5
178
  8
0
  6
CONTINUOUS
 62
     7
 10
141.6098198635
 20
176.2234053755
 30
0.0
 11
140.0130738286
 21
175.3017424786
 31
0.0
  0
POLYLINE
  5
179
  8
0
  6
CONTINUOUS
 62
     7
 66
     1
 10
0.0
 20
0.0
 30
0.0
 70
   128
  0
VERTEX
  5
5DD
  8
0
  6
CONTINUOUS
 62
     7
 10
141.6778851082
 20
176.2644990528
 30
0.0
  0
VERTEX
  5
5DE
  8
0
  6
CONTINUOUS
 62
     7
 10
141.6400617701
 20
176.2410110974
 30
0.0
  0
VERTEX
  5
5DF
  8
0
  6
CONTINUOUS
 62
     7
 10
141.6098198635
 20
176.2234053755
 30
0.0
  0
SEQEND
  5
779
  8
0
  6
CONTINUOUS
 62
     7
  0
POLYLINE
  5
17A
  8
0
  6
CONTINUOUS
 62
     7
 66
     1
 10
0.0
 20
0.0
 30
0.0
 70
   128
  0
VERTEX
  5
5E0
  8
0
  6
CONTINUOUS
 62
     7
 10
141.6637583417
 20
172.3933524633
 30
0.0
  0
VERTEX
  5
5E1
  8
0
  6
CONTINUOUS
 62
     7
 10
141.6863778388
 20
172.2997321928
 30
0.0
  0
VERTEX
  5
5E2
  8
0
  6
CONTINUOUS
 62
     7
 10
141.6920118747
 20
172.2242615366
 30
0.0
  0
SEQEND
  5
77A
  8
0
  6
CONTINUOUS
 62
     7
  0
ARC
  5
17B
  8
0
  6
CONTINUOUS
 62
     7
 10
141.2065198558
 20
172.2508823535
 30
0.0
 40
0.4789204163157976
 50
17.3064170799
 51
83.166796567
  0
POLYLINE
  5
17C
  8
0
  6
CONTINUOUS
 62
     7
 66
     1
 10
0.0
 20
0.0
 30
0.0
 70
   128
  0
VERTEX
  5
5E3
  8
0
  6
CONTINUOUS
 62
     7
 10
141.2266863292
 20
172.7264008665
 30
0.0
  0
VERTEX
  5
5E4
  8
0
  6
CONTINUOUS
 62
     7
 10
141.2436992643
 20
172.7339371288
 30
0.0
  0
VERTEX
  5
5E5
  8
0
  6
CONTINUOUS
 62
     7
 10
141.250737269
 20
172.735647037
 30
0.0
  0
VERTEX
  5
5E6
  8
0
  6
CONTINUOUS
 62
     7
 10
141.2584132296
 20
172.735274508
 30
0.0
  0
VERTEX
  5
5E7
  8
0
  6
CONTINUOUS
 62
     7
 10
141.2608588827
 20
172.734119668
 30
0.0
  0
VERTEX
  5
5E8
  8
0
  6
CONTINUOUS
 62
     7
 10
141.2624011529
 20
172.7321191871
 30
0.0
  0
VERTEX
  5
5E9
  8
0
  6
CONTINUOUS
 62
     7
 10
141.2635015105
 20
172.7264008665
 30
0.0
  0
SEQEND
  5
77B
  8
0
  6
CONTINUOUS
 62
     7
  0
LINE
  5
17D
  8
0
  6
CONTINUOUS
 62
     7
 10
141.1363610779
 20
172.7264008665
 30
0.0
 11
141.2266863292
 21
172.7264008665
 31
0.0
  0
ARC
  5
17E
  8
0
  6
CONTINUOUS
 62
     7
 10
141.0926967175
 20
172.63460708
 30
0.0
 40
0.1016497693446067
 50
64.5605564242
 51
115.4394435758
  0
POLYLINE
  5
17F
  8
0
  6
CONTINUOUS
 62
     7
 66
     1
 10
0.0
 20
0.0
 30
0.0
 70
   128
  0
VERTEX
  5
5EA
  8
0
  6
CONTINUOUS
 62
     7
 10
140.831994616
 20
172.6878739143
 30
0.0
  0
VERTEX
  5
5EB
  8
0
  6
CONTINUOUS
 62
     7
 10
140.9515033258
 20
172.7206862712
 30
0.0
  0
VERTEX
  5
5EC
  8
0
  6
CONTINUOUS
 62
     7
 10
141.0490323571
 20
172.7264008665
 30
0.0
  0
SEQEND
  5
77C
  8
0
  6
CONTINUOUS
 62
     7
  0
ARC
  5
180
  8
0
  6
CONTINUOUS
 62
     7
 10
141.0103545735
 20
172.253236653
 30
0.0
 40
0.4698104120781064
 50
112.3115345269
 51
176.6929760028
  0
LINE
  5
181
  8
0
  6
CONTINUOUS
 62
     7
 10
140.5413265122
 20
171.8723780656
 30
0.0
 11
140.5413265122
 21
172.2803383315
 31
0.0
  0
ARC
  5
182
  8
0
  6
CONTINUOUS
 62
     7
 10
140.6618220111
 20
172.7508190187
 30
0.0
 40
0.8866666078125319
 50
204.0480169889
 51
262.1894968713
  0
POLYLINE
  5
183
  8
0
  6
CONTINUOUS
 62
     7
 66
     1
 10
0.0
 20
0.0
 30
0.0
 70
   128
  0
VERTEX
  5
5ED
  8
0
  6
CONTINUOUS
 62
     7
 10
139.8230048609
 20
172.4635592842
 30
0.0
  0
VERTEX
  5
5EE
  8
0
  6
CONTINUOUS
 62
     7
 10
139.8383567823
 20
172.4216981971
 30
0.0
  0
VERTEX
  5
5EF
  8
0
  6
CONTINUOUS
 62
     7
 10
139.8521142793
 20
172.3895005131
 30
0.0
  0
SEQEND
  5
77D
  8
0
  6
CONTINUOUS
 62
     7
  0
POLYLINE
  5
184
  8
0
  6
CONTINUOUS
 62
     7
 66
     1
 10
0.0
 20
0.0
 30
0.0
 70
   128
  0
VERTEX
  5
5F0
  8
0
  6
CONTINUOUS
 62
     7
 10
139.7733476726
 20
172.5196360791
 30
0.0
  0
VERTEX
  5
5F1
  8
0
  6
CONTINUOUS
 62
     7
 10
139.8078159211
 20
172.4940172577
 30
0.0
  0
VERTEX
  5
5F2
  8
0
  6
CONTINUOUS
 62
     7
 10
139.8230048609
 20
172.4635592842
 30
0.0
  0
SEQEND
  5
77E
  8
0
  6
CONTINUOUS
 62
     7
  0
POLYLINE
  5
185
  8
0
  6
CONTINUOUS
 62
     7
 66
     1
 10
0.0
 20
0.0
 30
0.0
 70
   128
  0
VERTEX
  5
5F3
  8
0
  6
CONTINUOUS
 62
     7
 10
139.6920115468
 20
172.4558516586
 30
0.0
  0
VERTEX
  5
5F4
  8
0
  6
CONTINUOUS
 62
     7
 10
139.6949303118
 20
172.4776185298
 30
0.0
  0
VERTEX
  5
5F5
  8
0
  6
CONTINUOUS
 62
     7
 10
139.705298726
 20
172.4969304347
 30
0.0
  0
VERTEX
  5
5F6
  8
0
  6
CONTINUOUS
 62
     7
 10
139.7227591616
 20
172.5101924682
 30
0.0
  0
VERTEX
  5
5F7
  8
0
  6
CONTINUOUS
 62
     7
 10
139.7733476726
 20
172.5196360791
 30
0.0
  0
SEQEND
  5
77F
  8
0
  6
CONTINUOUS
 62
     7
  0
POLYLINE
  5
186
  8
0
  6
CONTINUOUS
 62
     7
 66
     1
 10
0.0
 20
0.0
 30
0.0
 70
   128
  0
VERTEX
  5
5F8
  8
0
  6
CONTINUOUS
 62
     7
 10
139.7147004274
 20
172.3740889871
 30
0.0
  0
VERTEX
  5
5F9
  8
0
  6
CONTINUOUS
 62
     7
 10
139.6988064764
 20
172.4389351153
 30
0.0
  0
VERTEX
  5
5FA
  8
0
  6
CONTINUOUS
 62
     7
 10
139.6941126106
 20
172.4547713244
 30
0.0
  0
VERTEX
  5
5FB
  8
0
  6
CONTINUOUS
 62
     7
 10
139.6933452008
 20
172.4566078925
 30
0.0
  0
VERTEX
  5
5FC
  8
0
  6
CONTINUOUS
 62
     7
 10
139.6928944406
 20
172.4574684346
 30
0.0
  0
VERTEX
  5
5FD
  8
0
  6
CONTINUOUS
 62
     7
 10
139.692719352
 20
172.4577366555
 30
0.0
  0
VERTEX
  5
5FE
  8
0
  6
CONTINUOUS
 62
     7
 10
139.6925582332
 20
172.45792292
 30
0.0
  0
VERTEX
  5
5FF
  8
0
  6
CONTINUOUS
 62
     7
 10
139.6924949033
 20
172.4579713488
 30
0.0
  0
VERTEX
  5
600
  8
0
  6
CONTINUOUS
 62
     7
 10
139.6924371613
 20
172.4579937005
 30
0.0
  0
VERTEX
  5
601
  8
0
  6
CONTINUOUS
 62
     7
 10
139.6923840759
 20
172.4579937005
 30
0.0
  0
VERTEX
  5
602
  8
0
  6
CONTINUOUS
 62
     7
 10
139.6923356471
 20
172.4579676235
 30
0.0
  0
VERTEX
  5
603
  8
0
  6
CONTINUOUS
 62
     7
 10
139.6922881497
 20
172.4579154694
 30
0.0
  0
VERTEX
  5
604
  8
0
  6
CONTINUOUS
 62
     7
 10
139.6922453088
 20
172.4578372383
 30
0.0
  0
VERTEX
  5
605
  8
0
  6
CONTINUOUS
 62
     7
 10
139.6921884981
 20
172.4576621497
 30
0.0
  0
VERTEX
  5
606
  8
0
  6
CONTINUOUS
 62
     7
 10
139.6920115468
 20
172.4558516586
 30
0.0
  0
SEQEND
  5
780
  8
0
  6
CONTINUOUS
 62
     7
  0
ARC
  5
187
  8
0
  6
CONTINUOUS
 62
     7
 10
140.6353960193
 20
172.6814904384
 30
0.0
 40
0.9706575220731813
 50
198.4631117183
 51
266.4412366291
  0
LINE
  5
188
  8
0
  6
CONTINUOUS
 62
     7
 10
141.2048542654
 20
171.7127046728
 30
0.0
 11
140.5751451631
 21
171.7127046728
 31
0.0
  0
POLYLINE
  5
189
  8
0
  6
CONTINUOUS
 62
     7
 66
     1
 10
0.0
 20
0.0
 30
0.0
 70
   128
  0
VERTEX
  5
607
  8
0
  6
CONTINUOUS
 62
     7
 10
141.4325938342
 20
171.7700666928
 30
0.0
  0
VERTEX
  5
608
  8
0
  6
CONTINUOUS
 62
     7
 10
141.3085523774
 20
171.7234186077
 30
0.0
  0
VERTEX
  5
609
  8
0
  6
CONTINUOUS
 62
     7
 10
141.2048542654
 20
171.7127046728
 30
0.0
  0
SEQEND
  5
781
  8
0
  6
CONTINUOUS
 62
     7
  0
ARC
  5
18A
  8
0
  6
CONTINUOUS
 62
     7
 10
141.1759340307
 20
172.2178426287
 30
0.0
 40
0.5161177612081507
 50
299.8208182942
 51
0.7126005787
  0
LINE
  5
18B
  8
0
  6
CONTINUOUS
 62
     7
 10
141.6890153443
 20
169.6681834006
 30
0.0
 11
141.6920118747
 21
169.6626178169
 31
0.0
  0
ARC
  5
18C
  8
0
  6
CONTINUOUS
 62
     7
 10
141.6331289545
 20
169.6566029949
 30
0.0
 40
0.0570735871963235
 50
11.7067738689
 51
79.3889731065
  0
LINE
  5
18D
  8
0
  6
CONTINUOUS
 62
     7
 10
140.7789124889
 20
169.7127006197
 30
0.0
 11
141.6436385145
 21
169.7127006197
 31
0.0
  0
ARC
  5
18E
  8
0
  6
CONTINUOUS
 62
     7
 10
140.7838762285
 20
169.6620498678
 30
0.0
 40
0.0508933923021561
 50
95.5970756257
 51
175.9853976234
  0
LINE
  5
18F
  8
0
  6
CONTINUOUS
 62
     7
 10
140.7331077163
 20
169.1985733056
 30
0.0
 11
140.7331077163
 21
169.6656129503
 31
0.0
  0
ARC
  5
190
  8
0
  6
CONTINUOUS
 62
     7
 10
140.3880105042
 20
169.1946873749
 30
0.0
 40
0.3451190899943344
 50
277.7091601706
 51
0.6451458114
  0
POLYLINE
  5
191
  8
0
  6
CONTINUOUS
 62
     7
 66
     1
 10
0.0
 20
0.0
 30
0.0
 70
   128
  0
VERTEX
  5
60A
  8
0
  6
CONTINUOUS
 62
     7
 10
140.3906422449
 20
168.8556826854
 30
0.0
  0
VERTEX
  5
60B
  8
0
  6
CONTINUOUS
 62
     7
 10
140.4151676936
 20
168.8549525285
 30
0.0
  0
VERTEX
  5
60C
  8
0
  6
CONTINUOUS
 62
     7
 10
140.4343063725
 20
168.852687552
 30
0.0
  0
SEQEND
  5
782
  8
0
  6
CONTINUOUS
 62
     7
  0
POLYLINE
  5
192
  8
0
  6
CONTINUOUS
 62
     7
 66
     1
 10
0.0
 20
0.0
 30
0.0
 70
   128
  0
VERTEX
  5
60D
  8
0
  6
CONTINUOUS
 62
     7
 10
140.2262582225
 20
168.849684968
 30
0.0
  0
VERTEX
  5
60E
  8
0
  6
CONTINUOUS
 62
     7
 10
140.3183073518
 20
168.8532165432
 30
0.0
  0
VERTEX
  5
60F
  8
0
  6
CONTINUOUS
 62
     7
 10
140.3906422449
 20
168.8556826854
 30
0.0
  0
SEQEND
  5
783
  8
0
  6
CONTINUOUS
 62
     7
  0
POLYLINE
  5
193
  8
0
  6
CONTINUOUS
 62
     7
 66
     1
 10
0.0
 20
0.0
 30
0.0
 70
   128
  0
VERTEX
  5
610
  8
0
  6
CONTINUOUS
 62
     7
 10
140.1085353238
 20
168.8616729522
 30
0.0
  0
VERTEX
  5
611
  8
0
  6
CONTINUOUS
 62
     7
 10
140.1741013644
 20
168.8515848661
 30
0.0
  0
VERTEX
  5
612
  8
0
  6
CONTINUOUS
 62
     7
 10
140.2262582225
 20
168.849684968
 30
0.0
  0
SEQEND
  5
784
  8
0
  6
CONTINUOUS
 62
     7
  0
ARC
  5
194
  8
0
  6
CONTINUOUS
 62
     7
 10
140.2243196071
 20
169.2133376522
 30
0.0
 40
0.370235143484726
 50
186.4052321765
 51
251.7760643756
  0
LINE
  5
195
  8
0
  6
CONTINUOUS
 62
     7
 10
139.8563955692
 20
169.6656129503
 30
0.0
 11
139.8563955692
 21
169.1720343375
 31
0.0
  0
LINE
  5
196
  8
0
  6
CONTINUOUS
 62
     7
 10
139.846977104
 20
169.6831665182
 30
0.0
 11
139.8563955692
 21
169.6656129503
 31
0.0
  0
POLYLINE
  5
197
  8
0
  6
CONTINUOUS
 62
     7
 66
     1
 10
0.0
 20
0.0
 30
0.0
 70
   128
  0
VERTEX
  5
613
  8
0
  6
CONTINUOUS
 62
     7
 10
139.7703506765
 20
169.7127006197
 30
0.0
  0
VERTEX
  5
614
  8
0
  6
CONTINUOUS
 62
     7
 10
139.8177820039
 20
169.7060845041
 30
0.0
  0
VERTEX
  5
615
  8
0
  6
CONTINUOUS
 62
     7
 10
139.8346156595
 20
169.697382226
 30
0.0
  0
VERTEX
  5
616
  8
0
  6
CONTINUOUS
 62
     7
 10
139.846977104
 20
169.6831665182
 30
0.0
  0
SEQEND
  5
785
  8
0
  6
CONTINUOUS
 62
     7
  0
ARC
  5
198
  8
0
  6
CONTINUOUS
 62
     7
 10
139.7747306164
 20
169.6562835887
 30
0.0
 40
0.0565867940947737
 50
94.4392571068
 51
167.8604711781
  0
LINE
  5
199
  8
0
  6
CONTINUOUS
 62
     7
 10
139.6920115468
 20
169.2336804414
 30
0.0
 11
139.7194091943
 21
169.6681834006
 31
0.0
  0
POLYLINE
  5
19A
  8
0
  6
CONTINUOUS
 62
     7
 66
     1
 10
0.0
 20
0.0
 30
0.0
 70
   128
  0
VERTEX
  5
617
  8
0
  6
CONTINUOUS
 62
     7
 10
139.7266865489
 20
169.032909646
 30
0.0
  0
VERTEX
  5
618
  8
0
  6
CONTINUOUS
 62
     7
 10
139.698404145
 20
169.1438785935
 30
0.0
  0
VERTEX
  5
619
  8
0
  6
CONTINUOUS
 62
     7
 10
139.6920115468
 20
169.2336804414
 30
0.0
  0
SEQEND
  5
786
  8
0
  6
CONTINUOUS
 62
     7
  0
ARC
  5
19B
  8
0
  6
CONTINUOUS
 62
     7
 10
140.1814184023
 20
169.2070045807
 30
0.0
 40
0.4869189919346933
 50
200.9494373489
 51
264.2350470599
  0
POLYLINE
  5
19C
  8
0
  6
CONTINUOUS
 62
     7
 66
     1
 10
0.0
 20
0.0
 30
0.0
 70
   128
  0
VERTEX
  5
61A
  8
0
  6
CONTINUOUS
 62
     7
 10
140.170179565
 20
168.7358177447
 30
0.0
  0
VERTEX
  5
61B
  8
0
  6
CONTINUOUS
 62
     7
 10
140.1488643852
 20
168.734178617
 30
0.0
  0
VERTEX
  5
61C
  8
0
  6
CONTINUOUS
 62
     7
 10
140.1383879376
 20
168.7310046697
 30
0.0
  0
VERTEX
  5
61D
  8
0
  6
CONTINUOUS
 62
     7
 10
140.1344316793
 20
168.7276370072
 30
0.0
  0
VERTEX
  5
61E
  8
0
  6
CONTINUOUS
 62
     7
 10
140.1325084982
 20
168.7225482607
 30
0.0
  0
SEQEND
  5
787
  8
0
  6
CONTINUOUS
 62
     7
  0
POLYLINE
  5
19D
  8
0
  6
CONTINUOUS
 62
     7
 66
     1
 10
0.0
 20
0.0
 30
0.0
 70
   128
  0
VERTEX
  5
61F
  8
0
  6
CONTINUOUS
 62
     7
 10
140.2622175184
 20
168.7225482607
 30
0.0
  0
VERTEX
  5
620
  8
0
  6
CONTINUOUS
 62
     7
 10
140.2109342409
 20
168.7318912888
 30
0.0
  0
VERTEX
  5
621
  8
0
  6
CONTINUOUS
 62
     7
 10
140.170179565
 20
168.7358177447
 30
0.0
  0
SEQEND
  5
788
  8
0
  6
CONTINUOUS
 62
     7
  0
POLYLINE
  5
19E
  8
0
  6
CONTINUOUS
 62
     7
 66
     1
 10
0.0
 20
0.0
 30
0.0
 70
   128
  0
VERTEX
  5
622
  8
0
  6
CONTINUOUS
 62
     7
 10
140.3546829489
 20
168.7195531273
 30
0.0
  0
VERTEX
  5
623
  8
0
  6
CONTINUOUS
 62
     7
 10
140.3028930319
 20
168.7208644295
 30
0.0
  0
VERTEX
  5
624
  8
0
  6
CONTINUOUS
 62
     7
 10
140.2622175184
 20
168.7225482607
 30
0.0
  0
SEQEND
  5
789
  8
0
  6
CONTINUOUS
 62
     7
  0
POLYLINE
  5
19F
  8
0
  6
CONTINUOUS
 62
     7
 66
     1
 10
0.0
 20
0.0
 30
0.0
 70
   128
  0
VERTEX
  5
625
  8
0
  6
CONTINUOUS
 62
     7
 10
140.5674398658
 20
168.7546528125
 30
0.0
  0
VERTEX
  5
626
  8
0
  6
CONTINUOUS
 62
     7
 10
140.4499199954
 20
168.7250516558
 30
0.0
  0
VERTEX
  5
627
  8
0
  6
CONTINUOUS
 62
     7
 10
140.3546829489
 20
168.7195531273
 30
0.0
  0
SEQEND
  5
78A
  8
0
  6
CONTINUOUS
 62
     7
  0
ARC
  5
1A0
  8
0
  6
CONTINUOUS
 62
     7
 10
140.4029688652
 20
169.192544076
 30
0.0
 40
0.4677600545988717
 50
290.5860685829
 51
357.0145938671
  0
LINE
  5
1A1
  8
0
  6
CONTINUOUS
 62
     7
 10
140.8700940912
 20
169.5757142449
 30
0.0
 11
140.8700940912
 21
169.1681823874
 31
0.0
  0
LINE
  5
1A2
  8
0
  6
CONTINUOUS
 62
     7
 10
141.5550254998
 20
169.5757142449
 30
0.0
 11
140.8700940912
 21
169.5757142449
 31
0.0
  0
LINE
  5
1A3
  8
0
  6
CONTINUOUS
 62
     7
 10
141.5550254998
 20
168.8963479543
 30
0.0
 11
141.5550254998
 21
169.5757142449
 31
0.0
  0
POLYLINE
  5
1A4
  8
0
  6
CONTINUOUS
 62
     7
 66
     1
 10
0.0
 20
0.0
 30
0.0
 70
   128
  0
VERTEX
  5
628
  8
0
  6
CONTINUOUS
 62
     7
 10
141.5738610332
 20
168.8436947012
 30
0.0
  0
VERTEX
  5
629
  8
0
  6
CONTINUOUS
 62
     7
 10
141.5592420628
 20
168.8717684889
 30
0.0
  0
VERTEX
  5
62A
  8
0
  6
CONTINUOUS
 62
     7
 10
141.5550254998
 20
168.8963479543
 30
0.0
  0
SEQEND
  5
78B
  8
0
  6
CONTINUOUS
 62
     7
  0
POLYLINE
  5
1A5
  8
0
  6
CONTINUOUS
 62
     7
 66
     1
 10
0.0
 20
0.0
 30
0.0
 70
   128
  0
VERTEX
  5
62B
  8
0
  6
CONTINUOUS
 62
     7
 10
141.6329362211
 20
168.8291437173
 30
0.0
  0
VERTEX
  5
62C
  8
0
  6
CONTINUOUS
 62
     7
 10
141.5990509806
 20
168.8339344406
 30
0.0
  0
VERTEX
  5
62D
  8
0
  6
CONTINUOUS
 62
     7
 10
141.5738610332
 20
168.8436947012
 30
0.0
  0
SEQEND
  5
78C
  8
0
  6
CONTINUOUS
 62
     7
  0
ARC
  5
1A6
  8
0
  6
CONTINUOUS
 62
     7
 10
141.6322496438
 20
168.8875891488
 30
0.0
 40
0.0584494640962539
 50
270.6730410216
 51
346.2140709172
  0
LINE
  5
1A7
  8
0
  6
CONTINUOUS
 62
     7
 10
141.6920118747
 20
169.6626178169
 30
0.0
 11
141.6890153443
 21
168.8736609364
 31
0.0
  0
LINE
  5
1A8
  8
0
  6
CONTINUOUS
 62
     7
 10
140.3156763656
 20
219.5129941398
 30
0.0
 11
140.0318930638
 21
219.5546903828
 31
0.0
  0
LINE
  5
1A9
  8
0
  6
CONTINUOUS
 62
     7
 10
140.4175397721
 20
219.1836533317
 30
0.0
 11
140.3156763656
 21
219.5129941398
 31
0.0
  0
LINE
  5
1AA
  8
0
  6
CONTINUOUS
 62
     7
 10
140.2030887795
 20
218.9907615253
 30
0.0
 11
140.4175397721
 21
219.1836533317
 31
0.0
  0
LINE
  5
1AB
  8
0
  6
CONTINUOUS
 62
     7
 10
140.2285716278
 20
218.9083720738
 30
0.0
 11
140.2030887795
 21
218.9907615253
 31
0.0
  0
LINE
  5
1AC
  8
0
  6
CONTINUOUS
 62
     7
 10
140.8794599367
 20
219.4938256586
 30
0.0
 11
140.2285716278
 21
218.9083720738
 31
0.0
  0
LINE
  5
1AD
  8
0
  6
CONTINUOUS
 62
     7
 10
140.8736405676
 20
219.5129941398
 30
0.0
 11
140.8794599367
 21
219.4938256586
 31
0.0
  0
LINE
  5
1AE
  8
0
  6
CONTINUOUS
 62
     7
 10
140.0058430401
 20
219.6404987195
 30
0.0
 11
140.8736405676
 21
219.5129941398
 31
0.0
  0
LINE
  5
1AF
  8
0
  6
CONTINUOUS
 62
     7
 10
140.0318930638
 20
219.5546903828
 30
0.0
 11
140.0058430401
 21
219.6404987195
 31
0.0
  0
LINE
  5
1B0
  8
0
  6
CONTINUOUS
 62
     7
 10
140.8801151221
 20
221.7128562921
 30
0.0
 11
140.8213626375
 21
221.5125641966
 31
0.0
  0
LINE
  5
1B1
  8
0
  6
CONTINUOUS
 62
     7
 10
140.1137470049
 20
221.9376589352
 30
0.0
 11
140.8801151221
 21
221.7128562921
 31
0.0
  0
LINE
  5
1B2
  8
0
  6
CONTINUOUS
 62
     7
 10
140.0914343787
 20
221.8620718637
 30
0.0
 11
140.1137470049
 21
221.9376589352
 31
0.0
  0
LINE
  5
1B3
  8
0
  6
CONTINUOUS
 62
     7
 10
140.4476540876
 20
221.7566955084
 30
0.0
 11
140.0914343787
 21
221.8620718637
 31
0.0
  0
LINE
  5
1B4
  8
0
  6
CONTINUOUS
 62
     7
 10
140.4347133604
 20
221.7128562921
 30
0.0
 11
140.4476540876
 21
221.7566955084
 31
0.0
  0
LINE
  5
1B5
  8
0
  6
CONTINUOUS
 62
     7
 10
139.9981279639
 20
221.5459875012
 30
0.0
 11
140.4347133604
 21
221.7128562921
 31
0.0
  0
LINE
  5
1B6
  8
0
  6
CONTINUOUS
 62
     7
 10
139.9693985251
 20
221.4486633608
 30
0.0
 11
139.9981279639
 21
221.5459875012
 31
0.0
  0
LINE
  5
1B7
  8
0
  6
CONTINUOUS
 62
     7
 10
140.4072877732
 20
221.6189054021
 30
0.0
 11
139.9693985251
 21
221.4486633608
 31
0.0
  0
POLYLINE
  5
1B8
  8
0
  6
CONTINUOUS
 62
     7
 66
     1
 10
0.0
 20
0.0
 30
0.0
 70
   128
  0
VERTEX
  5
62E
  8
0
  6
CONTINUOUS
 62
     7
 10
140.8213626375
 20
221.5125641966
 30
0.0
  0
VERTEX
  5
62F
  8
0
  6
CONTINUOUS
 62
     7
 10
140.7301135143
 20
221.3354219863
 30
0.0
  0
VERTEX
  5
630
  8
0
  6
CONTINUOUS
 62
     7
 10
140.6414404293
 20
221.2885345513
 30
0.0
  0
VERTEX
  5
631
  8
0
  6
CONTINUOUS
 62
     7
 10
140.5415314031
 20
221.2922225887
 30
0.0
  0
VERTEX
  5
632
  8
0
  6
CONTINUOUS
 62
     7
 10
140.4527232764
 20
221.3380585605
 30
0.0
  0
VERTEX
  5
633
  8
0
  6
CONTINUOUS
 62
     7
 10
140.3965654564
 20
221.4206696668
 30
0.0
  0
VERTEX
  5
634
  8
0
  6
CONTINUOUS
 62
     7
 10
140.3868824956
 20
221.5204720566
 30
0.0
  0
VERTEX
  5
635
  8
0
  6
CONTINUOUS
 62
     7
 10
140.4072877732
 20
221.6189054021
 30
0.0
  0
SEQEND
  5
78D
  8
0
  6
CONTINUOUS
 62
     7
  0
LINE
  5
1B9
  8
0
  6
CONTINUOUS
 62
     7
 10
141.3256845219
 20
222.5766235212
 30
0.0
 11
140.6622322058
 21
223.0093355471
 31
0.0
  0
LINE
  5
1BA
  8
0
  6
CONTINUOUS
 62
     7
 10
140.6622322058
 20
223.0093355471
 30
0.0
 11
140.4167155517
 21
222.6328986877
 31
0.0
  0
LINE
  5
1BB
  8
0
  6
CONTINUOUS
 62
     7
 10
140.4167155517
 20
222.6328986877
 30
0.0
 11
140.4819165138
 21
222.590374499
 31
0.0
  0
LINE
  5
1BC
  8
0
  6
CONTINUOUS
 62
     7
 10
140.4819165138
 20
222.590374499
 30
0.0
 11
140.6833634493
 21
222.8992411116
 31
0.0
  0
LINE
  5
1BD
  8
0
  6
CONTINUOUS
 62
     7
 10
140.6833634493
 20
222.8992411116
 30
0.0
 11
140.9445537967
 21
222.7288901055
 31
0.0
  0
LINE
  5
1BE
  8
0
  6
CONTINUOUS
 62
     7
 10
140.9445537967
 20
222.7288901055
 30
0.0
 11
140.7418882256
 21
222.4199126655
 31
0.0
  0
LINE
  5
1BF
  8
0
  6
CONTINUOUS
 62
     7
 10
140.7418882256
 20
222.4199126655
 30
0.0
 11
140.8069820856
 21
222.3772161821
 31
0.0
  0
LINE
  5
1C0
  8
0
  6
CONTINUOUS
 62
     7
 10
140.8069820856
 20
222.3772161821
 30
0.0
 11
141.0098702428
 21
222.6882928231
 31
0.0
  0
LINE
  5
1C1
  8
0
  6
CONTINUOUS
 62
     7
 10
141.0098702428
 20
222.6882928231
 30
0.0
 11
141.2173158271
 21
222.5529940048
 31
0.0
  0
LINE
  5
1C2
  8
0
  6
CONTINUOUS
 62
     7
 10
141.2173158271
 20
222.5529940048
 30
0.0
 11
141.0122204353
 21
222.2397669399
 31
0.0
  0
LINE
  5
1C3
  8
0
  6
CONTINUOUS
 62
     7
 10
141.0122204353
 20
222.2397669399
 30
0.0
 11
141.0776141812
 21
222.1971160913
 31
0.0
  0
LINE
  5
1C4
  8
0
  6
CONTINUOUS
 62
     7
 10
141.0776141812
 20
222.1971160913
 30
0.0
 11
141.3256845219
 21
222.5766235212
 31
0.0
  0
LINE
  5
1C5
  8
0
  6
CONTINUOUS
 62
     7
 10
142.166792207
 20
217.8198683256
 30
0.0
 11
141.7079193299
 21
217.6619532698
 31
0.0
  0
LINE
  5
1C6
  8
0
  6
CONTINUOUS
 62
     7
 10
142.0958487098
 20
217.8789328033
 30
0.0
 11
142.166792207
 21
217.8198683256
 31
0.0
  0
LINE
  5
1C7
  8
0
  6
CONTINUOUS
 62
     7
 10
141.7333802921
 20
217.7540443087
 30
0.0
 11
142.0958487098
 21
217.8789328033
 31
0.0
  0
LINE
  5
1C8
  8
0
  6
CONTINUOUS
 62
     7
 10
141.7869550889
 20
218.1361063564
 30
0.0
 11
141.7333802921
 21
217.7540443087
 31
0.0
  0
LINE
  5
1C9
  8
0
  6
CONTINUOUS
 62
     7
 10
141.7151026209
 20
218.1959289307
 30
0.0
 11
141.7869550889
 21
218.1361063564
 31
0.0
  0
LINE
  5
1CA
  8
0
  6
CONTINUOUS
 62
     7
 10
141.6473302772
 20
217.71261163
 30
0.0
 11
141.7151026209
 21
218.1959289307
 31
0.0
  0
LINE
  5
1CB
  8
0
  6
CONTINUOUS
 62
     7
 10
141.4036180606
 20
217.4198857689
 30
0.0
 11
141.6473302772
 21
217.71261163
 31
0.0
  0
LINE
  5
1CC
  8
0
  6
CONTINUOUS
 62
     7
 10
141.4645158467
 20
217.3691845679
 30
0.0
 11
141.4036180606
 21
217.4198857689
 31
0.0
  0
LINE
  5
1CD
  8
0
  6
CONTINUOUS
 62
     7
 10
141.7079193299
 20
217.6619532698
 30
0.0
 11
141.4645158467
 21
217.3691845679
 31
0.0
  0
CIRCLE
  5
1CE
  8
0
  6
CONTINUOUS
 62
     7
 10
149.5477500384
 20
232.0883284256
 30
0.0
 40
4.75
  0
CIRCLE
  5
1CF
  8
0
  6
CONTINUOUS
 62
     7
 10
149.5477500384
 20
162.0883284256
 30
0.0
 40
4.750000000000028
  0
CIRCLE
  5
1D0
  8
0
  6
CONTINUOUS
 62
     7
 10
158.5477500384
 20
215.0883284256
 30
0.0
 40
4.75
  0
CIRCLE
  5
1D1
  8
0
  6
CONTINUOUS
 62
     7
 10
158.5477500384
 20
179.0883284256
 30
0.0
 40
4.749999999999972
  0
ARC
  5
1D2
  8
0
  6
CONTINUOUS
 62
     7
 10
157.5477500384
 20
162.5883284256
 30
0.0
 40
10.00000000000003
 50
270.0
 51
0.0
  0
LINE
  5
1D3
  8
0
  6
CONTINUOUS
 62
     7
 10
130.1692410154
 20
152.5883308792
 30
0.0
 11
157.5477498365
 21
152.5883308792
 31
0.0
  0
LINE
  5
1D4
  8
0
  6
CONTINUOUS
 62
     7
 10
130.1692410154
 20
167.216413393
 30
0.0
 11
130.1692410154
 21
152.5883308792
 31
0.0
  0
LINE
  5
1D5
  8
0
  6
CONTINUOUS
 62
     7
 10
130.8477504892
 20
168.1633300328
 30
0.0
 11
130.8477504892
 21
187.2383288288
 31
0.0
  0
LINE
  5
1D6
  8
0
  6
CONTINUOUS
 62
     7
 10
130.8477504892
 20
206.9383288914
 30
0.0
 11
130.8477504892
 21
226.0133286187
 31
0.0
  0
LINE
  5
1D7
  8
0
  6
CONTINUOUS
 62
     7
 10
130.1692410154
 20
241.588328238
 30
0.0
 11
157.5477498365
 21
241.588328238
 31
0.0
  0
ARC
  5
1D8
  8
0
  6
CONTINUOUS
 62
     7
 10
157.5477500384
 20
231.5883284256
 30
0.0
 40
10.00000000000003
 50
0.0
 51
90.0
  0
LINE
  5
1D9
  8
0
  6
CONTINUOUS
 62
     7
 10
167.547749613
 20
231.5883284615
 30
0.0
 11
167.547749613
 21
162.5883287931
 31
0.0
  0
CIRCLE
  5
1DA
  8
0
  6
CONTINUOUS
 62
     7
 10
144.0285371836
 20
220.6093764022
 30
0.0
 40
2.900000000000006
  0
LINE
  5
1DB
  8
0
  6
CONTINUOUS
 62
     7
 10
140.8280290445
 20
217.9615988577
 30
0.0
 11
141.0392730278
 21
218.7321211392
 31
0.0
  0
LINE
  5
1DC
  8
0
  6
CONTINUOUS
 62
     7
 10
140.8376649735
 20
217.9470702255
 30
0.0
 11
140.8280290445
 21
217.9615988577
 31
0.0
  0
LINE
  5
1DD
  8
0
  6
CONTINUOUS
 62
     7
 10
141.5011354504
 20
218.3871071035
 30
0.0
 11
140.8376649735
 21
217.9470702255
 31
0.0
  0
LINE
  5
1DE
  8
0
  6
CONTINUOUS
 62
     7
 10
141.4581409437
 20
218.45193088
 30
0.0
 11
141.5011354504
 21
218.3871071035
 31
0.0
  0
LINE
  5
1DF
  8
0
  6
CONTINUOUS
 62
     7
 10
140.9510697951
 20
218.1156228477
 30
0.0
 11
141.4581409437
 21
218.45193088
 31
0.0
  0
LINE
  5
1E0
  8
0
  6
CONTINUOUS
 62
     7
 10
141.1644716529
 20
218.8940166676
 30
0.0
 11
140.9510697951
 21
218.1156228477
 31
0.0
  0
LINE
  5
1E1
  8
0
  6
CONTINUOUS
 62
     7
 10
141.1549498109
 20
218.9083720738
 30
0.0
 11
141.1644716529
 21
218.8940166676
 31
0.0
  0
LINE
  5
1E2
  8
0
  6
CONTINUOUS
 62
     7
 10
140.4918015716
 20
218.4685494
 30
0.0
 11
141.1549498109
 21
218.9083720738
 31
0.0
  0
LINE
  5
1E3
  8
0
  6
CONTINUOUS
 62
     7
 10
140.5376468567
 20
218.3994247758
 30
0.0
 11
140.4918015716
 21
218.4685494
 31
0.0
  0
LINE
  5
1E4
  8
0
  6
CONTINUOUS
 62
     7
 10
141.0392730278
 20
218.7321211392
 30
0.0
 11
140.5376468567
 21
218.3994247758
 31
0.0
  0
LINE
  5
1E5
  8
0
  6
CONTINUOUS
 62
     7
 10
141.334815674
 20
222.8791971871
 30
0.0
 11
141.3439328564
 21
222.9628215724
 31
0.0
  0
POLYLINE
  5
1E6
  8
0
  6
CONTINUOUS
 62
     7
 66
     1
 10
0.0
 20
0.0
 30
0.0
 70
   128
  0
VERTEX
  5
636
  8
0
  6
CONTINUOUS
 62
     7
 10
141.1190077444
 20
223.0622700596
 30
0.0
  0
VERTEX
  5
637
  8
0
  6
CONTINUOUS
 62
     7
 10
141.0403249567
 20
223.1868046516
 30
0.0
  0
VERTEX
  5
638
  8
0
  6
CONTINUOUS
 62
     7
 10
141.0130395336
 20
223.3348756278
 30
0.0
  0
VERTEX
  5
639
  8
0
  6
CONTINUOUS
 62
     7
 10
141.0461657462
 20
223.4779053548
 30
0.0
  0
VERTEX
  5
63A
  8
0
  6
CONTINUOUS
 62
     7
 10
141.1358600264
 20
223.5959365213
 30
0.0
  0
VERTEX
  5
63B
  8
0
  6
CONTINUOUS
 62
     7
 10
141.3221259383
 20
223.715798668
 30
0.0
  0
VERTEX
  5
63C
  8
0
  6
CONTINUOUS
 62
     7
 10
141.5438528886
 20
223.7307631591
 30
0.0
  0
VERTEX
  5
63D
  8
0
  6
CONTINUOUS
 62
     7
 10
141.649713066
 20
223.693374283
 30
0.0
  0
VERTEX
  5
63E
  8
0
  6
CONTINUOUS
 62
     7
 10
141.7410674286
 20
223.6280196527
 30
0.0
  0
VERTEX
  5
63F
  8
0
  6
CONTINUOUS
 62
     7
 10
141.8114586515
 20
223.5402629891
 30
0.0
  0
VERTEX
  5
640
  8
0
  6
CONTINUOUS
 62
     7
 10
141.8552508359
 20
223.4363450849
 30
0.0
  0
VERTEX
  5
641
  8
0
  6
CONTINUOUS
 62
     7
 10
141.869991344
 20
223.3246077964
 30
0.0
  0
VERTEX
  5
642
  8
0
  6
CONTINUOUS
 62
     7
 10
141.8541542036
 20
223.2139331469
 30
0.0
  0
VERTEX
  5
643
  8
0
  6
CONTINUOUS
 62
     7
 10
141.7405971107
 20
223.0237757036
 30
0.0
  0
VERTEX
  5
644
  8
0
  6
CONTINUOUS
 62
     7
 10
141.5538436515
 20
222.9066488513
 30
0.0
  0
VERTEX
  5
645
  8
0
  6
CONTINUOUS
 62
     7
 10
141.334815674
 20
222.8791971871
 30
0.0
  0
SEQEND
  5
78E
  8
0
  6
CONTINUOUS
 62
     7
  0
LINE
  5
1E7
  8
0
  6
CONTINUOUS
 62
     7
 10
141.3790106555
 20
223.2821171352
 30
0.0
 11
141.1190077444
 21
223.0622700596
 31
0.0
  0
LINE
  5
1E8
  8
0
  6
CONTINUOUS
 62
     7
 10
141.3296342609
 20
223.3407001191
 30
0.0
 11
141.3790106555
 21
223.2821171352
 31
0.0
  0
LINE
  5
1E9
  8
0
  6
CONTINUOUS
 62
     7
 10
141.1372514223
 20
223.1777065614
 30
0.0
 11
141.3296342609
 21
223.3407001191
 31
0.0
  0
POLYLINE
  5
1EA
  8
0
  6
CONTINUOUS
 62
     7
 66
     1
 10
0.0
 20
0.0
 30
0.0
 70
   128
  0
VERTEX
  5
646
  8
0
  6
CONTINUOUS
 62
     7
 10
141.3439328564
 20
222.9628215724
 30
0.0
  0
VERTEX
  5
647
  8
0
  6
CONTINUOUS
 62
     7
 10
141.5149152992
 20
222.9807597765
 30
0.0
  0
VERTEX
  5
648
  8
0
  6
CONTINUOUS
 62
     7
 10
141.6663534721
 20
223.0640973145
 30
0.0
  0
VERTEX
  5
649
  8
0
  6
CONTINUOUS
 62
     7
 10
141.7643048582
 20
223.2089552277
 30
0.0
  0
VERTEX
  5
64A
  8
0
  6
CONTINUOUS
 62
     7
 10
141.7826342178
 20
223.3820843691
 30
0.0
  0
VERTEX
  5
64B
  8
0
  6
CONTINUOUS
 62
     7
 10
141.7574014296
 20
223.4654917562
 30
0.0
  0
VERTEX
  5
64C
  8
0
  6
CONTINUOUS
 62
     7
 10
141.7102588122
 20
223.5386750841
 30
0.0
  0
VERTEX
  5
64D
  8
0
  6
CONTINUOUS
 62
     7
 10
141.5669380469
 20
223.6367871234
 30
0.0
  0
VERTEX
  5
64E
  8
0
  6
CONTINUOUS
 62
     7
 10
141.3962382605
 20
223.6519648874
 30
0.0
  0
VERTEX
  5
64F
  8
0
  6
CONTINUOUS
 62
     7
 10
141.236623541
 20
223.5855299229
 30
0.0
  0
VERTEX
  5
650
  8
0
  6
CONTINUOUS
 62
     7
 10
141.1544510876
 20
223.5044983396
 30
0.0
  0
VERTEX
  5
651
  8
0
  6
CONTINUOUS
 62
     7
 10
141.1032469725
 20
223.399545736
 30
0.0
  0
VERTEX
  5
652
  8
0
  6
CONTINUOUS
 62
     7
 10
141.0962266629
 20
223.2847164565
 30
0.0
  0
VERTEX
  5
653
  8
0
  6
CONTINUOUS
 62
     7
 10
141.1372514223
 20
223.1777065614
 30
0.0
  0
SEQEND
  5
78F
  8
0
  6
CONTINUOUS
 62
     7
  0
LINE
  5
1EB
  8
0
  6
CONTINUOUS
 62
     7
 10
139.8986384985
 20
220.3616171324
 30
0.0
 11
140.4710554299
 21
220.6486582005
 31
0.0
  0
LINE
  5
1EC
  8
0
  6
CONTINUOUS
 62
     7
 10
139.8986384985
 20
220.341778099
 30
0.0
 11
139.8986384985
 21
220.3616171324
 31
0.0
  0
LINE
  5
1ED
  8
0
  6
CONTINUOUS
 62
     7
 10
140.4686442358
 20
220.0623831892
 30
0.0
 11
139.8986384985
 21
220.341778099
 31
0.0
  0
LINE
  5
1EE
  8
0
  6
CONTINUOUS
 62
     7
 10
139.9002338541
 20
219.9843765417
 30
0.0
 11
140.4686442358
 21
220.0623831892
 31
0.0
  0
LINE
  5
1EF
  8
0
  6
CONTINUOUS
 62
     7
 10
139.9004173247
 20
219.9043396109
 30
0.0
 11
139.9002338541
 21
219.9843765417
 31
0.0
  0
LINE
  5
1F0
  8
0
  6
CONTINUOUS
 62
     7
 10
140.695827805
 20
220.020475536
 30
0.0
 11
139.9004173247
 21
219.9043396109
 31
0.0
  0
LINE
  5
1F1
  8
0
  6
CONTINUOUS
 62
     7
 10
140.695827805
 20
220.0337114924
 30
0.0
 11
140.695827805
 21
220.020475536
 31
0.0
  0
LINE
  5
1F2
  8
0
  6
CONTINUOUS
 62
     7
 10
140.0421534446
 20
220.3519313777
 30
0.0
 11
140.695827805
 21
220.0337114924
 31
0.0
  0
LINE
  5
1F3
  8
0
  6
CONTINUOUS
 62
     7
 10
140.6936433879
 20
220.6790165225
 30
0.0
 11
140.0421534446
 21
220.3519313777
 31
0.0
  0
LINE
  5
1F4
  8
0
  6
CONTINUOUS
 62
     7
 10
140.6936433879
 20
220.6906813377
 30
0.0
 11
140.6936433879
 21
220.6790165225
 31
0.0
  0
LINE
  5
1F5
  8
0
  6
CONTINUOUS
 62
     7
 10
139.8970235852
 20
220.8002095291
 30
0.0
 11
140.6936433879
 21
220.6906813377
 31
0.0
  0
LINE
  5
1F6
  8
0
  6
CONTINUOUS
 62
     7
 10
139.897386801
 20
220.7241363072
 30
0.0
 11
139.8970235852
 21
220.8002095291
 31
0.0
  0
LINE
  5
1F7
  8
0
  6
CONTINUOUS
 62
     7
 10
140.4710554299
 20
220.6486582005
 30
0.0
 11
139.897386801
 21
220.7241363072
 31
0.0
  0
LINE
  5
1F8
  8
0
  6
CONTINUOUS
 62
     7
 10
141.6890153443
 20
177.8325631464
 30
0.0
 11
141.6920118747
 21
177.8270012879
 31
0.0
  0
ARC
  5
1F9
  8
0
  6
CONTINUOUS
 62
     7
 10
141.6333203504
 20
177.8212837467
 30
0.0
 40
0.0568256737782403
 50
11.448745918
 51
79.0993522403
  0
LINE
  5
1FA
  8
0
  6
CONTINUOUS
 62
     7
 10
139.7643576158
 20
177.8770840907
 30
0.0
 11
141.6440664572
 21
177.8770840907
 31
0.0
  0
ARC
  5
1FB
  8
0
  6
CONTINUOUS
 62
     7
 10
139.7768881463
 20
177.8201258212
 30
0.0
 40
0.0583203109205197
 50
102.407141462
 51
170.2558967402
  0
LINE
  5
1FC
  8
0
  6
CONTINUOUS
 62
     7
 10
139.7194091943
 20
176.9310242677
 30
0.0
 11
139.7194091943
 21
177.8299964213
 31
0.0
  0
LINE
  5
1FD
  8
0
  6
CONTINUOUS
 62
     7
 10
139.7288267282
 20
176.9104755664
 30
0.0
 11
139.7194091943
 21
176.9310242677
 31
0.0
  0
POLYLINE
  5
1FE
  8
0
  6
CONTINUOUS
 62
     7
 66
     1
 10
0.0
 20
0.0
 30
0.0
 70
   128
  0
VERTEX
  5
654
  8
0
  6
CONTINUOUS
 62
     7
 10
139.7861896796
 20
176.883932873
 30
0.0
  0
VERTEX
  5
655
  8
0
  6
CONTINUOUS
 62
     7
 10
139.7508525071
 20
176.8921806657
 30
0.0
  0
VERTEX
  5
656
  8
0
  6
CONTINUOUS
 62
     7
 10
139.7288267282
 20
176.9104755664
 30
0.0
  0
SEQEND
  5
790
  8
0
  6
CONTINUOUS
 62
     7
  0
POLYLINE
  5
1FF
  8
0
  6
CONTINUOUS
 62
     7
 66
     1
 10
0.0
 20
0.0
 30
0.0
 70
   128
  0
VERTEX
  5
657
  8
0
  6
CONTINUOUS
 62
     7
 10
139.7960356218
 20
176.8869317317
 30
0.0
  0
VERTEX
  5
658
  8
0
  6
CONTINUOUS
 62
     7
 10
139.7906423328
 20
176.8848381186
 30
0.0
  0
VERTEX
  5
659
  8
0
  6
CONTINUOUS
 62
     7
 10
139.7861896796
 20
176.883932873
 30
0.0
  0
SEQEND
  5
791
  8
0
  6
CONTINUOUS
 62
     7
  0
POLYLINE
  5
200
  8
0
  6
CONTINUOUS
 62
     7
 66
     1
 10
0.0
 20
0.0
 30
0.0
 70
   128
  0
VERTEX
  5
65A
  8
0
  6
CONTINUOUS
 62
     7
 10
139.8054531557
 20
176.8869317317
 30
0.0
  0
VERTEX
  5
65B
  8
0
  6
CONTINUOUS
 62
     7
 10
139.8044408081
 20
176.891029551
 30
0.0
  0
VERTEX
  5
65C
  8
0
  6
CONTINUOUS
 62
     7
 10
139.803086665
 20
176.8927022064
 30
0.0
  0
VERTEX
  5
65D
  8
0
  6
CONTINUOUS
 62
     7
 10
139.8021581364
 20
176.8932349229
 30
0.0
  0
VERTEX
  5
65E
  8
0
  6
CONTINUOUS
 62
     7
 10
139.8011690719
 20
176.8933317804
 30
0.0
  0
VERTEX
  5
65F
  8
0
  6
CONTINUOUS
 62
     7
 10
139.7992905942
 20
176.8923073256
 30
0.0
  0
VERTEX
  5
660
  8
0
  6
CONTINUOUS
 62
     7
 10
139.7978619454
 20
176.8906681979
 30
0.0
  0
VERTEX
  5
661
  8
0
  6
CONTINUOUS
 62
     7
 10
139.7960356218
 20
176.8869317317
 30
0.0
  0
SEQEND
  5
792
  8
0
  6
CONTINUOUS
 62
     7
  0
ARC
  5
201
  8
0
  6
CONTINUOUS
 62
     7
 10
139.7972780025
 20
176.9469963372
 30
0.0
 40
0.0606183961984016
 50
277.7506735648
 51
347.2238141099
  0
LINE
  5
202
  8
0
  6
CONTINUOUS
 62
     7
 10
139.8563955692
 20
177.7400977159
 30
0.0
 11
139.8563955692
 21
176.9335909927
 31
0.0
  0
LINE
  5
203
  8
0
  6
CONTINUOUS
 62
     7
 10
140.7331077163
 20
177.7400977159
 30
0.0
 11
139.8563955692
 21
177.7400977159
 31
0.0
  0
LINE
  5
204
  8
0
  6
CONTINUOUS
 62
     7
 10
140.7331077163
 20
177.1493449056
 30
0.0
 11
140.7331077163
 21
177.7400977159
 31
0.0
  0
LINE
  5
205
  8
0
  6
CONTINUOUS
 62
     7
 10
140.7425252502
 20
177.1287962043
 30
0.0
 11
140.7331077163
 21
177.1493449056
 31
0.0
  0
ARC
  5
206
  8
0
  6
CONTINUOUS
 62
     7
 10
140.8011134879
 20
177.1773827909
 30
0.0
 40
0.0761133232806081
 50
219.6685473045
 51
281.0698504345
  0
ARC
  5
207
  8
0
  6
CONTINUOUS
 62
     7
 10
140.8144250444
 20
177.159985564
 30
0.0
 40
0.0573147240201743
 50
271.3023074281
 51
346.2367332778
  0
LINE
  5
208
  8
0
  6
CONTINUOUS
 62
     7
 10
140.8700940912
 20
177.7400977159
 30
0.0
 11
140.8700940912
 21
177.1463497722
 31
0.0
  0
LINE
  5
209
  8
0
  6
CONTINUOUS
 62
     7
 10
141.5550254998
 20
177.7400977159
 30
0.0
 11
140.8700940912
 21
177.7400977159
 31
0.0
  0
LINE
  5
20A
  8
0
  6
CONTINUOUS
 62
     7
 10
141.5550254998
 20
176.9335909927
 30
0.0
 11
141.5550254998
 21
177.7400977159
 31
0.0
  0
ARC
  5
20B
  8
0
  6
CONTINUOUS
 62
     7
 10
141.6254570639
 20
176.9584642972
 30
0.0
 40
0.0746946216566862
 50
199.4509611477
 51
266.2118363431
  0
POLYLINE
  5
20C
  8
0
  6
CONTINUOUS
 62
     7
 66
     1
 10
0.0
 20
0.0
 30
0.0
 70
   128
  0
VERTEX
  5
662
  8
0
  6
CONTINUOUS
 62
     7
 10
141.6890153443
 20
176.9310242677
 30
0.0
  0
VERTEX
  5
663
  8
0
  6
CONTINUOUS
 62
     7
 10
141.6793803466
 20
176.9074767077
 30
0.0
  0
VERTEX
  5
664
  8
0
  6
CONTINUOUS
 62
     7
 10
141.6597625022
 20
176.8912791455
 30
0.0
  0
VERTEX
  5
665
  8
0
  6
CONTINUOUS
 62
     7
 10
141.6205221569
 20
176.883932873
 30
0.0
  0
SEQEND
  5
793
  8
0
  6
CONTINUOUS
 62
     7
  0
LINE
  5
20D
  8
0
  6
CONTINUOUS
 62
     7
 10
141.6920118747
 20
177.8270012879
 30
0.0
 11
141.6890153443
 21
176.9310242677
 31
0.0
  0
ARC
  5
20E
  8
0
  6
CONTINUOUS
 62
     7
 10
145.0592863121
 20
175.1034824866
 30
0.0
 40
1.802507478549968
 50
358.4988417754
 51
181.5011582246
  0
LINE
  5
20F
  8
0
  6
CONTINUOUS
 62
     7
 10
146.8611752163
 20
175.0562607491
 30
0.0
 11
147.8213901529
 21
175.0562607491
 31
0.0
  0
ARC
  5
210
  8
0
  6
CONTINUOUS
 62
     7
 10
145.0592863121
 20
175.1034824866
 30
0.0
 40
2.762507478550039
 50
359.020574186
 51
180.979425814
  0
LINE
  5
211
  8
0
  6
CONTINUOUS
 62
     7
 10
142.2971824897
 20
175.0562607491
 30
0.0
 11
143.2573974845
 21
175.0562607491
 31
0.0
  0
ARC
  5
212
  8
0
  6
CONTINUOUS
 62
     7
 10
145.0592863121
 20
170.6377985488
 30
0.0
 40
1.802115155852642
 50
106.6002893219
 51
180.2510444181
  0
LINE
  5
213
  8
0
  6
CONTINUOUS
 62
     7
 10
144.5444342927
 20
172.3648018384
 30
0.0
 11
144.5444342927
 21
171.0686690354
 31
0.0
  0
LINE
  5
214
  8
0
  6
CONTINUOUS
 62
     7
 10
144.5444342927
 20
171.0686690354
 30
0.0
 11
145.5044341521
 21
171.0686690354
 31
0.0
  0
LINE
  5
215
  8
0
  6
CONTINUOUS
 62
     7
 10
145.5044341521
 20
171.0686690354
 30
0.0
 11
145.5044341521
 21
172.3840690398
 31
0.0
  0
ARC
  5
216
  8
0
  6
CONTINUOUS
 62
     7
 10
145.0592863121
 20
170.6377985488
 30
0.0
 40
1.802115155852525
 50
359.7489555819
 51
75.6991049937
  0
LINE
  5
217
  8
0
  6
CONTINUOUS
 62
     7
 10
146.8613841818
 20
170.6299043441
 30
0.0
 11
147.8213901529
 21
170.6299043441
 31
0.0
  0
ARC
  5
218
  8
0
  6
CONTINUOUS
 62
     7
 10
145.0592863121
 20
170.6377985488
 30
0.0
 40
2.762115155852688
 50
359.8362088133
 51
180.1637911867
  0
LINE
  5
219
  8
0
  6
CONTINUOUS
 62
     7
 10
142.2971824897
 20
170.6299043441
 30
0.0
 11
143.2571884026
 21
170.6299043441
 31
0.0
  0
POLYLINE
  5
21A
  8
0
  6
CONTINUOUS
 62
     7
 66
     1
 10
0.0
 20
0.0
 30
0.0
 70
   128
  0
VERTEX
  5
666
  8
0
  6
CONTINUOUS
 62
     7
 10
141.6825938751
 20
171.189584508
 30
0.0
  0
VERTEX
  5
667
  8
0
  6
CONTINUOUS
 62
     7
 10
141.6875699317
 20
171.176046803
 30
0.0
  0
VERTEX
  5
668
  8
0
  6
CONTINUOUS
 62
     7
 10
141.6920118747
 20
171.1656159902
 30
0.0
  0
SEQEND
  5
794
  8
0
  6
CONTINUOUS
 62
     7
  0
POLYLINE
  5
21B
  8
0
  6
CONTINUOUS
 62
     7
 66
     1
 10
0.0
 20
0.0
 30
0.0
 70
   128
  0
VERTEX
  5
669
  8
0
  6
CONTINUOUS
 62
     7
 10
141.6046831538
 20
171.2195507431
 30
0.0
  0
VERTEX
  5
66A
  8
0
  6
CONTINUOUS
 62
     7
 10
141.6520129671
 20
171.2114221597
 30
0.0
  0
VERTEX
  5
66B
  8
0
  6
CONTINUOUS
 62
     7
 10
141.6825938751
 20
171.189584508
 30
0.0
  0
SEQEND
  5
795
  8
0
  6
CONTINUOUS
 62
     7
  0
ARC
  5
21C
  8
0
  6
CONTINUOUS
 62
     7
 10
141.6211293864
 20
171.1538446174
 30
0.0
 40
0.0677331050755445
 50
104.0524111537
 51
167.4078120847
  0
LINE
  5
21D
  8
0
  6
CONTINUOUS
 62
     7
 10
141.5550254998
 20
170.6930107617
 30
0.0
 11
141.5550254998
 21
171.1686111236
 31
0.0
  0
POLYLINE
  5
21E
  8
0
  6
CONTINUOUS
 62
     7
 66
     1
 10
0.0
 20
0.0
 30
0.0
 70
   128
  0
VERTEX
  5
66C
  8
0
  6
CONTINUOUS
 62
     7
 10
141.5327650276
 20
170.5791435385
 30
0.0
  0
VERTEX
  5
66D
  8
0
  6
CONTINUOUS
 62
     7
 10
141.5500364048
 20
170.6420338893
 30
0.0
  0
VERTEX
  5
66E
  8
0
  6
CONTINUOUS
 62
     7
 10
141.5550254998
 20
170.6930107617
 30
0.0
  0
SEQEND
  5
796
  8
0
  6
CONTINUOUS
 62
     7
  0
ARC
  5
21F
  8
0
  6
CONTINUOUS
 62
     7
 10
141.2028618312
 20
170.6911165175
 30
0.0
 40
0.3483878112979426
 50
271.4542841225
 51
341.252190535
  0
ARC
  5
220
  8
0
  6
CONTINUOUS
 62
     7
 10
141.2085476046
 20
170.6698080326
 30
0.0
 40
0.3269823400828894
 50
208.4432647323
 51
270.5530342931
  0
POLYLINE
  5
221
  8
0
  6
CONTINUOUS
 62
     7
 66
     1
 10
0.0
 20
0.0
 30
0.0
 70
   128
  0
VERTEX
  5
66F
  8
0
  6
CONTINUOUS
 62
     7
 10
140.8623883282
 20
170.7666373992
 30
0.0
  0
VERTEX
  5
670
  8
0
  6
CONTINUOUS
 62
     7
 10
140.8763474566
 20
170.6201664353
 30
0.0
  0
VERTEX
  5
671
  8
0
  6
CONTINUOUS
 62
     7
 10
140.9210355734
 20
170.5140701676
 30
0.0
  0
SEQEND
  5
797
  8
0
  6
CONTINUOUS
 62
     7
  0
LINE
  5
222
  8
0
  6
CONTINUOUS
 62
     7
 10
140.8623883282
 20
170.955852344
 30
0.0
 11
140.8623883282
 21
170.7666373992
 31
0.0
  0
LINE
  5
223
  8
0
  6
CONTINUOUS
 62
     7
 10
140.8538266798
 20
170.973830595
 30
0.0
 11
140.8623883282
 21
170.955852344
 31
0.0
  0
ARC
  5
224
  8
0
  6
CONTINUOUS
 62
     7
 10
140.8025112288
 20
170.9448786697
 30
0.0
 40
0.0589193473595184
 50
29.4314777612
 51
89.6363337501
  0
POLYLINE
  5
225
  8
0
  6
CONTINUOUS
 62
     7
 66
     1
 10
0.0
 20
0.0
 30
0.0
 70
   128
  0
VERTEX
  5
672
  8
0
  6
CONTINUOUS
 62
     7
 10
140.7857619007
 20
171.0008016968
 30
0.0
  0
VERTEX
  5
673
  8
0
  6
CONTINUOUS
 62
     7
 10
140.7955063288
 20
171.0018298769
 30
0.0
  0
VERTEX
  5
674
  8
0
  6
CONTINUOUS
 62
     7
 10
140.8028851976
 20
171.0037968302
 30
0.0
  0
SEQEND
  5
798
  8
0
  6
CONTINUOUS
 62
     7
  0
ARC
  5
226
  8
0
  6
CONTINUOUS
 62
     7
 10
140.7935390878
 20
170.9485052402
 30
0.0
 40
0.0528715803991504
 50
98.4586608244
 51
175.7482571906
  0
POLYLINE
  5
227
  8
0
  6
CONTINUOUS
 62
     7
 66
     1
 10
0.0
 20
0.0
 30
0.0
 70
   128
  0
VERTEX
  5
675
  8
0
  6
CONTINUOUS
 62
     7
 10
140.7378164833
 20
170.877084806
 30
0.0
  0
VERTEX
  5
676
  8
0
  6
CONTINUOUS
 62
     7
 10
140.7385694576
 20
170.9193146968
 30
0.0
  0
VERTEX
  5
677
  8
0
  6
CONTINUOUS
 62
     7
 10
140.7408130137
 20
170.952425077
 30
0.0
  0
SEQEND
  5
799
  8
0
  6
CONTINUOUS
 62
     7
  0
LINE
  5
228
  8
0
  6
CONTINUOUS
 62
     7
 10
140.7378164833
 20
170.7473776484
 30
0.0
 11
140.7378164833
 21
170.877084806
 31
0.0
  0
POLYLINE
  5
229
  8
0
  6
CONTINUOUS
 62
     7
 66
     1
 10
0.0
 20
0.0
 30
0.0
 70
   128
  0
VERTEX
  5
678
  8
0
  6
CONTINUOUS
 62
     7
 10
140.7322513652
 20
170.6506318593
 30
0.0
  0
VERTEX
  5
679
  8
0
  6
CONTINUOUS
 62
     7
 10
140.7369922628
 20
170.7047081733
 30
0.0
  0
VERTEX
  5
67A
  8
0
  6
CONTINUOUS
 62
     7
 10
140.7378164833
 20
170.7473776484
 30
0.0
  0
SEQEND
  5
79A
  8
0
  6
CONTINUOUS
 62
     7
  0
ARC
  5
22A
  8
0
  6
CONTINUOUS
 62
     7
 10
140.382720984
 20
170.6902856309
 30
0.0
 40
0.351772524511204
 50
278.9967867672
 51
353.5275411108
  0
LINE
  5
22B
  8
0
  6
CONTINUOUS
 62
     7
 10
140.2283984018
 20
170.3428409243
 30
0.0
 11
140.4377308456
 21
170.3428409243
 31
0.0
  0
POLYLINE
  5
22C
  8
0
  6
CONTINUOUS
 62
     7
 66
     1
 10
0.0
 20
0.0
 30
0.0
 70
   128
  0
VERTEX
  5
67B
  8
0
  6
CONTINUOUS
 62
     7
 10
140.0520291892
 20
170.3758022928
 30
0.0
  0
VERTEX
  5
67C
  8
0
  6
CONTINUOUS
 62
     7
 10
140.1489100201
 20
170.3475273395
 30
0.0
  0
VERTEX
  5
67D
  8
0
  6
CONTINUOUS
 62
     7
 10
140.2283984018
 20
170.3428409243
 30
0.0
  0
SEQEND
  5
79B
  8
0
  6
CONTINUOUS
 62
     7
  0
POLYLINE
  5
22D
  8
0
  6
CONTINUOUS
 62
     7
 66
     1
 10
0.0
 20
0.0
 30
0.0
 70
   128
  0
VERTEX
  5
67E
  8
0
  6
CONTINUOUS
 62
     7
 10
139.8563955692
 20
170.6720373774
 30
0.0
  0
VERTEX
  5
67F
  8
0
  6
CONTINUOUS
 62
     7
 10
139.927802865
 20
170.4798347497
 30
0.0
  0
VERTEX
  5
680
  8
0
  6
CONTINUOUS
 62
     7
 10
140.0520291892
 20
170.3758022928
 30
0.0
  0
SEQEND
  5
79C
  8
0
  6
CONTINUOUS
 62
     7
  0
LINE
  5
22E
  8
0
  6
CONTINUOUS
 62
     7
 10
139.8563955692
 20
171.1686111236
 30
0.0
 11
139.8563955692
 21
170.6720373774
 31
0.0
  0
LINE
  5
22F
  8
0
  6
CONTINUOUS
 62
     7
 10
139.846977104
 20
171.189584508
 30
0.0
 11
139.8563955692
 21
171.1686111236
 31
0.0
  0
ARC
  5
230
  8
0
  6
CONTINUOUS
 62
     7
 10
139.783459332
 20
171.1401172451
 30
0.0
 40
0.0805078720183309
 50
37.9112463527
 51
99.3708795462
  0
ARC
  5
231
  8
0
  6
CONTINUOUS
 62
     7
 10
139.784414798
 20
171.1535723246
 30
0.0
 40
0.0674607384063612
 50
102.033210237
 51
164.4948577973
  0
LINE
  5
232
  8
0
  6
CONTINUOUS
 62
     7
 10
139.6920115468
 20
170.7293993974
 30
0.0
 11
139.7194091943
 21
171.171606257
 31
0.0
  0
LINE
  5
233
  8
0
  6
CONTINUOUS
 62
     7
 10
139.7194091943
 20
170.6600493932
 30
0.0
 11
139.6920115468
 21
170.7293993974
 31
0.0
  0
ARC
  5
234
  8
0
  6
CONTINUOUS
 62
     7
 10
140.2010717595
 20
170.6888346789
 30
0.0
 40
0.4825219366314877
 50
183.4200625445
 51
246.9589202275
  0
POLYLINE
  5
235
  8
0
  6
CONTINUOUS
 62
     7
 66
     1
 10
0.0
 20
0.0
 30
0.0
 70
   128
  0
VERTEX
  5
681
  8
0
  6
CONTINUOUS
 62
     7
 10
140.2147005094
 20
170.2058545494
 30
0.0
  0
VERTEX
  5
682
  8
0
  6
CONTINUOUS
 62
     7
 10
140.0987638873
 20
170.215845778
 30
0.0
  0
VERTEX
  5
683
  8
0
  6
CONTINUOUS
 62
     7
 10
140.0122170118
 20
170.2448061848
 30
0.0
  0
SEQEND
  5
79D
  8
0
  6
CONTINUOUS
 62
     7
  0
LINE
  5
236
  8
0
  6
CONTINUOUS
 62
     7
 10
140.2767722276
 20
170.2058545494
 30
0.0
 11
140.2147005094
 21
170.2058545494
 31
0.0
  0
POLYLINE
  5
237
  8
0
  6
CONTINUOUS
 62
     7
 66
     1
 10
0.0
 20
0.0
 30
0.0
 70
   128
  0
VERTEX
  5
684
  8
0
  6
CONTINUOUS
 62
     7
 10
140.3414125336
 20
170.2058545494
 30
0.0
  0
VERTEX
  5
685
  8
0
  6
CONTINUOUS
 62
     7
 10
140.3052483467
 20
170.2106527233
 30
0.0
  0
VERTEX
  5
686
  8
0
  6
CONTINUOUS
 62
     7
 10
140.2767722276
 20
170.2058545494
 30
0.0
  0
SEQEND
  5
79E
  8
0
  6
CONTINUOUS
 62
     7
  0
LINE
  5
238
  8
0
  6
CONTINUOUS
 62
     7
 10
140.4030558435
 20
170.2058545494
 30
0.0
 11
140.3414125336
 21
170.2058545494
 31
0.0
  0
ARC
  5
239
  8
0
  6
CONTINUOUS
 62
     7
 10
140.3943787508
 20
170.6544203965
 30
0.0
 40
0.4486497644497847
 50
271.1081958032
 51
336.3836239717
  0
POLYLINE
  5
23A
  8
0
  6
CONTINUOUS
 62
     7
 66
     1
 10
0.0
 20
0.0
 30
0.0
 70
   128
  0
VERTEX
  5
687
  8
0
  6
CONTINUOUS
 62
     7
 10
140.8902139184
 20
170.3543967748
 30
0.0
  0
VERTEX
  5
688
  8
0
  6
CONTINUOUS
 62
     7
 10
140.8402270419
 20
170.4199916864
 30
0.0
  0
VERTEX
  5
689
  8
0
  6
CONTINUOUS
 62
     7
 10
140.8054533196
 20
170.4746863985
 30
0.0
  0
SEQEND
  5
79F
  8
0
  6
CONTINUOUS
 62
     7
  0
POLYLINE
  5
23B
  8
0
  6
CONTINUOUS
 62
     7
 66
     1
 10
0.0
 20
0.0
 30
0.0
 70
   128
  0
VERTEX
  5
68A
  8
0
  6
CONTINUOUS
 62
     7
 10
141.2219775622
 20
170.2058545494
 30
0.0
  0
VERTEX
  5
68B
  8
0
  6
CONTINUOUS
 62
     7
 10
141.0198866171
 20
170.2539554978
 30
0.0
  0
VERTEX
  5
68C
  8
0
  6
CONTINUOUS
 62
     7
 10
140.8902139184
 20
170.3543967748
 30
0.0
  0
SEQEND
  5
7A0
  8
0
  6
CONTINUOUS
 62
     7
  0
POLYLINE
  5
23C
  8
0
  6
CONTINUOUS
 62
     7
 66
     1
 10
0.0
 20
0.0
 30
0.0
 70
   128
  0
VERTEX
  5
68D
  8
0
  6
CONTINUOUS
 62
     7
 10
141.3936384735
 20
170.2418110514
 30
0.0
  0
VERTEX
  5
68E
  8
0
  6
CONTINUOUS
 62
     7
 10
141.2991772187
 20
170.213215723
 30
0.0
  0
VERTEX
  5
68F
  8
0
  6
CONTINUOUS
 62
     7
 10
141.2219775622
 20
170.2058545494
 30
0.0
  0
SEQEND
  5
7A1
  8
0
  6
CONTINUOUS
 62
     7
  0
ARC
  5
23D
  8
0
  6
CONTINUOUS
 62
     7
 10
141.2110670143
 20
170.6838748033
 30
0.0
 40
0.4782809828084095
 50
292.4405289063
 51
357.8629394554
  0
LINE
  5
23E
  8
0
  6
CONTINUOUS
 62
     7
 10
141.6920118747
 20
171.1656159902
 30
0.0
 11
141.6890153443
 21
170.66603966
 31
0.0
  0
POLYLINE
  5
23F
  8
0
  6
CONTINUOUS
 62
     7
 66
     1
 10
0.0
 20
0.0
 30
0.0
 70
   128
  0
VERTEX
  5
690
  8
0
  6
CONTINUOUS
 62
     7
 10
141.6920118747
 20
173.2863306248
 30
0.0
  0
VERTEX
  5
691
  8
0
  6
CONTINUOUS
 62
     7
 10
141.6913455134
 20
173.2741824532
 30
0.0
  0
VERTEX
  5
692
  8
0
  6
CONTINUOUS
 62
     7
 10
141.6890153443
 20
173.2649288321
 30
0.0
  0
SEQEND
  5
7A2
  8
0
  6
CONTINUOUS
 62
     7
  0
POLYLINE
  5
240
  8
0
  6
CONTINUOUS
 62
     7
 66
     1
 10
0.0
 20
0.0
 30
0.0
 70
   128
  0
VERTEX
  5
693
  8
0
  6
CONTINUOUS
 62
     7
 10
141.6778851082
 20
173.3257143939
 30
0.0
  0
VERTEX
  5
694
  8
0
  6
CONTINUOUS
 62
     7
 10
141.6887461921
 20
173.304670229
 30
0.0
  0
VERTEX
  5
695
  8
0
  6
CONTINUOUS
 62
     7
 10
141.6920118747
 20
173.2863306248
 30
0.0
  0
SEQEND
  5
7A3
  8
0
  6
CONTINUOUS
 62
     7
  0
LINE
  5
241
  8
0
  6
CONTINUOUS
 62
     7
 10
141.2532276255
 20
173.7829080963
 30
0.0
 11
141.6778851082
 21
173.3257143939
 31
0.0
  0
POLYLINE
  5
242
  8
0
  6
CONTINUOUS
 62
     7
 66
     1
 10
0.0
 20
0.0
 30
0.0
 70
   128
  0
VERTEX
  5
696
  8
0
  6
CONTINUOUS
 62
     7
 10
141.2052822081
 20
173.7948923552
 30
0.0
  0
VERTEX
  5
697
  8
0
  6
CONTINUOUS
 62
     7
 10
141.2329755505
 20
173.7914539123
 30
0.0
  0
VERTEX
  5
698
  8
0
  6
CONTINUOUS
 62
     7
 10
141.2532276255
 20
173.7829080963
 30
0.0
  0
SEQEND
  5
7A4
  8
0
  6
CONTINUOUS
 62
     7
  0
ARC
  5
243
  8
0
  6
CONTINUOUS
 62
     7
 10
141.2220907559
 20
173.725997957
 30
0.0
 40
0.0709151985349357
 50
103.7109140144
 51
162.8171540199
  0
ARC
  5
244
  8
0
  6
CONTINUOUS
 62
     7
 10
141.094861419
 20
173.745969173
 30
0.0
 40
0.0594873582904052
 50
342.3740820682
 51
0.942682368
  0
POLYLINE
  5
245
  8
0
  6
CONTINUOUS
 62
     7
 66
     1
 10
0.0
 20
0.0
 30
0.0
 70
   128
  0
VERTEX
  5
699
  8
0
  6
CONTINUOUS
 62
     7
 10
141.1624739659
 20
173.6900142574
 30
0.0
  0
VERTEX
  5
69A
  8
0
  6
CONTINUOUS
 62
     7
 10
141.1554466715
 20
173.7109913671
 30
0.0
  0
VERTEX
  5
69B
  8
0
  6
CONTINUOUS
 62
     7
 10
141.1515560714
 20
173.7279563391
 30
0.0
  0
SEQEND
  5
7A5
  8
0
  6
CONTINUOUS
 62
     7
  0
LINE
  5
246
  8
0
  6
CONTINUOUS
 62
     7
 10
141.4766863701
 20
173.3565374458
 30
0.0
 11
141.1624739659
 21
173.6900142574
 31
0.0
  0
LINE
  5
247
  8
0
  6
CONTINUOUS
 62
     7
 10
139.7403853727
 20
173.3565374458
 30
0.0
 11
141.4766863701
 21
173.3565374458
 31
0.0
  0
ARC
  5
248
  8
0
  6
CONTINUOUS
 62
     7
 10
139.7538475102
 20
173.2954931283
 30
0.0
 40
0.0625111017335174
 50
102.4364107987
 51
188.4284378801
  0
POLYLINE
  5
249
  8
0
  6
CONTINUOUS
 62
     7
 66
     1
 10
0.0
 20
0.0
 30
0.0
 70
   128
  0
VERTEX
  5
69C
  8
0
  6
CONTINUOUS
 62
     7
 10
139.7373883767
 20
173.2195510709
 30
0.0
  0
VERTEX
  5
69D
  8
0
  6
CONTINUOUS
 62
     7
 10
139.7147665513
 20
173.2292256498
 30
0.0
  0
VERTEX
  5
69E
  8
0
  6
CONTINUOUS
 62
     7
 10
139.6993047339
 20
173.248425796
 30
0.0
  0
VERTEX
  5
69F
  8
0
  6
CONTINUOUS
 62
     7
 10
139.6920115468
 20
173.2863306248
 30
0.0
  0
SEQEND
  5
7A6
  8
0
  6
CONTINUOUS
 62
     7
  0
LINE
  5
24A
  8
0
  6
CONTINUOUS
 62
     7
 10
141.6406419841
 20
173.2195510709
 30
0.0
 11
139.7373883767
 21
173.2195510709
 31
0.0
  0
LINE
  5
24B
  8
0
  6
CONTINUOUS
 62
     7
 10
141.6607618113
 20
173.2285401964
 30
0.0
 11
141.6406419841
 21
173.2195510709
 31
0.0
  0
POLYLINE
  5
24C
  8
0
  6
CONTINUOUS
 62
     7
 66
     1
 10
0.0
 20
0.0
 30
0.0
 70
   128
  0
VERTEX
  5
6A0
  8
0
  6
CONTINUOUS
 62
     7
 10
141.6890153443
 20
173.2649288321
 30
0.0
  0
VERTEX
  5
6A1
  8
0
  6
CONTINUOUS
 62
     7
 10
141.6771339965
 20
173.2415153825
 30
0.0
  0
VERTEX
  5
6A2
  8
0
  6
CONTINUOUS
 62
     7
 10
141.6607618113
 20
173.2285401964
 30
0.0
  0
SEQEND
  5
7A7
  8
0
  6
CONTINUOUS
 62
     7
  0
ARC
  5
24D
  8
0
  6
CONTINUOUS
 62
     7
 10
129.8477500384
 20
187.2383284256
 30
0.0
 40
1.0
 50
0.0
 51
71.2469165733
  0
ARC
  5
24E
  8
0
  6
CONTINUOUS
 62
     7
 10
129.8477500384
 20
168.1633284256
 30
0.0
 40
1.000000000000004
 50
288.7530834267
 51
0.0
  0
ARC
  5
24F
  8
0
  6
CONTINUOUS
 62
     7
 10
129.8477500384
 20
206.9383284256
 30
0.0
 40
1.0
 50
288.7530834267
 51
0.0
  0
ARC
  5
250
  8
0
  6
CONTINUOUS
 62
     7
 10
129.8477500384
 20
226.0133284256
 30
0.0
 40
1.0
 50
0.0
 51
71.2469165733
  0
LINE
  5
251
  8
0
  6
CONTINUOUS
 62
     7
 10
128.9774088902
 20
167.1633280063
 30
0.0
 11
129.7046265346
 21
167.1633280063
 31
0.0
  0
LINE
  5
252
  8
0
  6
CONTINUOUS
 62
     7
 10
130.1692410154
 20
152.5883308792
 30
0.0
 11
128.9774088902
 21
152.5883308792
 31
0.0
  0
POLYLINE
  5
253
  8
0
  6
CONTINUOUS
 62
     7
 66
     1
 10
0.0
 20
0.0
 30
0.0
 70
   128
  0
VERTEX
  5
6A3
  8
0
  6
CONTINUOUS
 62
     7
 10
160.2798004416
 20
218.0883276457
 30
0.0
  0
VERTEX
  5
6A4
  8
0
  6
CONTINUOUS
 62
     7
 10
160.4569203002
 20
217.7815481269
 30
0.0
  0
VERTEX
  5
6A5
  8
0
  6
CONTINUOUS
 62
     7
 10
160.640799698
 20
217.4630600208
 30
0.0
  0
VERTEX
  5
6A6
  8
0
  6
CONTINUOUS
 62
     7
 10
160.835252401
 20
217.1262583876
 30
0.0
  0
VERTEX
  5
6A7
  8
0
  6
CONTINUOUS
 62
     7
 10
161.0370578957
 20
216.7767199868
 30
0.0
  0
VERTEX
  5
6A8
  8
0
  6
CONTINUOUS
 62
     7
 10
161.3146683914
 20
216.2958855921
 30
0.0
  0
VERTEX
  5
6A9
  8
0
  6
CONTINUOUS
 62
     7
 10
161.5959725124
 20
215.8086530113
 30
0.0
  0
VERTEX
  5
6AA
  8
0
  6
CONTINUOUS
 62
     7
 10
161.8067615447
 20
215.4435559356
 30
0.0
  0
VERTEX
  5
6AB
  8
0
  6
CONTINUOUS
 62
     7
 10
162.0118518141
 20
215.0883290166
 30
0.0
  0
SEQEND
  5
7A8
  8
0
  6
CONTINUOUS
 62
     7
  0
LINE
  5
254
  8
0
  6
CONTINUOUS
 62
     7
 10
156.8156995592
 20
218.0883276457
 30
0.0
 11
160.2798004416
 21
218.0883276457
 31
0.0
  0
POLYLINE
  5
255
  8
0
  6
CONTINUOUS
 62
     7
 66
     1
 10
0.0
 20
0.0
 30
0.0
 70
   128
  0
VERTEX
  5
6AC
  8
0
  6
CONTINUOUS
 62
     7
 10
155.0836486523
 20
215.0883290166
 30
0.0
  0
VERTEX
  5
6AD
  8
0
  6
CONTINUOUS
 62
     7
 10
155.2607680452
 20
215.3951085353
 30
0.0
  0
VERTEX
  5
6AE
  8
0
  6
CONTINUOUS
 62
     7
 10
155.4446474431
 20
215.7135966414
 30
0.0
  0
VERTEX
  5
6AF
  8
0
  6
CONTINUOUS
 62
     7
 10
155.6391001461
 20
216.0503982747
 30
0.0
  0
VERTEX
  5
6B0
  8
0
  6
CONTINUOUS
 62
     7
 10
155.8409056408
 20
216.3999366754
 30
0.0
  0
VERTEX
  5
6B1
  8
0
  6
CONTINUOUS
 62
     7
 10
156.1185156708
 20
216.8807710701
 30
0.0
  0
VERTEX
  5
6B2
  8
0
  6
CONTINUOUS
 62
     7
 10
156.3998193262
 20
217.3680036509
 30
0.0
  0
VERTEX
  5
6B3
  8
0
  6
CONTINUOUS
 62
     7
 10
156.6106083584
 20
217.7331007266
 30
0.0
  0
VERTEX
  5
6B4
  8
0
  6
CONTINUOUS
 62
     7
 10
156.8156995592
 20
218.0883276457
 30
0.0
  0
SEQEND
  5
7A9
  8
0
  6
CONTINUOUS
 62
     7
  0
POLYLINE
  5
256
  8
0
  6
CONTINUOUS
 62
     7
 66
     1
 10
0.0
 20
0.0
 30
0.0
 70
   128
  0
VERTEX
  5
6B5
  8
0
  6
CONTINUOUS
 62
     7
 10
156.8156995592
 20
212.0883285248
 30
0.0
  0
VERTEX
  5
6B6
  8
0
  6
CONTINUOUS
 62
     7
 10
156.6385797006
 20
212.3951080436
 30
0.0
  0
VERTEX
  5
6B7
  8
0
  6
CONTINUOUS
 62
     7
 10
156.4547003028
 20
212.7135980123
 30
0.0
  0
VERTEX
  5
6B8
  8
0
  6
CONTINUOUS
 62
     7
 10
156.2602475998
 20
213.0503996456
 30
0.0
  0
VERTEX
  5
6B9
  8
0
  6
CONTINUOUS
 62
     7
 10
156.0584416394
 20
213.3999361837
 30
0.0
  0
VERTEX
  5
6BA
  8
0
  6
CONTINUOUS
 62
     7
 10
155.7808320751
 20
213.8807705784
 30
0.0
  0
VERTEX
  5
6BB
  8
0
  6
CONTINUOUS
 62
     7
 10
155.4995279541
 20
214.3680031592
 30
0.0
  0
VERTEX
  5
6BC
  8
0
  6
CONTINUOUS
 62
     7
 10
155.2887389218
 20
214.7331002349
 30
0.0
  0
VERTEX
  5
6BD
  8
0
  6
CONTINUOUS
 62
     7
 10
155.0836486523
 20
215.0883290166
 30
0.0
  0
SEQEND
  5
7AA
  8
0
  6
CONTINUOUS
 62
     7
  0
LINE
  5
257
  8
0
  6
CONTINUOUS
 62
     7
 10
160.2798004416
 20
212.0883285248
 30
0.0
 11
156.8156995592
 21
212.0883285248
 31
0.0
  0
POLYLINE
  5
258
  8
0
  6
CONTINUOUS
 62
     7
 66
     1
 10
0.0
 20
0.0
 30
0.0
 70
   128
  0
VERTEX
  5
6BE
  8
0
  6
CONTINUOUS
 62
     7
 10
162.0118518141
 20
215.0883290166
 30
0.0
  0
VERTEX
  5
6BF
  8
0
  6
CONTINUOUS
 62
     7
 10
161.8347319556
 20
214.7815476352
 30
0.0
  0
VERTEX
  5
6C0
  8
0
  6
CONTINUOUS
 62
     7
 10
161.6508525578
 20
214.4630595291
 30
0.0
  0
VERTEX
  5
6C1
  8
0
  6
CONTINUOUS
 62
     7
 10
161.4563998548
 20
214.1262578958
 30
0.0
  0
VERTEX
  5
6C2
  8
0
  6
CONTINUOUS
 62
     7
 10
161.2545943601
 20
213.7767194951
 30
0.0
  0
VERTEX
  5
6C3
  8
0
  6
CONTINUOUS
 62
     7
 10
160.9769847957
 20
213.2958851004
 30
0.0
  0
VERTEX
  5
6C4
  8
0
  6
CONTINUOUS
 62
     7
 10
160.6956806747
 20
212.8086525196
 30
0.0
  0
VERTEX
  5
6C5
  8
0
  6
CONTINUOUS
 62
     7
 10
160.4848916424
 20
212.4435554439
 30
0.0
  0
VERTEX
  5
6C6
  8
0
  6
CONTINUOUS
 62
     7
 10
160.2798004416
 20
212.0883285248
 30
0.0
  0
SEQEND
  5
7AB
  8
0
  6
CONTINUOUS
 62
     7
  0
POLYLINE
  5
259
  8
0
  6
CONTINUOUS
 62
     7
 66
     1
 10
0.0
 20
0.0
 30
0.0
 70
   128
  0
VERTEX
  5
6C7
  8
0
  6
CONTINUOUS
 62
     7
 10
146.0836483413
 20
162.0883277798
 30
0.0
  0
VERTEX
  5
6C8
  8
0
  6
CONTINUOUS
 62
     7
 10
146.4446475977
 20
162.7135954046
 30
0.0
  0
VERTEX
  5
6C9
  8
0
  6
CONTINUOUS
 62
     7
 10
146.8409057954
 20
163.3999354386
 30
0.0
  0
VERTEX
  5
6CA
  8
0
  6
CONTINUOUS
 62
     7
 10
147.3998196554
 20
164.3680042768
 30
0.0
  0
VERTEX
  5
6CB
  8
0
  6
CONTINUOUS
 62
     7
 10
147.8156992481
 20
165.0883264089
 30
0.0
  0
SEQEND
  5
7AC
  8
0
  6
CONTINUOUS
 62
     7
  0
POLYLINE
  5
25A
  8
0
  6
CONTINUOUS
 62
     7
 66
     1
 10
0.0
 20
0.0
 30
0.0
 70
   128
  0
VERTEX
  5
6CC
  8
0
  6
CONTINUOUS
 62
     7
 10
147.8156992481
 20
159.0883291507
 30
0.0
  0
VERTEX
  5
6CD
  8
0
  6
CONTINUOUS
 62
     7
 10
147.4547001082
 20
159.7135967755
 30
0.0
  0
VERTEX
  5
6CE
  8
0
  6
CONTINUOUS
 62
     7
 10
147.058441794
 20
160.3999368095
 30
0.0
  0
VERTEX
  5
6CF
  8
0
  6
CONTINUOUS
 62
     7
 10
146.4995279923
 20
161.3680056477
 30
0.0
  0
VERTEX
  5
6D0
  8
0
  6
CONTINUOUS
 62
     7
 10
146.0836483413
 20
162.0883277798
 30
0.0
  0
SEQEND
  5
7AD
  8
0
  6
CONTINUOUS
 62
     7
  0
LINE
  5
25B
  8
0
  6
CONTINUOUS
 62
     7
 10
151.2798008291
 20
159.0883291507
 30
0.0
 11
147.8156992481
 21
159.0883291507
 31
0.0
  0
POLYLINE
  5
25C
  8
0
  6
CONTINUOUS
 62
     7
 66
     1
 10
0.0
 20
0.0
 30
0.0
 70
   128
  0
VERTEX
  5
6D1
  8
0
  6
CONTINUOUS
 62
     7
 10
153.0118517359
 20
162.0883277798
 30
0.0
  0
VERTEX
  5
6D2
  8
0
  6
CONTINUOUS
 62
     7
 10
152.6508524795
 20
161.4630601549
 30
0.0
  0
VERTEX
  5
6D3
  8
0
  6
CONTINUOUS
 62
     7
 10
152.2545942818
 20
160.7767201209
 30
0.0
  0
VERTEX
  5
6D4
  8
0
  6
CONTINUOUS
 62
     7
 10
151.6956803636
 20
159.8086512828
 30
0.0
  0
VERTEX
  5
6D5
  8
0
  6
CONTINUOUS
 62
     7
 10
151.2798008291
 20
159.0883291507
 30
0.0
  0
SEQEND
  5
7AE
  8
0
  6
CONTINUOUS
 62
     7
  0
POLYLINE
  5
25D
  8
0
  6
CONTINUOUS
 62
     7
 66
     1
 10
0.0
 20
0.0
 30
0.0
 70
   128
  0
VERTEX
  5
6D6
  8
0
  6
CONTINUOUS
 62
     7
 10
151.279800829
 20
165.0883264089
 30
0.0
  0
VERTEX
  5
6D7
  8
0
  6
CONTINUOUS
 62
     7
 10
151.6408000854
 20
164.463058784
 30
0.0
  0
VERTEX
  5
6D8
  8
0
  6
CONTINUOUS
 62
     7
 10
152.0370582831
 20
163.77671875
 30
0.0
  0
VERTEX
  5
6D9
  8
0
  6
CONTINUOUS
 62
     7
 10
152.5959719685
 20
162.8086499119
 30
0.0
  0
VERTEX
  5
6DA
  8
0
  6
CONTINUOUS
 62
     7
 10
153.0118517359
 20
162.0883277798
 30
0.0
  0
SEQEND
  5
7AF
  8
0
  6
CONTINUOUS
 62
     7
  0
LINE
  5
25E
  8
0
  6
CONTINUOUS
 62
     7
 10
147.8156992481
 20
165.0883264089
 30
0.0
 11
151.279800829
 21
165.0883264089
 31
0.0
  0
LINE
  5
25F
  8
0
  6
CONTINUOUS
 62
     7
 10
140.6783133527
 20
171.8496910477
 30
0.0
 11
141.1907274989
 21
171.8496910477
 31
0.0
  0
LINE
  5
260
  8
0
  6
CONTINUOUS
 62
     7
 10
140.6783133527
 20
172.2644983971
 30
0.0
 11
140.6783133527
 21
171.8496910477
 31
0.0
  0
LINE
  5
261
  8
0
  6
CONTINUOUS
 62
     7
 10
141.2562241559
 20
172.5894144917
 30
0.0
 11
141.0456074183
 21
172.5894144917
 31
0.0
  0
POLYLINE
  5
262
  8
0
  6
CONTINUOUS
 62
     7
 66
     1
 10
0.0
 20
0.0
 30
0.0
 70
   128
  0
VERTEX
  5
6DB
  8
0
  6
CONTINUOUS
 62
     7
 10
141.1907274989
 20
171.8496910477
 30
0.0
  0
VERTEX
  5
6DC
  8
0
  6
CONTINUOUS
 62
     7
 10
141.2896544454
 20
171.8608445668
 30
0.0
  0
VERTEX
  5
6DD
  8
0
  6
CONTINUOUS
 62
     7
 10
141.3632447613
 20
171.8873611832
 30
0.0
  0
SEQEND
  5
7B0
  8
0
  6
CONTINUOUS
 62
     7
  0
ARC
  5
263
  8
0
  6
CONTINUOUS
 62
     7
 10
141.1834709511
 20
172.212632499
 30
0.0
 40
0.3716450614723535
 50
298.9289368738
 51
1.2645533041
  0
ARC
  5
264
  8
0
  6
CONTINUOUS
 62
     7
 10
141.0287717697
 20
172.2400188749
 30
0.0
 40
0.3513123241181543
 50
116.8509606253
 51
176.0043793103
  0
POLYLINE
  5
265
  8
0
  6
CONTINUOUS
 62
     7
 66
     1
 10
0.0
 20
0.0
 30
0.0
 70
   128
  0
VERTEX
  5
6DE
  8
0
  6
CONTINUOUS
 62
     7
 10
141.0456074183
 20
172.5894144917
 30
0.0
  0
VERTEX
  5
6DF
  8
0
  6
CONTINUOUS
 62
     7
 10
140.9449784798
 20
172.5797101104
 30
0.0
  0
VERTEX
  5
6E0
  8
0
  6
CONTINUOUS
 62
     7
 10
140.8700940912
 20
172.5534542644
 30
0.0
  0
SEQEND
  5
7B1
  8
0
  6
CONTINUOUS
 62
     7
  0
ARC
  5
266
  8
0
  6
CONTINUOUS
 62
     7
 10
141.1959679057
 20
172.235159292
 30
0.0
 40
0.359343237286629
 50
357.7153295551
 51
80.3467884078
  0
LINE
  5
267
  8
0
  6
CONTINUOUS
 62
     7
 10
140.7154293512
 20
219.4545368844
 30
0.0
 11
140.4009883074
 21
219.5013041788
 31
0.0
  0
LINE
  5
268
  8
0
  6
CONTINUOUS
 62
     7
 10
140.4797157986
 20
219.2420379439
 30
0.0
 11
140.7154293512
 21
219.4545368844
 31
0.0
  0
LINE
  5
269
  8
0
  6
CONTINUOUS
 62
     7
 10
140.4009883074
 20
219.5013041788
 30
0.0
 11
140.4797157986
 21
219.2420379439
 31
0.0
  0
ARC
  5
26A
  8
0
  6
CONTINUOUS
 62
     7
 10
144.6853265307
 20
221.4193231934
 30
0.0
 40
0.3335922682361639
 50
185.9595545318
 51
224.3596915523
  0
ARC
  5
26B
  8
0
  6
CONTINUOUS
 62
     7
 10
144.590418771
 20
221.3593764022
 30
0.0
 40
0.2381184126032849
 50
286.9900700188
 51
0.0
  0
ARC
  5
26C
  8
0
  6
CONTINUOUS
 62
     7
 10
144.5981498398
 20
221.3340735319
 30
0.0
 40
0.2116608112030081
 50
224.3596915523
 51
286.9900700188
  0
LINE
  5
26D
  8
0
  6
CONTINUOUS
 62
     7
 10
144.3535371465
 20
221.6593760246
 30
0.0
 11
144.3535371465
 21
221.3846870878
 31
0.0
  0
LINE
  5
26E
  8
0
  6
CONTINUOUS
 62
     7
 10
144.8285372709
 20
221.6593760246
 30
0.0
 11
144.8285372709
 21
221.3593765342
 31
0.0
  0
LINE
  5
26F
  8
0
  6
CONTINUOUS
 62
     7
 10
144.3535371465
 20
221.6593760246
 30
0.0
 11
144.8285372709
 21
221.6593760246
 31
0.0
  0
ARC
  5
270
  8
0
  6
CONTINUOUS
 62
     7
 10
145.3381086089
 20
221.4076938459
 30
0.0
 40
0.2688772048000053
 50
195.1181138048
 51
224.3596915523
  0
LINE
  5
271
  8
0
  6
CONTINUOUS
 62
     7
 10
145.0785370791
 20
221.6593760246
 30
0.0
 11
145.0785370791
 21
221.3375677535
 31
0.0
  0
ARC
  5
272
  8
0
  6
CONTINUOUS
 62
     7
 10
145.2678437161
 20
221.3389821494
 30
0.0
 40
0.170599779134127
 50
224.3596915523
 51
286.9900700185
  0
LINE
  5
273
  8
0
  6
CONTINUOUS
 62
     7
 10
145.0785370791
 20
221.6593760246
 30
0.0
 11
145.4535371405
 21
221.6593760246
 31
0.0
  0
LINE
  5
274
  8
0
  6
CONTINUOUS
 62
     7
 10
145.4535371405
 20
221.6593760246
 30
0.0
 11
145.4535371405
 21
221.3593765342
 31
0.0
  0
ARC
  5
275
  8
0
  6
CONTINUOUS
 62
     7
 10
145.261612432
 20
221.3593764022
 30
0.0
 40
0.1919247515258081
 50
286.9900700185
 51
0.0
  0
POLYLINE
  5
276
  8
0
  6
CONTINUOUS
 62
     7
 66
     1
 10
0.0
 20
0.0
 30
0.0
 70
   128
  0
VERTEX
  5
6E1
  8
0
  6
CONTINUOUS
 62
     7
 10
151.279800829
 20
235.088328424
 30
0.0
  0
VERTEX
  5
6E2
  8
0
  6
CONTINUOUS
 62
     7
 10
151.6408000854
 20
234.4630595623
 30
0.0
  0
VERTEX
  5
6E3
  8
0
  6
CONTINUOUS
 62
     7
 10
152.0370582831
 20
233.776720154
 30
0.0
  0
VERTEX
  5
6E4
  8
0
  6
CONTINUOUS
 62
     7
 10
152.5959719685
 20
232.8086530039
 30
0.0
  0
VERTEX
  5
6E5
  8
0
  6
CONTINUOUS
 62
     7
 10
153.0118517359
 20
232.0883283106
 30
0.0
  0
SEQEND
  5
7B2
  8
0
  6
CONTINUOUS
 62
     7
  0
LINE
  5
277
  8
0
  6
CONTINUOUS
 62
     7
 10
147.8156992481
 20
235.088328424
 30
0.0
 11
151.279800829
 21
235.088328424
 31
0.0
  0
POLYLINE
  5
278
  8
0
  6
CONTINUOUS
 62
     7
 66
     1
 10
0.0
 20
0.0
 30
0.0
 70
   128
  0
VERTEX
  5
6E6
  8
0
  6
CONTINUOUS
 62
     7
 10
146.0836483413
 20
232.0883283106
 30
0.0
  0
VERTEX
  5
6E7
  8
0
  6
CONTINUOUS
 62
     7
 10
146.4446475977
 20
232.7135973325
 30
0.0
  0
VERTEX
  5
6E8
  8
0
  6
CONTINUOUS
 62
     7
 10
146.8409057954
 20
233.399936668
 30
0.0
  0
VERTEX
  5
6E9
  8
0
  6
CONTINUOUS
 62
     7
 10
147.1185155926
 20
233.8807709463
 30
0.0
  0
VERTEX
  5
6EA
  8
0
  6
CONTINUOUS
 62
     7
 10
147.3998196554
 20
234.3680038908
 30
0.0
  0
VERTEX
  5
6EB
  8
0
  6
CONTINUOUS
 62
     7
 10
147.8156992481
 20
235.088328424
 30
0.0
  0
SEQEND
  5
7B3
  8
0
  6
CONTINUOUS
 62
     7
  0
POLYLINE
  5
279
  8
0
  6
CONTINUOUS
 62
     7
 66
     1
 10
0.0
 20
0.0
 30
0.0
 70
   128
  0
VERTEX
  5
6EC
  8
0
  6
CONTINUOUS
 62
     7
 10
147.8156992481
 20
229.0883285174
 30
0.0
  0
VERTEX
  5
6ED
  8
0
  6
CONTINUOUS
 62
     7
 10
147.4547001082
 20
229.7135970736
 30
0.0
  0
VERTEX
  5
6EE
  8
0
  6
CONTINUOUS
 62
     7
 10
147.058441794
 20
230.3999366419
 30
0.0
  0
VERTEX
  5
6EF
  8
0
  6
CONTINUOUS
 62
     7
 10
146.4995279923
 20
231.3680038502
 30
0.0
  0
VERTEX
  5
6F0
  8
0
  6
CONTINUOUS
 62
     7
 10
146.0836483413
 20
232.0883283106
 30
0.0
  0
SEQEND
  5
7B4
  8
0
  6
CONTINUOUS
 62
     7
  0
LINE
  5
27A
  8
0
  6
CONTINUOUS
 62
     7
 10
151.279800829
 20
229.0883285174
 30
0.0
 11
147.8156992481
 21
229.0883285174
 31
0.0
  0
POLYLINE
  5
27B
  8
0
  6
CONTINUOUS
 62
     7
 66
     1
 10
0.0
 20
0.0
 30
0.0
 70
   128
  0
VERTEX
  5
6F1
  8
0
  6
CONTINUOUS
 62
     7
 10
153.0118517359
 20
232.0883283106
 30
0.0
  0
VERTEX
  5
6F2
  8
0
  6
CONTINUOUS
 62
     7
 10
152.6508524795
 20
231.4630595216
 30
0.0
  0
VERTEX
  5
6F3
  8
0
  6
CONTINUOUS
 62
     7
 10
152.2545942818
 20
230.7767201861
 30
0.0
  0
VERTEX
  5
6F4
  8
0
  6
CONTINUOUS
 62
     7
 10
151.9769844846
 20
230.2958860242
 30
0.0
  0
VERTEX
  5
6F5
  8
0
  6
CONTINUOUS
 62
     7
 10
151.6956803636
 20
229.8086529778
 30
0.0
  0
VERTEX
  5
6F6
  8
0
  6
CONTINUOUS
 62
     7
 10
151.279800829
 20
229.0883285174
 30
0.0
  0
SEQEND
  5
7B5
  8
0
  6
CONTINUOUS
 62
     7
  0
LINE
  5
27C
  8
0
  6
CONTINUOUS
 62
     7
 10
140.5221403358
 20
221.7346613476
 30
0.0
 11
140.7831900535
 21
221.6574379423
 31
0.0
  0
POLYLINE
  5
27D
  8
0
  6
CONTINUOUS
 62
     7
 66
     1
 10
0.0
 20
0.0
 30
0.0
 70
   128
  0
VERTEX
  5
6F7
  8
0
  6
CONTINUOUS
 62
     7
 10
140.4846518082
 20
221.6113346809
 30
0.0
  0
VERTEX
  5
6F8
  8
0
  6
CONTINUOUS
 62
     7
 10
140.4657468913
 20
221.4725564414
 30
0.0
  0
VERTEX
  5
6F9
  8
0
  6
CONTINUOUS
 62
     7
 10
140.4774806244
 20
221.4391778404
 30
0.0
  0
VERTEX
  5
6FA
  8
0
  6
CONTINUOUS
 62
     7
 10
140.4978728635
 20
221.4102844888
 30
0.0
  0
VERTEX
  5
6FB
  8
0
  6
CONTINUOUS
 62
     7
 10
140.5577429352
 20
221.3738483557
 30
0.0
  0
VERTEX
  5
6FC
  8
0
  6
CONTINUOUS
 62
     7
 10
140.5925520477
 20
221.3678888226
 30
0.0
  0
VERTEX
  5
6FD
  8
0
  6
CONTINUOUS
 62
     7
 10
140.6278272872
 20
221.3718935096
 30
0.0
  0
VERTEX
  5
6FE
  8
0
  6
CONTINUOUS
 62
     7
 10
140.6609567595
 20
221.3847839454
 30
0.0
  0
VERTEX
  5
6FF
  8
0
  6
CONTINUOUS
 62
     7
 10
140.6886612778
 20
221.4064763108
 30
0.0
  0
VERTEX
  5
700
  8
0
  6
CONTINUOUS
 62
     7
 10
140.7463371535
 20
221.534574143
 30
0.0
  0
SEQEND
  5
7B6
  8
0
  6
CONTINUOUS
 62
     7
  0
LINE
  5
27E
  8
0
  6
CONTINUOUS
 62
     7
 10
140.5221403358
 20
221.7346613476
 30
0.0
 11
140.4846518082
 21
221.6113346809
 31
0.0
  0
LINE
  5
27F
  8
0
  6
CONTINUOUS
 62
     7
 10
140.7831900535
 20
221.6574379423
 30
0.0
 11
140.7463371535
 21
221.534574143
 31
0.0
  0
LINE
  5
280
  8
0
  6
CONTINUOUS
 62
     7
 10
143.828537107
 20
220.8593764523
 30
0.0
 11
143.828537107
 21
220.3593763703
 31
0.0
  0
LINE
  5
281
  8
0
  6
CONTINUOUS
 62
     7
 10
142.5367233125
 20
220.0133546436
 30
0.0
 11
143.828537107
 21
220.3593763703
 31
0.0
  0
POLYLINE
  5
282
  8
0
  6
CONTINUOUS
 62
     7
 66
     1
 10
0.0
 20
0.0
 30
0.0
 70
   128
  0
VERTEX
  5
701
  8
0
  6
CONTINUOUS
 62
     7
 10
144.6035371875
 20
220.4049841681
 30
0.0
  0
VERTEX
  5
702
  8
0
  6
CONTINUOUS
 62
     7
 10
144.3579716389
 20
220.3571737924
 30
0.0
  0
VERTEX
  5
703
  8
0
  6
CONTINUOUS
 62
     7
 10
144.166026522
 20
220.197960473
 30
0.0
  0
VERTEX
  5
704
  8
0
  6
CONTINUOUS
 62
     7
 10
144.0678721075
 20
219.9682637298
 30
0.0
  0
VERTEX
  5
705
  8
0
  6
CONTINUOUS
 62
     7
 10
144.0439557438
 20
219.7185910487
 30
0.0
  0
VERTEX
  5
706
  8
0
  6
CONTINUOUS
 62
     7
 10
144.1464086776
 20
219.2319247121
 30
0.0
  0
VERTEX
  5
707
  8
0
  6
CONTINUOUS
 62
     7
 10
144.3116206457
 20
219.0451218927
 30
0.0
  0
VERTEX
  5
708
  8
0
  6
CONTINUOUS
 62
     7
 10
144.5468559643
 20
218.9654137188
 30
0.0
  0
VERTEX
  5
709
  8
0
  6
CONTINUOUS
 62
     7
 10
144.713367593
 20
218.9785639936
 30
0.0
  0
VERTEX
  5
70A
  8
0
  6
CONTINUOUS
 62
     7
 10
144.8622558047
 20
219.0541547904
 30
0.0
  0
VERTEX
  5
70B
  8
0
  6
CONTINUOUS
 62
     7
 10
144.9668167872
 20
219.1843192273
 30
0.0
  0
VERTEX
  5
70C
  8
0
  6
CONTINUOUS
 62
     7
 10
145.0280100354
 20
219.3401192495
 30
0.0
  0
SEQEND
  5
7B7
  8
0
  6
CONTINUOUS
 62
     7
  0
LINE
  5
283
  8
0
  6
CONTINUOUS
 62
     7
 10
144.6035371875
 20
220.4049841681
 30
0.0
 11
144.6018379894
 21
219.9825511494
 31
0.0
  0
ARC
  5
284
  8
0
  6
CONTINUOUS
 62
     7
 10
144.5181474817
 20
221.0615586316
 30
0.0
 40
0.3999999999995221
 50
224.3596915523
 51
286.9900700185
  0
CIRCLE
  5
285
  8
0
  6
CONTINUOUS
 62
     7
 10
144.0285371836
 20
220.6093764022
 30
0.0
 40
2.549999999999983
  0
POLYLINE
  5
286
  8
0
  6
CONTINUOUS
 62
     7
 66
     1
 10
0.0
 20
0.0
 30
0.0
 70
   128
  0
VERTEX
  5
70D
  8
0
  6
CONTINUOUS
 62
     7
 10
145.2909696629
 20
219.019764773
 30
0.0
  0
VERTEX
  5
70E
  8
0
  6
CONTINUOUS
 62
     7
 10
145.4090364525
 20
219.0232702711
 30
0.0
  0
VERTEX
  5
70F
  8
0
  6
CONTINUOUS
 62
     7
 10
145.520472691
 20
219.0622880304
 30
0.0
  0
VERTEX
  5
710
  8
0
  6
CONTINUOUS
 62
     7
 10
145.6165125375
 20
219.1310075292
 30
0.0
  0
VERTEX
  5
711
  8
0
  6
CONTINUOUS
 62
     7
 10
145.6898667631
 20
219.2235074186
 30
0.0
  0
VERTEX
  5
712
  8
0
  6
CONTINUOUS
 62
     7
 10
145.7641148256
 20
219.4470937544
 30
0.0
  0
VERTEX
  5
713
  8
0
  6
CONTINUOUS
 62
     7
 10
145.7853368731
 20
219.6824473509
 30
0.0
  0
VERTEX
  5
714
  8
0
  6
CONTINUOUS
 62
     7
 10
145.6800257103
 20
220.1399111369
 30
0.0
  0
VERTEX
  5
715
  8
0
  6
CONTINUOUS
 62
     7
 10
145.5160521684
 20
220.3084600338
 30
0.0
  0
VERTEX
  5
716
  8
0
  6
CONTINUOUS
 62
     7
 10
145.4090967556
 20
220.3588175768
 30
0.0
  0
VERTEX
  5
717
  8
0
  6
CONTINUOUS
 62
     7
 10
145.2920136755
 20
220.3757564718
 30
0.0
  0
VERTEX
  5
718
  8
0
  6
CONTINUOUS
 62
     7
 10
145.1367889778
 20
220.3500929469
 30
0.0
  0
VERTEX
  5
719
  8
0
  6
CONTINUOUS
 62
     7
 10
145.0046946076
 20
220.2639977628
 30
0.0
  0
VERTEX
  5
71A
  8
0
  6
CONTINUOUS
 62
     7
 10
144.8488186826
 20
219.9925004685
 30
0.0
  0
SEQEND
  5
7B8
  8
0
  6
CONTINUOUS
 62
     7
  0
LINE
  5
287
  8
0
  6
CONTINUOUS
 62
     7
 10
144.728192153
 20
219.5584072912
 30
0.0
 11
144.8488186826
 21
219.9925004685
 31
0.0
  0
LINE
  5
288
  8
0
  6
CONTINUOUS
 62
     7
 10
142.5367233125
 20
221.205398179
 30
0.0
 11
143.828537107
 21
220.8593764523
 31
0.0
  0
ARC
  5
289
  8
0
  6
CONTINUOUS
 62
     7
 10
142.5444854479
 20
221.2343764031
 30
0.0
 40
0.0300000000000769
 50
104.9950790897
 51
255.0049208314
  0
ARC
  5
28A
  8
0
  6
CONTINUOUS
 62
     7
 10
145.3535371836
 20
221.1093764022
 30
0.0
 40
0.4000000000001762
 50
189.2742999592
 51
0.0
  0
ARC
  5
28B
  8
0
  6
CONTINUOUS
 62
     7
 10
144.682895392
 20
221.2226648109
 30
0.0
 40
0.6304280255574358
 50
183.3383824581
 51
224.3596915523
  0
ARC
  5
28C
  8
0
  6
CONTINUOUS
 62
     7
 10
142.5444854479
 20
219.9843764031
 30
0.0
 40
0.0300000000000421
 50
104.9950790897
 51
255.0049208314
  0
ARC
  5
28D
  8
0
  6
CONTINUOUS
 62
     7
 10
143.4125889192
 20
220.6093764012
 30
0.0
 40
0.0299999999999966
 50
284.9950790898
 51
75.0049208314
  0
LINE
  5
28E
  8
0
  6
CONTINUOUS
 62
     7
 10
142.1285372009
 20
220.234376117
 30
0.0
 11
143.4203509954
 21
220.5803978437
 31
0.0
  0
LINE
  5
28F
  8
0
  6
CONTINUOUS
 62
     7
 10
142.1285372009
 20
220.234376117
 30
0.0
 11
142.1285372009
 21
219.734376035
 31
0.0
  0
LINE
  5
290
  8
0
  6
CONTINUOUS
 62
     7
 10
142.1285372009
 20
219.734376035
 30
0.0
 11
143.828537107
 21
219.2093764612
 31
0.0
  0
LINE
  5
291
  8
0
  6
CONTINUOUS
 62
     7
 10
143.828537107
 20
219.609376713
 30
0.0
 11
143.828537107
 21
219.2093764612
 31
0.0
  0
LINE
  5
292
  8
0
  6
CONTINUOUS
 62
     7
 10
143.828537107
 20
219.609376713
 30
0.0
 11
142.5367233125
 21
219.9553975085
 31
0.0
  0
LINE
  5
293
  8
0
  6
CONTINUOUS
 62
     7
 10
145.2908502208
 20
219.4463831553
 30
0.0
 11
145.2909696629
 21
219.019764773
 31
0.0
  0
ARC
  5
294
  8
0
  6
CONTINUOUS
 62
     7
 10
144.5035371836
 20
221.1093764022
 30
0.0
 40
0.4499999999995197
 50
286.9900700185
 51
351.7524019439
  0
ARC
  5
295
  8
0
  6
CONTINUOUS
 62
     7
 10
144.9538313012
 20
221.0441061363
 30
0.0
 40
0.0049999999998353
 50
9.2742999617
 51
171.7524019439
  0
LINE
  5
296
  8
0
  6
CONTINUOUS
 62
     7
 10
145.7535370966
 20
222.1093761915
 30
0.0
 11
145.7535370966
 21
221.1093760276
 31
0.0
  0
LINE
  5
297
  8
0
  6
CONTINUOUS
 62
     7
 10
144.0535371905
 20
222.1093761915
 30
0.0
 11
145.7535370966
 21
222.1093761915
 31
0.0
  0
LINE
  5
298
  8
0
  6
CONTINUOUS
 62
     7
 10
144.0535371905
 20
222.1093761915
 30
0.0
 11
144.0535371905
 21
221.185953095
 31
0.0
  0
POLYLINE
  5
299
  8
0
  6
CONTINUOUS
 62
     7
 66
     1
 10
0.0
 20
0.0
 30
0.0
 70
   128
  0
VERTEX
  5
71B
  8
0
  6
CONTINUOUS
 62
     7
 10
145.1426968226
 20
219.7541489446
 30
0.0
  0
VERTEX
  5
71C
  8
0
  6
CONTINUOUS
 62
     7
 10
145.1919572675
 20
219.8695882404
 30
0.0
  0
VERTEX
  5
71D
  8
0
  6
CONTINUOUS
 62
     7
 10
145.2378698406
 20
219.9127513164
 30
0.0
  0
VERTEX
  5
71E
  8
0
  6
CONTINUOUS
 62
     7
 10
145.2973913649
 20
219.9328138673
 30
0.0
  0
VERTEX
  5
71F
  8
0
  6
CONTINUOUS
 62
     7
 10
145.3913634424
 20
219.9243704969
 30
0.0
  0
VERTEX
  5
720
  8
0
  6
CONTINUOUS
 62
     7
 10
145.4325614279
 20
219.9018343532
 30
0.0
  0
VERTEX
  5
721
  8
0
  6
CONTINUOUS
 62
     7
 10
145.4654783258
 20
219.8678261781
 30
0.0
  0
VERTEX
  5
722
  8
0
  6
CONTINUOUS
 62
     7
 10
145.5048758318
 20
219.7825431073
 30
0.0
  0
VERTEX
  5
723
  8
0
  6
CONTINUOUS
 62
     7
 10
145.5188121428
 20
219.6894415835
 30
0.0
  0
VERTEX
  5
724
  8
0
  6
CONTINUOUS
 62
     7
 10
145.5054073842
 20
219.5962385455
 30
0.0
  0
VERTEX
  5
725
  8
0
  6
CONTINUOUS
 62
     7
 10
145.4630564214
 20
219.5128563041
 30
0.0
  0
VERTEX
  5
726
  8
0
  6
CONTINUOUS
 62
     7
 10
145.3836993562
 20
219.4626431161
 30
0.0
  0
VERTEX
  5
727
  8
0
  6
CONTINUOUS
 62
     7
 10
145.2908502208
 20
219.4463831553
 30
0.0
  0
SEQEND
  5
7B9
  8
0
  6
CONTINUOUS
 62
     7
  0
POLYLINE
  5
29A
  8
0
  6
CONTINUOUS
 62
     7
 66
     1
 10
0.0
 20
0.0
 30
0.0
 70
   128
  0
VERTEX
  5
728
  8
0
  6
CONTINUOUS
 62
     7
 10
144.728192153
 20
219.5584072912
 30
0.0
  0
VERTEX
  5
729
  8
0
  6
CONTINUOUS
 62
     7
 10
144.7007709896
 20
219.4948324183
 30
0.0
  0
VERTEX
  5
72A
  8
0
  6
CONTINUOUS
 62
     7
 10
144.6543939193
 20
219.4411686802
 30
0.0
  0
VERTEX
  5
72B
  8
0
  6
CONTINUOUS
 62
     7
 10
144.5929031135
 20
219.4098427141
 30
0.0
  0
VERTEX
  5
72C
  8
0
  6
CONTINUOUS
 62
     7
 10
144.5232110811
 20
219.4062589848
 30
0.0
  0
VERTEX
  5
72D
  8
0
  6
CONTINUOUS
 62
     7
 10
144.4272559849
 20
219.4448967645
 30
0.0
  0
VERTEX
  5
72E
  8
0
  6
CONTINUOUS
 62
     7
 10
144.3602445317
 20
219.5249644289
 30
0.0
  0
VERTEX
  5
72F
  8
0
  6
CONTINUOUS
 62
     7
 10
144.3273618599
 20
219.6234806621
 30
0.0
  0
VERTEX
  5
730
  8
0
  6
CONTINUOUS
 62
     7
 10
144.3260649932
 20
219.7275364021
 30
0.0
  0
VERTEX
  5
731
  8
0
  6
CONTINUOUS
 62
     7
 10
144.3511431818
 20
219.828849397
 30
0.0
  0
VERTEX
  5
732
  8
0
  6
CONTINUOUS
 62
     7
 10
144.4089112585
 20
219.916162751
 30
0.0
  0
VERTEX
  5
733
  8
0
  6
CONTINUOUS
 62
     7
 10
144.4986653761
 20
219.968215301
 30
0.0
  0
VERTEX
  5
734
  8
0
  6
CONTINUOUS
 62
     7
 10
144.6018379894
 20
219.9825511494
 30
0.0
  0
SEQEND
  5
7BA
  8
0
  6
CONTINUOUS
 62
     7
  0
LINE
  5
29B
  8
0
  6
CONTINUOUS
 62
     7
 10
145.0280100354
 20
219.3401192495
 30
0.0
 11
145.1426968226
 21
219.7541489446
 31
0.0
  0
LINE
  5
29C
  8
0
  6
CONTINUOUS
 62
     7
 10
143.4203509954
 20
220.6383549789
 30
0.0
 11
142.1285372009
 21
220.9843767056
 31
0.0
  0
LINE
  5
29D
  8
0
  6
CONTINUOUS
 62
     7
 10
142.1285372009
 20
220.9843767056
 30
0.0
 11
142.1285372009
 21
221.4843767876
 31
0.0
  0
LINE
  5
29E
  8
0
  6
CONTINUOUS
 62
     7
 10
143.828537107
 20
221.6093761096
 30
0.0
 11
142.5367233125
 21
221.2633543828
 31
0.0
  0
LINE
  5
29F
  8
0
  6
CONTINUOUS
 62
     7
 10
143.828537107
 20
222.0093763614
 30
0.0
 11
143.828537107
 21
221.6093761096
 31
0.0
  0
LINE
  5
2A0
  8
0
  6
CONTINUOUS
 62
     7
 10
142.1285372009
 20
221.4843767876
 30
0.0
 11
143.828537107
 21
222.0093763614
 31
0.0
  0
POLYLINE
  5
2A1
  8
0
  6
CONTINUOUS
 62
     7
 66
     1
 10
0.0
 20
0.0
 30
0.0
 70
   128
  0
VERTEX
  5
735
  8
0
  6
CONTINUOUS
 62
     7
 10
155.0836486523
 20
179.0883287037
 30
0.0
  0
VERTEX
  5
736
  8
0
  6
CONTINUOUS
 62
     7
 10
155.4446474431
 20
179.7135963285
 30
0.0
  0
VERTEX
  5
737
  8
0
  6
CONTINUOUS
 62
     7
 10
155.8409056408
 20
180.3999363625
 30
0.0
  0
VERTEX
  5
738
  8
0
  6
CONTINUOUS
 62
     7
 10
156.1185156708
 20
180.8807707572
 30
0.0
  0
VERTEX
  5
739
  8
0
  6
CONTINUOUS
 62
     7
 10
156.3998193262
 20
181.3680052006
 30
0.0
  0
VERTEX
  5
73A
  8
0
  6
CONTINUOUS
 62
     7
 10
156.6106083584
 20
181.7331022763
 30
0.0
  0
VERTEX
  5
73B
  8
0
  6
CONTINUOUS
 62
     7
 10
156.8156995592
 20
182.0883273327
 30
0.0
  0
SEQEND
  5
7BB
  8
0
  6
CONTINUOUS
 62
     7
  0
POLYLINE
  5
2A2
  8
0
  6
CONTINUOUS
 62
     7
 66
     1
 10
0.0
 20
0.0
 30
0.0
 70
   128
  0
VERTEX
  5
73C
  8
0
  6
CONTINUOUS
 62
     7
 10
156.8156995592
 20
176.0883300746
 30
0.0
  0
VERTEX
  5
73D
  8
0
  6
CONTINUOUS
 62
     7
 10
156.4547003028
 20
176.7135976994
 30
0.0
  0
VERTEX
  5
73E
  8
0
  6
CONTINUOUS
 62
     7
 10
156.0584416395
 20
177.3999377334
 30
0.0
  0
VERTEX
  5
73F
  8
0
  6
CONTINUOUS
 62
     7
 10
155.7808320751
 20
177.8807721281
 30
0.0
  0
VERTEX
  5
740
  8
0
  6
CONTINUOUS
 62
     7
 10
155.4995279541
 20
178.3680028463
 30
0.0
  0
VERTEX
  5
741
  8
0
  6
CONTINUOUS
 62
     7
 10
155.2887389218
 20
178.733099922
 30
0.0
  0
VERTEX
  5
742
  8
0
  6
CONTINUOUS
 62
     7
 10
155.0836486523
 20
179.0883287037
 30
0.0
  0
SEQEND
  5
7BC
  8
0
  6
CONTINUOUS
 62
     7
  0
LINE
  5
2A3
  8
0
  6
CONTINUOUS
 62
     7
 10
160.2798004416
 20
176.0883300746
 30
0.0
 11
156.8156995592
 21
176.0883300746
 31
0.0
  0
POLYLINE
  5
2A4
  8
0
  6
CONTINUOUS
 62
     7
 66
     1
 10
0.0
 20
0.0
 30
0.0
 70
   128
  0
VERTEX
  5
743
  8
0
  6
CONTINUOUS
 62
     7
 10
162.0118518141
 20
179.0883287037
 30
0.0
  0
VERTEX
  5
744
  8
0
  6
CONTINUOUS
 62
     7
 10
161.6508525578
 20
178.4630610788
 30
0.0
  0
VERTEX
  5
745
  8
0
  6
CONTINUOUS
 62
     7
 10
161.2545943601
 20
177.7767210448
 30
0.0
  0
VERTEX
  5
746
  8
0
  6
CONTINUOUS
 62
     7
 10
160.9769847957
 20
177.2958866501
 30
0.0
  0
VERTEX
  5
747
  8
0
  6
CONTINUOUS
 62
     7
 10
160.6956806747
 20
176.8086522067
 30
0.0
  0
VERTEX
  5
748
  8
0
  6
CONTINUOUS
 62
     7
 10
160.4848916424
 20
176.443555131
 30
0.0
  0
VERTEX
  5
749
  8
0
  6
CONTINUOUS
 62
     7
 10
160.2798004416
 20
176.0883300746
 30
0.0
  0
SEQEND
  5
7BD
  8
0
  6
CONTINUOUS
 62
     7
  0
POLYLINE
  5
2A5
  8
0
  6
CONTINUOUS
 62
     7
 66
     1
 10
0.0
 20
0.0
 30
0.0
 70
   128
  0
VERTEX
  5
74A
  8
0
  6
CONTINUOUS
 62
     7
 10
160.2798004416
 20
182.0883273327
 30
0.0
  0
VERTEX
  5
74B
  8
0
  6
CONTINUOUS
 62
     7
 10
160.640799698
 20
181.4630597079
 30
0.0
  0
VERTEX
  5
74C
  8
0
  6
CONTINUOUS
 62
     7
 10
161.0370578957
 20
180.7767196739
 30
0.0
  0
VERTEX
  5
74D
  8
0
  6
CONTINUOUS
 62
     7
 10
161.3146683914
 20
180.2958852792
 30
0.0
  0
VERTEX
  5
74E
  8
0
  6
CONTINUOUS
 62
     7
 10
161.5959725124
 20
179.8086545611
 30
0.0
  0
VERTEX
  5
74F
  8
0
  6
CONTINUOUS
 62
     7
 10
161.8067615447
 20
179.4435574854
 30
0.0
  0
VERTEX
  5
750
  8
0
  6
CONTINUOUS
 62
     7
 10
162.0118518141
 20
179.0883287037
 30
0.0
  0
SEQEND
  5
7BE
  8
0
  6
CONTINUOUS
 62
     7
  0
LINE
  5
2A6
  8
0
  6
CONTINUOUS
 62
     7
 10
156.8156995592
 20
182.0883273327
 30
0.0
 11
160.2798004416
 21
182.0883273327
 31
0.0
  0
DIMENSION
  5
2A7
  8
0
  6
CONTINUOUS
 62
     7
  2
_D
 10
52.6625541033
 20
152.5883284256
 30
0.0
 11
52.6625541033
 21
197.0883284256
 31
0.0
 70
   160
  1
<>
  3
SLDDIMSTYLE0
 13
88.5477500384
 23
241.5883284256
 33
0.0
 14
88.5477500384
 24
152.5883284256
 34
0.0
 50
90.0
  0
DIMENSION
  5
2B2
  8
0
  6
CONTINUOUS
 62
     7
  2
_D_1
 10
58.5084565354
 20
162.0883284256
 30
0.0
 11
58.5084565354
 21
197.0883284256
 31
0.0
 70
   160
  1
<>
  3
SLDDIMSTYLE0
 13
89.2977500384
 23
232.0883284256
 33
0.0
 14
89.2977500384
 24
162.0883284256
 34
0.0
 50
90.0
  0
DIMENSION
  5
2BC
  8
0
  6
CONTINUOUS
 62
     7
  2
_D_2
 10
66.5563286859
 20
179.0883284256
 30
0.0
 11
66.5563286859
 21
197.0883284256
 31
0.0
 70
   160
  1
<>
  3
SLDDIMSTYLE0
 13
80.2977500384
 23
215.0883284256
 33
0.0
 14
80.2977500384
 24
179.0883284256
 34
0.0
 50
90.0
  0
DIMENSION
  5
2C6
  8
0
  6
CONTINUOUS
 62
     7
  2
_D_3
 10
96.5477500384
 20
154.4813774539
 30
0.0
 11
87.5477500384
 21
154.4813774539
 31
0.0
 70
   160
  1
<>
  3
SLDDIMSTYLE1
 13
78.5477500384
 23
162.5883284256
 33
0.0
 14
96.5477500384
 24
154.8383284256
 34
0.0
 50
0.0
  0
DIMENSION
  5
2D1
  8
0
  6
CONTINUOUS
 62
     7
  2
_D_4
 10
78.5477500384
 20
168.0782637851
 30
0.0
 11
83.0477500384
 21
168.0782637851
 31
0.0
 70
   160
  1
<>
  3
SLDDIMSTYLE1
 13
87.5477500384
 23
171.8383284256
 33
0.0
 14
78.5477500384
 24
162.5883284256
 34
0.0
 50
0.0
  0
DIMENSION
  5
2DC
  8
0
  6
CONTINUOUS
 62
     7
  2
_D_5
 10
78.5477500384
 20
187.5139276762
 30
0.0
 11
84.5477500384
 21
187.5139276762
 31
0.0
 70
   160
  1
<>
  3
SLDDIMSTYLE1
 13
90.5477500384
 23
188.4883284256
 33
0.0
 14
78.5477500384
 24
162.5883284256
 34
0.0
 50
0.0
  0
DIMENSION
  5
2E7
  8
0
  6
CONTINUOUS
 62
     7
  2
_D_6
 10
154.4341293704
 20
212.7133284256
 30
0.0
 11
179.4784919642
 21
227.1727021373
 31
0.0
 70
   163
  1
<>x90°
  3
SLDDIMSTYLE2
 15
162.6613707063
 25
217.4633284256
 35
0.0
 40
0.0
  0
DIMENSION
  5
2F5
  8
0
  6
CONTINUOUS
 62
     7
  2
_D_7
 10
150.2649950753
 20
194.0383284256
 30
0.0
 11
177.077220258
 21
209.5183780789
 31
0.0
 70
   163
  1
<>
  3
SLDDIMSTYLE2
 15
160.8305050015
 25
200.1383284256
 35
0.0
 40
0.0
  0
DIMENSION
  5
2FE
  8
0
  6
CONTINUOUS
 62
     7
  2
_D_8
 10
177.077210258
 20
176.0883284256
 30
0.0
 11
177.077210258
 21
179.0883284256
 31
0.0
 70
   160
  1
<>
  3
SLDDIMSTYLE1
 13
160.2798008459
 23
182.0883284256
 33
0.0
 14
160.2798008459
 24
176.0883284256
 34
0.0
 50
90.0
  0
DIMENSION
  5
30A
  8
0
  6
CONTINUOUS
 62
     7
  2
_D_9
 10
167.5477500384
 20
251.9778753309
 30
0.0
 11
123.0477500384
 21
251.9778753309
 31
0.0
 70
   160
  1
<>
  3
SLDDIMSTYLE0
 13
78.5477500384
 23
231.5883284256
 33
0.0
 14
167.5477500384
 24
231.5883284256
 34
0.0
 50
0.0
  0
INSERT
  5
31F
  8
0
  6
CONTINUOUS
 62
     7
  2
SW_CENTERMARKSYMBOL_0
 10
96.5477500384
 20
232.0883284256
 30
0.0
  0
INSERT
  5
32B
  8
0
  6
CONTINUOUS
 62
     7
  2
SW_CENTERMARKSYMBOL_1
 10
87.5477500384
 20
215.0883284256
 30
0.0
  0
INSERT
  5
337
  8
0
  6
CONTINUOUS
 62
     7
  2
SW_CENTERMARKSYMBOL_2
 10
87.5477500384
 20
179.0883284256
 30
0.0
  0
INSERT
  5
343
  8
0
  6
CONTINUOUS
 62
     7
  2
SW_CENTERMARKSYMBOL_3
 10
96.5477500384
 20
162.0883284256
 30
0.0
  0
INSERT
  5
34F
  8
0
  6
CONTINUOUS
 62
     7
  2
SW_CENTERMARKSYMBOL_4
 10
149.5477500384
 20
162.0883284256
 30
0.0
  0
INSERT
  5
35B
  8
0
  6
CONTINUOUS
 62
     7
  2
SW_CENTERMARKSYMBOL_5
 10
158.5477500384
 20
179.0883284256
 30
0.0
  0
INSERT
  5
367
  8
0
  6
CONTINUOUS
 62
     7
  2
SW_CENTERMARKSYMBOL_6
 10
158.5477500384
 20
215.0883284256
 30
0.0
  0
INSERT
  5
373
  8
0
  6
CONTINUOUS
 62
     7
  2
SW_CENTERMARKSYMBOL_7
 10
149.5477500384
 20
232.0883284256
 30
0.0
  0
INSERT
  5
37F
  8
0
  6
CONTINUOUS
 62
     7
  2
SW_CENTERMARKSYMBOL_8
 10
155.5477500384
 20
197.0883284256
 30
0.0
  0
INSERT
  5
38B
  8
0
  6
CONTINUOUS
 62
     7
  2
SW_CENTERMARKSYMBOL_9
 10
90.5477500384
 20
197.0883284256
 30
0.0
  0
LINE
  5
38C
  8
0
  6
CENTERX2
 62
     7
 10
123.0477500384
 20
149.4255144898
 30
0.0
 11
123.0477500384
 21
246.2438651283
 31
0.0
  0
ARC
  5
38D
  8
0
  6
CONTINUOUS
 62
     7
 10
87.0477500384
 20
82.236876368
 30
0.0
 40
4.625000000000007
 50
235.7945420619
 51
270.0
  0
ARC
  5
38E
  8
0
  6
CONTINUOUS
 62
     7
 10
94.0477500384
 20
82.236876368
 30
0.0
 40
4.625000000000007
 50
270.0
 51
304.2054579381
  0
LINE
  5
38F
  8
0
  6
CONTINUOUS
 62
     7
 10
141.0928901998
 20
78.4118764155
 30
0.0
 11
141.0928901998
 21
78.3993763203
 31
0.0
  0
LINE
  5
390
  8
0
  6
CONTINUOUS
 62
     7
 10
141.7867478696
 20
78.3993763203
 30
0.0
 11
141.7867478696
 21
78.4118764155
 31
0.0
  0
LINE
  5
391
  8
0
  6
CONTINUOUS
 62
     7
 10
140.4630199788
 20
78.4118764155
 30
0.0
 11
140.4630199788
 21
78.3993763203
 31
0.0
  0
LINE
  5
392
  8
0
  6
CONTINUOUS
 62
     7
 10
144.3233925631
 20
78.4118764155
 30
0.0
 11
144.3233925631
 21
78.3993763203
 31
0.0
  0
LINE
  5
393
  8
0
  6
CONTINUOUS
 62
     7
 10
145.518814704
 20
78.3993763203
 30
0.0
 11
145.518814704
 21
78.4118764155
 31
0.0
  0
ARC
  5
394
  8
0
  6
CONTINUOUS
 62
     7
 10
152.0477500384
 20
82.236876368
 30
0.0
 40
4.624999999999988
 50
235.7945420619
 51
270.0
  0
ARC
  5
395
  8
0
  6
CONTINUOUS
 62
     7
 10
159.0477500384
 20
82.236876368
 30
0.0
 40
4.625000000000004
 50
270.0
 51
304.2054579381
  0
CIRCLE
  5
396
  8
0
  6
CONTINUOUS
 62
     7
 10
123.0477500384
 20
77.411876368
 30
0.0
 40
6.000000000000011
  0
LINE
  5
397
  8
0
  6
CONTINUOUS
 62
     7
 10
115.2477490497
 20
80.9118764761
 30
0.0
 11
115.2477490497
 21
78.4118764155
 31
0.0
  0
LINE
  5
398
  8
0
  6
CONTINUOUS
 62
     7
 10
115.2477490497
 20
78.4118764155
 30
0.0
 11
114.2477507485
 21
78.4118764155
 31
0.0
  0
LINE
  5
399
  8
0
  6
CONTINUOUS
 62
     7
 10
114.2477507485
 20
78.4118764155
 30
0.0
 11
114.2477507485
 21
80.9118764761
 31
0.0
  0
LINE
  5
39A
  8
0
  6
CONTINUOUS
 62
     7
 10
114.2477507485
 20
80.9118764761
 30
0.0
 11
115.2477490497
 21
80.9118764761
 31
0.0
  0
LINE
  5
39B
  8
0
  6
CONTINUOUS
 62
     7
 10
88.547751565
 20
80.9118764761
 30
0.0
 11
88.547751565
 21
78.4118764155
 31
0.0
  0
LINE
  5
39C
  8
0
  6
CONTINUOUS
 62
     7
 10
114.2477507485
 20
78.4118764155
 30
0.0
 11
88.547751565
 21
78.4118764155
 31
0.0
  0
LINE
  5
39D
  8
0
  6
CONTINUOUS
 62
     7
 10
114.2477507485
 20
80.9118764761
 30
0.0
 11
88.547751565
 21
80.9118764761
 31
0.0
  0
LINE
  5
39E
  8
0
  6
CONTINUOUS
 62
     7
 10
78.5477499259
 20
78.4118764155
 30
0.0
 11
78.5477499259
 21
80.9118764761
 31
0.0
  0
LINE
  5
39F
  8
0
  6
CONTINUOUS
 62
     7
 10
88.547751565
 20
78.4118764155
 30
0.0
 11
78.5477499259
 21
78.4118764155
 31
0.0
  0
LINE
  5
3A0
  8
0
  6
CONTINUOUS
 62
     7
 10
78.5477499259
 20
80.9118764761
 30
0.0
 11
88.547751565
 21
80.9118764761
 31
0.0
  0
LINE
  5
3A1
  8
0
  6
CONTINUOUS
 62
     7
 10
115.9262585235
 20
80.9118764761
 30
0.0
 11
115.9262585235
 21
78.4118764155
 31
0.0
  0
LINE
  5
3A2
  8
0
  6
CONTINUOUS
 62
     7
 10
115.9262585235
 20
78.4118764155
 30
0.0
 11
115.2477490497
 21
78.4118764155
 31
0.0
  0
LINE
  5
3A3
  8
0
  6
CONTINUOUS
 62
     7
 10
115.2477490497
 20
80.9118764761
 30
0.0
 11
115.9262585235
 21
80.9118764761
 31
0.0
  0
POLYLINE
  5
3A4
  8
0
  6
CONTINUOUS
 62
     7
 66
     1
 10
0.0
 20
0.0
 30
0.0
 70
   128
  0
VERTEX
  5
751
  8
0
  6
CONTINUOUS
 62
     7
 10
115.9262585235
 20
80.9118764761
 30
0.0
  0
VERTEX
  5
752
  8
0
  6
CONTINUOUS
 62
     7
 10
115.9614699674
 20
80.9131176962
 30
0.0
  0
VERTEX
  5
753
  8
0
  6
CONTINUOUS
 62
     7
 10
116.003696133
 20
80.917909118
 30
0.0
  0
SEQEND
  5
7BF
  8
0
  6
CONTINUOUS
 62
     7
  0
LINE
  5
3A5
  8
0
  6
CONTINUOUS
 62
     7
 10
116.3908730043
 20
78.4480723838
 30
0.0
 11
116.003696133
 21
80.917909118
 31
0.0
  0
LINE
  5
3A6
  8
0
  6
CONTINUOUS
 62
     7
 10
115.9262585235
 20
78.4118764155
 30
0.0
 11
116.3908730043
 21
78.4480723838
 31
0.0
  0
LINE
  5
3A7
  8
0
  6
CONTINUOUS
 62
     7
 10
117.1180906487
 20
78.6587802746
 30
0.0
 11
116.1248984528
 21
80.953026964
 31
0.0
  0
ARC
  5
3A8
  8
0
  6
CONTINUOUS
 62
     7
 10
115.9262596136
 20
81.411876368
 30
0.0
 40
0.5000000000000078
 50
278.9093322824
 51
293.4080683702
  0
ARC
  5
3A9
  8
0
  6
CONTINUOUS
 62
     7
 10
115.9262596136
 20
81.411876368
 30
0.0
 40
3.000000000000004
 50
278.9093322824
 51
293.4080683702
  0
LINE
  5
3AA
  8
0
  6
CONTINUOUS
 62
     7
 10
116.1248984528
 20
80.953026964
 30
0.0
 11
120.6640864504
 21
82.918068702
 31
0.0
  0
LINE
  5
3AB
  8
0
  6
CONTINUOUS
 62
     7
 10
117.1180906487
 20
78.6587802746
 30
0.0
 11
117.1849707854
 21
78.6877325323
 31
0.0
  0
LINE
  5
3AC
  8
0
  6
CONTINUOUS
 62
     7
 10
87.0477485252
 20
77.611876363
 30
0.0
 11
94.0477515352
 21
77.611876363
 31
0.0
  0
ARC
  5
3AD
  8
0
  6
CONTINUOUS
 62
     7
 10
123.0479676791
 20
77.4118769278
 30
0.0
 40
5.999782985624103
 50
355.2852376675
 51
6.592165871
  0
LINE
  5
3AE
  8
0
  6
CONTINUOUS
 62
     7
 10
167.547749613
 20
80.9118764761
 30
0.0
 11
167.547749613
 21
78.4118764155
 31
0.0
  0
LINE
  5
3AF
  8
0
  6
CONTINUOUS
 62
     7
 10
157.5477498365
 20
78.4118764155
 30
0.0
 11
157.5477498365
 21
80.9118764761
 31
0.0
  0
LINE
  5
3B0
  8
0
  6
CONTINUOUS
 62
     7
 10
167.547749613
 20
78.4118764155
 30
0.0
 11
157.5477498365
 21
78.4118764155
 31
0.0
  0
LINE
  5
3B1
  8
0
  6
CONTINUOUS
 62
     7
 10
157.5477498365
 20
80.9118764761
 30
0.0
 11
167.547749613
 21
80.9118764761
 31
0.0
  0
LINE
  5
3B2
  8
0
  6
CONTINUOUS
 62
     7
 10
130.1692410154
 20
80.9118764761
 30
0.0
 11
130.1692410154
 21
78.4118764155
 31
0.0
  0
LINE
  5
3B3
  8
0
  6
CONTINUOUS
 62
     7
 10
130.1692410154
 20
78.4118764155
 30
0.0
 11
157.5477498365
 21
78.4118764155
 31
0.0
  0
LINE
  5
3B4
  8
0
  6
CONTINUOUS
 62
     7
 10
130.1692410154
 20
80.9118764761
 30
0.0
 11
157.5477498365
 21
80.9118764761
 31
0.0
  0
LINE
  5
3B5
  8
0
  6
CONTINUOUS
 62
     7
 10
128.9774088902
 20
78.6587802746
 30
0.0
 11
129.9706010861
 21
80.953026964
 31
0.0
  0
LINE
  5
3B6
  8
0
  6
CONTINUOUS
 62
     7
 10
128.9105306161
 20
78.6877325323
 30
0.0
 11
128.9774088902
 21
78.6587802746
 31
0.0
  0
LINE
  5
3B7
  8
0
  6
CONTINUOUS
 62
     7
 10
125.4314130885
 20
82.918068702
 30
0.0
 11
129.9706010861
 21
80.953026964
 31
0.0
  0
ARC
  5
3B8
  8
0
  6
CONTINUOUS
 62
     7
 10
130.1692404632
 20
81.411876368
 30
0.0
 40
3.000000000000009
 50
246.5919316298
 51
270.0
  0
ARC
  5
3B9
  8
0
  6
CONTINUOUS
 62
     7
 10
130.1692404632
 20
81.411876368
 30
0.0
 40
0.5000000000000078
 50
246.5919316298
 51
270.0
  0
LINE
  5
3BA
  8
0
  6
CONTINUOUS
 62
     7
 10
155.5477499743
 20
77.611876363
 30
0.0
 11
159.0477500824
 21
77.611876363
 31
0.0
  0
LINE
  5
3BB
  8
0
  6
CONTINUOUS
 62
     7
 10
152.0477500991
 20
77.611876363
 30
0.0
 11
155.5477499743
 21
77.611876363
 31
0.0
  0
DIMENSION
  5
3BC
  8
0
  6
CONTINUOUS
 62
     7
  2
_D_10
 10
70.4119272336
 20
80.911876368
 30
0.0
 11
70.4119272336
 21
86.7700738536
 31
0.0
 70
   160
  1
<>
  3
SLDDIMSTYLE1
 13
87.0477500384
 23
77.611876368
 33
0.0
 14
78.5477500384
 24
80.911876368
 34
0.0
 50
90.0
  0
DIMENSION
  5
3C8
  8
0
  6
CONTINUOUS
 62
     7
  2
_D_11
 10
174.118316408
 20
78.411876368
 30
0.0
 11
174.118316408
 21
70.5355216939
 31
0.0
 70
   160
  1
<>
  3
SLDDIMSTYLE1
 13
131.5477500384
 23
77.411876368
 33
0.0
 14
167.5477500384
 24
78.411876368
 34
0.0
 50
90.0
  0
DIMENSION
  5
3D4
  8
0
  6
CONTINUOUS
 62
     7
  2
_D_12
 10
179.5557500616
 20
78.411876368
 30
0.0
 11
179.5557500616
 21
70.5355216939
 31
0.0
 70
   160
  1
<>
  3
SLDDIMSTYLE1
 13
167.5477500384
 23
80.911876368
 33
0.0
 14
167.5477500384
 24
78.411876368
 34
0.0
 50
90.0
  0
DIMENSION
  5
3E0
  8
0
  6
CONTINUOUS
 62
     7
  2
_D_13
 10
129.0477500384
 20
63.497150049
 30
0.0
 11
123.0477500384
 21
63.497150049
 31
0.0
 70
   160
  1
%%c<>
  3
SLDDIMSTYLE1
 13
117.0477500384
 23
77.411876368
 33
0.0
 14
129.0477500384
 24
77.411876368
 34
0.0
  0
DIMENSION
  5
3ED
  8
0
  6
CONTINUOUS
 62
     7
  2
_D_14
 10
123.0477500384
 20
94.2731498395
 30
0.0
 11
100.7977500384
 21
94.2731498395
 31
0.0
 70
   160
  1
<>
  3
SLDDIMSTYLE0
 13
78.5477500384
 23
80.911876368
 33
0.0
 14
123.0477500384
 24
85.911876368
 34
0.0
  0
DIMENSION
  5
3F7
  8
0
  6
CONTINUOUS
 62
     7
  2
_D_15
 10
167.5477500384
 20
94.2731498395
 30
0.0
 11
145.2977500384
 21
94.2731498395
 31
0.0
 70
   160
  1
<>
  3
SLDDIMSTYLE0
 13
123.0477500384
 23
85.911876368
 33
0.0
 14
167.5477500384
 24
80.911876368
 34
0.0
  0
INSERT
  5
40D
  8
0
  6
CONTINUOUS
 62
     7
  2
SW_NOTE_0_3
 10
90.2655105556
 20
77.6479186719
 30
0.0
  0
INSERT
  5
419
  8
0
  6
CONTINUOUS
 62
     7
  2
SW_CENTERMARKSYMBOL_10
 10
123.0477500384
 20
77.411876368
 30
0.0
  0
LINE
  5
41A
  8
0
  6
CONTINUOUS
 62
     7
 10
275.9152605384
 20
198.2114387344
 30
0.0
 11
281.7908871173
 21
204.0870651387
 31
0.0
  0
LINE
  5
41B
  8
0
  6
CONTINUOUS
 62
     7
 10
283.4368954598
 20
201.2429452285
 30
0.0
 11
285.3380712866
 21
203.1441205896
 31
0.0
  0
LINE
  5
41C
  8
0
  6
CONTINUOUS
 62
     7
 10
276.9346806407
 20
194.7407311078
 30
0.0
 11
278.7616077065
 21
196.5676578244
 31
0.0
  0
LINE
  5
41D
  8
0
  6
CONTINUOUS
 62
     7
 10
286.5704774111
 20
199.88639916
 30
0.0
 11
288.4716532379
 21
201.7875747539
 31
0.0
  0
LINE
  5
41E
  8
0
  6
CONTINUOUS
 62
     7
 10
279.3485346436
 20
192.664455694
 30
0.0
 11
281.3227131217
 21
194.6386353362
 31
0.0
  0
LINE
  5
41F
  8
0
  6
CONTINUOUS
 62
     7
 10
290.2625343948
 20
199.0883284731
 30
0.0
 11
292.7625348046
 21
201.5883285336
 31
0.0
  0
LINE
  5
420
  8
0
  6
CONTINUOUS
 62
     7
 10
283.4670051187
 20
192.292798382
 30
0.0
 11
287.7095277607
 21
196.5353216061
 31
0.0
  0
LINE
  5
421
  8
0
  6
CONTINUOUS
 62
     7
 10
294.7526631131
 20
199.0883284731
 30
0.0
 11
297.2526635229
 21
201.5883285336
 31
0.0
  0
LINE
  5
422
  8
0
  6
CONTINUOUS
 62
     7
 10
299.2427909001
 20
199.0883284731
 30
0.0
 11
301.7427913099
 21
201.5883285336
 31
0.0
  0
LINE
  5
423
  8
0
  6
CONTINUOUS
 62
     7
 10
303.7329191528
 20
199.0883284731
 30
0.0
 11
306.2329192133
 21
201.5883285336
 31
0.0
  0
LINE
  5
424
  8
0
  6
CONTINUOUS
 62
     7
 10
308.223047289
 20
199.0883284731
 30
0.0
 11
309.6230473555
 21
200.4883285396
 31
0.0
  0
LINE
  5
425
  8
0
  6
CONTINUOUS
 62
     7
 10
311.9131751544
 20
198.2883284205
 30
0.0
 11
314.1131751425
 21
200.4883285396
 31
0.0
  0
LINE
  5
426
  8
0
  6
CONTINUOUS
 62
     7
 10
319.413998276
 20
201.2990229547
 30
0.0
 11
319.7033033892
 21
201.5883285336
 31
0.0
  0
LINE
  5
427
  8
0
  6
CONTINUOUS
 62
     7
 10
316.4033034071
 20
198.2883284205
 30
0.0
 11
318.6033033952
 21
200.4883285396
 31
0.0
  0
LINE
  5
428
  8
0
  6
CONTINUOUS
 62
     7
 10
321.6934316977
 20
199.0883284731
 30
0.0
 11
324.1934321075
 21
201.5883285336
 31
0.0
  0
LINE
  5
429
  8
0
  6
CONTINUOUS
 62
     7
 10
326.1835585534
 20
199.0883284731
 30
0.0
 11
326.4139975607
 21
199.3187668983
 31
0.0
  0
LINE
  5
42A
  8
0
  6
CONTINUOUS
 62
     7
 10
290.2526623755
 20
194.5883283176
 30
0.0
 11
292.7526627853
 21
197.0883283781
 31
0.0
  0
LINE
  5
42B
  8
0
  6
CONTINUOUS
 62
     7
 10
294.7427910938
 20
194.5883283176
 30
0.0
 11
297.2427915036
 21
197.0883283781
 31
0.0
  0
LINE
  5
42C
  8
0
  6
CONTINUOUS
 62
     7
 10
299.2329188808
 20
194.5883283176
 30
0.0
 11
301.7329192906
 21
197.0883283781
 31
0.0
  0
LINE
  5
42D
  8
0
  6
CONTINUOUS
 62
     7
 10
303.7230471335
 20
194.5883283176
 30
0.0
 11
306.223047194
 21
197.0883283781
 31
0.0
  0
LINE
  5
42E
  8
0
  6
CONTINUOUS
 62
     7
 10
308.2131752697
 20
194.5883283176
 30
0.0
 11
311.5131753683
 21
197.8883284306
 31
0.0
  0
LINE
  5
42F
  8
0
  6
CONTINUOUS
 62
     7
 10
313.8033031672
 20
195.6883283116
 30
0.0
 11
316.0033031553
 21
197.8883284306
 31
0.0
  0
LINE
  5
430
  8
0
  6
CONTINUOUS
 62
     7
 10
318.2934318855
 20
195.6883283116
 30
0.0
 11
319.9975351989
 21
197.3924321489
 31
0.0
  0
LINE
  5
431
  8
0
  6
CONTINUOUS
 62
     7
 10
321.6835596785
 20
194.5883283176
 30
0.0
 11
324.1835600882
 21
197.0883283781
 31
0.0
  0
LINE
  5
432
  8
0
  6
CONTINUOUS
 62
     7
 10
326.1736883968
 20
194.5883283176
 30
0.0
 11
326.4139975607
 21
194.8286388785
 31
0.0
  0
LINE
  5
433
  8
0
  6
CONTINUOUS
 62
     7
 10
278.8554421812
 20
196.6614919499
 30
0.0
 11
283.3408351242
 21
201.1468839616
 31
0.0
  0
LINE
  5
434
  8
0
  6
CONTINUOUS
 62
     7
 10
281.4320019632
 20
194.7479234792
 30
0.0
 11
285.2544031292
 21
198.5703243833
 31
0.0
  0
LINE
  5
435
  8
0
  6
CONTINUOUS
 62
     7
 10
291.3480467349
 20
157.0883272931
 30
0.0
 11
291.3480467349
 21
183.6734712041
 31
0.0
  0
LINE
  5
436
  8
0
  6
CONTINUOUS
 62
     7
 10
294.523047395
 20
157.0883272931
 30
0.0
 11
294.523047395
 21
183.6734712041
 31
0.0
  0
LINE
  5
437
  8
0
  6
CONTINUOUS
 62
     7
 10
297.6980471238
 20
157.0883272931
 30
0.0
 11
297.6980471238
 21
183.6734712041
 31
0.0
  0
LINE
  5
438
  8
0
  6
CONTINUOUS
 62
     7
 10
300.8730473183
 20
157.0883272931
 30
0.0
 11
300.8730473183
 21
183.6734712041
 31
0.0
  0
LINE
  5
439
  8
0
  6
CONTINUOUS
 62
     7
 10
304.0480472799
 20
157.0883272931
 30
0.0
 11
304.0480472799
 21
183.6734712041
 31
0.0
  0
LINE
  5
43A
  8
0
  6
CONTINUOUS
 62
     7
 10
307.2230472415
 20
157.0883272931
 30
0.0
 11
307.2230472415
 21
183.6734712041
 31
0.0
  0
LINE
  5
43B
  8
0
  6
CONTINUOUS
 62
     7
 10
310.3980472032
 20
157.0883272931
 30
0.0
 11
310.3980472032
 21
183.6734712041
 31
0.0
  0
LINE
  5
43C
  8
0
  6
CONTINUOUS
 62
     7
 10
313.5730471648
 20
157.0883272931
 30
0.0
 11
313.5730471648
 21
183.6734712041
 31
0.0
  0
LINE
  5
43D
  8
0
  6
CONTINUOUS
 62
     7
 10
316.7480473592
 20
157.0883272931
 30
0.0
 11
316.7480473592
 21
183.6734712041
 31
0.0
  0
LINE
  5
43E
  8
0
  6
CONTINUOUS
 62
     7
 10
319.923047088
 20
157.0883272931
 30
0.0
 11
319.923047088
 21
183.6734712041
 31
0.0
  0
LINE
  5
43F
  8
0
  6
CONTINUOUS
 62
     7
 10
323.0980477482
 20
157.0883272931
 30
0.0
 11
323.0980477482
 21
182.9234712041
 31
0.0
  0
LINE
  5
440
  8
0
  6
CONTINUOUS
 62
     7
 10
326.273047477
 20
157.0883272931
 30
0.0
 11
326.273047477
 21
182.9234712041
 31
0.0
  0
LINE
  5
441
  8
0
  6
CONTINUOUS
 62
     7
 10
329.4480472058
 20
157.0883272931
 30
0.0
 11
329.4480472058
 21
197.0883283781
 31
0.0
  0
LINE
  5
442
  8
0
  6
CONTINUOUS
 62
     7
 10
332.6230469346
 20
157.0883272931
 30
0.0
 11
332.6230469346
 21
197.0883283781
 31
0.0
  0
LINE
  5
443
  8
0
  6
CONTINUOUS
 62
     7
 10
333.9139978587
 20
161.2792788789
 30
0.0
 11
331.0355480015
 21
158.4008290216
 31
0.0
  0
LINE
  5
444
  8
0
  6
CONTINUOUS
 62
     7
 10
333.9139978587
 20
173.9792796567
 30
0.0
 11
331.0355480015
 21
171.1008279368
 31
0.0
  0
LINE
  5
445
  8
0
  6
CONTINUOUS
 62
     7
 10
327.86054641
 20
167.925828208
 30
0.0
 11
324.6855466812
 21
164.7508284792
 31
0.0
  0
LINE
  5
446
  8
0
  6
CONTINUOUS
 62
     7
 10
321.5105469524
 20
161.5758268878
 30
0.0
 11
318.3355472236
 21
158.4008290216
 31
0.0
  0
LINE
  5
447
  8
0
  6
CONTINUOUS
 62
     7
 10
333.9139978587
 20
186.6792795032
 30
0.0
 11
331.0355480015
 21
183.8008287147
 31
0.0
  0
LINE
  5
448
  8
0
  6
CONTINUOUS
 62
     7
 10
327.86054641
 20
180.6258289859
 30
0.0
 11
324.6855466812
 21
177.4508292571
 31
0.0
  0
LINE
  5
449
  8
0
  6
CONTINUOUS
 62
     7
 10
321.5105469524
 20
174.2758276656
 30
0.0
 11
318.3355472236
 21
171.1008279368
 31
0.0
  0
LINE
  5
44A
  8
0
  6
CONTINUOUS
 62
     7
 10
315.1605474948
 20
167.925828208
 30
0.0
 11
311.9855473004
 21
164.7508284792
 31
0.0
  0
LINE
  5
44B
  8
0
  6
CONTINUOUS
 62
     7
 10
308.8105471059
 20
161.5758268878
 30
0.0
 11
305.6355471443
 21
158.4008290216
 31
0.0
  0
LINE
  5
44C
  8
0
  6
CONTINUOUS
 62
     7
 10
331.6230467706
 20
197.0883283781
 30
0.0
 11
331.0355480015
 21
196.5008284448
 31
0.0
  0
LINE
  5
44D
  8
0
  6
CONTINUOUS
 62
     7
 10
327.86054641
 20
193.3258283667
 30
0.0
 11
324.6855466812
 21
190.1508281723
 31
0.0
  0
LINE
  5
44E
  8
0
  6
CONTINUOUS
 62
     7
 10
321.5105469524
 20
186.9758284435
 30
0.0
 11
319.208189713
 21
184.6734712041
 31
0.0
  0
LINE
  5
44F
  8
0
  6
CONTINUOUS
 62
     7
 10
315.1605474948
 20
180.6258289859
 30
0.0
 11
311.9855473004
 21
177.4508292571
 31
0.0
  0
LINE
  5
450
  8
0
  6
CONTINUOUS
 62
     7
 10
308.8105472223
 20
174.2758276656
 30
0.0
 11
305.6355471443
 21
171.1008279368
 31
0.0
  0
LINE
  5
451
  8
0
  6
CONTINUOUS
 62
     7
 10
302.4605471827
 20
167.925828208
 30
0.0
 11
299.2855469882
 21
164.7508284792
 31
0.0
  0
LINE
  5
452
  8
0
  6
CONTINUOUS
 62
     7
 10
296.1105472594
 20
161.5758268878
 30
0.0
 11
292.9355475306
 21
158.4008290216
 31
0.0
  0
LINE
  5
453
  8
0
  6
CONTINUOUS
 62
     7
 10
315.1605474948
 20
193.3258283667
 30
0.0
 11
311.9855473004
 21
190.1508281723
 31
0.0
  0
LINE
  5
454
  8
0
  6
CONTINUOUS
 62
     7
 10
308.8105472223
 20
186.9758284435
 30
0.0
 11
308.5737205043
 21
186.7390017514
 31
0.0
  0
LINE
  5
455
  8
0
  6
CONTINUOUS
 62
     7
 10
302.4605471827
 20
180.6258289859
 30
0.0
 11
299.2855469882
 21
177.4508292571
 31
0.0
  0
LINE
  5
456
  8
0
  6
CONTINUOUS
 62
     7
 10
296.1105472594
 20
174.2758276656
 30
0.0
 11
292.9355475306
 21
171.1008279368
 31
0.0
  0
LINE
  5
457
  8
0
  6
CONTINUOUS
 62
     7
 10
302.4605471827
 20
193.3258283667
 30
0.0
 11
299.2855469882
 21
190.1508281723
 31
0.0
  0
LINE
  5
458
  8
0
  6
CONTINUOUS
 62
     7
 10
296.1105472594
 20
186.9758284435
 30
0.0
 11
293.80819002
 21
184.6734712041
 31
0.0
  0
LINE
  5
459
  8
0
  6
CONTINUOUS
 62
     7
 10
333.9139978587
 20
162.0730302081
 30
0.0
 11
331.0355480015
 21
159.1945766255
 31
0.0
  0
LINE
  5
45A
  8
0
  6
CONTINUOUS
 62
     7
 10
333.9139978587
 20
174.7730291233
 30
0.0
 11
331.0355480015
 21
171.894579266
 31
0.0
  0
LINE
  5
45B
  8
0
  6
CONTINUOUS
 62
     7
 10
327.86054641
 20
168.7195776746
 30
0.0
 11
324.6855466812
 21
165.5445798084
 31
0.0
  0
LINE
  5
45C
  8
0
  6
CONTINUOUS
 62
     7
 10
321.5105469524
 20
162.369578217
 30
0.0
 11
318.3355472236
 21
159.1945766255
 31
0.0
  0
LINE
  5
45D
  8
0
  6
CONTINUOUS
 62
     7
 10
333.9139978587
 20
187.4730289698
 30
0.0
 11
331.0355480015
 21
184.5945781812
 31
0.0
  0
LINE
  5
45E
  8
0
  6
CONTINUOUS
 62
     7
 10
327.86054641
 20
181.4195784524
 30
0.0
 11
324.6855466812
 21
178.2445787236
 31
0.0
  0
LINE
  5
45F
  8
0
  6
CONTINUOUS
 62
     7
 10
321.5105469524
 20
175.0695789948
 30
0.0
 11
318.3355472236
 21
171.894579266
 31
0.0
  0
LINE
  5
460
  8
0
  6
CONTINUOUS
 62
     7
 10
315.1605474948
 20
168.7195776746
 30
0.0
 11
311.9855473004
 21
165.5445798084
 31
0.0
  0
LINE
  5
461
  8
0
  6
CONTINUOUS
 62
     7
 10
308.8105471059
 20
162.369578217
 30
0.0
 11
305.6355471443
 21
159.1945766255
 31
0.0
  0
LINE
  5
462
  8
0
  6
CONTINUOUS
 62
     7
 10
327.86054641
 20
194.1195782989
 30
0.0
 11
324.6855466812
 21
190.9445785701
 31
0.0
  0
LINE
  5
463
  8
0
  6
CONTINUOUS
 62
     7
 10
321.5105469524
 20
187.7695788413
 30
0.0
 11
318.4144402234
 21
184.6734712041
 31
0.0
  0
LINE
  5
464
  8
0
  6
CONTINUOUS
 62
     7
 10
315.1605474948
 20
181.4195784524
 30
0.0
 11
311.9855473004
 21
178.2445787236
 31
0.0
  0
LINE
  5
465
  8
0
  6
CONTINUOUS
 62
     7
 10
308.8105472223
 20
175.0695789948
 30
0.0
 11
305.6355471443
 21
171.894579266
 31
0.0
  0
LINE
  5
466
  8
0
  6
CONTINUOUS
 62
     7
 10
302.4605471827
 20
168.7195776746
 30
0.0
 11
299.2855469882
 21
165.5445798084
 31
0.0
  0
LINE
  5
467
  8
0
  6
CONTINUOUS
 62
     7
 10
296.1105472594
 20
162.369578217
 30
0.0
 11
292.9355475306
 21
159.1945766255
 31
0.0
  0
LINE
  5
468
  8
0
  6
CONTINUOUS
 62
     7
 10
315.1605474948
 20
194.1195782989
 30
0.0
 11
311.9855473004
 21
190.9445785701
 31
0.0
  0
LINE
  5
469
  8
0
  6
CONTINUOUS
 62
     7
 10
308.8105472223
 20
187.7695788413
 30
0.0
 11
308.5737205043
 21
187.5327520798
 31
0.0
  0
LINE
  5
46A
  8
0
  6
CONTINUOUS
 62
     7
 10
302.4605471827
 20
181.4195784524
 30
0.0
 11
299.2855469882
 21
178.2445787236
 31
0.0
  0
LINE
  5
46B
  8
0
  6
CONTINUOUS
 62
     7
 10
296.1105472594
 20
175.0695789948
 30
0.0
 11
292.9355475306
 21
171.894579266
 31
0.0
  0
LINE
  5
46C
  8
0
  6
CONTINUOUS
 62
     7
 10
302.4605471827
 20
194.1195782989
 30
0.0
 11
299.2855469882
 21
190.9445785701
 31
0.0
  0
LINE
  5
46D
  8
0
  6
CONTINUOUS
 62
     7
 10
296.1105472594
 20
187.76957791
 30
0.0
 11
293.0144405535
 21
184.6734712041
 31
0.0
  0
LINE
  5
46E
  8
0
  6
CONTINUOUS
 62
     7
 10
333.9139978587
 20
162.8667778119
 30
0.0
 11
331.0355480015
 21
159.9883279547
 31
0.0
  0
LINE
  5
46F
  8
0
  6
CONTINUOUS
 62
     7
 10
333.9139978587
 20
175.5667785898
 30
0.0
 11
331.0355480015
 21
172.6883287326
 31
0.0
  0
LINE
  5
470
  8
0
  6
CONTINUOUS
 62
     7
 10
327.86054641
 20
169.5133290038
 30
0.0
 11
324.6855466812
 21
166.3383274123
 31
0.0
  0
LINE
  5
471
  8
0
  6
CONTINUOUS
 62
     7
 10
321.5105469524
 20
163.1633295462
 30
0.0
 11
318.3355472236
 21
159.9883279547
 31
0.0
  0
LINE
  5
472
  8
0
  6
CONTINUOUS
 62
     7
 10
333.9139978587
 20
188.2667793676
 30
0.0
 11
331.0355480015
 21
185.3883285791
 31
0.0
  0
LINE
  5
473
  8
0
  6
CONTINUOUS
 62
     7
 10
327.86054641
 20
182.213327919
 30
0.0
 11
324.6855466812
 21
179.0383281902
 31
0.0
  0
LINE
  5
474
  8
0
  6
CONTINUOUS
 62
     7
 10
321.5105469524
 20
175.8633284614
 30
0.0
 11
318.3355472236
 21
172.6883287326
 31
0.0
  0
LINE
  5
475
  8
0
  6
CONTINUOUS
 62
     7
 10
315.1605474948
 20
169.5133290038
 30
0.0
 11
311.9855473004
 21
166.3383274123
 31
0.0
  0
LINE
  5
476
  8
0
  6
CONTINUOUS
 62
     7
 10
308.8105471059
 20
163.1633295462
 30
0.0
 11
305.6355471443
 21
159.9883279547
 31
0.0
  0
LINE
  5
477
  8
0
  6
CONTINUOUS
 62
     7
 10
327.86054641
 20
194.913328464
 30
0.0
 11
324.6855466812
 21
191.7383285023
 31
0.0
  0
LINE
  5
478
  8
0
  6
CONTINUOUS
 62
     7
 10
321.5105469524
 20
188.5633283079
 30
0.0
 11
318.3355472236
 21
185.3883285791
 31
0.0
  0
LINE
  5
479
  8
0
  6
CONTINUOUS
 62
     7
 10
315.1605474948
 20
182.213327919
 30
0.0
 11
311.9855473004
 21
179.0383281902
 31
0.0
  0
LINE
  5
47A
  8
0
  6
CONTINUOUS
 62
     7
 10
308.8105472223
 20
175.8633284614
 30
0.0
 11
305.6355471443
 21
172.6883287326
 31
0.0
  0
LINE
  5
47B
  8
0
  6
CONTINUOUS
 62
     7
 10
302.4605471827
 20
169.5133290038
 30
0.0
 11
299.2855469882
 21
166.3383274123
 31
0.0
  0
LINE
  5
47C
  8
0
  6
CONTINUOUS
 62
     7
 10
296.1105472594
 20
163.1633295462
 30
0.0
 11
292.9355475306
 21
159.9883279547
 31
0.0
  0
LINE
  5
47D
  8
0
  6
CONTINUOUS
 62
     7
 10
314.8355471156
 20
194.5883283176
 30
0.0
 11
311.9855473004
 21
191.7383285023
 31
0.0
  0
LINE
  5
47E
  8
0
  6
CONTINUOUS
 62
     7
 10
308.8105472223
 20
188.5633283079
 30
0.0
 11
308.3649417559
 21
188.1177228904
 31
0.0
  0
LINE
  5
47F
  8
0
  6
CONTINUOUS
 62
     7
 10
302.4605471827
 20
182.213327919
 30
0.0
 11
299.2855469882
 21
179.0383281902
 31
0.0
  0
LINE
  5
480
  8
0
  6
CONTINUOUS
 62
     7
 10
296.1105472594
 20
175.8633284614
 30
0.0
 11
292.9355475306
 21
172.6883287326
 31
0.0
  0
LINE
  5
481
  8
0
  6
CONTINUOUS
 62
     7
 10
302.1355472691
 20
194.5883283176
 30
0.0
 11
299.2855469882
 21
191.7383285023
 31
0.0
  0
LINE
  5
482
  8
0
  6
CONTINUOUS
 62
     7
 10
296.1105472594
 20
188.5633283079
 30
0.0
 11
292.9355475306
 21
185.3883285791
 31
0.0
  0
LINE
  5
483
  8
0
  6
CONTINUOUS
 62
     7
 10
291.3480467349
 20
201.5883285336
 30
0.0
 11
291.3480467349
 21
211.6154985552
 31
0.0
  0
LINE
  5
484
  8
0
  6
CONTINUOUS
 62
     7
 10
294.523047395
 20
201.5883285336
 30
0.0
 11
294.523047395
 21
212.3654985552
 31
0.0
  0
LINE
  5
485
  8
0
  6
CONTINUOUS
 62
     7
 10
297.6980471238
 20
201.5883285336
 30
0.0
 11
297.6980471238
 21
212.3654985552
 31
0.0
  0
LINE
  5
486
  8
0
  6
CONTINUOUS
 62
     7
 10
300.8730473183
 20
201.5883285336
 30
0.0
 11
300.8730473183
 21
212.3654985552
 31
0.0
  0
LINE
  5
487
  8
0
  6
CONTINUOUS
 62
     7
 10
304.0480472799
 20
201.5883285336
 30
0.0
 11
304.0480472799
 21
212.3654985552
 31
0.0
  0
LINE
  5
488
  8
0
  6
CONTINUOUS
 62
     7
 10
307.2230472415
 20
201.5883285336
 30
0.0
 11
307.2230472415
 21
212.3654985552
 31
0.0
  0
LINE
  5
489
  8
0
  6
CONTINUOUS
 62
     7
 10
310.3980472032
 20
201.5883285336
 30
0.0
 11
310.3980472032
 21
212.3654985552
 31
0.0
  0
LINE
  5
48A
  8
0
  6
CONTINUOUS
 62
     7
 10
313.5730471648
 20
201.5883285336
 30
0.0
 11
313.5730471648
 21
212.3654985552
 31
0.0
  0
LINE
  5
48B
  8
0
  6
CONTINUOUS
 62
     7
 10
316.7480473592
 20
201.5883285336
 30
0.0
 11
316.7480473592
 21
212.3654985552
 31
0.0
  0
LINE
  5
48C
  8
0
  6
CONTINUOUS
 62
     7
 10
319.923047088
 20
201.5883285336
 30
0.0
 11
319.923047088
 21
212.3654985552
 31
0.0
  0
LINE
  5
48D
  8
0
  6
CONTINUOUS
 62
     7
 10
323.0980477482
 20
201.5883285336
 30
0.0
 11
323.0980477482
 21
211.6154985552
 31
0.0
  0
LINE
  5
48E
  8
0
  6
CONTINUOUS
 62
     7
 10
326.273047477
 20
201.5883285336
 30
0.0
 11
326.273047477
 21
211.6154985552
 31
0.0
  0
LINE
  5
48F
  8
0
  6
CONTINUOUS
 62
     7
 10
329.4480472058
 20
199.0883284731
 30
0.0
 11
329.4480472058
 21
239.0883295581
 31
0.0
  0
LINE
  5
490
  8
0
  6
CONTINUOUS
 62
     7
 10
332.6230469346
 20
199.0883284731
 30
0.0
 11
332.6230469346
 21
239.0883295581
 31
0.0
  0
LINE
  5
491
  8
0
  6
CONTINUOUS
 62
     7
 10
333.9139978587
 20
199.3792792333
 30
0.0
 11
333.6230470985
 21
199.0883284731
 31
0.0
  0
LINE
  5
492
  8
0
  6
CONTINUOUS
 62
     7
 10
333.9139978587
 20
212.0792791963
 30
0.0
 11
331.0355480015
 21
209.2008284077
 31
0.0
  0
LINE
  5
493
  8
0
  6
CONTINUOUS
 62
     7
 10
327.86054641
 20
206.0258286789
 30
0.0
 11
324.6855466812
 21
202.8508284845
 31
0.0
  0
LINE
  5
494
  8
0
  6
CONTINUOUS
 62
     7
 10
333.9139978587
 20
224.7792790428
 30
0.0
 11
331.0355480015
 21
221.9008291856
 31
0.0
  0
LINE
  5
495
  8
0
  6
CONTINUOUS
 62
     7
 10
327.86054641
 20
218.7258275941
 30
0.0
 11
324.6855466812
 21
215.5508278653
 31
0.0
  0
LINE
  5
496
  8
0
  6
CONTINUOUS
 62
     7
 10
321.5002173711
 20
212.3654985552
 30
0.0
 11
318.3355472236
 21
209.2008284077
 31
0.0
  0
LINE
  5
497
  8
0
  6
CONTINUOUS
 62
     7
 10
315.1605474948
 20
206.0258286789
 30
0.0
 11
311.9855473004
 21
202.8508284845
 31
0.0
  0
LINE
  5
498
  8
0
  6
CONTINUOUS
 62
     7
 10
333.9139978587
 20
237.4792798206
 30
0.0
 11
331.0355480015
 21
234.6008299634
 31
0.0
  0
LINE
  5
499
  8
0
  6
CONTINUOUS
 62
     7
 10
327.8605482727
 20
231.4258283719
 30
0.0
 11
324.6855466812
 21
228.2508286431
 31
0.0
  0
LINE
  5
49A
  8
0
  6
CONTINUOUS
 62
     7
 10
321.5105469524
 20
225.0758289143
 30
0.0
 11
318.3355472236
 21
221.9008291856
 31
0.0
  0
LINE
  5
49B
  8
0
  6
CONTINUOUS
 62
     7
 10
315.1605474948
 20
218.7258275941
 30
0.0
 11
312.5737205043
 21
216.1390009829
 31
0.0
  0
LINE
  5
49C
  8
0
  6
CONTINUOUS
 62
     7
 10
308.8002176403
 20
212.3654985552
 30
0.0
 11
305.6355472607
 21
209.2008284077
 31
0.0
  0
LINE
  5
49D
  8
0
  6
CONTINUOUS
 62
     7
 10
302.4605471827
 20
206.0258286789
 30
0.0
 11
299.2855469882
 21
202.8508284845
 31
0.0
  0
LINE
  5
49E
  8
0
  6
CONTINUOUS
 62
     7
 10
321.5105469524
 20
237.7758278295
 30
0.0
 11
318.3355472236
 21
234.6008299634
 31
0.0
  0
LINE
  5
49F
  8
0
  6
CONTINUOUS
 62
     7
 10
315.1605474948
 20
231.4258283719
 30
0.0
 11
311.9855473004
 21
228.2508286431
 31
0.0
  0
LINE
  5
4A0
  8
0
  6
CONTINUOUS
 62
     7
 10
308.8105473388
 20
225.0758289143
 30
0.0
 11
305.6355472607
 21
221.9008291856
 31
0.0
  0
LINE
  5
4A1
  8
0
  6
CONTINUOUS
 62
     7
 10
302.4605471827
 20
218.7258275941
 30
0.0
 11
299.2855469882
 21
215.5508278653
 31
0.0
  0
LINE
  5
4A2
  8
0
  6
CONTINUOUS
 62
     7
 10
296.1002176781
 20
212.3654985552
 30
0.0
 11
292.9355475306
 21
209.2008284077
 31
0.0
  0
LINE
  5
4A3
  8
0
  6
CONTINUOUS
 62
     7
 10
308.8105473388
 20
237.7758278295
 30
0.0
 11
305.6355473771
 21
234.6008299634
 31
0.0
  0
LINE
  5
4A4
  8
0
  6
CONTINUOUS
 62
     7
 10
302.4605471827
 20
231.4258283719
 30
0.0
 11
299.2855469882
 21
228.2508286431
 31
0.0
  0
LINE
  5
4A5
  8
0
  6
CONTINUOUS
 62
     7
 10
296.1105472594
 20
225.0758289143
 30
0.0
 11
292.9355475306
 21
221.9008291856
 31
0.0
  0
LINE
  5
4A6
  8
0
  6
CONTINUOUS
 62
     7
 10
296.1105472594
 20
237.7758278295
 30
0.0
 11
292.9355475306
 21
234.6008299634
 31
0.0
  0
LINE
  5
4A7
  8
0
  6
CONTINUOUS
 62
     7
 10
333.9139978587
 20
200.1730292819
 30
0.0
 11
332.8292976319
 21
199.0883284731
 31
0.0
  0
LINE
  5
4A8
  8
0
  6
CONTINUOUS
 62
     7
 10
333.9139978587
 20
212.8730295941
 30
0.0
 11
331.0355480015
 21
209.9945788056
 31
0.0
  0
LINE
  5
4A9
  8
0
  6
CONTINUOUS
 62
     7
 10
327.86054641
 20
206.8195781454
 30
0.0
 11
324.6855466812
 21
203.6445784167
 31
0.0
  0
LINE
  5
4AA
  8
0
  6
CONTINUOUS
 62
     7
 10
333.9139978587
 20
225.5730285093
 30
0.0
 11
331.0355480015
 21
222.6945786521
 31
0.0
  0
LINE
  5
4AB
  8
0
  6
CONTINUOUS
 62
     7
 10
327.86054641
 20
219.5195789233
 30
0.0
 11
324.6855466812
 21
216.3445791945
 31
0.0
  0
LINE
  5
4AC
  8
0
  6
CONTINUOUS
 62
     7
 10
320.7064669733
 20
212.3654985552
 30
0.0
 11
318.3355472236
 21
209.9945788056
 31
0.0
  0
LINE
  5
4AD
  8
0
  6
CONTINUOUS
 62
     7
 10
315.1605474948
 20
206.8195781454
 30
0.0
 11
311.9855473004
 21
203.6445784167
 31
0.0
  0
LINE
  5
4AE
  8
0
  6
CONTINUOUS
 62
     7
 10
333.9139978587
 20
238.2730274245
 30
0.0
 11
331.0355480015
 21
235.3945775673
 31
0.0
  0
LINE
  5
4AF
  8
0
  6
CONTINUOUS
 62
     7
 10
327.8605482727
 20
232.2195797011
 30
0.0
 11
324.6855466812
 21
229.0445781097
 31
0.0
  0
LINE
  5
4B0
  8
0
  6
CONTINUOUS
 62
     7
 10
321.5105469524
 20
225.8695783809
 30
0.0
 11
318.3355472236
 21
222.6945786521
 31
0.0
  0
LINE
  5
4B1
  8
0
  6
CONTINUOUS
 62
     7
 10
315.1605474948
 20
219.5195789233
 30
0.0
 11
312.4507184157
 21
216.8097502415
 31
0.0
  0
LINE
  5
4B2
  8
0
  6
CONTINUOUS
 62
     7
 10
308.0064671842
 20
212.3654985552
 30
0.0
 11
305.6355472607
 21
209.9945788056
 31
0.0
  0
LINE
  5
4B3
  8
0
  6
CONTINUOUS
 62
     7
 10
302.4605471827
 20
206.8195781454
 30
0.0
 11
299.2855469882
 21
203.6445784167
 31
0.0
  0
LINE
  5
4B4
  8
0
  6
CONTINUOUS
 62
     7
 10
321.5105469524
 20
238.5695791587
 30
0.0
 11
318.3355472236
 21
235.3945775673
 31
0.0
  0
LINE
  5
4B5
  8
0
  6
CONTINUOUS
 62
     7
 10
315.1605474948
 20
232.2195797011
 30
0.0
 11
311.9855473004
 21
229.0445781097
 31
0.0
  0
LINE
  5
4B6
  8
0
  6
CONTINUOUS
 62
     7
 10
308.8105473388
 20
225.8695783809
 30
0.0
 11
305.6355472607
 21
222.6945786521
 31
0.0
  0
LINE
  5
4B7
  8
0
  6
CONTINUOUS
 62
     7
 10
302.4605471827
 20
219.5195789233
 30
0.0
 11
299.2855469882
 21
216.3445791945
 31
0.0
  0
LINE
  5
4B8
  8
0
  6
CONTINUOUS
 62
     7
 10
295.3064672803
 20
212.3654985552
 30
0.0
 11
292.9355475306
 21
209.9945788056
 31
0.0
  0
LINE
  5
4B9
  8
0
  6
CONTINUOUS
 62
     7
 10
308.8105473388
 20
238.5695791587
 30
0.0
 11
305.6355473771
 21
235.3945775673
 31
0.0
  0
LINE
  5
4BA
  8
0
  6
CONTINUOUS
 62
     7
 10
302.4605471827
 20
232.2195797011
 30
0.0
 11
299.2855469882
 21
229.0445781097
 31
0.0
  0
LINE
  5
4BB
  8
0
  6
CONTINUOUS
 62
     7
 10
296.1105472594
 20
225.8695783809
 30
0.0
 11
292.9355475306
 21
222.6945786521
 31
0.0
  0
LINE
  5
4BC
  8
0
  6
CONTINUOUS
 62
     7
 10
296.1105472594
 20
238.5695791587
 30
0.0
 11
292.9355475306
 21
235.3945775673
 31
0.0
  0
LINE
  5
4BD
  8
0
  6
CONTINUOUS
 62
     7
 10
333.9139978587
 20
200.9667792141
 30
0.0
 11
332.0355463028
 21
199.0883284731
 31
0.0
  0
LINE
  5
4BE
  8
0
  6
CONTINUOUS
 62
     7
 10
333.9139978587
 20
213.6667790607
 30
0.0
 11
331.0355480015
 21
210.7883282721
 31
0.0
  0
LINE
  5
4BF
  8
0
  6
CONTINUOUS
 62
     7
 10
327.86054641
 20
207.6133285433
 30
0.0
 11
324.6855466812
 21
204.4383283489
 31
0.0
  0
LINE
  5
4C0
  8
0
  6
CONTINUOUS
 62
     7
 10
333.9139978587
 20
226.3667798385
 30
0.0
 11
331.0355480015
 21
223.4883281186
 31
0.0
  0
LINE
  5
4C1
  8
0
  6
CONTINUOUS
 62
     7
 10
327.86054641
 20
220.3133283898
 30
0.0
 11
324.6855466812
 21
217.138328661
 31
0.0
  0
LINE
  5
4C2
  8
0
  6
CONTINUOUS
 62
     7
 10
321.5105469524
 20
213.9633289322
 30
0.0
 11
320.9127167508
 21
213.3654985552
 31
0.0
  0
LINE
  5
4C3
  8
0
  6
CONTINUOUS
 62
     7
 10
315.1605474948
 20
207.6133285433
 30
0.0
 11
311.9855473004
 21
204.4383283489
 31
0.0
  0
LINE
  5
4C4
  8
0
  6
CONTINUOUS
 62
     7
 10
333.9139978587
 20
239.0667787537
 30
0.0
 11
331.0355480015
 21
236.1883288965
 31
0.0
  0
LINE
  5
4C5
  8
0
  6
CONTINUOUS
 62
     7
 10
327.8605482727
 20
233.013327305
 30
0.0
 11
324.6855466812
 21
229.8383294389
 31
0.0
  0
LINE
  5
4C6
  8
0
  6
CONTINUOUS
 62
     7
 10
321.5105469524
 20
226.6633278474
 30
0.0
 11
318.3355472236
 21
223.4883281186
 31
0.0
  0
LINE
  5
4C7
  8
0
  6
CONTINUOUS
 62
     7
 10
315.1605474948
 20
220.3133283898
 30
0.0
 11
311.9855473004
 21
217.138328661
 31
0.0
  0
LINE
  5
4C8
  8
0
  6
CONTINUOUS
 62
     7
 10
307.2127171968
 20
212.3654985552
 30
0.0
 11
305.6355472607
 21
210.7883282721
 31
0.0
  0
LINE
  5
4C9
  8
0
  6
CONTINUOUS
 62
     7
 10
302.4605471827
 20
207.6133285433
 30
0.0
 11
299.2855469882
 21
204.4383283488
 31
0.0
  0
LINE
  5
4CA
  8
0
  6
CONTINUOUS
 62
     7
 10
321.2355469539
 20
239.0883295581
 30
0.0
 11
318.3355472236
 21
236.1883288965
 31
0.0
  0
LINE
  5
4CB
  8
0
  6
CONTINUOUS
 62
     7
 10
315.1605474948
 20
233.013327305
 30
0.0
 11
311.9855473004
 21
229.8383294389
 31
0.0
  0
LINE
  5
4CC
  8
0
  6
CONTINUOUS
 62
     7
 10
308.8105473388
 20
226.6633278474
 30
0.0
 11
305.6355472607
 21
223.4883281186
 31
0.0
  0
LINE
  5
4CD
  8
0
  6
CONTINUOUS
 62
     7
 10
302.4605471827
 20
220.3133283898
 30
0.0
 11
299.2855469882
 21
217.138328661
 31
0.0
  0
LINE
  5
4CE
  8
0
  6
CONTINUOUS
 62
     7
 10
296.1105472594
 20
213.9633289322
 30
0.0
 11
295.5127170578
 21
213.3654985552
 31
0.0
  0
LINE
  5
4CF
  8
0
  6
CONTINUOUS
 62
     7
 10
308.5355473402
 20
239.0883295581
 30
0.0
 11
305.6355473771
 21
236.1883288965
 31
0.0
  0
LINE
  5
4D0
  8
0
  6
CONTINUOUS
 62
     7
 10
302.4605471827
 20
233.013327305
 30
0.0
 11
299.2855469882
 21
229.8383294389
 31
0.0
  0
LINE
  5
4D1
  8
0
  6
CONTINUOUS
 62
     7
 10
296.1105472594
 20
226.6633278474
 30
0.0
 11
292.9355475306
 21
223.4883281186
 31
0.0
  0
LINE
  5
4D2
  8
0
  6
CONTINUOUS
 62
     7
 10
295.8355472609
 20
239.0883295581
 30
0.0
 11
292.9355475306
 21
236.1883288965
 31
0.0
  0
LINE
  5
4D3
  8
0
  6
CONTINUOUS
 62
     7
 10
300.8730473183
 20
188.1177228904
 30
0.0
 11
300.8730473183
 21
194.5883283176
 31
0.0
  0
LINE
  5
4D4
  8
0
  6
CONTINUOUS
 62
     7
 10
304.0480472799
 20
188.1177228904
 30
0.0
 11
304.0480472799
 21
194.5883283176
 31
0.0
  0
LINE
  5
4D5
  8
0
  6
CONTINUOUS
 62
     7
 10
307.2230472415
 20
188.1177228904
 30
0.0
 11
307.2230472415
 21
194.5883283176
 31
0.0
  0
LINE
  5
4D6
  8
0
  6
CONTINUOUS
 62
     7
 10
291.3480467349
 20
184.6734712041
 30
0.0
 11
291.3480467349
 21
194.5883283176
 31
0.0
  0
LINE
  5
4D7
  8
0
  6
CONTINUOUS
 62
     7
 10
294.523047395
 20
184.6734712041
 30
0.0
 11
294.523047395
 21
194.5883283176
 31
0.0
  0
LINE
  5
4D8
  8
0
  6
CONTINUOUS
 62
     7
 10
297.6980471238
 20
184.6734712041
 30
0.0
 11
297.6980471238
 21
194.5883283176
 31
0.0
  0
LINE
  5
4D9
  8
0
  6
CONTINUOUS
 62
     7
 10
310.3980472032
 20
184.6734712041
 30
0.0
 11
310.3980472032
 21
194.5883283176
 31
0.0
  0
LINE
  5
4DA
  8
0
  6
CONTINUOUS
 62
     7
 10
313.5730471648
 20
184.6734712041
 30
0.0
 11
313.5730471648
 21
194.5883283176
 31
0.0
  0
LINE
  5
4DB
  8
0
  6
CONTINUOUS
 62
     7
 10
316.7480473592
 20
184.6734712041
 30
0.0
 11
316.7480473592
 21
194.5883283176
 31
0.0
  0
LINE
  5
4DC
  8
0
  6
CONTINUOUS
 62
     7
 10
319.923047088
 20
184.6734712041
 30
0.0
 11
319.923047088
 21
194.5883283176
 31
0.0
  0
LINE
  5
4DD
  8
0
  6
CONTINUOUS
 62
     7
 10
323.0980477482
 20
185.4234712041
 30
0.0
 11
323.0980477482
 21
194.5883283176
 31
0.0
  0
LINE
  5
4DE
  8
0
  6
CONTINUOUS
 62
     7
 10
326.273047477
 20
185.4234712041
 30
0.0
 11
326.273047477
 21
194.5883283176
 31
0.0
  0
LINE
  5
4DF
  8
0
  6
CONTINUOUS
 62
     7
 10
304.0480472799
 20
216.8097502415
 30
0.0
 11
304.0480472799
 21
239.0883295581
 31
0.0
  0
LINE
  5
4E0
  8
0
  6
CONTINUOUS
 62
     7
 10
307.2230472415
 20
216.8097502415
 30
0.0
 11
307.2230472415
 21
239.0883295581
 31
0.0
  0
LINE
  5
4E1
  8
0
  6
CONTINUOUS
 62
     7
 10
310.3980472032
 20
216.8097502415
 30
0.0
 11
310.3980472032
 21
239.0883295581
 31
0.0
  0
LINE
  5
4E2
  8
0
  6
CONTINUOUS
 62
     7
 10
291.3480467349
 20
214.1154985552
 30
0.0
 11
291.3480467349
 21
239.0883295581
 31
0.0
  0
LINE
  5
4E3
  8
0
  6
CONTINUOUS
 62
     7
 10
294.523047395
 20
213.3654985552
 30
0.0
 11
294.523047395
 21
239.0883295581
 31
0.0
  0
LINE
  5
4E4
  8
0
  6
CONTINUOUS
 62
     7
 10
297.6980471238
 20
213.3654985552
 30
0.0
 11
297.6980471238
 21
239.0883295581
 31
0.0
  0
LINE
  5
4E5
  8
0
  6
CONTINUOUS
 62
     7
 10
300.8730473183
 20
213.3654985552
 30
0.0
 11
300.8730473183
 21
239.0883295581
 31
0.0
  0
LINE
  5
4E6
  8
0
  6
CONTINUOUS
 62
     7
 10
313.5730471648
 20
213.3654985552
 30
0.0
 11
313.5730471648
 21
239.0883295581
 31
0.0
  0
LINE
  5
4E7
  8
0
  6
CONTINUOUS
 62
     7
 10
316.7480473592
 20
213.3654985552
 30
0.0
 11
316.7480473592
 21
239.0883295581
 31
0.0
  0
LINE
  5
4E8
  8
0
  6
CONTINUOUS
 62
     7
 10
319.923047088
 20
213.3654985552
 30
0.0
 11
319.923047088
 21
239.0883295581
 31
0.0
  0
LINE
  5
4E9
  8
0
  6
CONTINUOUS
 62
     7
 10
323.0980477482
 20
214.1154985552
 30
0.0
 11
323.0980477482
 21
239.0883295581
 31
0.0
  0
LINE
  5
4EA
  8
0
  6
CONTINUOUS
 62
     7
 10
326.273047477
 20
214.1154985552
 30
0.0
 11
326.273047477
 21
239.0883295581
 31
0.0
  0
LINE
  5
4EB
  8
0
  6
CONTINUOUS
 62
     7
 10
319.9127170441
 20
212.3654985552
 30
0.0
 11
318.3355472236
 21
210.7883282721
 31
0.0
  0
LINE
  5
4EC
  8
0
  6
CONTINUOUS
 62
     7
 10
294.5127173511
 20
212.3654985552
 30
0.0
 11
294.2139979861
 21
212.0667791026
 31
0.0
  0
LINE
  5
4ED
  8
0
  6
CONTINUOUS
 62
     7
 10
293.7627175711
 20
211.6154985552
 30
0.0
 11
292.9355475306
 21
210.7883282721
 31
0.0
  0
LINE
  5
4EE
  8
0
  6
CONTINUOUS
 62
     7
 10
333.9139978587
 20
239.0883295581
 30
0.0
 11
333.9139978587
 21
199.0883284731
 31
0.0
  0
LINE
  5
4EF
  8
0
  6
CONTINUOUS
 62
     7
 10
333.9139978587
 20
199.0883284731
 30
0.0
 11
326.4139975607
 21
199.0883284731
 31
0.0
  0
LINE
  5
4F0
  8
0
  6
CONTINUOUS
 62
     7
 10
326.4139975607
 20
199.0883284731
 30
0.0
 11
326.4139975607
 21
201.5883285336
 31
0.0
  0
LINE
  5
4F1
  8
0
  6
CONTINUOUS
 62
     7
 10
289.9139980971
 20
201.5883285336
 30
0.0
 11
326.4139975607
 21
201.5883285336
 31
0.0
  0
LINE
  5
4F2
  8
0
  6
CONTINUOUS
 62
     7
 10
289.9139980971
 20
239.0883295581
 30
0.0
 11
289.9139980971
 21
201.5883285336
 31
0.0
  0
LINE
  5
4F3
  8
0
  6
CONTINUOUS
 62
     7
 10
289.9139980971
 20
239.0883295581
 30
0.0
 11
333.9139978587
 21
239.0883295581
 31
0.0
  0
LINE
  5
4F4
  8
0
  6
CONTINUOUS
 62
     7
 10
333.9139978587
 20
197.0883283781
 30
0.0
 11
333.9139978587
 21
157.0883272931
 31
0.0
  0
LINE
  5
4F5
  8
0
  6
CONTINUOUS
 62
     7
 10
333.9139978587
 20
157.0883272931
 30
0.0
 11
289.9139980971
 21
157.0883272931
 31
0.0
  0
LINE
  5
4F6
  8
0
  6
CONTINUOUS
 62
     7
 10
326.4139975607
 20
194.5883283176
 30
0.0
 11
289.9139980971
 21
194.5883283176
 31
0.0
  0
LINE
  5
4F7
  8
0
  6
CONTINUOUS
 62
     7
 10
326.4139975607
 20
194.5883283176
 30
0.0
 11
326.4139975607
 21
197.0883283781
 31
0.0
  0
LINE
  5
4F8
  8
0
  6
CONTINUOUS
 62
     7
 10
326.4139975607
 20
197.0883283781
 30
0.0
 11
333.9139978587
 21
197.0883283781
 31
0.0
  0
LINE
  5
4F9
  8
0
  6
CONTINUOUS
 62
     7
 10
289.9139980971
 20
194.5883283176
 30
0.0
 11
289.9139980971
 21
157.0883272931
 31
0.0
  0
CIRCLE
  5
4FA
  8
0
  6
CONTINUOUS
 62
     7
 10
281.9139979861
 20
198.0883284256
 30
0.0
 40
3.375000000000014
  0
LINE
  5
4FB
  8
0
  6
CONTINUOUS
 62
     7
 10
309.4139980338
 20
195.6883283116
 30
0.0
 11
308.7789126392
 21
194.5883283176
 31
0.0
  0
LINE
  5
4FC
  8
0
  6
CONTINUOUS
 62
     7
 10
289.7139984369
 20
194.5883283176
 30
0.0
 11
308.7789126392
 21
194.5883283176
 31
0.0
  0
LINE
  5
4FD
  8
0
  6
CONTINUOUS
 62
     7
 10
289.7139984369
 20
194.5883283176
 30
0.0
 11
289.7139984369
 21
197.0883283781
 31
0.0
  0
LINE
  5
4FE
  8
0
  6
CONTINUOUS
 62
     7
 10
289.7139984369
 20
197.0883283781
 30
0.0
 11
308.3139980398
 21
197.0883283781
 31
0.0
  0
ARC
  5
4FF
  8
0
  6
CONTINUOUS
 62
     7
 10
310.9139979861
 20
193.2633284256
 30
0.0
 40
4.62499999999998
 50
90.0
 51
124.2054579381
  0
LINE
  5
500
  8
0
  6
CONTINUOUS
 62
     7
 10
317.9139980301
 20
197.8883284306
 30
0.0
 11
310.9139980468
 21
197.8883284306
 31
0.0
  0
ARC
  5
501
  8
0
  6
CONTINUOUS
 62
     7
 10
317.9139979861
 20
193.2633284256
 30
0.0
 40
4.624999999999995
 50
55.7945420619
 51
90.0
  0
LINE
  5
502
  8
0
  6
CONTINUOUS
 62
     7
 10
320.51399827
 20
197.0883283781
 30
0.0
 11
326.4139975607
 21
197.0883283781
 31
0.0
  0
LINE
  5
503
  8
0
  6
CONTINUOUS
 62
     7
 10
320.0490829721
 20
194.5883283176
 30
0.0
 11
326.4139975607
 21
194.5883283176
 31
0.0
  0
LINE
  5
504
  8
0
  6
CONTINUOUS
 62
     7
 10
320.0490829721
 20
194.5883283176
 30
0.0
 11
319.413998276
 21
195.6883283116
 31
0.0
  0
LINE
  5
505
  8
0
  6
CONTINUOUS
 62
     7
 10
309.4139980338
 20
195.6883283116
 30
0.0
 11
319.413998276
 21
195.6883283116
 31
0.0
  0
LINE
  5
506
  8
0
  6
CONTINUOUS
 62
     7
 10
289.0354889631
 20
194.5883283176
 30
0.0
 11
289.0354889631
 21
197.0883283781
 31
0.0
  0
LINE
  5
507
  8
0
  6
CONTINUOUS
 62
     7
 10
289.0354889631
 20
197.0883283781
 30
0.0
 11
289.7139984369
 21
197.0883283781
 31
0.0
  0
LINE
  5
508
  8
0
  6
CONTINUOUS
 62
     7
 10
289.7139984369
 20
194.5883283176
 30
0.0
 11
289.0354889631
 21
194.5883283176
 31
0.0
  0
POLYLINE
  5
509
  8
0
  6
CONTINUOUS
 62
     7
 66
     1
 10
0.0
 20
0.0
 30
0.0
 70
   128
  0
VERTEX
  5
754
  8
0
  6
CONTINUOUS
 62
     7
 10
289.0354889631
 20
194.5883283176
 30
0.0
  0
VERTEX
  5
755
  8
0
  6
CONTINUOUS
 62
     7
 10
289.0002775192
 20
194.5870870974
 30
0.0
  0
VERTEX
  5
756
  8
0
  6
CONTINUOUS
 62
     7
 10
288.9580532163
 20
194.5822956756
 30
0.0
  0
SEQEND
  5
7C0
  8
0
  6
CONTINUOUS
 62
     7
  0
LINE
  5
50A
  8
0
  6
CONTINUOUS
 62
     7
 10
288.5708744824
 20
197.0521324098
 30
0.0
 11
288.9580532163
 21
194.5822956756
 31
0.0
  0
LINE
  5
50B
  8
0
  6
CONTINUOUS
 62
     7
 10
289.0354889631
 20
197.0883283781
 30
0.0
 11
288.5708744824
 21
197.0521324098
 31
0.0
  0
ARC
  5
50C
  8
0
  6
CONTINUOUS
 62
     7
 10
281.9139979861
 20
198.0883284256
 30
0.0
 40
3.500000000000036
 50
6.5919316298
 51
66.5919316298
  0
LINE
  5
50D
  8
0
  6
CONTINUOUS
 62
     7
 10
287.7767785638
 20
199.3641845899
 30
0.0
 11
287.8743308782
 21
198.7771120172
 31
0.0
  0
LINE
  5
50E
  8
0
  6
CONTINUOUS
 62
     7
 10
287.8436568379
 20
196.841424519
 30
0.0
 11
288.8368490338
 21
194.5471778296
 31
0.0
  0
ARC
  5
50F
  8
0
  6
CONTINUOUS
 62
     7
 10
289.0354884109
 20
194.0883284256
 30
0.0
 40
0.5000000000000127
 50
98.9093322823
 51
113.4080683702
  0
ARC
  5
510
  8
0
  6
CONTINUOUS
 62
     7
 10
289.0354884109
 20
194.0883284256
 30
0.0
 40
2.999999999999998
 50
98.9093322824
 51
113.4080683702
  0
LINE
  5
511
  8
0
  6
CONTINUOUS
 62
     7
 10
288.8368490338
 20
194.5471778296
 30
0.0
 11
284.2976610362
 21
192.5821360916
 31
0.0
  0
LINE
  5
512
  8
0
  6
CONTINUOUS
 62
     7
 10
287.8436568379
 20
196.841424519
 30
0.0
 11
287.7767785638
 21
196.8124722613
 31
0.0
  0
LINE
  5
513
  8
0
  6
CONTINUOUS
 62
     7
 10
309.4139980338
 20
201.5883285336
 30
0.0
 11
309.4139980338
 21
200.4883285396
 31
0.0
  0
LINE
  5
514
  8
0
  6
CONTINUOUS
 62
     7
 10
319.413998276
 20
200.4883285396
 30
0.0
 11
309.4139980338
 21
200.4883285396
 31
0.0
  0
LINE
  5
515
  8
0
  6
CONTINUOUS
 62
     7
 10
319.413998276
 20
200.4883285396
 30
0.0
 11
319.413998276
 21
201.5883285336
 31
0.0
  0
ARC
  5
516
  8
0
  6
CONTINUOUS
 62
     7
 10
317.9139979861
 20
202.9133284256
 30
0.0
 40
4.625
 50
270.0
 51
304.2054579381
  0
LINE
  5
517
  8
0
  6
CONTINUOUS
 62
     7
 10
310.9139980468
 20
198.2883284205
 30
0.0
 11
317.9139980301
 21
198.2883284205
 31
0.0
  0
ARC
  5
518
  8
0
  6
CONTINUOUS
 62
     7
 10
310.9139979861
 20
202.9133284256
 30
0.0
 40
4.624999999999995
 50
235.7945420619
 51
270.0
  0
LINE
  5
519
  8
0
  6
CONTINUOUS
 62
     7
 10
287.8436568379
 20
199.3352323322
 30
0.0
 11
283.3044688403
 21
201.3002739538
 31
0.0
  0
LINE
  5
51A
  8
0
  6
CONTINUOUS
 62
     7
 10
288.8368490338
 20
201.6294790216
 30
0.0
 11
284.2976610362
 21
203.5945207596
 31
0.0
  0
ARC
  5
51B
  8
0
  6
CONTINUOUS
 62
     7
 10
281.9139979861
 20
198.0883284256
 30
0.0
 40
3.500000000000036
 50
66.5919316298
 51
6.5919316298
  0
ARC
  5
51C
  8
0
  6
CONTINUOUS
 62
     7
 10
289.0354884109
 20
202.0883284256
 30
0.0
 40
0.5000000000000209
 50
246.5919316298
 51
270.0
  0
ARC
  5
51D
  8
0
  6
CONTINUOUS
 62
     7
 10
289.0354884109
 20
202.0883284256
 30
0.0
 40
3.0
 50
246.5919316298
 51
270.0
  0
LINE
  5
51E
  8
0
  6
CONTINUOUS
 62
     7
 10
308.3139980398
 20
199.0883284731
 30
0.0
 11
289.0354889631
 21
199.0883284731
 31
0.0
  0
LINE
  5
51F
  8
0
  6
CONTINUOUS
 62
     7
 10
326.4139975607
 20
199.0883284731
 30
0.0
 11
320.51399827
 21
199.0883284731
 31
0.0
  0
LINE
  5
520
  8
0
  6
CONTINUOUS
 62
     7
 10
309.4139980338
 20
201.5883285336
 30
0.0
 11
289.0354889631
 21
201.5883285336
 31
0.0
  0
LINE
  5
521
  8
0
  6
CONTINUOUS
 62
     7
 10
326.4139975607
 20
201.5883285336
 30
0.0
 11
319.413998276
 21
201.5883285336
 31
0.0
  0
LINE
  5
522
  8
0
  6
CONTINUOUS
 62
     7
 10
287.8743308782
 20
198.7771120172
 30
0.0
 11
285.3908586502
 21
198.490118854
 31
0.0
  0
ARC
  5
523
  8
0
  6
CONTINUOUS
 62
     7
 10
281.9139979861
 20
198.0883284256
 30
0.0
 40
6.000000000000038
 50
66.5919316298
 51
6.5919316298
  0
DIMENSION
  5
524
  8
0
  6
CONTINUOUS
 62
     7
  2
_D_16
 10
326.4139979861
 20
184.1734712041
 30
0.0
 11
304.1639979861
 21
184.1734712041
 31
0.0
 70
   160
  1
<>
  3
SLDDIMSTYLE0
 13
281.9139979861
 23
198.0883284256
 33
0.0
 14
326.4139979861
 24
199.0883284256
 34
0.0
 50
0.0
  0
DIMENSION
  5
52E
  8
0
  6
CONTINUOUS
 62
     7
  2
_D_17
 10
350.9139979861
 20
197.0883284256
 30
0.0
 11
350.9139979861
 21
206.8811668309
 31
0.0
 70
   160
  1
<>
  3
SLDDIMSTYLE1
 13
333.9139979861
 23
199.0883284256
 33
0.0
 14
333.9139979861
 24
197.0883284256
 34
0.0
 50
90.0
  0
DIMENSION
  5
53A
  8
0
  6
CONTINUOUS
 62
     7
  2
_D_18
 10
289.9139979861
 20
212.8654985552
 30
0.0
 11
308.1639979861
 21
212.8654985552
 31
0.0
 70
   160
  1
<>
  3
SLDDIMSTYLE0
 13
326.4139979861
 23
201.5883284256
 33
0.0
 14
289.9139979861
 24
199.0883284256
 34
0.0
 50
0.0
  0
INSERT
  5
54E
  8
0
  6
CONTINUOUS
 62
     7
  2
SW_CENTERMARKSYMBOL_11
 10
281.9139979861
 20
198.0883284256
 30
0.0
  0
ENDSEC
  0
EOF
