  0
SECTION
  2
HEADER
  9
$ACADVER
  1
AC1009
  9
$DWGCODEPAGE
  3
ansi_1252
  9
$INSBASE
 10
0.0
 20
0.0
 30
0.0
  9
$EXTMIN
 10
0.0
 20
0.0
 30
0.0
  9
$EXTMAX
 10
420.0
 20
297.0
 30
0.0
  9
$LIMMIN
 10
0.0
 20
0.0
  9
$LIMMAX
 10
420.0
 20
297.0
  9
$ORTHOMODE
 70
     0
  9
$REGENMODE
 70
     1
  9
$FILLMODE
 70
     1
  9
$QTEXTMODE
 70
     0
  9
$MIRRTEXT
 70
     1
  9
$DRAGMODE
 70
     2
  9
$LTSCALE
 40
1.0
  9
$OSMODE
 70
    37
  9
$ATTMODE
 70
     1
  9
$TEXTSIZE
 40
3.5
  9
$TRACEWID
 40
1.0
  9
$TEXTSTYLE
  7
STANDARD
  9
$CLAYER
  8
0
  9
$CELTYPE
  6
BYLAYER
  9
$CECOLOR
 62
   256
  9
$DIMSCALE
 40
1.0
  9
$DIMASZ
 40
3.3
  9
$DIMEXO
 40
1.0
  9
$DIMDLI
 40
3.75
  9
$DIMRND
 40
0.0
  9
$DIMDLE
 40
0.0
  9
$DIMEXE
 40
1.0
  9
$DIMTP
 40
0.0
  9
$DIMTM
 40
0.0
  9
$DIMTXT
 40
3.5277777778
  9
$DIMCEN
 40
2.5
  9
$DIMTSZ
 40
0.0
  9
$DIMTOL
 70
     0
  9
$DIMLIM
 70
     0
  9
$DIMTIH
 70
     1
  9
$DIMTOH
 70
     1
  9
$DIMSE1
 70
     0
  9
$DIMSE2
 70
     0
  9
$DIMTAD
 70
     1
  9
$DIMZIN
 70
     0
  9
$DIMBLK
  1

  9
$DIMASO
 70
     1
  9
$DIMSHO
 70
     1
  9
$DIMPOST
  1

  9
$DIMAPOST
  1

  9
$DIMALT
 70
     0
  9
$DIMALTD
 70
     3
  9
$DIMALTF
 40
0.0393700787
  9
$DIMLFAC
 40
1.0
  9
$DIMTOFL
 70
     1
  9
$DIMTVP
 40
0.0
  9
$DIMTIX
 70
     0
  9
$DIMSOXD
 70
     0
  9
$DIMSAH
 70
     0
  9
$DIMBLK1
  1

  9
$DIMBLK2
  1

  9
$DIMSTYLE
  2
ISO-25
  9
$DIMCLRD
 70
     0
  9
$DIMCLRE
 70
     0
  9
$DIMCLRT
 70
     0
  9
$DIMTFAC
 40
1.0
  9
$DIMGAP
 40
1.524
  9
$LUNITS
 70
     2
  9
$LUPREC
 70
     2
  9
$SKETCHINC
 40
1.0
  9
$FILLETRAD
 40
10.0
  9
$AUNITS
 70
     0
  9
$AUPREC
 70
     2
  9
$MENU
  1
.
  9
$ELEVATION
 40
0.0
  9
$PELEVATION
 40
0.0
  9
$THICKNESS
 40
0.0
  9
$LIMCHECK
 70
     0
  9
$CHAMFERA
 40
0.0
  9
$CHAMFERB
 40
0.0
  9
$SKPOLY
 70
     0
  9
$TDCREATE
 40
2459643.405967465
  9
$TDUPDATE
 40
2459643.406070312
  9
$TDINDWG
 40
0.0000000116
  9
$TDUSRTIMER
 40
0.0000000116
  9
$USRTIMER
 70
     1
  9
$ANGBASE
 50
0.0
  9
$ANGDIR
 70
     0
  9
$PDMODE
 70
     0
  9
$PDSIZE
 40
-1.0
  9
$PLINEWID
 40
0.0
  9
$COORDS
 70
     1
  9
$SPLFRAME
 70
     0
  9
$SPLINETYPE
 70
     6
  9
$SPLINESEGS
 70
     8
  9
$ATTDIA
 70
     0
  9
$ATTREQ
 70
     1
  9
$HANDLING
 70
     1
  9
$HANDSEED
  5
A01
  9
$SURFTAB1
 70
     6
  9
$SURFTAB2
 70
     6
  9
$SURFTYPE
 70
     6
  9
$SURFU
 70
     6
  9
$SURFV
 70
     6
  9
$UCSNAME
  2

  9
$UCSORG
 10
0.0
 20
0.0
 30
0.0
  9
$UCSXDIR
 10
1.0
 20
0.0
 30
0.0
  9
$UCSYDIR
 10
0.0
 20
1.0
 30
0.0
  9
$PUCSNAME
  2

  9
$PUCSORG
 10
0.0
 20
0.0
 30
0.0
  9
$PUCSXDIR
 10
1.0
 20
0.0
 30
0.0
  9
$PUCSYDIR
 10
0.0
 20
1.0
 30
0.0
  9
$USERI1
 70
     0
  9
$USERI2
 70
     0
  9
$USERI3
 70
     0
  9
$USERI4
 70
     0
  9
$USERI5
 70
     0
  9
$USERR1
 40
0.0
  9
$USERR2
 40
0.0
  9
$USERR3
 40
0.0
  9
$USERR4
 40
0.0
  9
$USERR5
 40
0.0
  9
$WORLDVIEW
 70
     1
  9
$SHADEDGE
 70
     3
  9
$SHADEDIF
 70
    70
  9
$TILEMODE
 70
     1
  9
$MAXACTVP
 70
    64
  9
$PLIMCHECK
 70
     0
  9
$PEXTMIN
 10
1.0000000000E+20
 20
1.0000000000E+20
 30
1.0000000000E+20
  9
$PEXTMAX
 10
-1.0000000000E+20
 20
-1.0000000000E+20
 30
-1.0000000000E+20
  9
$PLIMMIN
 10
0.0
 20
0.0
  9
$PLIMMAX
 10
420.0
 20
297.0
  9
$UNITMODE
 70
     0
  9
$VISRETAIN
 70
     1
  9
$PLINEGEN
 70
     0
  9
$PSLTSCALE
 70
     1
  0
ENDSEC
  0
SECTION
  2
TABLES
  0
TABLE
  2
VPORT
 70
     1
  0
VPORT
  2
*ACTIVE
 70
     0
 10
0.0
 20
0.0
 11
1.0
 21
1.0
 12
210.0
 22
148.5
 13
0.0
 23
0.0
 14
10.0
 24
10.0
 15
10.0
 25
10.0
 16
0.0
 26
0.0
 36
1.0
 17
0.0
 27
0.0
 37
0.0
 40
297.0
 41
1.4141414141
 42
50.0
 43
0.0
 44
0.0
 50
0.0
 51
0.0
 71
     0
 72
  2000
 73
     1
 74
     3
 75
     0
 76
     0
 77
     0
 78
     0
  0
ENDTAB
  0
TABLE
  2
LTYPE
 70
     6
  0
LTYPE
  2
CONTINUOUS
 70
     0
  3
Solid line
 72
    65
 73
     0
 40
0.0
  0
LTYPE
  2
HIDDEN
 70
     0
  3
Hidden __ __ __ __ __ __ __ __ __ __ __ __ __ __
 72
    65
 73
     2
 40
1.905
 49
1.27
 49
-0.635
  0
LTYPE
  2
PHANTOM
 70
     0
  3
Phantom ______  __  __  ______  __  __  ______
 72
    65
 73
     6
 40
12.7
 49
6.35
 49
-1.27
 49
1.27
 49
-1.27
 49
1.27
 49
-1.27
  0
LTYPE
  2
CENTER
 70
     0
  3
Center ____ _ ____ _ ____ _ ____ _ ____ _ ____
 72
    65
 73
     4
 40
10.16
 49
6.35
 49
-1.27
 49
1.27
 49
-1.27
  0
LTYPE
  2
CENTERX2
 70
     0
  3
Center (2x) ________  __  ________  __  _____
 72
    65
 73
     4
 40
20.32
 49
12.7
 49
-2.54
 49
2.54
 49
-2.54
  0
LTYPE
  2
DOT2
 70
     0
  3
Dot (.5x) ........................................
 72
    65
 73
     2
 40
0.635
 49
0.0
 49
-0.635
  0
ENDTAB
  0
TABLE
  2
LAYER
 70
     1
  0
LAYER
  2
0
 70
     0
 62
     7
  6
CONTINUOUS
  0
ENDTAB
  0
TABLE
  2
STYLE
 70
     1
  0
STYLE
  2
STANDARD
 70
     0
 40
0.0
 41
1.0
 50
0.0
 71
     0
 42
3.5
  3
txt
  4

  0
ENDTAB
  0
TABLE
  2
VIEW
 70
     0
  0
ENDTAB
  0
TABLE
  2
UCS
 70
     0
  0
ENDTAB
  0
TABLE
  2
APPID
 70
     1
  0
APPID
  2
ACAD
 70
     0
  0
ENDTAB
  0
TABLE
  2
DIMSTYLE
 70
     5
  0
DIMSTYLE
  2
ISO-25
 70
     0
  3

  4

  5

  6

  7

 40
1.0
 41
2.5
 42
0.625
 43
3.75
 44
1.25
 45
0.0
 46
0.0
 47
0.0
 48
0.0
140
2.5
141
2.5
142
0.0
143
0.0393700787
144
1.0
145
0.0
146
1.0
147
0.625
 71
     0
 72
     0
 73
     0
 74
     0
 75
     0
 76
     0
 77
     1
 78
     8
170
     0
171
     3
172
     1
173
     0
174
     0
175
     0
176
     0
177
     0
178
     0
  0
DIMSTYLE
  2
SLDDIMSTYLE0
 70
     0
  3

  4

  5

  6

  7

 40
1.0
 41
3.3
 42
0.0625
 43
0.38
 44
0.0
 45
0.000000001
 46
0.0
 47
0.0
 48
0.0
140
2.5683186849
141
0.09
142
0.0
143
25.4
144
1.0
145
0.0
146
1.0
147
0.6420796712
 71
     0
 72
     0
 73
     0
 74
     0
 75
     0
 76
     0
 77
     1
 78
    12
170
     0
171
     2
172
     0
173
     1
174
     0
175
     0
176
     0
177
     0
178
     0
  0
DIMSTYLE
  2
SLDDIMSTYLE1
 70
     0
  3

  4

  5

  6

  7

 40
1.0
 41
3.3
 42
0.0625
 43
0.38
 44
0.0
 45
0.000000001
 46
0.0
 47
0.0
 48
0.0
140
2.5683186849
141
0.09
142
0.0
143
25.4
144
1.0
145
0.0
146
1.0
147
0.6420796712
 71
     0
 72
     0
 73
     0
 74
     0
 75
     0
 76
     0
 77
     1
 78
    12
170
     0
171
     2
172
     1
173
     1
174
     0
175
     0
176
     0
177
     0
178
     0
  0
DIMSTYLE
  2
SLDDIMSTYLE2
 70
     0
  3

  4

  5

  6
NONE
  7

 40
1.0
 41
3.3
 42
0.0625
 43
0.38
 44
0.0
 45
0.000000001
 46
0.0
 47
0.0
 48
0.0
140
2.5683186849
141
0.0
142
0.0
143
25.4
144
1.0
145
0.0
146
1.0
147
0.6420796712
 71
     0
 72
     0
 73
     0
 74
     0
 75
     0
 76
     0
 77
     1
 78
    12
170
     0
171
     2
172
     1
173
     1
174
     0
175
     0
176
     0
177
     0
178
     0
  0
DIMSTYLE
  2
SLDDIMSTYLE3
 70
     0
  3

  4

  5

  6

  7

 40
1.0
 41
3.3
 42
0.0625
 43
0.38
 44
0.0
 45
0.000000001
 46
0.0
 47
0.0
 48
0.0
140
2.5683186849
141
0.09
142
0.0
143
25.4
144
1.0
145
0.0
146
1.0
147
0.6420796712
 71
     0
 72
     0
 73
     0
 74
     0
 75
     0
 76
     0
 77
     1
 78
    12
170
     0
171
     2
172
     1
173
     1
174
     0
175
     0
176
     0
177
     0
178
     0
  0
ENDTAB
  0
ENDSEC
  0
SECTION
  2
BLOCKS
  0
BLOCK
  8
0
  2
$MODEL_SPACE
 70
     0
 10
0.0
 20
0.0
 30
0.0
  3
$MODEL_SPACE
  1

  0
ENDBLK
  5
21
  8
0
  0
BLOCK
 67
     1
  8
0
  2
$PAPER_SPACE
 70
     0
 10
0.0
 20
0.0
 30
0.0
  3
$PAPER_SPACE
  1

  0
ENDBLK
  5
1D
 67
     1
  8
0
  0
BLOCK
  8
0
  2
SW_NOTE_0
 70
     0
 10
0.0
 20
0.0
 30
0.0
  3
SW_NOTE_0
  1

  0
TEXT
  5
B1
  8
0
  6
CONTINUOUS
 62
     0
 10
0.0
 20
1.2364102167
 30
0.0
 40
3.5
  1
V (RD) 1804 
 41
0.6125
 11
0.0
 21
0.0
 31
0.0
 73
     1
  0
TEXT
  5
B2
  8
0
  6
CONTINUOUS
 62
     0
 10
0.0
 20
-3.5931104773
 30
0.0
 40
2.6458333333
  1
3,5" x 3,5"  (89mm x 89mm)
 41
0.6192307692
 11
0.0
 21
-4.5277777244
 31
0.0
 73
     1
  0
ENDBLK
  5
B0
  8
0
  0
BLOCK
  8
0
  2
SW_NOTE_0_1
 70
     0
 10
0.0
 20
0.0
 30
0.0
  3
SW_NOTE_0_1
  1

  0
TEXT
  5
D5
  8
0
  6
CONTINUOUS
 62
     0
 10
0.0
 20
0.8831501548
 30
0.0
 40
2.5
  1
Maßstab:      
 41
0.55
 11
0.0
 21
0.0
 31
0.0
 73
     1
  0
TEXT
  5
D6
  8
0
  6
CONTINUOUS
 62
     0
 10
19.7052955627
 20
0.9475215793
 30
0.0
 40
3.5
  1
1:1
 41
0.7
 11
19.7052955627
 21
-0.2888886374
 31
0.0
 73
     1
  0
ENDBLK
  5
D4
  8
0
  0
BLOCK
  8
0
  2
SW_NOTE_0_2
 70
     0
 10
0.0
 20
0.0
 30
0.0
  3
SW_NOTE_0_2
  1

  0
TEXT
  5
E6
  8
0
  6
CONTINUOUS
 62
     0
 10
0.0
 20
0.8831501548
 30
0.0
 40
2.5
  1
Breuer & Schmitz
 41
0.65625
 11
0.0
 21
0.0
 31
0.0
 73
     1
  0
TEXT
  5
E7
  8
0
  6
CONTINUOUS
 62
     0
 10
0.6718747318
 20
-2.6168499532
 30
0.0
 40
2.5
  1
GmbH & Co. KG
 41
0.6192307692
 11
0.6718747318
 21
-3.500000108
 31
0.0
 73
     1
  0
TEXT
  5
E8
  8
0
  6
CONTINUOUS
 62
     0
 10
1.2413188815
 20
-6.1168500613
 30
0.0
 40
2.5
  1
Solingen - Wald
 41
0.6533333333
 11
1.2413188815
 21
-7.0000002161
 31
0.0
 73
     1
  0
TEXT
  5
E9
  8
0
  6
CONTINUOUS
 62
     0
 10
-0.7673613727
 20
-9.6168501693
 30
0.0
 40
2.5
  1
Baubeschlagfabrik
 41
0.7
 11
-0.7673613727
 21
-10.5000003241
 31
0.0
 73
     1
  0
ENDBLK
  5
E5
  8
0
  0
BLOCK
  8
0
  2
SW_NOTE_0_3
 70
     0
 10
0.0
 20
0.0
 30
0.0
  3
SW_NOTE_0_3
  1

  0
TEXT
  5
EE
  8
0
  6
CONTINUOUS
 62
     0
 10
0.0
 20
0.5608003483
 30
0.0
 40
1.5875
  1
Diese Zeichung ist unser Eigentum und darf weder
 41
0.6489583333
 11
0.0
 21
0.0
 31
0.0
 73
     1
  0
TEXT
  5
EF
  8
0
  6
CONTINUOUS
 62
     0
 10
0.0
 20
-1.5558662928
 30
0.0
 40
1.5875
  1
verwertet, vervielfältigt noch Dritten zugänglich 
 41
0.665
 11
0.0
 21
-2.1166666411
 31
0.0
 73
     1
  0
TEXT
  5
F0
  8
0
  6
CONTINUOUS
 62
     0
 10
0.0
 20
-3.6725329339
 30
0.0
 40
1.5875
  1
gemacht werden.
 41
0.7
 11
0.0
 21
-4.2333332822
 31
0.0
 73
     1
  0
TEXT
  5
F1
  8
0
  6
CONTINUOUS
 62
     0
 10
0.0
 20
-7.905866216
 30
0.0
 40
1.5875
  1
This drawing is our property and cannot either be 
 41
0.637
 11
0.0
 21
-8.4666665643
 31
0.0
 73
     1
  0
TEXT
  5
F2
  8
0
  6
CONTINUOUS
 62
     0
 10
0.0
 20
-10.0225328571
 30
0.0
 40
1.5875
  1
utilized for an other purpose or copied nor made 
 41
0.6357142857
 11
0.0
 21
-10.5833332054
 31
0.0
 73
     1
  0
TEXT
  5
F3
  8
0
  6
CONTINUOUS
 62
     0
 10
0.0
 20
-12.1391994982
 30
0.0
 40
1.5875
  1
available to a third.
 41
0.65
 11
0.0
 21
-12.6999998465
 31
0.0
 73
     1
  0
ENDBLK
  5
ED
  8
0
  0
BLOCK
  8
0
  2
_D
 70
     0
 10
0.0
 20
0.0
 30
0.0
  3
_D
  1

  0
SOLID
  5
373
  8
0
  6
CONTINUOUS
 62
     7
 10
40.6508694965
 20
262.8091775814
 30
0.0
 11
40.1508694965
 21
259.5091775814
 31
0.0
 12
41.1508694965
 22
259.5091775814
 32
0.0
 13
41.1508694965
 23
259.5091775814
 33
0.0
  0
SOLID
  5
374
  8
0
  6
CONTINUOUS
 62
     7
 10
40.6508694965
 20
173.8091775814
 30
0.0
 11
41.1508694965
 21
177.1091775814
 31
0.0
 12
40.1508694965
 22
177.1091775814
 32
0.0
 13
40.1508694965
 23
177.1091775814
 33
0.0
  0
LINE
  5
375
  8
0
  6
CONTINUOUS
 62
     7
 10
68.0613838468
 20
262.8091775814
 30
0.0
 11
39.6508694965
 21
262.8091775814
 31
0.0
  0
LINE
  5
376
  8
0
  6
CONTINUOUS
 62
     7
 10
68.0613838468
 20
173.8091775814
 30
0.0
 11
39.6508694965
 21
173.8091775814
 31
0.0
  0
LINE
  5
377
  8
0
  6
CONTINUOUS
 62
     7
 10
40.6508694965
 20
262.8091775814
 30
0.0
 11
40.6508694965
 21
173.8091775814
 31
0.0
  0
TEXT
  5
378
  8
0
  6
CONTINUOUS
 62
     7
 10
39.7162020747
 20
216.3493009584
 30
-5.0693632643
 40
2.6458333333
  1
89
 50
90.0
 41
0.7
 11
40.6508693219
 21
216.3493009584
 31
-5.0693632643
 73
     1
  0
ENDBLK
  5
372
  8
0
  0
BLOCK
  8
0
  2
_D_1
 70
     0
 10
0.0
 20
0.0
 30
0.0
  3
_D_1
  1

  0
SOLID
  5
37D
  8
0
  6
CONTINUOUS
 62
     7
 10
48.2788543673
 20
253.3091775814
 30
0.0
 11
47.7788543673
 21
250.0091775814
 31
0.0
 12
48.7788543673
 22
250.0091775814
 32
0.0
 13
48.7788543673
 23
250.0091775814
 33
0.0
  0
SOLID
  5
37E
  8
0
  6
CONTINUOUS
 62
     7
 10
48.2788543673
 20
183.3091775814
 30
0.0
 11
48.7788543673
 21
186.6091775814
 31
0.0
 12
47.7788543673
 22
186.6091775814
 32
0.0
 13
47.7788543673
 23
186.6091775814
 33
0.0
  0
LINE
  5
37F
  8
0
  6
CONTINUOUS
 62
     7
 10
77.8113838468
 20
253.3091775814
 30
0.0
 11
47.2788543673
 21
253.3091775814
 31
0.0
  0
LINE
  5
380
  8
0
  6
CONTINUOUS
 62
     7
 10
77.8113838468
 20
183.3091775814
 30
0.0
 11
47.2788543673
 21
183.3091775814
 31
0.0
  0
LINE
  5
381
  8
0
  6
CONTINUOUS
 62
     7
 10
48.2788543673
 20
253.3091775814
 30
0.0
 11
48.2788543673
 21
183.3091775814
 31
0.0
  0
TEXT
  5
382
  8
0
  6
CONTINUOUS
 62
     7
 10
47.3441869455
 20
216.3493009584
 30
-5.0693632643
 40
2.6458333333
  1
70
 50
90.0
 41
0.7
 11
48.2788541927
 21
216.3493009584
 31
-5.0693632643
 73
     1
  0
ENDBLK
  5
37C
  8
0
  0
BLOCK
  8
0
  2
_D_2
 70
     0
 10
0.0
 20
0.0
 30
0.0
  3
_D_2
  1

  0
SOLID
  5
387
  8
0
  6
CONTINUOUS
 62
     7
 10
55.0243782866
 20
236.3091775814
 30
0.0
 11
54.5243782866
 21
233.0091775814
 31
0.0
 12
55.5243782866
 22
233.0091775814
 32
0.0
 13
55.5243782866
 23
233.0091775814
 33
0.0
  0
SOLID
  5
388
  8
0
  6
CONTINUOUS
 62
     7
 10
55.0243782866
 20
200.3091775814
 30
0.0
 11
55.5243782866
 21
203.6091775814
 31
0.0
 12
54.5243782866
 22
203.6091775814
 32
0.0
 13
54.5243782866
 23
203.6091775814
 33
0.0
  0
LINE
  5
389
  8
0
  6
CONTINUOUS
 62
     7
 10
68.8113838468
 20
236.3091775814
 30
0.0
 11
54.0243782866
 21
236.3091775814
 31
0.0
  0
LINE
  5
38A
  8
0
  6
CONTINUOUS
 62
     7
 10
68.8113838468
 20
200.3091775814
 30
0.0
 11
54.0243782866
 21
200.3091775814
 31
0.0
  0
LINE
  5
38B
  8
0
  6
CONTINUOUS
 62
     7
 10
55.0243782866
 20
236.3091775814
 30
0.0
 11
55.0243782866
 21
200.3091775814
 31
0.0
  0
TEXT
  5
38C
  8
0
  6
CONTINUOUS
 62
     7
 10
54.0897108648
 20
216.3493009584
 30
-5.0693632643
 40
2.6458333333
  1
36
 50
90.0
 41
0.7
 11
55.024378112
 21
216.3493009584
 31
-5.0693632643
 73
     1
  0
ENDBLK
  5
386
  8
0
  0
BLOCK
  8
0
  2
_D_3
 70
     0
 10
0.0
 20
0.0
 30
0.0
  3
_D_3
  1

  0
SOLID
  5
392
  8
0
  6
CONTINUOUS
 62
     7
 10
68.0613838468
 20
165.8901355879
 30
0.0
 11
71.3613838468
 21
165.3901355879
 31
0.0
 12
71.3613838468
 22
166.3901355879
 32
0.0
 13
71.3613838468
 23
166.3901355879
 33
0.0
  0
SOLID
  5
393
  8
0
  6
CONTINUOUS
 62
     7
 10
86.0613838468
 20
165.8901355879
 30
0.0
 11
82.7613838468
 21
166.3901355879
 31
0.0
 12
82.7613838468
 22
165.3901355879
 32
0.0
 13
82.7613838468
 23
165.3901355879
 33
0.0
  0
LINE
  5
394
  8
0
  6
CONTINUOUS
 62
     7
 10
68.0613838468
 20
173.8091775814
 30
0.0
 11
68.0613838468
 21
164.8901355879
 31
0.0
  0
LINE
  5
395
  8
0
  6
CONTINUOUS
 62
     7
 10
86.0613838468
 20
175.0591775814
 30
0.0
 11
86.0613838468
 21
164.8901355879
 31
0.0
  0
LINE
  5
396
  8
0
  6
CONTINUOUS
 62
     7
 10
68.0613838468
 20
165.8901355879
 30
0.0
 11
86.0613838468
 21
165.8901355879
 31
0.0
  0
TEXT
  5
397
  8
0
  6
CONTINUOUS
 62
     7
 10
75.1015072238
 20
166.8248030097
 30
-5.0693632643
 40
2.6458333333
  1
18
 50
0.0
 41
0.7
 11
75.1015072238
 21
165.8901357625
 31
-5.0693632643
 73
     1
  0
ENDBLK
  5
391
  8
0
  0
BLOCK
  8
0
  2
_D_4
 70
     0
 10
0.0
 20
0.0
 30
0.0
  3
_D_4
  1

  0
SOLID
  5
39C
  8
0
  6
CONTINUOUS
 62
     7
 10
77.0613838468
 20
189.6172967342
 30
0.0
 11
80.3613838468
 21
189.1172967342
 31
0.0
 12
80.3613838468
 22
190.1172967342
 32
0.0
 13
80.3613838468
 23
190.1172967342
 33
0.0
  0
SOLID
  5
39D
  8
0
  6
CONTINUOUS
 62
     7
 10
68.0613838468
 20
189.6172967342
 30
0.0
 11
64.7613838468
 21
190.1172967342
 31
0.0
 12
64.7613838468
 22
189.1172967342
 32
0.0
 13
64.7613838468
 23
189.1172967342
 33
0.0
  0
LINE
  5
39E
  8
0
  6
CONTINUOUS
 62
     7
 10
77.0613838468
 20
192.0591775814
 30
0.0
 11
77.0613838468
 21
188.6172967342
 31
0.0
  0
LINE
  5
39F
  8
0
  6
CONTINUOUS
 62
     7
 10
77.0613838468
 20
189.6172967342
 30
0.0
 11
83.3113838468
 21
189.6172967342
 31
0.0
  0
LINE
  5
3A0
  8
0
  6
CONTINUOUS
 62
     7
 10
77.0613838468
 20
189.6172967342
 30
0.0
 11
68.0613838468
 21
189.6172967342
 31
0.0
  0
LINE
  5
3A1
  8
0
  6
CONTINUOUS
 62
     7
 10
68.0613838468
 20
189.6172967342
 30
0.0
 11
61.8113838468
 21
189.6172967342
 31
0.0
  0
TEXT
  5
3A2
  8
0
  6
CONTINUOUS
 62
     7
 10
71.5814455353
 20
190.551964156
 30
-5.0693632643
 40
2.6458333333
  1
9
 50
0.0
 41
0.7
 11
71.5814455353
 21
189.6172969088
 31
-5.0693632643
 73
     1
  0
ENDBLK
  5
39B
  8
0
  0
BLOCK
  8
0
  2
_D_5
 70
     0
 10
0.0
 20
0.0
 30
0.0
  3
_D_5
  1

  0
SOLID
  5
3A7
  8
0
  6
CONTINUOUS
 62
     7
 10
165.2195986722
 20
203.3091775814
 30
0.0
 11
165.7195986722
 21
206.6091775814
 31
0.0
 12
164.7195986722
 22
206.6091775814
 32
0.0
 13
164.7195986722
 23
206.6091775814
 33
0.0
  0
SOLID
  5
3A8
  8
0
  6
CONTINUOUS
 62
     7
 10
165.2195986722
 20
197.3091775814
 30
0.0
 11
164.7195986722
 21
194.0091775814
 31
0.0
 12
165.7195986722
 22
194.0091775814
 32
0.0
 13
165.7195986722
 23
194.0091775814
 33
0.0
  0
LINE
  5
3A9
  8
0
  6
CONTINUOUS
 62
     7
 10
150.7934346544
 20
203.3091775814
 30
0.0
 11
166.2195986722
 21
203.3091775814
 31
0.0
  0
LINE
  5
3AA
  8
0
  6
CONTINUOUS
 62
     7
 10
150.7934346544
 20
197.3091775814
 30
0.0
 11
166.2195986722
 21
197.3091775814
 31
0.0
  0
LINE
  5
3AB
  8
0
  6
CONTINUOUS
 62
     7
 10
165.2195986722
 20
203.3091775814
 30
0.0
 11
165.2195986722
 21
209.5591775814
 31
0.0
  0
LINE
  5
3AC
  8
0
  6
CONTINUOUS
 62
     7
 10
165.2195986722
 20
203.3091775814
 30
0.0
 11
165.2195986722
 21
197.3091775814
 31
0.0
  0
LINE
  5
3AD
  8
0
  6
CONTINUOUS
 62
     7
 10
165.2195986722
 20
197.3091775814
 30
0.0
 11
165.2195986722
 21
191.0591775814
 31
0.0
  0
TEXT
  5
3AE
  8
0
  6
CONTINUOUS
 62
     7
 10
164.2849312504
 20
199.3292392699
 30
-5.0693632643
 40
2.6458333333
  1
6
 50
90.0
 41
0.7
 11
165.2195984976
 21
199.3292392699
 31
-5.0693632643
 73
     1
  0
ENDBLK
  5
3A6
  8
0
  0
BLOCK
  8
0
  2
_NONE
 70
     0
 10
0.0
 20
0.0
 30
0.0
  3
_NONE
  1

  0
ENDBLK
  5
3B3
  8
0
  0
BLOCK
  8
0
  2
_D_6
 70
     0
 10
0.0
 20
0.0
 30
0.0
  3
_D_6
  1

  0
SOLID
  5
3B7
  8
0
  6
CONTINUOUS
 62
     7
 10
152.1750045148
 20
238.6841775814
 30
0.0
 11
155.2828883473
 21
239.9011648795
 31
0.0
 12
154.7828883473
 22
240.7671902833
 32
0.0
 13
154.7828883473
 23
240.7671902833
 33
0.0
  0
LINE
  5
3B8
  8
0
  6
CONTINUOUS
 62
     7
 10
152.1750045148
 20
238.6841775814
 30
0.0
 11
173.2630288324
 21
250.8593540979
 31
0.0
  0
LINE
  5
3B9
  8
0
  6
CONTINUOUS
 62
     7
 10
152.1750045148
 20
238.6841775814
 30
0.0
 11
143.9477631788
 21
233.9341775814
 31
0.0
  0
TEXT
  5
3BA
  8
0
  6
CONTINUOUS
 62
     7
 10
159.1685039103
 20
243.7888226174
 30
-5.0693632643
 40
2.6458333333
  1
%%c
 50
30.0
 41
0.7
 11
159.6358375339
 21
242.9793770373
 31
-5.0693632643
 73
     1
  0
TEXT
  5
3BB
  8
0
  6
CONTINUOUS
 62
     7
 10
162.413534881
 20
245.6623421219
 30
-5.0693632643
 40
2.6458333333
  1
9,5
 50
30.0
 41
0.7
 11
162.8808685046
 21
244.8528965417
 31
-5.0693632643
 73
     1
  0
TEXT
  5
3BC
  8
0
  6
CONTINUOUS
 62
     7
 10
166.6567920389
 20
248.1121877842
 30
-5.0693632643
 40
2.6458333333
  1
x90°
 50
30.0
 41
0.7
 11
167.1241256624
 21
247.3027422041
 31
-5.0693632643
 73
     1
  0
ENDBLK
  5
3B6
  8
0
  0
BLOCK
  8
0
  2
SW_NOTE_0_4
 70
     0
 10
0.0
 20
0.0
 30
0.0
  3
SW_NOTE_0_4
  1

  0
LINE
  5
3C0
  8
0
  6
CONTINUOUS
 62
     0
 10
39.5466356069
 20
5.152343489
 30
0.0
 11
10.0036511456
 21
5.152343489
 31
0.0
  0
TEXT
  5
3C1
  8
0
  6
CONTINUOUS
 62
     0
 10
10.402472216
 20
6.4184597848
 30
0.0
 40
3.5
  1
R10 alternativ
 41
0.7
 11
10.402472216
 21
5.1820495681
 31
0.0
 73
     1
  0
LINE
  5
3C2
  8
0
  6
CONTINUOUS
 62
     0
 10
10.0036511456
 20
5.152343489
 30
0.0
 11
0.0
 21
0.0
 31
0.0
  0
SOLID
  5
3C3
  8
0
  6
CONTINUOUS
 62
     0
 10
0.0
 20
0.0
 30
0.0
 11
3.1626830264
 21
1.0665064813
 31
0.0
 12
2.7048003602
 22
1.9555191156
 32
0.0
 13
2.7048003602
 23
1.9555191156
 33
0.0
  0
ENDBLK
  5
3BF
  8
0
  0
BLOCK
  8
0
  2
SW_NOTE_0_5
 70
     0
 10
0.0
 20
0.0
 30
0.0
  3
SW_NOTE_0_5
  1

  0
CIRCLE
  5
3C8
  8
0
  6
CONTINUOUS
 62
     0
 10
2.9003503428
 20
2.5491044024
 30
0.0
 40
3.681781123287474
  0
TEXT
  5
3C9
  8
0
  6
CONTINUOUS
 62
     0
 10
0.0
 20
1.2364102167
 30
0.0
 40
3.5
  1
Ä2
 41
0.7
 11
0.0
 21
0.0
 31
0.0
 73
     1
  0
ENDBLK
  5
3C7
  8
0
  0
BLOCK
  8
0
  2
SW_NOTE_0_6
 70
     0
 10
0.0
 20
0.0
 30
0.0
  3
SW_NOTE_0_6
  1

  0
CIRCLE
  5
3CE
  8
0
  6
CONTINUOUS
 62
     0
 10
2.91785967
 20
2.4969716128
 30
0.0
 40
3.719924484760728
  0
TEXT
  5
3CF
  8
0
  6
CONTINUOUS
 62
     0
 10
0.0
 20
1.2364102167
 30
0.0
 40
3.5
  1
Ä3
 41
0.7
 11
0.0
 21
0.0
 31
0.0
 73
     1
  0
ENDBLK
  5
3CD
  8
0
  0
BLOCK
  8
0
  2
SW_CENTERMARKSYMBOL_0
 70
     0
 10
0.0
 20
0.0
 30
0.0
  3
SW_CENTERMARKSYMBOL_0
  1

  0
LINE
  5
3D4
  8
0
  6
CONTINUOUS
 62
     0
 10
0.0
 20
0.0
 30
0.0
 11
0.0
 21
2.5
 31
0.0
  0
LINE
  5
3D5
  8
0
  6
CONTINUOUS
 62
     0
 10
0.0
 20
0.0
 30
0.0
 11
-2.5
 21
0.0
 31
0.0
  0
LINE
  5
3D6
  8
0
  6
CONTINUOUS
 62
     0
 10
0.0
 20
0.0
 30
0.0
 11
0.0
 21
-2.5
 31
0.0
  0
LINE
  5
3D7
  8
0
  6
CONTINUOUS
 62
     0
 10
0.0
 20
0.0
 30
0.0
 11
2.5
 21
0.0
 31
0.0
  0
LINE
  5
3D8
  8
0
  6
CONTINUOUS
 62
     0
 10
0.0
 20
5.0
 30
0.0
 11
0.0
 21
7.25
 31
0.0
  0
LINE
  5
3D9
  8
0
  6
CONTINUOUS
 62
     0
 10
-5.0
 20
0.0
 30
0.0
 11
-7.25
 21
0.0
 31
0.0
  0
LINE
  5
3DA
  8
0
  6
CONTINUOUS
 62
     0
 10
0.0
 20
-5.0
 30
0.0
 11
0.0
 21
-7.25
 31
0.0
  0
LINE
  5
3DB
  8
0
  6
CONTINUOUS
 62
     0
 10
5.0
 20
0.0
 30
0.0
 11
7.25
 21
0.0
 31
0.0
  0
ENDBLK
  5
3D3
  8
0
  0
BLOCK
  8
0
  2
SW_CENTERMARKSYMBOL_1
 70
     0
 10
0.0
 20
0.0
 30
0.0
  3
SW_CENTERMARKSYMBOL_1
  1

  0
LINE
  5
3E0
  8
0
  6
CONTINUOUS
 62
     0
 10
0.0
 20
0.0
 30
0.0
 11
0.0
 21
2.5
 31
0.0
  0
LINE
  5
3E1
  8
0
  6
CONTINUOUS
 62
     0
 10
0.0
 20
0.0
 30
0.0
 11
-2.5
 21
0.0
 31
0.0
  0
LINE
  5
3E2
  8
0
  6
CONTINUOUS
 62
     0
 10
0.0
 20
0.0
 30
0.0
 11
0.0
 21
-2.5
 31
0.0
  0
LINE
  5
3E3
  8
0
  6
CONTINUOUS
 62
     0
 10
0.0
 20
0.0
 30
0.0
 11
2.5
 21
0.0
 31
0.0
  0
LINE
  5
3E4
  8
0
  6
CONTINUOUS
 62
     0
 10
0.0
 20
5.0
 30
0.0
 11
0.0
 21
7.25
 31
0.0
  0
LINE
  5
3E5
  8
0
  6
CONTINUOUS
 62
     0
 10
-5.0
 20
0.0
 30
0.0
 11
-7.25
 21
0.0
 31
0.0
  0
LINE
  5
3E6
  8
0
  6
CONTINUOUS
 62
     0
 10
0.0
 20
-5.0
 30
0.0
 11
0.0
 21
-7.25
 31
0.0
  0
LINE
  5
3E7
  8
0
  6
CONTINUOUS
 62
     0
 10
5.0
 20
0.0
 30
0.0
 11
7.25
 21
0.0
 31
0.0
  0
ENDBLK
  5
3DF
  8
0
  0
BLOCK
  8
0
  2
SW_CENTERMARKSYMBOL_2
 70
     0
 10
0.0
 20
0.0
 30
0.0
  3
SW_CENTERMARKSYMBOL_2
  1

  0
LINE
  5
3EC
  8
0
  6
CONTINUOUS
 62
     0
 10
0.0
 20
0.0
 30
0.0
 11
0.0
 21
2.5
 31
0.0
  0
LINE
  5
3ED
  8
0
  6
CONTINUOUS
 62
     0
 10
0.0
 20
0.0
 30
0.0
 11
-2.5
 21
0.0
 31
0.0
  0
LINE
  5
3EE
  8
0
  6
CONTINUOUS
 62
     0
 10
0.0
 20
0.0
 30
0.0
 11
0.0
 21
-2.5
 31
0.0
  0
LINE
  5
3EF
  8
0
  6
CONTINUOUS
 62
     0
 10
0.0
 20
0.0
 30
0.0
 11
2.5
 21
0.0
 31
0.0
  0
LINE
  5
3F0
  8
0
  6
CONTINUOUS
 62
     0
 10
0.0
 20
5.0
 30
0.0
 11
0.0
 21
10.0
 31
0.0
  0
LINE
  5
3F1
  8
0
  6
CONTINUOUS
 62
     0
 10
-5.0
 20
0.0
 30
0.0
 11
-33.3578391858
 21
0.0
 31
0.0
  0
LINE
  5
3F2
  8
0
  6
CONTINUOUS
 62
     0
 10
0.0
 20
-5.0
 30
0.0
 11
0.0
 21
-10.0
 31
0.0
  0
LINE
  5
3F3
  8
0
  6
CONTINUOUS
 62
     0
 10
5.0
 20
0.0
 30
0.0
 11
12.0627153851
 21
0.0
 31
0.0
  0
ENDBLK
  5
3EB
  8
0
  0
BLOCK
  8
0
  2
SW_CENTERMARKSYMBOL_3
 70
     0
 10
0.0
 20
0.0
 30
0.0
  3
SW_CENTERMARKSYMBOL_3
  1

  0
LINE
  5
3F8
  8
0
  6
CONTINUOUS
 62
     0
 10
0.0
 20
0.0
 30
0.0
 11
0.0
 21
2.5
 31
0.0
  0
LINE
  5
3F9
  8
0
  6
CONTINUOUS
 62
     0
 10
0.0
 20
0.0
 30
0.0
 11
-2.5
 21
0.0
 31
0.0
  0
LINE
  5
3FA
  8
0
  6
CONTINUOUS
 62
     0
 10
0.0
 20
0.0
 30
0.0
 11
0.0
 21
-2.5
 31
0.0
  0
LINE
  5
3FB
  8
0
  6
CONTINUOUS
 62
     0
 10
0.0
 20
0.0
 30
0.0
 11
2.5
 21
0.0
 31
0.0
  0
LINE
  5
3FC
  8
0
  6
CONTINUOUS
 62
     0
 10
0.0
 20
5.0
 30
0.0
 11
0.0
 21
7.25
 31
0.0
  0
LINE
  5
3FD
  8
0
  6
CONTINUOUS
 62
     0
 10
-5.0
 20
0.0
 30
0.0
 11
-7.25
 21
0.0
 31
0.0
  0
LINE
  5
3FE
  8
0
  6
CONTINUOUS
 62
     0
 10
0.0
 20
-5.0
 30
0.0
 11
0.0
 21
-7.25
 31
0.0
  0
LINE
  5
3FF
  8
0
  6
CONTINUOUS
 62
     0
 10
5.0
 20
0.0
 30
0.0
 11
7.25
 21
0.0
 31
0.0
  0
ENDBLK
  5
3F7
  8
0
  0
BLOCK
  8
0
  2
SW_CENTERMARKSYMBOL_4
 70
     0
 10
0.0
 20
0.0
 30
0.0
  3
SW_CENTERMARKSYMBOL_4
  1

  0
LINE
  5
404
  8
0
  6
CONTINUOUS
 62
     0
 10
0.0
 20
0.0
 30
0.0
 11
0.0
 21
2.5
 31
0.0
  0
LINE
  5
405
  8
0
  6
CONTINUOUS
 62
     0
 10
0.0
 20
0.0
 30
0.0
 11
-2.5
 21
0.0
 31
0.0
  0
LINE
  5
406
  8
0
  6
CONTINUOUS
 62
     0
 10
0.0
 20
0.0
 30
0.0
 11
0.0
 21
-2.5
 31
0.0
  0
LINE
  5
407
  8
0
  6
CONTINUOUS
 62
     0
 10
0.0
 20
0.0
 30
0.0
 11
2.5
 21
0.0
 31
0.0
  0
LINE
  5
408
  8
0
  6
CONTINUOUS
 62
     0
 10
0.0
 20
5.0
 30
0.0
 11
0.0
 21
7.25
 31
0.0
  0
LINE
  5
409
  8
0
  6
CONTINUOUS
 62
     0
 10
-5.0
 20
0.0
 30
0.0
 11
-7.25
 21
0.0
 31
0.0
  0
LINE
  5
40A
  8
0
  6
CONTINUOUS
 62
     0
 10
0.0
 20
-5.0
 30
0.0
 11
0.0
 21
-7.25
 31
0.0
  0
LINE
  5
40B
  8
0
  6
CONTINUOUS
 62
     0
 10
5.0
 20
0.0
 30
0.0
 11
7.25
 21
0.0
 31
0.0
  0
ENDBLK
  5
403
  8
0
  0
BLOCK
  8
0
  2
SW_CENTERMARKSYMBOL_5
 70
     0
 10
0.0
 20
0.0
 30
0.0
  3
SW_CENTERMARKSYMBOL_5
  1

  0
LINE
  5
410
  8
0
  6
CONTINUOUS
 62
     0
 10
0.0
 20
0.0
 30
0.0
 11
0.0
 21
2.5
 31
0.0
  0
LINE
  5
411
  8
0
  6
CONTINUOUS
 62
     0
 10
0.0
 20
0.0
 30
0.0
 11
-2.5
 21
0.0
 31
0.0
  0
LINE
  5
412
  8
0
  6
CONTINUOUS
 62
     0
 10
0.0
 20
0.0
 30
0.0
 11
0.0
 21
-2.5
 31
0.0
  0
LINE
  5
413
  8
0
  6
CONTINUOUS
 62
     0
 10
0.0
 20
0.0
 30
0.0
 11
2.5
 21
0.0
 31
0.0
  0
LINE
  5
414
  8
0
  6
CONTINUOUS
 62
     0
 10
0.0
 20
5.0
 30
0.0
 11
0.0
 21
7.25
 31
0.0
  0
LINE
  5
415
  8
0
  6
CONTINUOUS
 62
     0
 10
-5.0
 20
0.0
 30
0.0
 11
-7.25
 21
0.0
 31
0.0
  0
LINE
  5
416
  8
0
  6
CONTINUOUS
 62
     0
 10
0.0
 20
-5.0
 30
0.0
 11
0.0
 21
-7.25
 31
0.0
  0
LINE
  5
417
  8
0
  6
CONTINUOUS
 62
     0
 10
5.0
 20
0.0
 30
0.0
 11
7.25
 21
0.0
 31
0.0
  0
ENDBLK
  5
40F
  8
0
  0
BLOCK
  8
0
  2
SW_CENTERMARKSYMBOL_6
 70
     0
 10
0.0
 20
0.0
 30
0.0
  3
SW_CENTERMARKSYMBOL_6
  1

  0
LINE
  5
41C
  8
0
  6
CONTINUOUS
 62
     0
 10
0.0
 20
0.0
 30
0.0
 11
0.0
 21
2.5
 31
0.0
  0
LINE
  5
41D
  8
0
  6
CONTINUOUS
 62
     0
 10
0.0
 20
0.0
 30
0.0
 11
-2.5
 21
0.0
 31
0.0
  0
LINE
  5
41E
  8
0
  6
CONTINUOUS
 62
     0
 10
0.0
 20
0.0
 30
0.0
 11
0.0
 21
-2.5
 31
0.0
  0
LINE
  5
41F
  8
0
  6
CONTINUOUS
 62
     0
 10
0.0
 20
0.0
 30
0.0
 11
2.5
 21
0.0
 31
0.0
  0
LINE
  5
420
  8
0
  6
CONTINUOUS
 62
     0
 10
0.0
 20
5.0
 30
0.0
 11
0.0
 21
7.25
 31
0.0
  0
LINE
  5
421
  8
0
  6
CONTINUOUS
 62
     0
 10
-5.0
 20
0.0
 30
0.0
 11
-7.25
 21
0.0
 31
0.0
  0
LINE
  5
422
  8
0
  6
CONTINUOUS
 62
     0
 10
0.0
 20
-5.0
 30
0.0
 11
0.0
 21
-7.25
 31
0.0
  0
LINE
  5
423
  8
0
  6
CONTINUOUS
 62
     0
 10
5.0
 20
0.0
 30
0.0
 11
7.25
 21
0.0
 31
0.0
  0
ENDBLK
  5
41B
  8
0
  0
BLOCK
  8
0
  2
SW_CENTERMARKSYMBOL_7
 70
     0
 10
0.0
 20
0.0
 30
0.0
  3
SW_CENTERMARKSYMBOL_7
  1

  0
LINE
  5
428
  8
0
  6
CONTINUOUS
 62
     0
 10
0.0
 20
0.0
 30
0.0
 11
0.0
 21
2.5
 31
0.0
  0
LINE
  5
429
  8
0
  6
CONTINUOUS
 62
     0
 10
0.0
 20
0.0
 30
0.0
 11
-2.5
 21
0.0
 31
0.0
  0
LINE
  5
42A
  8
0
  6
CONTINUOUS
 62
     0
 10
0.0
 20
0.0
 30
0.0
 11
0.0
 21
-2.5
 31
0.0
  0
LINE
  5
42B
  8
0
  6
CONTINUOUS
 62
     0
 10
0.0
 20
0.0
 30
0.0
 11
2.5
 21
0.0
 31
0.0
  0
LINE
  5
42C
  8
0
  6
CONTINUOUS
 62
     0
 10
0.0
 20
5.0
 30
0.0
 11
0.0
 21
10.0
 31
0.0
  0
LINE
  5
42D
  8
0
  6
CONTINUOUS
 62
     0
 10
-5.0
 20
0.0
 30
0.0
 11
-13.0036720732
 21
0.0
 31
0.0
  0
LINE
  5
42E
  8
0
  6
CONTINUOUS
 62
     0
 10
0.0
 20
-5.0
 30
0.0
 11
0.0
 21
-10.0
 31
0.0
  0
LINE
  5
42F
  8
0
  6
CONTINUOUS
 62
     0
 10
5.0
 20
0.0
 30
0.0
 11
31.6916041812
 21
0.0
 31
0.0
  0
ENDBLK
  5
427
  8
0
  0
BLOCK
  8
0
  2
SW_CENTERMARKSYMBOL_8
 70
     0
 10
0.0
 20
0.0
 30
0.0
  3
SW_CENTERMARKSYMBOL_8
  1

  0
LINE
  5
434
  8
0
  6
CONTINUOUS
 62
     0
 10
0.0
 20
0.0
 30
0.0
 11
0.0
 21
2.5
 31
0.0
  0
LINE
  5
435
  8
0
  6
CONTINUOUS
 62
     0
 10
0.0
 20
0.0
 30
0.0
 11
-2.5
 21
0.0
 31
0.0
  0
LINE
  5
436
  8
0
  6
CONTINUOUS
 62
     0
 10
0.0
 20
0.0
 30
0.0
 11
0.0
 21
-2.5
 31
0.0
  0
LINE
  5
437
  8
0
  6
CONTINUOUS
 62
     0
 10
0.0
 20
0.0
 30
0.0
 11
2.5
 21
0.0
 31
0.0
  0
LINE
  5
438
  8
0
  6
CONTINUOUS
 62
     0
 10
0.0
 20
5.0
 30
0.0
 11
0.0
 21
7.25
 31
0.0
  0
LINE
  5
439
  8
0
  6
CONTINUOUS
 62
     0
 10
-5.0
 20
0.0
 30
0.0
 11
-7.25
 21
0.0
 31
0.0
  0
LINE
  5
43A
  8
0
  6
CONTINUOUS
 62
     0
 10
0.0
 20
-5.0
 30
0.0
 11
0.0
 21
-7.25
 31
0.0
  0
LINE
  5
43B
  8
0
  6
CONTINUOUS
 62
     0
 10
5.0
 20
0.0
 30
0.0
 11
7.25
 21
0.0
 31
0.0
  0
ENDBLK
  5
433
  8
0
  0
BLOCK
  8
0
  2
SW_CENTERMARKSYMBOL_9
 70
     0
 10
0.0
 20
0.0
 30
0.0
  3
SW_CENTERMARKSYMBOL_9
  1

  0
LINE
  5
440
  8
0
  6
CONTINUOUS
 62
     0
 10
0.0
 20
0.0
 30
0.0
 11
0.0
 21
2.5
 31
0.0
  0
LINE
  5
441
  8
0
  6
CONTINUOUS
 62
     0
 10
0.0
 20
0.0
 30
0.0
 11
-2.5
 21
0.0
 31
0.0
  0
LINE
  5
442
  8
0
  6
CONTINUOUS
 62
     0
 10
0.0
 20
0.0
 30
0.0
 11
0.0
 21
-2.5
 31
0.0
  0
LINE
  5
443
  8
0
  6
CONTINUOUS
 62
     0
 10
0.0
 20
0.0
 30
0.0
 11
2.5
 21
0.0
 31
0.0
  0
LINE
  5
444
  8
0
  6
CONTINUOUS
 62
     0
 10
0.0
 20
5.0
 30
0.0
 11
0.0
 21
7.25
 31
0.0
  0
LINE
  5
445
  8
0
  6
CONTINUOUS
 62
     0
 10
-5.0
 20
0.0
 30
0.0
 11
-7.25
 21
0.0
 31
0.0
  0
LINE
  5
446
  8
0
  6
CONTINUOUS
 62
     0
 10
0.0
 20
-5.0
 30
0.0
 11
0.0
 21
-7.25
 31
0.0
  0
LINE
  5
447
  8
0
  6
CONTINUOUS
 62
     0
 10
5.0
 20
0.0
 30
0.0
 11
7.25
 21
0.0
 31
0.0
  0
ENDBLK
  5
43F
  8
0
  0
BLOCK
  8
0
  2
_D_7
 70
     0
 10
0.0
 20
0.0
 30
0.0
  3
_D_7
  1

  0
SOLID
  5
491
  8
0
  6
CONTINUOUS
 62
     7
 10
68.0613838468
 20
134.657052943
 30
0.0
 11
71.3613838468
 21
134.157052943
 31
0.0
 12
71.3613838468
 22
135.157052943
 32
0.0
 13
71.3613838468
 23
135.157052943
 33
0.0
  0
SOLID
  5
492
  8
0
  6
CONTINUOUS
 62
     7
 10
157.0613838468
 20
134.657052943
 30
0.0
 11
153.7613838468
 21
135.157052943
 31
0.0
 12
153.7613838468
 22
134.157052943
 32
0.0
 13
153.7613838468
 23
134.157052943
 33
0.0
  0
LINE
  5
493
  8
0
  6
CONTINUOUS
 62
     7
 10
68.0613838468
 20
122.2957794715
 30
0.0
 11
68.0613838468
 21
135.657052943
 31
0.0
  0
LINE
  5
494
  8
0
  6
CONTINUOUS
 62
     7
 10
157.0613838468
 20
122.2957794715
 30
0.0
 11
157.0613838468
 21
135.657052943
 31
0.0
  0
LINE
  5
495
  8
0
  6
CONTINUOUS
 62
     7
 10
68.0613838468
 20
134.657052943
 30
0.0
 11
157.0613838468
 21
134.657052943
 31
0.0
  0
TEXT
  5
496
  8
0
  6
CONTINUOUS
 62
     7
 10
110.6015072238
 20
135.5917203648
 30
36.5221701959
 40
2.6458333333
  1
89
 50
360.0
 41
0.7
 11
110.6015072238
 21
134.6570531176
 31
36.5221701959
 73
     1
  0
ENDBLK
  5
490
  8
0
  0
BLOCK
  8
0
  2
_D_8
 70
     0
 10
0.0
 20
0.0
 30
0.0
  3
_D_8
  1

  0
SOLID
  5
49C
  8
0
  6
CONTINUOUS
 62
     7
 10
139.0780690733
 20
127.5719360888
 30
0.0
 11
135.7780690733
 21
128.0719360888
 31
0.0
 12
135.7780690733
 22
127.0719360888
 32
0.0
 13
135.7780690733
 23
127.0719360888
 33
0.0
  0
SOLID
  5
49D
  8
0
  6
CONTINUOUS
 62
     7
 10
154.0446986204
 20
127.5719360888
 30
0.0
 11
157.3446986204
 21
127.0719360888
 31
0.0
 12
157.3446986204
 22
128.0719360888
 32
0.0
 13
157.3446986204
 23
128.0719360888
 33
0.0
  0
LINE
  5
49E
  8
0
  6
CONTINUOUS
 62
     7
 10
139.0780690733
 20
122.2957794715
 30
0.0
 11
139.0780690733
 21
128.5719360888
 31
0.0
  0
LINE
  5
49F
  8
0
  6
CONTINUOUS
 62
     7
 10
154.0446986204
 20
122.2957794715
 30
0.0
 11
154.0446986204
 21
128.5719360888
 31
0.0
  0
LINE
  5
4A0
  8
0
  6
CONTINUOUS
 62
     7
 10
139.0780690733
 20
127.5719360888
 30
0.0
 11
132.8280690733
 21
127.5719360888
 31
0.0
  0
LINE
  5
4A1
  8
0
  6
CONTINUOUS
 62
     7
 10
139.0780690733
 20
127.5719360888
 30
0.0
 11
154.0446986204
 21
127.5719360888
 31
0.0
  0
LINE
  5
4A2
  8
0
  6
CONTINUOUS
 62
     7
 10
154.0446986204
 20
127.5719360888
 30
0.0
 11
160.2946986204
 21
127.5719360888
 31
0.0
  0
TEXT
  5
4A3
  8
0
  6
CONTINUOUS
 62
     7
 10
144.6015072238
 20
128.5066035106
 30
36.5221701959
 40
2.6458333333
  1
15
 50
360.0
 41
0.7
 11
144.6015072238
 21
127.5719362635
 31
36.5221701959
 73
     1
  0
ENDBLK
  5
49B
  8
0
  0
BLOCK
  8
0
  2
_D_9
 70
     0
 10
0.0
 20
0.0
 30
0.0
  3
_D_9
  1

  0
SOLID
  5
4A8
  8
0
  6
CONTINUOUS
 62
     7
 10
59.8018635526
 20
121.2957794715
 30
0.0
 11
60.3018635526
 21
124.5957794715
 31
0.0
 12
59.3018635526
 22
124.5957794715
 32
0.0
 13
59.3018635526
 23
124.5957794715
 33
0.0
  0
SOLID
  5
4A9
  8
0
  6
CONTINUOUS
 62
     7
 10
59.8018635526
 20
118.7957794715
 30
0.0
 11
59.3018635526
 21
115.4957794715
 31
0.0
 12
60.3018635526
 22
115.4957794715
 32
0.0
 13
60.3018635526
 23
115.4957794715
 33
0.0
  0
LINE
  5
4AA
  8
0
  6
CONTINUOUS
 62
     7
 10
68.0613838468
 20
121.2957794715
 30
0.0
 11
58.8018635526
 21
121.2957794715
 31
0.0
  0
LINE
  5
4AB
  8
0
  6
CONTINUOUS
 62
     7
 10
68.0613838468
 20
118.7957794715
 30
0.0
 11
58.8018635526
 21
118.7957794715
 31
0.0
  0
LINE
  5
4AC
  8
0
  6
CONTINUOUS
 62
     7
 10
59.8018635526
 20
121.2957794715
 30
0.0
 11
59.8018635526
 21
127.5457794715
 31
0.0
  0
LINE
  5
4AD
  8
0
  6
CONTINUOUS
 62
     7
 10
59.8018635526
 20
121.2957794715
 30
0.0
 11
59.8018635526
 21
118.7957794715
 31
0.0
  0
LINE
  5
4AE
  8
0
  6
CONTINUOUS
 62
     7
 10
59.8018635526
 20
118.7957794715
 30
0.0
 11
59.8018635526
 21
109.0697790502
 31
0.0
  0
TEXT
  5
4AF
  8
0
  6
CONTINUOUS
 62
     7
 10
58.8671961308
 20
109.0697790502
 30
36.5221701959
 40
2.6458333333
  1
2,5
 50
90.0
 41
0.7
 11
59.801863378
 21
109.0697790502
 31
36.5221701959
 73
     1
  0
ENDBLK
  5
4A7
  8
0
  0
BLOCK
  8
0
  2
_D_10
 70
     0
 10
0.0
 20
0.0
 30
0.0
  3
_D_10
  1

  0
SOLID
  5
4B4
  8
0
  6
CONTINUOUS
 62
     7
 10
68.0613838468
 20
127.8806343801
 30
0.0
 11
64.7613838468
 21
128.3806343801
 31
0.0
 12
64.7613838468
 22
127.3806343801
 32
0.0
 13
64.7613838468
 23
127.3806343801
 33
0.0
  0
SOLID
  5
4B5
  8
0
  6
CONTINUOUS
 62
     7
 10
80.0613838468
 20
127.8806343801
 30
0.0
 11
83.3613838468
 21
127.3806343801
 31
0.0
 12
83.3613838468
 22
128.3806343801
 32
0.0
 13
83.3613838468
 23
128.3806343801
 33
0.0
  0
LINE
  5
4B6
  8
0
  6
CONTINUOUS
 62
     7
 10
68.0613838468
 20
122.2957794715
 30
0.0
 11
68.0613838468
 21
128.8806343801
 31
0.0
  0
LINE
  5
4B7
  8
0
  6
CONTINUOUS
 62
     7
 10
80.0613838468
 20
123.3686284696
 30
0.0
 11
80.0613838468
 21
128.8806343801
 31
0.0
  0
LINE
  5
4B8
  8
0
  6
CONTINUOUS
 62
     7
 10
68.0613838468
 20
127.8806343801
 30
0.0
 11
61.8113838468
 21
127.8806343801
 31
0.0
  0
LINE
  5
4B9
  8
0
  6
CONTINUOUS
 62
     7
 10
68.0613838468
 20
127.8806343801
 30
0.0
 11
80.0613838468
 21
127.8806343801
 31
0.0
  0
LINE
  5
4BA
  8
0
  6
CONTINUOUS
 62
     7
 10
80.0613838468
 20
127.8806343801
 30
0.0
 11
86.3113838468
 21
127.8806343801
 31
0.0
  0
TEXT
  5
4BB
  8
0
  6
CONTINUOUS
 62
     7
 10
72.1015072238
 20
128.8153018019
 30
36.5221701959
 40
2.6458333333
  1
12
 50
0.0
 41
0.7
 11
72.1015072238
 21
127.8806345547
 31
36.5221701959
 73
     1
  0
ENDBLK
  5
4B3
  8
0
  0
BLOCK
  8
0
  2
_D_11
 70
     0
 10
0.0
 20
0.0
 30
0.0
  3
_D_11
  1

  0
SOLID
  5
4C0
  8
0
  6
CONTINUOUS
 62
     7
 10
85.0613838468
 20
93.1006269025
 30
0.0
 11
88.3613838468
 21
92.6006269025
 31
0.0
 12
88.3613838468
 22
93.6006269025
 32
0.0
 13
88.3613838468
 23
93.6006269025
 33
0.0
  0
SOLID
  5
4C1
  8
0
  6
CONTINUOUS
 62
     7
 10
75.0613838468
 20
93.1006269025
 30
0.0
 11
71.7613838468
 21
93.6006269025
 31
0.0
 12
71.7613838468
 22
92.6006269025
 32
0.0
 13
71.7613838468
 23
92.6006269025
 33
0.0
  0
LINE
  5
4C2
  8
0
  6
CONTINUOUS
 62
     7
 10
85.0613838468
 20
100.7957794715
 30
0.0
 11
85.0613838468
 21
92.1006269025
 31
0.0
  0
LINE
  5
4C3
  8
0
  6
CONTINUOUS
 62
     7
 10
75.0613838468
 20
100.7957794715
 30
0.0
 11
75.0613838468
 21
92.1006269025
 31
0.0
  0
LINE
  5
4C4
  8
0
  6
CONTINUOUS
 62
     7
 10
85.0613838468
 20
93.1006269025
 30
0.0
 11
91.3113838468
 21
93.1006269025
 31
0.0
  0
LINE
  5
4C5
  8
0
  6
CONTINUOUS
 62
     7
 10
85.0613838468
 20
93.1006269025
 30
0.0
 11
75.0613838468
 21
93.1006269025
 31
0.0
  0
LINE
  5
4C6
  8
0
  6
CONTINUOUS
 62
     7
 10
75.0613838468
 20
93.1006269025
 30
0.0
 11
68.8113838468
 21
93.1006269025
 31
0.0
  0
TEXT
  5
4C7
  8
0
  6
CONTINUOUS
 62
     7
 10
76.2279877194
 20
94.0352940915
 30
36.5221701959
 40
2.6458333333
  1
%%c
 50
0.0
 41
0.7
 11
76.2279877194
 21
93.1006268443
 31
36.5221701959
 73
     1
  0
TEXT
  5
4C8
  8
0
  6
CONTINUOUS
 62
     7
 10
79.9750267282
 20
94.0352940915
 30
36.5221701959
 40
2.6458333333
  1
10
 50
0.0
 41
0.7
 11
79.9750267282
 21
93.1006268443
 31
36.5221701959
 73
     1
  0
ENDBLK
  5
4BF
  8
0
  0
BLOCK
  8
0
  2
_D_12
 70
     0
 10
0.0
 20
0.0
 30
0.0
  3
_D_12
  1

  0
SOLID
  5
4CD
  8
0
  6
CONTINUOUS
 62
     7
 10
146.5613838468
 20
109.5825159793
 30
0.0
 11
143.2613838468
 21
110.0825159793
 31
0.0
 12
143.2613838468
 22
109.0825159793
 32
0.0
 13
143.2613838468
 23
109.0825159793
 33
0.0
  0
SOLID
  5
4CE
  8
0
  6
CONTINUOUS
 62
     7
 10
157.0613838468
 20
109.5825159793
 30
0.0
 11
160.3613838468
 21
109.0825159793
 31
0.0
 12
160.3613838468
 22
110.0825159793
 32
0.0
 13
160.3613838468
 23
110.0825159793
 33
0.0
  0
LINE
  5
4CF
  8
0
  6
CONTINUOUS
 62
     7
 10
146.5613838468
 20
115.7957794715
 30
0.0
 11
146.5613838468
 21
108.5825159793
 31
0.0
  0
LINE
  5
4D0
  8
0
  6
CONTINUOUS
 62
     7
 10
157.0613838468
 20
117.7957794715
 30
0.0
 11
157.0613838468
 21
108.5825159793
 31
0.0
  0
LINE
  5
4D1
  8
0
  6
CONTINUOUS
 62
     7
 10
146.5613838468
 20
109.5825159793
 30
0.0
 11
140.3113838468
 21
109.5825159793
 31
0.0
  0
LINE
  5
4D2
  8
0
  6
CONTINUOUS
 62
     7
 10
146.5613838468
 20
109.5825159793
 30
0.0
 11
157.0613838468
 21
109.5825159793
 31
0.0
  0
LINE
  5
4D3
  8
0
  6
CONTINUOUS
 62
     7
 10
157.0613838468
 20
109.5825159793
 30
0.0
 11
163.3113838468
 21
109.5825159793
 31
0.0
  0
TEXT
  5
4D4
  8
0
  6
CONTINUOUS
 62
     7
 10
148.3815996401
 20
110.517183401
 30
36.5221701959
 40
2.6458333333
  1
10,5
 50
360.0
 41
0.7
 11
148.3815996401
 21
109.5825161539
 31
36.5221701959
 73
     1
  0
ENDBLK
  5
4CC
  8
0
  0
BLOCK
  8
0
  2
_D_13
 70
     0
 10
0.0
 20
0.0
 30
0.0
  3
_D_13
  1

  0
SOLID
  5
4D9
  8
0
  6
CONTINUOUS
 62
     7
 10
168.6275450347
 20
121.2957794715
 30
0.0
 11
169.1275450347
 21
124.5957794715
 31
0.0
 12
168.1275450347
 22
124.5957794715
 32
0.0
 13
168.1275450347
 23
124.5957794715
 33
0.0
  0
SOLID
  5
4DA
  8
0
  6
CONTINUOUS
 62
     7
 10
168.6275450347
 20
117.7957794715
 30
0.0
 11
168.1275450347
 21
114.4957794715
 31
0.0
 12
169.1275450347
 22
114.4957794715
 32
0.0
 13
169.1275450347
 23
114.4957794715
 33
0.0
  0
LINE
  5
4DB
  8
0
  6
CONTINUOUS
 62
     7
 10
157.0613838468
 20
121.2957794715
 30
0.0
 11
169.6275450347
 21
121.2957794715
 31
0.0
  0
LINE
  5
4DC
  8
0
  6
CONTINUOUS
 62
     7
 10
122.0613838468
 20
117.7957794715
 30
0.0
 11
169.6275450347
 21
117.7957794715
 31
0.0
  0
LINE
  5
4DD
  8
0
  6
CONTINUOUS
 62
     7
 10
168.6275450347
 20
121.2957794715
 30
0.0
 11
168.6275450347
 21
130.9036301816
 31
0.0
  0
LINE
  5
4DE
  8
0
  6
CONTINUOUS
 62
     7
 10
168.6275450347
 20
121.2957794715
 30
0.0
 11
168.6275450347
 21
117.7957794715
 31
0.0
  0
LINE
  5
4DF
  8
0
  6
CONTINUOUS
 62
     7
 10
168.6275450347
 20
117.7957794715
 30
0.0
 11
168.6275450347
 21
111.5457794715
 31
0.0
  0
TEXT
  5
4E0
  8
0
  6
CONTINUOUS
 62
     7
 10
167.6928776129
 20
126.0039383913
 30
36.5221701959
 40
2.6458333333
  1
3,5
 50
90.0
 41
0.7
 11
168.6275448601
 21
126.0039383913
 31
36.5221701959
 73
     1
  0
ENDBLK
  5
4D8
  8
0
  0
BLOCK
  8
0
  2
SW_CENTERMARKSYMBOL_10
 70
     0
 10
0.0
 20
0.0
 30
0.0
  3
SW_CENTERMARKSYMBOL_10
  1

  0
LINE
  5
4E4
  8
0
  6
CONTINUOUS
 62
     0
 10
0.0
 20
0.0
 30
0.0
 11
0.0
 21
2.5
 31
0.0
  0
LINE
  5
4E5
  8
0
  6
CONTINUOUS
 62
     0
 10
0.0
 20
0.0
 30
0.0
 11
-2.5
 21
0.0
 31
0.0
  0
LINE
  5
4E6
  8
0
  6
CONTINUOUS
 62
     0
 10
0.0
 20
0.0
 30
0.0
 11
0.0
 21
-2.5
 31
0.0
  0
LINE
  5
4E7
  8
0
  6
CONTINUOUS
 62
     0
 10
0.0
 20
0.0
 30
0.0
 11
2.5
 21
0.0
 31
0.0
  0
LINE
  5
4E8
  8
0
  6
CONTINUOUS
 62
     0
 10
0.0
 20
5.0
 30
0.0
 11
0.0
 21
8.5
 31
0.0
  0
LINE
  5
4E9
  8
0
  6
CONTINUOUS
 62
     0
 10
-5.0
 20
0.0
 30
0.0
 11
-8.5
 21
0.0
 31
0.0
  0
LINE
  5
4EA
  8
0
  6
CONTINUOUS
 62
     0
 10
0.0
 20
-5.0
 30
0.0
 11
0.0
 21
-8.5
 31
0.0
  0
LINE
  5
4EB
  8
0
  6
CONTINUOUS
 62
     0
 10
5.0
 20
0.0
 30
0.0
 11
8.5
 21
0.0
 31
0.0
  0
ENDBLK
  5
4E3
  8
0
  0
BLOCK
  8
0
  2
_D_14
 70
     0
 10
0.0
 20
0.0
 30
0.0
  3
_D_14
  1

  0
SOLID
  5
54E
  8
0
  6
CONTINUOUS
 62
     7
 10
165.6827985577
 20
69.1529975731
 30
0.0
 11
166.1827985577
 21
72.4529975731
 31
0.0
 12
165.1827985577
 22
72.4529975731
 32
0.0
 13
165.1827985577
 23
72.4529975731
 33
0.0
  0
SOLID
  5
54F
  8
0
  6
CONTINUOUS
 62
     7
 10
165.6827985577
 20
62.1529975731
 30
0.0
 11
165.1827985577
 21
58.8529975731
 31
0.0
 12
166.1827985577
 22
58.8529975731
 32
0.0
 13
166.1827985577
 23
58.8529975731
 33
0.0
  0
LINE
  5
550
  8
0
  6
CONTINUOUS
 62
     7
 10
158.0613838468
 20
69.1529975731
 30
0.0
 11
166.6827985577
 21
69.1529975731
 31
0.0
  0
LINE
  5
551
  8
0
  6
CONTINUOUS
 62
     7
 10
158.0613838468
 20
62.1529975731
 30
0.0
 11
166.6827985577
 21
62.1529975731
 31
0.0
  0
LINE
  5
552
  8
0
  6
CONTINUOUS
 62
     7
 10
165.6827985577
 20
69.1529975731
 30
0.0
 11
165.6827985577
 21
75.4029975731
 31
0.0
  0
LINE
  5
553
  8
0
  6
CONTINUOUS
 62
     7
 10
165.6827985577
 20
69.1529975731
 30
0.0
 11
165.6827985577
 21
62.1529975731
 31
0.0
  0
LINE
  5
554
  8
0
  6
CONTINUOUS
 62
     7
 10
165.6827985577
 20
62.1529975731
 30
0.0
 11
165.6827985577
 21
55.9029975731
 31
0.0
  0
TEXT
  5
555
  8
0
  6
CONTINUOUS
 62
     7
 10
164.748131136
 20
64.6730592616
 30
36.5221701959
 40
2.6458333333
  1
7
 50
90.0
 41
0.7
 11
165.6827983831
 21
64.6730592616
 31
36.5221701959
 73
     1
  0
ENDBLK
  5
54D
  8
0
  0
BLOCK
  8
0
  2
_D_15
 70
     0
 10
0.0
 20
0.0
 30
0.0
  3
_D_15
  1

  0
SOLID
  5
55A
  8
0
  6
CONTINUOUS
 62
     7
 10
174.0613838468
 20
62.1529975731
 30
0.0
 11
174.5613838468
 21
65.4529975731
 31
0.0
 12
173.5613838468
 22
65.4529975731
 32
0.0
 13
173.5613838468
 23
65.4529975731
 33
0.0
  0
SOLID
  5
55B
  8
0
  6
CONTINUOUS
 62
     7
 10
174.0613838468
 20
82.6529975731
 30
0.0
 11
173.5613838468
 21
79.3529975731
 31
0.0
 12
174.5613838468
 22
79.3529975731
 32
0.0
 13
174.5613838468
 23
79.3529975731
 33
0.0
  0
LINE
  5
55C
  8
0
  6
CONTINUOUS
 62
     7
 10
158.0613838468
 20
62.1529975731
 30
0.0
 11
175.0613838468
 21
62.1529975731
 31
0.0
  0
LINE
  5
55D
  8
0
  6
CONTINUOUS
 62
     7
 10
150.0300108134
 20
82.6529975731
 30
0.0
 11
175.0613838468
 21
82.6529975731
 31
0.0
  0
LINE
  5
55E
  8
0
  6
CONTINUOUS
 62
     7
 10
174.0613838468
 20
62.1529975731
 30
0.0
 11
174.0613838468
 21
82.6529975731
 31
0.0
  0
TEXT
  5
55F
  8
0
  6
CONTINUOUS
 62
     7
 10
173.126716425
 20
68.9732133665
 30
36.5221701959
 40
2.6458333333
  1
20,5
 50
90.0
 41
0.7
 11
174.0613836722
 21
68.9732133665
 31
36.5221701959
 73
     1
  0
ENDBLK
  5
559
  8
0
  0
BLOCK
  8
0
  2
_D_16
 70
     0
 10
0.0
 20
0.0
 30
0.0
  3
_D_16
  1

  0
SOLID
  5
564
  8
0
  6
CONTINUOUS
 62
     7
 10
112.5613838468
 20
53.1582697854
 30
0.0
 11
115.8613838468
 21
52.6582697854
 31
0.0
 12
115.8613838468
 22
53.6582697854
 32
0.0
 13
115.8613838468
 23
53.6582697854
 33
0.0
  0
SOLID
  5
565
  8
0
  6
CONTINUOUS
 62
     7
 10
157.0613838468
 20
53.1582697854
 30
0.0
 11
153.7613838468
 21
53.6582697854
 31
0.0
 12
153.7613838468
 22
52.6582697854
 32
0.0
 13
153.7613838468
 23
52.6582697854
 33
0.0
  0
LINE
  5
566
  8
0
  6
CONTINUOUS
 62
     7
 10
112.5613838468
 20
56.1529975731
 30
0.0
 11
112.5613838468
 21
52.1582697854
 31
0.0
  0
LINE
  5
567
  8
0
  6
CONTINUOUS
 62
     7
 10
157.0613838468
 20
61.1529975731
 30
0.0
 11
157.0613838468
 21
52.1582697854
 31
0.0
  0
LINE
  5
568
  8
0
  6
CONTINUOUS
 62
     7
 10
112.5613838468
 20
53.1582697854
 30
0.0
 11
157.0613838468
 21
53.1582697854
 31
0.0
  0
TEXT
  5
569
  8
0
  6
CONTINUOUS
 62
     7
 10
131.3815996401
 20
54.0929372072
 30
36.5221701959
 40
2.6458333333
  1
44,5
 50
360.0
 41
0.7
 11
131.3815996401
 21
53.1582699601
 31
36.5221701959
 73
     1
  0
ENDBLK
  5
563
  8
0
  0
BLOCK
  8
0
  2
_D_17
 70
     0
 10
0.0
 20
0.0
 30
0.0
  3
_D_17
  1

  0
SOLID
  5
56E
  8
0
  6
CONTINUOUS
 62
     7
 10
107.9681467463
 20
61.7926643053
 30
0.0
 11
105.1201719021
 21
60.0522507664
 31
0.0
 12
105.7635607801
 22
59.2867112496
 32
0.0
 13
105.7635607801
 23
59.2867112496
 33
0.0
  0
LINE
  5
56F
  8
0
  6
CONTINUOUS
 62
     7
 10
107.9681467463
 20
61.7926643053
 30
0.0
 11
99.2771194592
 21
54.4883904274
 31
0.0
  0
LINE
  5
570
  8
0
  6
CONTINUOUS
 62
     7
 10
107.9681467463
 20
61.7926643053
 30
0.0
 11
117.1546209473
 21
69.513330841
 31
0.0
  0
TEXT
  5
571
  8
0
  6
CONTINUOUS
 62
     7
 10
98.692270734
 20
55.1842756466
 30
36.5221701959
 40
2.6458333333
  1
%%c
 50
40.0449862813
 41
0.7
 11
99.2936252455
 21
54.4687509339
 31
36.5221701959
 73
     1
  0
TEXT
  5
572
  8
0
  6
CONTINUOUS
 62
     7
 10
101.5607771661
 20
57.5950788703
 30
36.5221701959
 40
2.6458333333
  1
12
 50
40.0449862813
 41
0.7
 11
102.1621316776
 21
56.8795541576
 31
36.5221701959
 73
     1
  0
ENDBLK
  5
56D
  8
0
  0
BLOCK
  8
0
  2
SW_NOTE_0_7
 70
     0
 10
0.0
 20
0.0
 30
0.0
  3
SW_NOTE_0_7
  1

  0
LINE
  5
576
  8
0
  6
CONTINUOUS
 62
     0
 10
-12.7466745833
 20
4.2859210064
 30
0.0
 11
-3.5676673417
 21
4.2859210064
 31
0.0
  0
TEXT
  5
577
  8
0
  6
CONTINUOUS
 62
     0
 10
-13.217589943
 20
5.1279829322
 30
0.0
 40
2.6458333333
  1
1x45°
 41
0.7
 11
-13.217589943
 21
4.193315685
 31
0.0
 73
     1
  0
LINE
  5
578
  8
0
  6
CONTINUOUS
 62
     0
 10
-3.5676673417
 20
4.2859210064
 30
0.0
 11
0.0
 21
0.0
 31
0.0
  0
SOLID
  5
579
  8
0
  6
CONTINUOUS
 62
     0
 10
0.0
 20
0.0
 30
0.0
 11
-1.7269504367
 21
2.8561586422
 31
0.0
 12
-2.4955185068
 22
2.2163906204
 32
0.0
 13
-2.4955185068
 23
2.2163906204
 33
0.0
  0
ENDBLK
  5
575
  8
0
  0
BLOCK
  8
0
  2
SW_CENTERMARKSYMBOL_11
 70
     0
 10
0.0
 20
0.0
 30
0.0
  3
SW_CENTERMARKSYMBOL_11
  1

  0
LINE
  5
57E
  8
0
  6
CONTINUOUS
 62
     0
 10
0.0
 20
0.0
 30
0.0
 11
0.0
 21
2.5
 31
0.0
  0
LINE
  5
57F
  8
0
  6
CONTINUOUS
 62
     0
 10
0.0
 20
0.0
 30
0.0
 11
-2.5
 21
0.0
 31
0.0
  0
LINE
  5
580
  8
0
  6
CONTINUOUS
 62
     0
 10
0.0
 20
0.0
 30
0.0
 11
0.0
 21
-2.5
 31
0.0
  0
LINE
  5
581
  8
0
  6
CONTINUOUS
 62
     0
 10
0.0
 20
0.0
 30
0.0
 11
2.5
 21
0.0
 31
0.0
  0
LINE
  5
582
  8
0
  6
CONTINUOUS
 62
     0
 10
0.0
 20
5.0
 30
0.0
 11
0.0
 21
8.5
 31
0.0
  0
LINE
  5
583
  8
0
  6
CONTINUOUS
 62
     0
 10
-5.0
 20
0.0
 30
0.0
 11
-8.5
 21
0.0
 31
0.0
  0
LINE
  5
584
  8
0
  6
CONTINUOUS
 62
     0
 10
0.0
 20
-5.0
 30
0.0
 11
0.0
 21
-8.5
 31
0.0
  0
LINE
  5
585
  8
0
  6
CONTINUOUS
 62
     0
 10
5.0
 20
0.0
 30
0.0
 11
8.5
 21
0.0
 31
0.0
  0
ENDBLK
  5
57D
  8
0
  0
BLOCK
  8
0
  2
_D_18
 70
     0
 10
0.0
 20
0.0
 30
0.0
  3
_D_18
  1

  0
SOLID
  5
6BF
  8
0
  6
CONTINUOUS
 62
     7
 10
265.5696622515
 20
141.6308760648
 30
0.0
 11
268.8696622515
 21
141.1308760648
 31
0.0
 12
268.8696622515
 22
142.1308760648
 32
0.0
 13
268.8696622515
 23
142.1308760648
 33
0.0
  0
SOLID
  5
6C0
  8
0
  6
CONTINUOUS
 62
     7
 10
310.0696622515
 20
141.6308760648
 30
0.0
 11
306.7696622515
 21
142.1308760648
 31
0.0
 12
306.7696622515
 22
141.1308760648
 32
0.0
 13
306.7696622515
 23
141.1308760648
 33
0.0
  0
LINE
  5
6C1
  8
0
  6
CONTINUOUS
 62
     7
 10
265.5696622515
 20
191.6308760648
 30
0.0
 11
265.5696622515
 21
140.6308760648
 31
0.0
  0
LINE
  5
6C2
  8
0
  6
CONTINUOUS
 62
     7
 10
310.0696622515
 20
192.6308760648
 30
0.0
 11
310.0696622515
 21
140.6308760648
 31
0.0
  0
LINE
  5
6C3
  8
0
  6
CONTINUOUS
 62
     7
 10
265.5696622515
 20
141.6308760648
 30
0.0
 11
310.0696622515
 21
141.6308760648
 31
0.0
  0
TEXT
  5
6C4
  8
0
  6
CONTINUOUS
 62
     7
 10
284.3898780448
 20
142.5655434866
 30
37.5221701959
 40
2.6458333333
  1
44,5
 50
0.0
 41
0.7
 11
284.3898780448
 21
141.6308762394
 31
37.5221701959
 73
     1
  0
ENDBLK
  5
6BE
  8
0
  0
BLOCK
  8
0
  2
_D_19
 70
     0
 10
0.0
 20
0.0
 30
0.0
  3
_D_19
  1

  0
SOLID
  5
6C9
  8
0
  6
CONTINUOUS
 62
     7
 10
334.5696622515
 20
191.6308760648
 30
0.0
 11
334.0696622515
 21
188.3308760648
 31
0.0
 12
335.0696622515
 22
188.3308760648
 32
0.0
 13
335.0696622515
 23
188.3308760648
 33
0.0
  0
SOLID
  5
6CA
  8
0
  6
CONTINUOUS
 62
     7
 10
334.5696622515
 20
193.6308760648
 30
0.0
 11
335.0696622515
 21
196.9308760648
 31
0.0
 12
334.0696622515
 22
196.9308760648
 32
0.0
 13
334.0696622515
 23
196.9308760648
 33
0.0
  0
LINE
  5
6CB
  8
0
  6
CONTINUOUS
 62
     7
 10
318.5696622515
 20
191.6308760648
 30
0.0
 11
335.5696622515
 21
191.6308760648
 31
0.0
  0
LINE
  5
6CC
  8
0
  6
CONTINUOUS
 62
     7
 10
318.5696622515
 20
193.6308760648
 30
0.0
 11
335.5696622515
 21
193.6308760648
 31
0.0
  0
LINE
  5
6CD
  8
0
  6
CONTINUOUS
 62
     7
 10
334.5696622515
 20
191.6308760648
 30
0.0
 11
334.5696622515
 21
185.3808760648
 31
0.0
  0
LINE
  5
6CE
  8
0
  6
CONTINUOUS
 62
     7
 10
334.5696622515
 20
191.6308760648
 30
0.0
 11
334.5696622515
 21
193.6308760648
 31
0.0
  0
LINE
  5
6CF
  8
0
  6
CONTINUOUS
 62
     7
 10
334.5696622515
 20
193.6308760648
 30
0.0
 11
334.5696622515
 21
205.0693920424
 31
0.0
  0
TEXT
  5
6D0
  8
0
  6
CONTINUOUS
 62
     7
 10
333.6349948297
 20
203.1095154194
 30
37.5221701959
 40
2.6458333333
  1
2
 50
90.0
 41
0.7
 11
334.5696620769
 21
203.1095154194
 31
37.5221701959
 73
     1
  0
ENDBLK
  5
6C8
  8
0
  0
BLOCK
  8
0
  2
_D_20
 70
     0
 10
0.0
 20
0.0
 30
0.0
  3
_D_20
  1

  0
SOLID
  5
6D5
  8
0
  6
CONTINUOUS
 62
     7
 10
273.5696622515
 20
178.543091629
 30
0.0
 11
276.8696622515
 21
178.043091629
 31
0.0
 12
276.8696622515
 22
179.043091629
 32
0.0
 13
276.8696622515
 23
179.043091629
 33
0.0
  0
SOLID
  5
6D6
  8
0
  6
CONTINUOUS
 62
     7
 10
265.5696622515
 20
178.543091629
 30
0.0
 11
262.2696622515
 21
179.043091629
 31
0.0
 12
262.2696622515
 22
178.043091629
 32
0.0
 13
262.2696622515
 23
178.043091629
 33
0.0
  0
LINE
  5
6D7
  8
0
  6
CONTINUOUS
 62
     7
 10
265.5696622515
 20
191.6308760648
 30
0.0
 11
265.5696622515
 21
177.543091629
 31
0.0
  0
LINE
  5
6D8
  8
0
  6
CONTINUOUS
 62
     7
 10
273.5696622515
 20
178.543091629
 30
0.0
 11
279.8196622515
 21
178.543091629
 31
0.0
  0
LINE
  5
6D9
  8
0
  6
CONTINUOUS
 62
     7
 10
273.5696622515
 20
178.543091629
 30
0.0
 11
265.5696622515
 21
178.543091629
 31
0.0
  0
LINE
  5
6DA
  8
0
  6
CONTINUOUS
 62
     7
 10
265.5696622515
 20
178.543091629
 30
0.0
 11
259.3196622515
 21
178.543091629
 31
0.0
  0
TEXT
  5
6DB
  8
0
  6
CONTINUOUS
 62
     7
 10
268.58972394
 20
179.4777590508
 30
37.5221701959
 40
2.6458333333
  1
8
 50
0.0
 41
0.7
 11
268.58972394
 21
178.5430918037
 31
37.5221701959
 73
     1
  0
ENDBLK
  5
6D4
  8
0
  0
BLOCK
  8
0
  2
SW_CENTERMARKSYMBOL_12
 70
     0
 10
0.0
 20
0.0
 30
0.0
  3
SW_CENTERMARKSYMBOL_12
  1

  0
LINE
  5
6DF
  8
0
  6
CONTINUOUS
 62
     0
 10
0.0
 20
0.0
 30
0.0
 11
0.0
 21
2.5
 31
0.0
  0
LINE
  5
6E0
  8
0
  6
CONTINUOUS
 62
     0
 10
0.0
 20
0.0
 30
0.0
 11
-2.5
 21
0.0
 31
0.0
  0
LINE
  5
6E1
  8
0
  6
CONTINUOUS
 62
     0
 10
0.0
 20
0.0
 30
0.0
 11
0.0
 21
-2.5
 31
0.0
  0
LINE
  5
6E2
  8
0
  6
CONTINUOUS
 62
     0
 10
0.0
 20
0.0
 30
0.0
 11
2.5
 21
0.0
 31
0.0
  0
LINE
  5
6E3
  8
0
  6
CONTINUOUS
 62
     0
 10
0.0
 20
5.0
 30
0.0
 11
0.0
 21
5.875
 31
0.0
  0
LINE
  5
6E4
  8
0
  6
CONTINUOUS
 62
     0
 10
-5.0
 20
0.0
 30
0.0
 11
-5.875
 21
0.0
 31
0.0
  0
LINE
  5
6E5
  8
0
  6
CONTINUOUS
 62
     0
 10
0.0
 20
-5.0
 30
0.0
 11
0.0
 21
-5.875
 31
0.0
  0
LINE
  5
6E6
  8
0
  6
CONTINUOUS
 62
     0
 10
5.0
 20
0.0
 30
0.0
 11
5.875
 21
0.0
 31
0.0
  0
ENDBLK
  5
6DE
  8
0
  0
ENDSEC
  0
SECTION
  2
ENTITIES
  0
LINE
  5
75
  8
0
  6
CONTINUOUS
 62
     7
 10
227.8
 20
60.25
 30
0.0
 11
227.8
 21
5.0
 31
0.0
  0
LINE
  5
76
  8
0
  6
CONTINUOUS
 62
     7
 10
235.42
 20
43.25
 30
0.0
 11
235.42
 21
5.0
 31
0.0
  0
LINE
  5
77
  8
0
  6
CONTINUOUS
 62
     7
 10
260.82
 20
5.0
 30
0.0
 11
260.82
 21
43.25
 31
0.0
  0
LINE
  5
78
  8
0
  6
CONTINUOUS
 62
     7
 10
410.0
 20
287.0
 30
0.0
 11
410.0
 21
60.25
 31
0.0
  0
LINE
  5
79
  8
0
  6
CONTINUOUS
 62
     7
 10
281.14
 20
22.0
 30
0.0
 11
415.0
 21
22.0
 31
0.0
  0
LINE
  5
7A
  8
0
  6
CONTINUOUS
 62
     7
 10
415.0
 20
43.25
 30
0.0
 11
227.8
 21
43.25
 31
0.0
  0
LINE
  5
7B
  8
0
  6
CONTINUOUS
 62
     7
 10
227.8
 20
60.25
 30
0.0
 11
415.0
 21
60.25
 31
0.0
  0
LINE
  5
7C
  8
0
  6
CONTINUOUS
 62
     7
 10
281.14
 20
38.9447711707
 30
0.0
 11
227.8
 21
38.9447711707
 31
0.0
  0
LINE
  5
7D
  8
0
  6
CONTINUOUS
 62
     7
 10
281.14
 20
5.0
 30
0.0
 11
281.14
 21
60.25
 31
0.0
  0
LINE
  5
7E
  8
0
  6
CONTINUOUS
 62
     7
 10
324.32
 20
60.25
 30
0.0
 11
324.32
 21
5.0
 31
0.0
  0
LINE
  5
7F
  8
0
  6
CONTINUOUS
 62
     7
 10
273.52
 20
43.25
 30
0.0
 11
273.52
 21
5.0
 31
0.0
  0
LINE
  5
80
  8
0
  6
CONTINUOUS
 62
     7
 10
290.5491845626
 20
22.0
 30
0.0
 11
290.5491845626
 21
43.25
 31
0.0
  0
LINE
  5
81
  8
0
  6
CONTINUOUS
 62
     7
 10
281.14
 20
13.5
 30
0.0
 11
227.8
 21
13.5
 31
0.0
  0
LINE
  5
82
  8
0
  6
CONTINUOUS
 62
     7
 10
306.6969257405
 20
43.25
 30
0.0
 11
306.6969257405
 21
22.0
 31
0.0
  0
LINE
  5
83
  8
0
  6
CONTINUOUS
 62
     7
 10
368.48
 20
5.0
 30
0.0
 11
368.48
 21
9.25
 31
0.0
  0
LINE
  5
84
  8
0
  6
CONTINUOUS
 62
     7
 10
376.28
 20
53.875
 30
0.0
 11
376.28
 21
60.25
 31
0.0
  0
LINE
  5
85
  8
0
  6
CONTINUOUS
 62
     7
 10
227.8
 20
9.23
 30
0.0
 11
281.14
 21
9.23
 31
0.0
  0
LINE
  5
86
  8
0
  6
CONTINUOUS
 62
     7
 10
399.68
 20
9.25
 30
0.0
 11
399.68
 21
22.0
 31
0.0
  0
LINE
  5
87
  8
0
  6
CONTINUOUS
 62
     7
 10
415.0
 20
53.875
 30
0.0
 11
324.32
 21
53.875
 31
0.0
  0
LINE
  5
88
  8
0
  6
CONTINUOUS
 62
     7
 10
415.0
 20
5.0
 30
0.0
 11
415.0
 21
60.25
 31
0.0
  0
LINE
  5
89
  8
0
  6
CONTINUOUS
 62
     7
 10
227.8
 20
5.0
 30
0.0
 11
415.0
 21
5.0
 31
0.0
  0
LINE
  5
8A
  8
0
  6
CONTINUOUS
 62
     7
 10
281.14
 20
17.75
 30
0.0
 11
227.8
 21
17.75
 31
0.0
  0
LINE
  5
8B
  8
0
  6
CONTINUOUS
 62
     7
 10
281.14
 20
22.0
 30
0.0
 11
227.8
 21
22.0
 31
0.0
  0
LINE
  5
8C
  8
0
  6
CONTINUOUS
 62
     7
 10
324.32
 20
26.25
 30
0.0
 11
227.8
 21
26.25
 31
0.0
  0
LINE
  5
8D
  8
0
  6
CONTINUOUS
 62
     7
 10
324.32
 20
30.5
 30
0.0
 11
227.8
 21
30.5
 31
0.0
  0
LINE
  5
8E
  8
0
  6
CONTINUOUS
 62
     7
 10
324.32
 20
34.75
 30
0.0
 11
227.8
 21
34.75
 31
0.0
  0
LINE
  5
8F
  8
0
  6
CONTINUOUS
 62
     7
 10
324.32
 20
38.9447711707
 30
0.0
 11
281.14
 21
38.9447711707
 31
0.0
  0
LINE
  5
90
  8
0
  6
CONTINUOUS
 62
     7
 10
415.0
 20
13.5
 30
0.0
 11
399.68
 21
13.5
 31
0.0
  0
LINE
  5
91
  8
0
  6
CONTINUOUS
 62
     7
 10
324.32
 20
9.23
 30
0.0
 11
415.0
 21
9.23
 31
0.0
  0
LINE
  5
92
  8
0
  6
CONTINUOUS
 62
     7
 10
222.8
 20
5.0
 30
0.0
 11
227.8
 21
5.0
 31
0.0
  0
LINE
  5
93
  8
0
  6
CONTINUOUS
 62
     7
 10
415.0
 20
292.0
 30
0.0
 11
5.0
 21
292.0
 31
0.0
  0
LINE
  5
94
  8
0
  6
CONTINUOUS
 62
     7
 10
410.0
 20
287.0
 30
0.0
 11
10.0
 21
287.0
 31
0.0
  0
LINE
  5
95
  8
0
  6
CONTINUOUS
 62
     7
 10
5.0
 20
292.0
 30
0.0
 11
5.0
 21
5.0
 31
0.0
  0
LINE
  5
96
  8
0
  6
CONTINUOUS
 62
     7
 10
10.0
 20
287.0
 30
0.0
 11
10.0
 21
10.0
 31
0.0
  0
LINE
  5
97
  8
0
  6
CONTINUOUS
 62
     7
 10
10.0
 20
48.5
 30
0.0
 11
5.0
 21
48.5
 31
0.0
  0
LINE
  5
98
  8
0
  6
CONTINUOUS
 62
     7
 10
5.0
 20
98.5
 30
0.0
 11
10.0
 21
98.5
 31
0.0
  0
LINE
  5
99
  8
0
  6
CONTINUOUS
 62
     7
 10
5.0
 20
198.5
 30
0.0
 11
10.0
 21
198.5
 31
0.0
  0
LINE
  5
9A
  8
0
  6
CONTINUOUS
 62
     7
 10
5.0
 20
148.5
 30
0.0
 11
15.0
 21
148.5
 31
0.0
  0
LINE
  5
9B
  8
0
  6
CONTINUOUS
 62
     7
 10
5.0
 20
5.0
 30
0.0
 11
227.8
 21
5.0
 31
0.0
  0
LINE
  5
9C
  8
0
  6
CONTINUOUS
 62
     7
 10
10.0
 20
10.0
 30
0.0
 11
227.8
 21
10.0
 31
0.0
  0
LINE
  5
9D
  8
0
  6
CONTINUOUS
 62
     7
 10
60.0
 20
5.0
 30
0.0
 11
60.0
 21
10.0
 31
0.0
  0
LINE
  5
9E
  8
0
  6
CONTINUOUS
 62
     7
 10
110.0
 20
10.0
 30
0.0
 11
110.0
 21
5.0
 31
0.0
  0
LINE
  5
9F
  8
0
  6
CONTINUOUS
 62
     7
 10
160.0
 20
5.0
 30
0.0
 11
160.0
 21
10.0
 31
0.0
  0
LINE
  5
A0
  8
0
  6
CONTINUOUS
 62
     7
 10
10.0
 20
248.5
 30
0.0
 11
5.0
 21
248.5
 31
0.0
  0
LINE
  5
A1
  8
0
  6
CONTINUOUS
 62
     7
 10
60.0
 20
287.0
 30
0.0
 11
60.0
 21
292.0
 31
0.0
  0
LINE
  5
A2
  8
0
  6
CONTINUOUS
 62
     7
 10
110.0
 20
292.0
 30
0.0
 11
110.0
 21
287.0
 31
0.0
  0
LINE
  5
A3
  8
0
  6
CONTINUOUS
 62
     7
 10
160.0
 20
287.0
 30
0.0
 11
160.0
 21
292.0
 31
0.0
  0
LINE
  5
A4
  8
0
  6
CONTINUOUS
 62
     7
 10
260.0
 20
287.0
 30
0.0
 11
260.0
 21
292.0
 31
0.0
  0
LINE
  5
A5
  8
0
  6
CONTINUOUS
 62
     7
 10
415.0
 20
60.25
 30
0.0
 11
415.0
 21
292.0
 31
0.0
  0
LINE
  5
A6
  8
0
  6
CONTINUOUS
 62
     7
 10
210.0
 20
5.0
 30
0.0
 11
210.0
 21
15.0
 31
0.0
  0
LINE
  5
A7
  8
0
  6
CONTINUOUS
 62
     7
 10
410.0
 20
198.5
 30
0.0
 11
415.0
 21
198.5
 31
0.0
  0
LINE
  5
A8
  8
0
  6
CONTINUOUS
 62
     7
 10
410.0
 20
98.5
 30
0.0
 11
415.0
 21
98.5
 31
0.0
  0
LINE
  5
A9
  8
0
  6
CONTINUOUS
 62
     7
 10
415.0
 20
148.5
 30
0.0
 11
405.0
 21
148.5
 31
0.0
  0
LINE
  5
AA
  8
0
  6
CONTINUOUS
 62
     7
 10
310.0
 20
292.0
 30
0.0
 11
310.0
 21
287.0
 31
0.0
  0
LINE
  5
AB
  8
0
  6
CONTINUOUS
 62
     7
 10
360.0
 20
287.0
 30
0.0
 11
360.0
 21
292.0
 31
0.0
  0
LINE
  5
AC
  8
0
  6
CONTINUOUS
 62
     7
 10
210.0
 20
292.0
 30
0.0
 11
210.0
 21
282.0
 31
0.0
  0
LINE
  5
AD
  8
0
  6
CONTINUOUS
 62
     7
 10
415.0
 20
248.5
 30
0.0
 11
410.0
 21
248.5
 31
0.0
  0
INSERT
  5
B3
  8
0
  6
CONTINUOUS
 62
     7
  2
SW_NOTE_0
 10
347.7128361395
 20
29.6645214686
 30
0.0
  0
TEXT
  5
B4
  8
0
  6
CONTINUOUS
 62
     7
 10
292.781845054
 20
36.3680493804
 30
0.0
 40
2.1166666667
  1
25.11.21
 41
0.7
 11
292.781845054
 21
35.6203155827
 31
0.0
 73
     1
  0
TEXT
  5
B5
  8
0
  6
CONTINUOUS
 62
     7
 10
309.5622861966
 20
36.3680493804
 30
0.0
 40
2.1166666667
  1
Hammad
 41
0.7
 11
309.5622861966
 21
35.6203155827
 31
0.0
 73
     1
  0
TEXT
  5
B6
  8
0
  6
CONTINUOUS
 62
     7
 10
6.6666666667
 20
122.9348266002
 30
0.0
 40
1.8520833333
  1
D
 41
0.7
 11
6.6666666667
 21
122.2805595272
 31
0.0
 73
     1
  0
TEXT
  5
B7
  8
0
  6
CONTINUOUS
 62
     7
 10
6.6666666667
 20
72.9348266002
 30
0.0
 40
1.8520833333
  1
E
 41
0.7
 11
6.6666666667
 21
72.2805595272
 31
0.0
 73
     1
  0
TEXT
  5
B8
  8
0
  6
CONTINUOUS
 62
     7
 10
6.6666666667
 20
22.9348266002
 30
0.0
 40
1.8520833333
  1
F
 41
0.7
 11
6.6666666667
 21
22.2805595272
 31
0.0
 73
     1
  0
TEXT
  5
B9
  8
0
  6
CONTINUOUS
 62
     7
 10
6.6666666667
 20
172.9348266002
 30
0.0
 40
1.8520833333
  1
C
 41
0.7
 11
6.6666666667
 21
172.2805595272
 31
0.0
 73
     1
  0
TEXT
  5
BA
  8
0
  6
CONTINUOUS
 62
     7
 10
34.5833333333
 20
6.9348306002
 30
0.0
 40
1.8520833333
  1
1
 41
0.7
 11
34.5833333333
 21
6.2805635272
 31
0.0
 73
     1
  0
TEXT
  5
BB
  8
0
  6
CONTINUOUS
 62
     7
 10
84.1666666667
 20
6.9348306002
 30
0.0
 40
1.8520833333
  1
2
 41
0.7
 11
84.1666666667
 21
6.2805635272
 31
0.0
 73
     1
  0
TEXT
  5
BC
  8
0
  6
CONTINUOUS
 62
     7
 10
134.1666666667
 20
6.9348306002
 30
0.0
 40
1.8520833333
  1
3
 41
0.7
 11
134.1666666667
 21
6.2805635272
 31
0.0
 73
     1
  0
TEXT
  5
BD
  8
0
  6
CONTINUOUS
 62
     7
 10
184.1666666667
 20
6.9348306002
 30
0.0
 40
1.8520833333
  1
4
 41
0.7
 11
184.1666666667
 21
6.2805635272
 31
0.0
 73
     1
  0
TEXT
  5
BE
  8
0
  6
CONTINUOUS
 62
     7
 10
6.6666666667
 20
222.9348266002
 30
0.0
 40
1.8520833333
  1
B
 41
0.7
 11
6.6666666667
 21
222.2805595272
 31
0.0
 73
     1
  0
TEXT
  5
BF
  8
0
  6
CONTINUOUS
 62
     7
 10
6.6666666667
 20
272.9348266002
 30
0.0
 40
1.8520833333
  1
A
 41
0.7
 11
6.6666666667
 21
272.2805595272
 31
0.0
 73
     1
  0
TEXT
  5
C0
  8
0
  6
CONTINUOUS
 62
     7
 10
134.1666666667
 20
288.9348306002
 30
0.0
 40
1.8520833333
  1
3
 41
0.7
 11
134.1666666667
 21
288.2805635272
 31
0.0
 73
     1
  0
TEXT
  5
C1
  8
0
  6
CONTINUOUS
 62
     7
 10
84.1666666667
 20
288.9348306002
 30
0.0
 40
1.8520833333
  1
2
 41
0.7
 11
84.1666666667
 21
288.2805635272
 31
0.0
 73
     1
  0
TEXT
  5
C2
  8
0
  6
CONTINUOUS
 62
     7
 10
34.5833333333
 20
288.9348306002
 30
0.0
 40
1.8520833333
  1
1
 41
0.7
 11
34.5833333333
 21
288.2805635272
 31
0.0
 73
     1
  0
TEXT
  5
C3
  8
0
  6
CONTINUOUS
 62
     7
 10
234.1666666667
 20
288.9348306002
 30
0.0
 40
1.8520833333
  1
5
 41
0.7
 11
234.1666666667
 21
288.2805635272
 31
0.0
 73
     1
  0
TEXT
  5
C4
  8
0
  6
CONTINUOUS
 62
     7
 10
411.6666666667
 20
172.9348266002
 30
0.0
 40
1.8520833333
  1
C
 41
0.7
 11
411.6666666667
 21
172.2805595272
 31
0.0
 73
     1
  0
TEXT
  5
C5
  8
0
  6
CONTINUOUS
 62
     7
 10
411.6666666667
 20
122.9348266002
 30
0.0
 40
1.8520833333
  1
D
 41
0.7
 11
411.6666666667
 21
122.2805595272
 31
0.0
 73
     1
  0
TEXT
  5
C6
  8
0
  6
CONTINUOUS
 62
     7
 10
184.1666666667
 20
288.9348306002
 30
0.0
 40
1.8520833333
  1
4
 41
0.7
 11
184.1666666667
 21
288.2805635272
 31
0.0
 73
     1
  0
TEXT
  5
C7
  8
0
  6
CONTINUOUS
 62
     7
 10
284.1666666667
 20
288.9348306002
 30
0.0
 40
1.8520833333
  1
6
 41
0.7
 11
284.1666666667
 21
288.2805635272
 31
0.0
 73
     1
  0
TEXT
  5
C8
  8
0
  6
CONTINUOUS
 62
     7
 10
334.1666666667
 20
288.9348306002
 30
0.0
 40
1.8520833333
  1
7
 41
0.7
 11
334.1666666667
 21
288.2805635272
 31
0.0
 73
     1
  0
TEXT
  5
C9
  8
0
  6
CONTINUOUS
 62
     7
 10
384.1666666667
 20
288.9348306002
 30
0.0
 40
1.8520833333
  1
8
 41
0.7
 11
384.1666666667
 21
288.2805635272
 31
0.0
 73
     1
  0
TEXT
  5
CA
  8
0
  6
CONTINUOUS
 62
     7
 10
411.6666666667
 20
272.9348266002
 30
0.0
 40
1.8520833333
  1
A
 41
0.7
 11
411.6666666667
 21
272.2805595272
 31
0.0
 73
     1
  0
TEXT
  5
CB
  8
0
  6
CONTINUOUS
 62
     7
 10
411.6666666667
 20
222.9348266002
 30
0.0
 40
1.8520833333
  1
B
 41
0.7
 11
411.6666666667
 21
222.2805595272
 31
0.0
 73
     1
  0
TEXT
  5
CC
  8
0
  6
CONTINUOUS
 62
     7
 10
228.6542475233
 20
5.8405442472
 30
0.0
 40
2.0
  1
Zust.
 41
0.7
 11
228.6542475233
 21
5.1340241233
 31
0.0
 73
     1
  0
TEXT
  5
CD
  8
0
  6
CONTINUOUS
 62
     7
 10
242.3236265502
 20
5.8405442472
 30
0.0
 40
2.0
  1
Änderung
 41
0.7
 11
242.3236265502
 21
5.1340241233
 31
0.0
 73
     1
  0
TEXT
  5
CE
  8
0
  6
CONTINUOUS
 62
     7
 10
273.7487245318
 20
5.8293213552
 30
0.0
 40
2.0
  1
Name
 41
0.7
 11
273.7487245318
 21
5.1228012314
 31
0.0
 73
     1
  0
TEXT
  5
CF
  8
0
  6
CONTINUOUS
 62
     7
 10
281.9346052427
 20
36.0024961334
 30
0.0
 40
2.0
  1
Bearb.
 41
0.7
 11
281.9346052427
 21
35.2959760096
 31
0.0
 73
     1
  0
TEXT
  5
D0
  8
0
  6
CONTINUOUS
 62
     7
 10
282.5538425523
 20
31.8123005822
 30
0.0
 40
2.0
  1
Gepr.
 41
0.7
 11
282.5538425523
 21
31.1057804584
 31
0.0
 73
     1
  0
TEXT
  5
D1
  8
0
  6
CONTINUOUS
 62
     7
 10
282.568021583
 20
27.5024931334
 30
0.0
 40
2.0
  1
Norm
 41
0.7
 11
282.568021583
 21
26.7959730096
 31
0.0
 73
     1
  0
INSERT
  5
D7
  8
0
  6
CONTINUOUS
 62
     7
  2
SW_NOTE_0_1
 10
326.1421941634
 20
54.7004161895
 30
0.0
  0
TEXT
  5
D8
  8
0
  6
CONTINUOUS
 62
     7
 10
293.8208978724
 20
40.2378571451
 30
0.0
 40
2.0
  1
Datum
 41
0.7
 11
293.8208978724
 21
39.5313370213
 31
0.0
 73
     1
  0
TEXT
  5
D9
  8
0
  6
CONTINUOUS
 62
     7
 10
310.9758605414
 20
40.2399684874
 30
0.0
 40
2.0
  1
Name
 41
0.7
 11
310.9758605414
 21
39.5334483635
 31
0.0
 73
     1
  0
TEXT
  5
DA
  8
0
  6
CONTINUOUS
 62
     7
 10
400.679992
 20
18.8834825574
 30
0.0
 40
2.5
  1
Blatt
 41
0.7
 11
400.679992
 21
18.0003324026
 31
0.0
 73
     1
  0
TEXT
  5
DB
  8
0
  6
CONTINUOUS
 62
     7
 10
401.6114022462
 20
14.9434680153
 30
0.0
 40
2.0
  1
1 (A3)
 41
0.7
 11
401.6114022462
 21
14.2369478915
 31
0.0
 73
     1
  0
TEXT
  5
DC
  8
0
  6
CONTINUOUS
 62
     7
 10
401.6114022462
 20
10.7163935227
 30
0.0
 40
2.0
  1
1 von 1
 41
0.6
 11
401.6114022462
 21
10.0098733989
 31
0.0
 73
     1
  0
TEXT
  5
DD
  8
0
  6
CONTINUOUS
 62
     7
 10
325.769379396
 20
6.0126746831
 30
0.0
 40
2.0
  1
Ers. für:
 41
0.7
 11
325.769379396
 21
5.3061545592
 31
0.0
 73
     1
  0
TEXT
  5
DE
  8
0
  6
CONTINUOUS
 62
     7
 10
369.3744127484
 20
6.1456631557
 30
0.0
 40
2.0
  1
Ers. durch: 
 41
0.6416666667
 11
369.3744127484
 21
5.4391430318
 31
0.0
 73
     1
  0
TEXT
  5
DF
  8
0
  6
CONTINUOUS
 62
     7
 10
325.8260642912
 20
38.8860690348
 30
0.0
 40
2.5
  1
Benennung:
 41
0.7
 11
325.8260642912
 21
38.00291888
 31
0.0
 73
     1
  0
TEXT
  5
E0
  8
0
  6
CONTINUOUS
 62
     7
 10
326.3720674831
 20
17.4450861174
 30
0.0
 40
2.5
  1
ZEICHNUNGSNR.   ZK 10872
 41
0.6416666667
 11
326.3720674831
 21
16.5619359626
 31
0.0
 73
     1
  0
TEXT
  5
E1
  8
0
  6
CONTINUOUS
 62
     7
 10
326.4245832263
 20
11.7244404863
 30
0.0
 40
2.5
  1
TEILENUMMER   
 41
0.625
 11
326.4245832263
 21
10.8412903315
 31
0.0
 73
     1
  0
TEXT
  5
E2
  8
0
  6
CONTINUOUS
 62
     7
 10
263.2346620132
 20
5.8293213552
 30
0.0
 40
2.0
  1
Datum
 41
0.7
 11
263.2346620132
 21
5.1228012314
 31
0.0
 73
     1
  0
INSERT
  5
EA
  8
0
  6
CONTINUOUS
 62
     7
  2
SW_NOTE_0_2
 10
290.4226877706
 20
16.7269093507
 30
0.0
  0
INSERT
  5
F4
  8
0
  6
CONTINUOUS
 62
     7
  2
SW_NOTE_0_3
 10
230.3638616607
 20
56.9426173561
 30
0.0
  0
TEXT
  5
F5
  8
0
  6
CONTINUOUS
 62
     7
 10
380.8494930471
 20
55.6933776061
 30
0.0
 40
3.5
  1
ISO2768-m-K
 41
0.7
 11
380.8494930471
 21
54.4569673894
 31
0.0
 73
     1
  0
TEXT
  5
F6
  8
0
  6
CONTINUOUS
 62
     7
 10
326.1548865668
 20
50.1794325104
 30
0.0
 40
2.5
  1
Material:
 41
0.7
 11
326.1548865668
 21
49.2962823556
 31
0.0
 73
     1
  0
ARC
  5
F7
  8
0
  6
CENTERX2
 62
     7
 10
78.0613838468
 20
183.8091775814
 30
0.0
 40
10.0
 50
180.0
 51
270.0
  0
ARC
  5
F8
  8
0
  6
CENTERX2
 62
     7
 10
78.0613838468
 20
252.8091775814
 30
0.0
 40
10.00000000000001
 50
90.0
 51
180.0
  0
ARC
  5
F9
  8
0
  6
CENTERX2
 62
     7
 10
147.0613838468
 20
252.8091775814
 30
0.0
 40
10.00000000000003
 50
0.0
 51
90.0
  0
ARC
  5
FA
  8
0
  6
CENTERX2
 62
     7
 10
147.0613838468
 20
183.8091775814
 30
0.0
 40
10.0
 50
270.0
 51
0.0
  0
LINE
  5
FB
  8
0
  6
CONTINUOUS
 62
     7
 10
118.5613838468
 20
227.8091775814
 30
0.0
 11
118.5613838468
 21
247.8091775814
 31
0.0
  0
LINE
  5
FC
  8
0
  6
CONTINUOUS
 62
     7
 10
106.5613838468
 20
247.6808929892
 30
0.0
 11
106.5613838468
 21
227.9079682889
 31
0.0
  0
LINE
  5
FD
  8
0
  6
CONTINUOUS
 62
     7
 10
118.5613838468
 20
188.8091775814
 30
0.0
 11
118.5613838468
 21
208.8091775814
 31
0.0
  0
LINE
  5
FE
  8
0
  6
CONTINUOUS
 62
     7
 10
106.5613838468
 20
208.6808929892
 30
0.0
 11
106.5613838468
 21
188.9079682889
 31
0.0
  0
LINE
  5
FF
  8
0
  6
CONTINUOUS
 62
     7
 10
106.5613838468
 20
262.8091775814
 30
0.0
 11
106.5613838468
 21
248.2341775814
 31
0.0
  0
LINE
  5
100
  8
0
  6
CONTINUOUS
 62
     7
 10
118.5613838468
 20
248.3624621736
 30
0.0
 11
118.5613838468
 21
262.7103868738
 31
0.0
  0
LINE
  5
101
  8
0
  6
CONTINUOUS
 62
     7
 10
106.5613838468
 20
188.3841775814
 30
0.0
 11
106.5613838468
 21
173.8091775814
 31
0.0
  0
LINE
  5
102
  8
0
  6
CONTINUOUS
 62
     7
 10
118.5613838468
 20
173.9374621736
 30
0.0
 11
118.5613838468
 21
188.2853868738
 31
0.0
  0
LINE
  5
103
  8
0
  6
CONTINUOUS
 62
     7
 10
106.5613838468
 20
227.1591775814
 30
0.0
 11
106.5613838468
 21
209.4591775814
 31
0.0
  0
LINE
  5
104
  8
0
  6
CONTINUOUS
 62
     7
 10
118.5613838468
 20
209.5874621736
 30
0.0
 11
118.5613838468
 21
227.0603868738
 31
0.0
  0
LINE
  5
105
  8
0
  6
CONTINUOUS
 62
     7
 10
106.5613838468
 20
265.2910568805
 30
0.0
 11
106.5613838468
 21
262.8091775814
 31
0.0
  0
LINE
  5
106
  8
0
  6
CONTINUOUS
 62
     7
 10
118.5613838468
 20
262.8091775814
 30
0.0
 11
118.5613838468
 21
265.2910568805
 31
0.0
  0
ARC
  5
107
  8
0
  6
CONTINUOUS
 62
     7
 10
112.5613838468
 20
230.8091775814
 30
0.0
 40
35.0
 50
80.1291103939
 51
99.8708896061
  0
LINE
  5
108
  8
0
  6
CONTINUOUS
 62
     7
 10
109.6151025547
 20
173.8091775814
 30
0.0
 11
109.8830517471
 21
172.8091775814
 31
0.0
  0
LINE
  5
109
  8
0
  6
CONTINUOUS
 62
     7
 10
115.2397159465
 20
172.8091775814
 30
0.0
 11
115.5076651389
 21
173.8091775814
 31
0.0
  0
LINE
  5
10A
  8
0
  6
CONTINUOUS
 62
     7
 10
109.1863838468
 20
248.2341775814
 30
0.0
 11
109.1863838468
 21
247.8091775814
 31
0.0
  0
LINE
  5
10B
  8
0
  6
CONTINUOUS
 62
     7
 10
109.1863838468
 20
227.8091775814
 30
0.0
 11
109.1863838468
 21
227.1591775814
 31
0.0
  0
LINE
  5
10C
  8
0
  6
CONTINUOUS
 62
     7
 10
109.1863838468
 20
209.4591775814
 30
0.0
 11
109.1863838468
 21
208.8091775814
 31
0.0
  0
LINE
  5
10D
  8
0
  6
CONTINUOUS
 62
     7
 10
109.1863838468
 20
188.8091775814
 30
0.0
 11
109.1863838468
 21
188.3841775814
 31
0.0
  0
LINE
  5
10E
  8
0
  6
CONTINUOUS
 62
     7
 10
115.9363838468
 20
188.3841775814
 30
0.0
 11
115.9363838468
 21
188.8091775814
 31
0.0
  0
LINE
  5
10F
  8
0
  6
CONTINUOUS
 62
     7
 10
115.9363838468
 20
208.8091775814
 30
0.0
 11
115.9363838468
 21
209.4591775814
 31
0.0
  0
LINE
  5
110
  8
0
  6
CONTINUOUS
 62
     7
 10
115.9363838468
 20
227.1591775814
 30
0.0
 11
115.9363838468
 21
227.8091775814
 31
0.0
  0
LINE
  5
111
  8
0
  6
CONTINUOUS
 62
     7
 10
115.9363838468
 20
247.8091775814
 30
0.0
 11
115.9363838468
 21
248.2341775814
 31
0.0
  0
CIRCLE
  5
112
  8
0
  6
CONTINUOUS
 62
     7
 10
80.0613838468
 20
218.3091775814
 30
0.0
 40
4.0
  0
CIRCLE
  5
113
  8
0
  6
CONTINUOUS
 62
     7
 10
80.0613838468
 20
218.3091775814
 30
0.0
 40
5.0
  0
CIRCLE
  5
114
  8
0
  6
CONTINUOUS
 62
     7
 10
80.0613838468
 20
218.3091775814
 30
0.0
 40
5.5
  0
CIRCLE
  5
115
  8
0
  6
CONTINUOUS
 62
     7
 10
80.0613838468
 20
218.3091775814
 30
0.0
 40
7.5
  0
LINE
  5
116
  8
0
  6
CONTINUOUS
 62
     7
 10
106.5816848784
 20
227.8091775814
 30
0.0
 11
118.5613838468
 21
227.8091775814
 31
0.0
  0
POLYLINE
  5
117
  8
0
  6
CONTINUOUS
 62
     7
 66
     1
 10
0.0
 20
0.0
 30
0.0
 70
   128
  0
VERTEX
  5
6E9
  8
0
  6
CONTINUOUS
 62
     7
 10
106.5620910694
 20
227.9079682889
 30
0.0
  0
VERTEX
  5
6EA
  8
0
  6
CONTINUOUS
 62
     7
 10
106.5614454832
 20
227.8940489352
 30
0.0
  0
VERTEX
  5
6EB
  8
0
  6
CONTINUOUS
 62
     7
 10
106.5816848784
 20
227.8091775814
 30
0.0
  0
SEQEND
  5
961
  8
0
  6
CONTINUOUS
 62
     7
  0
POLYLINE
  5
118
  8
0
  6
CONTINUOUS
 62
     7
 66
     1
 10
0.0
 20
0.0
 30
0.0
 70
   128
  0
VERTEX
  5
6EC
  8
0
  6
CONTINUOUS
 62
     7
 10
106.5816848784
 20
247.8091775814
 30
0.0
  0
VERTEX
  5
6ED
  8
0
  6
CONTINUOUS
 62
     7
 10
106.5613926567
 20
247.6868413603
 30
0.0
  0
VERTEX
  5
6EE
  8
0
  6
CONTINUOUS
 62
     7
 10
106.5616820321
 20
247.6808929892
 30
0.0
  0
SEQEND
  5
962
  8
0
  6
CONTINUOUS
 62
     7
  0
LINE
  5
119
  8
0
  6
CONTINUOUS
 62
     7
 10
118.5613838468
 20
247.8091775814
 30
0.0
 11
106.5816848784
 21
247.8091775814
 31
0.0
  0
POLYLINE
  5
11A
  8
0
  6
CONTINUOUS
 62
     7
 66
     1
 10
0.0
 20
0.0
 30
0.0
 70
   128
  0
VERTEX
  5
6EF
  8
0
  6
CONTINUOUS
 62
     7
 10
106.5620910694
 20
188.9079682889
 30
0.0
  0
VERTEX
  5
6F0
  8
0
  6
CONTINUOUS
 62
     7
 10
106.5614454832
 20
188.8940489352
 30
0.0
  0
VERTEX
  5
6F1
  8
0
  6
CONTINUOUS
 62
     7
 10
106.5816848784
 20
188.8091775814
 30
0.0
  0
SEQEND
  5
963
  8
0
  6
CONTINUOUS
 62
     7
  0
POLYLINE
  5
11B
  8
0
  6
CONTINUOUS
 62
     7
 66
     1
 10
0.0
 20
0.0
 30
0.0
 70
   128
  0
VERTEX
  5
6F2
  8
0
  6
CONTINUOUS
 62
     7
 10
106.5816848784
 20
208.8091775814
 30
0.0
  0
VERTEX
  5
6F3
  8
0
  6
CONTINUOUS
 62
     7
 10
106.5613926567
 20
208.6868413603
 30
0.0
  0
VERTEX
  5
6F4
  8
0
  6
CONTINUOUS
 62
     7
 10
106.5616820321
 20
208.6808929892
 30
0.0
  0
SEQEND
  5
964
  8
0
  6
CONTINUOUS
 62
     7
  0
LINE
  5
11C
  8
0
  6
CONTINUOUS
 62
     7
 10
106.5816848784
 20
188.8091775814
 30
0.0
 11
118.5613838468
 21
188.8091775814
 31
0.0
  0
LINE
  5
11D
  8
0
  6
CONTINUOUS
 62
     7
 10
118.5613838468
 20
208.8091775814
 30
0.0
 11
106.5816848784
 21
208.8091775814
 31
0.0
  0
LINE
  5
11E
  8
0
  6
CONTINUOUS
 62
     7
 10
93.1027109861
 20
243.9478668536
 30
0.0
 11
93.3602118201
 21
243.9838412348
 31
0.0
  0
POLYLINE
  5
11F
  8
0
  6
CONTINUOUS
 62
     7
 66
     1
 10
0.0
 20
0.0
 30
0.0
 70
   128
  0
VERTEX
  5
6F5
  8
0
  6
CONTINUOUS
 62
     7
 10
92.9521866014
 20
243.2236457578
 30
0.0
  0
VERTEX
  5
6F6
  8
0
  6
CONTINUOUS
 62
     7
 10
92.9903748547
 20
243.6397545327
 30
0.0
  0
VERTEX
  5
6F7
  8
0
  6
CONTINUOUS
 62
     7
 10
93.1027109861
 20
243.9478668536
 30
0.0
  0
SEQEND
  5
965
  8
0
  6
CONTINUOUS
 62
     7
  0
POLYLINE
  5
120
  8
0
  6
CONTINUOUS
 62
     7
 66
     1
 10
0.0
 20
0.0
 30
0.0
 70
   128
  0
VERTEX
  5
6F8
  8
0
  6
CONTINUOUS
 62
     7
 10
93.071470076
 20
242.5959874749
 30
0.0
  0
VERTEX
  5
6F9
  8
0
  6
CONTINUOUS
 62
     7
 10
92.9699610998
 20
242.9407437013
 30
0.0
  0
VERTEX
  5
6FA
  8
0
  6
CONTINUOUS
 62
     7
 10
92.9521866014
 20
243.2236457578
 30
0.0
  0
SEQEND
  5
966
  8
0
  6
CONTINUOUS
 62
     7
  0
ARC
  5
121
  8
0
  6
CONTINUOUS
 62
     7
 10
94.057361486
 20
243.0655216409
 30
0.0
 40
1.091990936488966
 50
205.4662852722
 51
270.1786089689
  0
POLYLINE
  5
122
  8
0
  6
CONTINUOUS
 62
     7
 66
     1
 10
0.0
 20
0.0
 30
0.0
 70
   128
  0
VERTEX
  5
6FB
  8
0
  6
CONTINUOUS
 62
     7
 10
94.5028717712
 20
242.0672587402
 30
0.0
  0
VERTEX
  5
6FC
  8
0
  6
CONTINUOUS
 62
     7
 10
94.2599036232
 20
241.9919660512
 30
0.0
  0
VERTEX
  5
6FD
  8
0
  6
CONTINUOUS
 62
     7
 10
94.0607655598
 20
241.9735360102
 30
0.0
  0
SEQEND
  5
967
  8
0
  6
CONTINUOUS
 62
     7
  0
ARC
  5
123
  8
0
  6
CONTINUOUS
 62
     7
 10
94.023700868
 20
243.039189921
 30
0.0
 40
1.083630460361596
 50
296.243716079
 51
5.0793695961
  0
POLYLINE
  5
124
  8
0
  6
CONTINUOUS
 62
     7
 66
     1
 10
0.0
 20
0.0
 30
0.0
 70
   128
  0
VERTEX
  5
6FE
  8
0
  6
CONTINUOUS
 62
     7
 10
95.0652081514
 20
243.5398416349
 30
0.0
  0
VERTEX
  5
6FF
  8
0
  6
CONTINUOUS
 62
     7
 10
95.0953883129
 20
243.3140022212
 30
0.0
  0
VERTEX
  5
700
  8
0
  6
CONTINUOUS
 62
     7
 10
95.1030759211
 20
243.1351298461
 30
0.0
  0
SEQEND
  5
968
  8
0
  6
CONTINUOUS
 62
     7
  0
POLYLINE
  5
125
  8
0
  6
CONTINUOUS
 62
     7
 66
     1
 10
0.0
 20
0.0
 30
0.0
 70
   128
  0
VERTEX
  5
701
  8
0
  6
CONTINUOUS
 62
     7
 10
94.9875792235
 20
243.7902422622
 30
0.0
  0
VERTEX
  5
702
  8
0
  6
CONTINUOUS
 62
     7
 10
95.0378733663
 20
243.6520782438
 30
0.0
  0
VERTEX
  5
703
  8
0
  6
CONTINUOUS
 62
     7
 10
95.0652081514
 20
243.5398416349
 30
0.0
  0
SEQEND
  5
969
  8
0
  6
CONTINUOUS
 62
     7
  0
ARC
  5
126
  8
0
  6
CONTINUOUS
 62
     7
 10
94.7628787801
 20
243.7470050578
 30
0.0
 40
0.2288225187421291
 50
10.8918170291
 51
66.5071565017
  0
POLYLINE
  5
127
  8
0
  6
CONTINUOUS
 62
     7
 66
     1
 10
0.0
 20
0.0
 30
0.0
 70
   128
  0
VERTEX
  5
704
  8
0
  6
CONTINUOUS
 62
     7
 10
94.5700870624
 20
243.9748476395
 30
0.0
  0
VERTEX
  5
705
  8
0
  6
CONTINUOUS
 62
     7
 10
94.7297190836
 20
243.9716268863
 30
0.0
  0
VERTEX
  5
706
  8
0
  6
CONTINUOUS
 62
     7
 10
94.8540953353
 20
243.9568604489
 30
0.0
  0
SEQEND
  5
96A
  8
0
  6
CONTINUOUS
 62
     7
  0
LINE
  5
128
  8
0
  6
CONTINUOUS
 62
     7
 10
94.3542407751
 20
243.972954251
 30
0.0
 11
94.5700870624
 21
243.9748476395
 31
0.0
  0
POLYLINE
  5
129
  8
0
  6
CONTINUOUS
 62
     7
 66
     1
 10
0.0
 20
0.0
 30
0.0
 70
   128
  0
VERTEX
  5
707
  8
0
  6
CONTINUOUS
 62
     7
 10
94.2306971764
 20
243.9881013589
 30
0.0
  0
VERTEX
  5
708
  8
0
  6
CONTINUOUS
 62
     7
 10
94.2990420822
 20
243.9743107204
 30
0.0
  0
VERTEX
  5
709
  8
0
  6
CONTINUOUS
 62
     7
 10
94.3542407751
 20
243.972954251
 30
0.0
  0
SEQEND
  5
96B
  8
0
  6
CONTINUOUS
 62
     7
  0
POLYLINE
  5
12A
  8
0
  6
CONTINUOUS
 62
     7
 66
     1
 10
0.0
 20
0.0
 30
0.0
 70
   128
  0
VERTEX
  5
70A
  8
0
  6
CONTINUOUS
 62
     7
 10
94.1923560595
 20
244.0695170638
 30
0.0
  0
VERTEX
  5
70B
  8
0
  6
CONTINUOUS
 62
     7
 10
94.20413047
 20
244.0191502611
 30
0.0
  0
VERTEX
  5
70C
  8
0
  6
CONTINUOUS
 62
     7
 10
94.2306971764
 20
243.9881013589
 30
0.0
  0
SEQEND
  5
96C
  8
0
  6
CONTINUOUS
 62
     7
  0
LINE
  5
12B
  8
0
  6
CONTINUOUS
 62
     7
 10
94.194249448
 20
244.1689199593
 30
0.0
 11
94.1923560595
 21
244.0695170638
 31
0.0
  0
POLYLINE
  5
12C
  8
0
  6
CONTINUOUS
 62
     7
 66
     1
 10
0.0
 20
0.0
 30
0.0
 70
   128
  0
VERTEX
  5
70D
  8
0
  6
CONTINUOUS
 62
     7
 10
94.1843091585
 20
244.2683228548
 30
0.0
  0
VERTEX
  5
70E
  8
0
  6
CONTINUOUS
 62
     7
 10
94.1916926106
 20
244.2128203
 30
0.0
  0
VERTEX
  5
70F
  8
0
  6
CONTINUOUS
 62
     7
 10
94.194249448
 20
244.1689199593
 30
0.0
  0
SEQEND
  5
96D
  8
0
  6
CONTINUOUS
 62
     7
  0
POLYLINE
  5
12D
  8
0
  6
CONTINUOUS
 62
     7
 66
     1
 10
0.0
 20
0.0
 30
0.0
 70
   128
  0
VERTEX
  5
710
  8
0
  6
CONTINUOUS
 62
     7
 10
94.1525949013
 20
244.2758964087
 30
0.0
  0
VERTEX
  5
711
  8
0
  6
CONTINUOUS
 62
     7
 10
94.1706775921
 20
244.2730776987
 30
0.0
  0
VERTEX
  5
712
  8
0
  6
CONTINUOUS
 62
     7
 10
94.1843091585
 20
244.2683228548
 30
0.0
  0
SEQEND
  5
96E
  8
0
  6
CONTINUOUS
 62
     7
  0
POLYLINE
  5
12E
  8
0
  6
CONTINUOUS
 62
     7
 66
     1
 10
0.0
 20
0.0
 30
0.0
 70
   128
  0
VERTEX
  5
713
  8
0
  6
CONTINUOUS
 62
     7
 10
94.1393411819
 20
244.2588559124
 30
0.0
  0
VERTEX
  5
714
  8
0
  6
CONTINUOUS
 62
     7
 10
94.1404214104
 20
244.2654887011
 30
0.0
  0
VERTEX
  5
715
  8
0
  6
CONTINUOUS
 62
     7
 10
94.1417735815
 20
244.2711578477
 30
0.0
  0
VERTEX
  5
716
  8
0
  6
CONTINUOUS
 62
     7
 10
94.1436348231
 20
244.2734809085
 30
0.0
  0
VERTEX
  5
717
  8
0
  6
CONTINUOUS
 62
     7
 10
94.1464615936
 20
244.274820811
 30
0.0
  0
VERTEX
  5
718
  8
0
  6
CONTINUOUS
 62
     7
 10
94.1525949013
 20
244.2758964087
 30
0.0
  0
SEQEND
  5
96F
  8
0
  6
CONTINUOUS
 62
     7
  0
POLYLINE
  5
12F
  8
0
  6
CONTINUOUS
 62
     7
 66
     1
 10
0.0
 20
0.0
 30
0.0
 70
   128
  0
VERTEX
  5
719
  8
0
  6
CONTINUOUS
 62
     7
 10
94.1369744463
 20
244.1594530169
 30
0.0
  0
VERTEX
  5
71A
  8
0
  6
CONTINUOUS
 62
     7
 10
94.1376958513
 20
244.2151323778
 30
0.0
  0
VERTEX
  5
71B
  8
0
  6
CONTINUOUS
 62
     7
 10
94.1393411819
 20
244.2588559124
 30
0.0
  0
SEQEND
  5
970
  8
0
  6
CONTINUOUS
 62
     7
  0
LINE
  5
130
  8
0
  6
CONTINUOUS
 62
     7
 10
94.1379211406
 20
244.0165021862
 30
0.0
 11
94.1369744463
 21
244.1594530169
 31
0.0
  0
LINE
  5
131
  8
0
  6
CONTINUOUS
 62
     7
 10
94.1336610165
 20
243.8588775948
 30
0.0
 11
94.1379211406
 21
244.0165021862
 31
0.0
  0
POLYLINE
  5
132
  8
0
  6
CONTINUOUS
 62
     7
 66
     1
 10
0.0
 20
0.0
 30
0.0
 70
   128
  0
VERTEX
  5
71C
  8
0
  6
CONTINUOUS
 62
     7
 10
94.1308209338
 20
243.6638585807
 30
0.0
  0
VERTEX
  5
71D
  8
0
  6
CONTINUOUS
 62
     7
 10
94.1321013122
 20
243.7730728618
 30
0.0
  0
VERTEX
  5
71E
  8
0
  6
CONTINUOUS
 62
     7
 10
94.1336610165
 20
243.8588775948
 30
0.0
  0
SEQEND
  5
971
  8
0
  6
CONTINUOUS
 62
     7
  0
POLYLINE
  5
133
  8
0
  6
CONTINUOUS
 62
     7
 66
     1
 10
0.0
 20
0.0
 30
0.0
 70
   128
  0
VERTEX
  5
71F
  8
0
  6
CONTINUOUS
 62
     7
 10
94.1417079175
 20
243.3173684879
 30
0.0
  0
VERTEX
  5
720
  8
0
  6
CONTINUOUS
 62
     7
 10
94.1317719155
 20
243.5112634447
 30
0.0
  0
VERTEX
  5
721
  8
0
  6
CONTINUOUS
 62
     7
 10
94.1308209338
 20
243.6638585807
 30
0.0
  0
SEQEND
  5
972
  8
0
  6
CONTINUOUS
 62
     7
  0
POLYLINE
  5
134
  8
0
  6
CONTINUOUS
 62
     7
 66
     1
 10
0.0
 20
0.0
 30
0.0
 70
   128
  0
VERTEX
  5
722
  8
0
  6
CONTINUOUS
 62
     7
 10
94.1587484139
 20
243.3064815041
 30
0.0
  0
VERTEX
  5
723
  8
0
  6
CONTINUOUS
 62
     7
 10
94.1483242839
 20
243.3110794321
 30
0.0
  0
VERTEX
  5
724
  8
0
  6
CONTINUOUS
 62
     7
 10
94.1417079175
 20
243.3173684879
 30
0.0
  0
SEQEND
  5
973
  8
0
  6
CONTINUOUS
 62
     7
  0
LINE
  5
135
  8
0
  6
CONTINUOUS
 62
     7
 10
94.1914093653
 20
243.3306222073
 30
0.0
 11
94.1587484139
 21
243.3064815041
 31
0.0
  0
POLYLINE
  5
136
  8
0
  6
CONTINUOUS
 62
     7
 66
     1
 10
0.0
 20
0.0
 30
0.0
 70
   128
  0
VERTEX
  5
725
  8
0
  6
CONTINUOUS
 62
     7
 10
94.1956694894
 20
243.3557096047
 30
0.0
  0
VERTEX
  5
726
  8
0
  6
CONTINUOUS
 62
     7
 10
94.1932402919
 20
243.3416680744
 30
0.0
  0
VERTEX
  5
727
  8
0
  6
CONTINUOUS
 62
     7
 10
94.1914093653
 20
243.3306222073
 30
0.0
  0
SEQEND
  5
974
  8
0
  6
CONTINUOUS
 62
     7
  0
LINE
  5
137
  8
0
  6
CONTINUOUS
 62
     7
 10
94.194249448
 20
243.3987841928
 30
0.0
 11
94.1956694894
 21
243.3557096047
 31
0.0
  0
LINE
  5
138
  8
0
  6
CONTINUOUS
 62
     7
 10
94.1994562664
 20
243.4626860541
 30
0.0
 11
94.194249448
 21
243.3987841928
 31
0.0
  0
POLYLINE
  5
139
  8
0
  6
CONTINUOUS
 62
     7
 66
     1
 10
0.0
 20
0.0
 30
0.0
 70
   128
  0
VERTEX
  5
728
  8
0
  6
CONTINUOUS
 62
     7
 10
94.5975411955
 20
243.7306005249
 30
0.0
  0
VERTEX
  5
729
  8
0
  6
CONTINUOUS
 62
     7
 10
94.3062364532
 20
243.7116883323
 30
0.0
  0
VERTEX
  5
72A
  8
0
  6
CONTINUOUS
 62
     7
 10
94.2715528522
 20
243.7002180117
 30
0.0
  0
VERTEX
  5
72B
  8
0
  6
CONTINUOUS
 62
     7
 10
94.24528705
 20
243.6754582354
 30
0.0
  0
VERTEX
  5
72C
  8
0
  6
CONTINUOUS
 62
     7
 10
94.2195063681
 20
243.6073673172
 30
0.0
  0
VERTEX
  5
72D
  8
0
  6
CONTINUOUS
 62
     7
 10
94.1994562664
 20
243.4626860541
 30
0.0
  0
SEQEND
  5
975
  8
0
  6
CONTINUOUS
 62
     7
  0
POLYLINE
  5
13A
  8
0
  6
CONTINUOUS
 62
     7
 66
     1
 10
0.0
 20
0.0
 30
0.0
 70
   128
  0
VERTEX
  5
72E
  8
0
  6
CONTINUOUS
 62
     7
 10
95.0424874896
 20
243.2297992704
 30
0.0
  0
VERTEX
  5
72F
  8
0
  6
CONTINUOUS
 62
     7
 10
95.0137429781
 20
243.4480440085
 30
0.0
  0
VERTEX
  5
730
  8
0
  6
CONTINUOUS
 62
     7
 10
94.9216394438
 20
243.6457851996
 30
0.0
  0
VERTEX
  5
731
  8
0
  6
CONTINUOUS
 62
     7
 10
94.770529781
 20
243.7219916366
 30
0.0
  0
VERTEX
  5
732
  8
0
  6
CONTINUOUS
 62
     7
 10
94.5975411955
 20
243.7306005249
 30
0.0
  0
SEQEND
  5
976
  8
0
  6
CONTINUOUS
 62
     7
  0
POLYLINE
  5
13B
  8
0
  6
CONTINUOUS
 62
     7
 66
     1
 10
0.0
 20
0.0
 30
0.0
 70
   128
  0
VERTEX
  5
733
  8
0
  6
CONTINUOUS
 62
     7
 10
95.024500299
 20
243.0011726108
 30
0.0
  0
VERTEX
  5
734
  8
0
  6
CONTINUOUS
 62
     7
 10
95.040300302
 20
243.1287306567
 30
0.0
  0
VERTEX
  5
735
  8
0
  6
CONTINUOUS
 62
     7
 10
95.0424874896
 20
243.2297992704
 30
0.0
  0
SEQEND
  5
977
  8
0
  6
CONTINUOUS
 62
     7
  0
POLYLINE
  5
13C
  8
0
  6
CONTINUOUS
 62
     7
 66
     1
 10
0.0
 20
0.0
 30
0.0
 70
   128
  0
VERTEX
  5
736
  8
0
  6
CONTINUOUS
 62
     7
 10
94.923204015
 20
242.7678124799
 30
0.0
  0
VERTEX
  5
737
  8
0
  6
CONTINUOUS
 62
     7
 10
94.9902081867
 20
242.8940772872
 30
0.0
  0
VERTEX
  5
738
  8
0
  6
CONTINUOUS
 62
     7
 10
95.024500299
 20
243.0011726108
 30
0.0
  0
SEQEND
  5
978
  8
0
  6
CONTINUOUS
 62
     7
  0
ARC
  5
13D
  8
0
  6
CONTINUOUS
 62
     7
 10
94.0287914572
 20
243.3362079597
 30
0.0
 40
1.059739234422326
 50
269.7581285769
 51
327.5642104068
  0
ARC
  5
13E
  8
0
  6
CONTINUOUS
 62
     7
 10
93.9708284141
 20
243.2679956349
 30
0.0
 40
0.992959216284311
 50
206.582040824
 51
273.0879435645
  0
POLYLINE
  5
13F
  8
0
  6
CONTINUOUS
 62
     7
 66
     1
 10
0.0
 20
0.0
 30
0.0
 70
   128
  0
VERTEX
  5
739
  8
0
  6
CONTINUOUS
 62
     7
 10
93.012775033
 20
243.2600934862
 30
0.0
  0
VERTEX
  5
73A
  8
0
  6
CONTINUOUS
 62
     7
 10
93.0301172919
 20
243.0117114666
 30
0.0
  0
VERTEX
  5
73B
  8
0
  6
CONTINUOUS
 62
     7
 10
93.082830407
 20
242.8236674402
 30
0.0
  0
SEQEND
  5
979
  8
0
  6
CONTINUOUS
 62
     7
  0
ARC
  5
140
  8
0
  6
CONTINUOUS
 62
     7
 10
93.7101869736
 20
243.2388978068
 30
0.0
 40
0.6977339547955769
 50
105.1550735369
 51
178.2592077885
  0
LINE
  5
141
  8
0
  6
CONTINUOUS
 62
     7
 10
93.5192564529
 20
244.0032484668
 30
0.0
 11
93.5277767011
 21
243.9123658195
 31
0.0
  0
POLYLINE
  5
142
  8
0
  6
CONTINUOUS
 62
     7
 66
     1
 10
0.0
 20
0.0
 30
0.0
 70
   128
  0
VERTEX
  5
73C
  8
0
  6
CONTINUOUS
 62
     7
 10
93.3602118201
 20
243.9838412348
 30
0.0
  0
VERTEX
  5
73D
  8
0
  6
CONTINUOUS
 62
     7
 10
93.4489784239
 20
243.9973303951
 30
0.0
  0
VERTEX
  5
73E
  8
0
  6
CONTINUOUS
 62
     7
 10
93.5192564529
 20
244.0032484668
 30
0.0
  0
SEQEND
  5
97A
  8
0
  6
CONTINUOUS
 62
     7
  0
LINE
  5
143
  8
0
  6
CONTINUOUS
 62
     7
 10
95.0410674482
 20
239.4624295311
 30
0.0
 11
94.9979928602
 21
239.4591161013
 31
0.0
  0
POLYLINE
  5
144
  8
0
  6
CONTINUOUS
 62
     7
 66
     1
 10
0.0
 20
0.0
 30
0.0
 70
   128
  0
VERTEX
  5
73F
  8
0
  6
CONTINUOUS
 62
     7
 10
95.0424874896
 20
239.5253846983
 30
0.0
  0
VERTEX
  5
740
  8
0
  6
CONTINUOUS
 62
     7
 10
95.0418384044
 20
239.4901265964
 30
0.0
  0
VERTEX
  5
741
  8
0
  6
CONTINUOUS
 62
     7
 10
95.0410674482
 20
239.4624295311
 30
0.0
  0
SEQEND
  5
97B
  8
0
  6
CONTINUOUS
 62
     7
  0
LINE
  5
145
  8
0
  6
CONTINUOUS
 62
     7
 10
95.0424874896
 20
239.9173161148
 30
0.0
 11
95.0424874896
 21
239.5253846983
 31
0.0
  0
POLYLINE
  5
146
  8
0
  6
CONTINUOUS
 62
     7
 66
     1
 10
0.0
 20
0.0
 30
0.0
 70
   128
  0
VERTEX
  5
742
  8
0
  6
CONTINUOUS
 62
     7
 10
95.0443808781
 20
240.2647529019
 30
0.0
  0
VERTEX
  5
743
  8
0
  6
CONTINUOUS
 62
     7
 10
95.0430964467
 20
240.0701890813
 30
0.0
  0
VERTEX
  5
744
  8
0
  6
CONTINUOUS
 62
     7
 10
95.0424874896
 20
239.9173161148
 30
0.0
  0
SEQEND
  5
97C
  8
0
  6
CONTINUOUS
 62
     7
  0
LINE
  5
147
  8
0
  6
CONTINUOUS
 62
     7
 10
95.0424874896
 20
240.3177677795
 30
0.0
 11
95.0443808781
 21
240.2647529019
 31
0.0
  0
ARC
  5
148
  8
0
  6
CONTINUOUS
 62
     7
 10
95.0117677255
 20
240.3050623538
 30
0.0
 40
0.0332435219238632
 50
22.4695591561
 51
78.5855211472
  0
POLYLINE
  5
149
  8
0
  6
CONTINUOUS
 62
     7
 66
     1
 10
0.0
 20
0.0
 30
0.0
 70
   128
  0
VERTEX
  5
745
  8
0
  6
CONTINUOUS
 62
     7
 10
94.9908926534
 20
240.3272347219
 30
0.0
  0
VERTEX
  5
746
  8
0
  6
CONTINUOUS
 62
     7
 10
95.0056844358
 20
240.3346861922
 30
0.0
  0
VERTEX
  5
747
  8
0
  6
CONTINUOUS
 62
     7
 10
95.0183467864
 20
240.3376483586
 30
0.0
  0
SEQEND
  5
97D
  8
0
  6
CONTINUOUS
 62
     7
  0
POLYLINE
  5
14A
  8
0
  6
CONTINUOUS
 62
     7
 66
     1
 10
0.0
 20
0.0
 30
0.0
 70
   128
  0
VERTEX
  5
748
  8
0
  6
CONTINUOUS
 62
     7
 10
94.981899058
 20
240.2675929846
 30
0.0
  0
VERTEX
  5
749
  8
0
  6
CONTINUOUS
 62
     7
 10
94.9857262492
 20
240.3011751918
 30
0.0
  0
VERTEX
  5
74A
  8
0
  6
CONTINUOUS
 62
     7
 10
94.9908926534
 20
240.3272347219
 30
0.0
  0
SEQEND
  5
97E
  8
0
  6
CONTINUOUS
 62
     7
  0
POLYLINE
  5
14B
  8
0
  6
CONTINUOUS
 62
     7
 66
     1
 10
0.0
 20
0.0
 30
0.0
 70
   128
  0
VERTEX
  5
74B
  8
0
  6
CONTINUOUS
 62
     7
 10
94.9374044286
 20
240.0844076487
 30
0.0
  0
VERTEX
  5
74C
  8
0
  6
CONTINUOUS
 62
     7
 10
94.970769422
 20
240.1848866485
 30
0.0
  0
VERTEX
  5
74D
  8
0
  6
CONTINUOUS
 62
     7
 10
94.981899058
 20
240.2675929846
 30
0.0
  0
SEQEND
  5
97F
  8
0
  6
CONTINUOUS
 62
     7
  0
ARC
  5
14C
  8
0
  6
CONTINUOUS
 62
     7
 10
94.7712822663
 20
240.3512060561
 30
0.0
 40
0.3142896164707079
 50
255.7848251515
 51
301.9084782245
  0
LINE
  5
14D
  8
0
  6
CONTINUOUS
 62
     7
 10
94.2879721781
 20
240.0347062009
 30
0.0
 11
94.6941040082
 21
240.0465398789
 31
0.0
  0
LINE
  5
14E
  8
0
  6
CONTINUOUS
 62
     7
 10
93.2835295864
 20
240.0347062009
 30
0.0
 11
94.2879721781
 21
240.0347062009
 31
0.0
  0
LINE
  5
14F
  8
0
  6
CONTINUOUS
 62
     7
 10
93.2537087178
 20
240.0332861595
 30
0.0
 11
93.2835295864
 21
240.0347062009
 31
0.0
  0
ARC
  5
150
  8
0
  6
CONTINUOUS
 62
     7
 10
93.2338045765
 20
240.1957615883
 30
0.0
 40
0.1636900723679815
 50
232.2003421486
 51
276.9842505701
  0
POLYLINE
  5
151
  8
0
  6
CONTINUOUS
 62
     7
 66
     1
 10
0.0
 20
0.0
 30
0.0
 70
   128
  0
VERTEX
  5
74E
  8
0
  6
CONTINUOUS
 62
     7
 10
93.0733634645
 20
240.2548126124
 30
0.0
  0
VERTEX
  5
74F
  8
0
  6
CONTINUOUS
 62
     7
 10
93.0936902346
 20
240.1445365708
 30
0.0
  0
VERTEX
  5
750
  8
0
  6
CONTINUOUS
 62
     7
 10
93.1334785489
 20
240.066420458
 30
0.0
  0
SEQEND
  5
980
  8
0
  6
CONTINUOUS
 62
     7
  0
POLYLINE
  5
152
  8
0
  6
CONTINUOUS
 62
     7
 66
     1
 10
0.0
 20
0.0
 30
0.0
 70
   128
  0
VERTEX
  5
751
  8
0
  6
CONTINUOUS
 62
     7
 10
93.0582163566
 20
240.3267613748
 30
0.0
  0
VERTEX
  5
752
  8
0
  6
CONTINUOUS
 62
     7
 10
93.0689499245
 20
240.2869730447
 30
0.0
  0
VERTEX
  5
753
  8
0
  6
CONTINUOUS
 62
     7
 10
93.0733634645
 20
240.2548126124
 30
0.0
  0
SEQEND
  5
981
  8
0
  6
CONTINUOUS
 62
     7
  0
POLYLINE
  5
153
  8
0
  6
CONTINUOUS
 62
     7
 66
     1
 10
0.0
 20
0.0
 30
0.0
 70
   128
  0
VERTEX
  5
754
  8
0
  6
CONTINUOUS
 62
     7
 10
93.0383357775
 20
240.3300748047
 30
0.0
  0
VERTEX
  5
755
  8
0
  6
CONTINUOUS
 62
     7
 10
93.0495818518
 20
240.3289003483
 30
0.0
  0
VERTEX
  5
756
  8
0
  6
CONTINUOUS
 62
     7
 10
93.0582163566
 20
240.3267613748
 30
0.0
  0
SEQEND
  5
982
  8
0
  6
CONTINUOUS
 62
     7
  0
ARC
  5
154
  8
0
  6
CONTINUOUS
 62
     7
 10
93.0423033485
 20
240.3042159063
 30
0.0
 40
0.026161503121241
 50
98.7229552411
 51
161.3986136748
  0
POLYLINE
  5
155
  8
0
  6
CONTINUOUS
 62
     7
 66
     1
 10
0.0
 20
0.0
 30
0.0
 70
   128
  0
VERTEX
  5
757
  8
0
  6
CONTINUOUS
 62
     7
 10
93.012775033
 20
240.1880706682
 30
0.0
  0
VERTEX
  5
758
  8
0
  6
CONTINUOUS
 62
     7
 10
93.0170191117
 20
240.2577213825
 30
0.0
  0
VERTEX
  5
759
  8
0
  6
CONTINUOUS
 62
     7
 10
93.0175085042
 20
240.3125609612
 30
0.0
  0
SEQEND
  5
983
  8
0
  6
CONTINUOUS
 62
     7
  0
LINE
  5
156
  8
0
  6
CONTINUOUS
 62
     7
 10
93.012775033
 20
239.8131797481
 30
0.0
 11
93.012775033
 21
240.1880706682
 31
0.0
  0
POLYLINE
  5
157
  8
0
  6
CONTINUOUS
 62
     7
 66
     1
 10
0.0
 20
0.0
 30
0.0
 70
   128
  0
VERTEX
  5
75A
  8
0
  6
CONTINUOUS
 62
     7
 10
93.0170351571
 20
239.4960371768
 30
0.0
  0
VERTEX
  5
75B
  8
0
  6
CONTINUOUS
 62
     7
 10
93.0132433519
 20
239.673615709
 30
0.0
  0
VERTEX
  5
75C
  8
0
  6
CONTINUOUS
 62
     7
 10
93.012775033
 20
239.8131797481
 30
0.0
  0
SEQEND
  5
984
  8
0
  6
CONTINUOUS
 62
     7
  0
POLYLINE
  5
158
  8
0
  6
CONTINUOUS
 62
     7
 66
     1
 10
0.0
 20
0.0
 30
0.0
 70
   128
  0
VERTEX
  5
75D
  8
0
  6
CONTINUOUS
 62
     7
 10
93.0388091247
 20
239.4894103171
 30
0.0
  0
VERTEX
  5
75E
  8
0
  6
CONTINUOUS
 62
     7
 10
93.0262676417
 20
239.4918721754
 30
0.0
  0
VERTEX
  5
75F
  8
0
  6
CONTINUOUS
 62
     7
 10
93.0170351571
 20
239.4960371768
 30
0.0
  0
SEQEND
  5
985
  8
0
  6
CONTINUOUS
 62
     7
  0
ARC
  5
159
  8
0
  6
CONTINUOUS
 62
     7
 10
93.035781379
 20
239.5305445674
 30
0.0
 40
0.0412455306284612
 50
274.2097465201
 51
335.6688738893
  0
POLYLINE
  5
15A
  8
0
  6
CONTINUOUS
 62
     7
 66
     1
 10
0.0
 20
0.0
 30
0.0
 70
   128
  0
VERTEX
  5
760
  8
0
  6
CONTINUOUS
 62
     7
 10
93.090877308
 20
239.7047832573
 30
0.0
  0
VERTEX
  5
761
  8
0
  6
CONTINUOUS
 62
     7
 10
93.0789714739
 20
239.5978826815
 30
0.0
  0
VERTEX
  5
762
  8
0
  6
CONTINUOUS
 62
     7
 10
93.0733634645
 20
239.5135510202
 30
0.0
  0
SEQEND
  5
986
  8
0
  6
CONTINUOUS
 62
     7
  0
POLYLINE
  5
15B
  8
0
  6
CONTINUOUS
 62
     7
 66
     1
 10
0.0
 20
0.0
 30
0.0
 70
   128
  0
VERTEX
  5
763
  8
0
  6
CONTINUOUS
 62
     7
 10
93.1117045814
 20
239.7563780935
 30
0.0
  0
VERTEX
  5
764
  8
0
  6
CONTINUOUS
 62
     7
 10
93.0980826617
 20
239.7282528968
 30
0.0
  0
VERTEX
  5
765
  8
0
  6
CONTINUOUS
 62
     7
 10
93.090877308
 20
239.7047832573
 30
0.0
  0
SEQEND
  5
987
  8
0
  6
CONTINUOUS
 62
     7
  0
POLYLINE
  5
15C
  8
0
  6
CONTINUOUS
 62
     7
 66
     1
 10
0.0
 20
0.0
 30
0.0
 70
   128
  0
VERTEX
  5
766
  8
0
  6
CONTINUOUS
 62
     7
 10
93.176553137
 20
239.7786254082
 30
0.0
  0
VERTEX
  5
767
  8
0
  6
CONTINUOUS
 62
     7
 10
93.139059749
 20
239.7696557702
 30
0.0
  0
VERTEX
  5
768
  8
0
  6
CONTINUOUS
 62
     7
 10
93.1117045814
 20
239.7563780935
 30
0.0
  0
SEQEND
  5
988
  8
0
  6
CONTINUOUS
 62
     7
  0
POLYLINE
  5
15D
  8
0
  6
CONTINUOUS
 62
     7
 66
     1
 10
0.0
 20
0.0
 30
0.0
 70
   128
  0
VERTEX
  5
769
  8
0
  6
CONTINUOUS
 62
     7
 10
93.511682899
 20
239.7890390449
 30
0.0
  0
VERTEX
  5
76A
  8
0
  6
CONTINUOUS
 62
     7
 10
93.3238609951
 20
239.7869373366
 30
0.0
  0
VERTEX
  5
76B
  8
0
  6
CONTINUOUS
 62
     7
 10
93.176553137
 20
239.7786254082
 30
0.0
  0
SEQEND
  5
989
  8
0
  6
CONTINUOUS
 62
     7
  0
LINE
  5
15E
  8
0
  6
CONTINUOUS
 62
     7
 10
93.8084715441
 20
239.7852522679
 30
0.0
 11
93.511682899
 21
239.7890390449
 31
0.0
  0
LINE
  5
15F
  8
0
  6
CONTINUOUS
 62
     7
 10
94.2501044083
 20
239.7956659046
 30
0.0
 11
93.8084715441
 21
239.7852522679
 31
0.0
  0
LINE
  5
160
  8
0
  6
CONTINUOUS
 62
     7
 10
94.3783814782
 20
239.7923524748
 30
0.0
 11
94.2501044083
 21
239.7956659046
 31
0.0
  0
LINE
  5
161
  8
0
  6
CONTINUOUS
 62
     7
 10
94.673750082
 20
239.7923524748
 30
0.0
 11
94.3783814782
 21
239.7923524748
 31
0.0
  0
LINE
  5
162
  8
0
  6
CONTINUOUS
 62
     7
 10
94.829481285
 20
239.7942458632
 30
0.0
 11
94.673750082
 21
239.7923524748
 31
0.0
  0
ARC
  5
163
  8
0
  6
CONTINUOUS
 62
     7
 10
94.8417192656
 20
239.6796808246
 30
0.0
 40
0.1152168227953276
 50
43.9822832938
 51
96.0972853455
  0
POLYLINE
  5
164
  8
0
  6
CONTINUOUS
 62
     7
 66
     1
 10
0.0
 20
0.0
 30
0.0
 70
   128
  0
VERTEX
  5
76C
  8
0
  6
CONTINUOUS
 62
     7
 10
94.981899058
 20
239.485150193
 30
0.0
  0
VERTEX
  5
76D
  8
0
  6
CONTINUOUS
 62
     7
 10
94.9605140611
 20
239.641289322
 30
0.0
  0
VERTEX
  5
76E
  8
0
  6
CONTINUOUS
 62
     7
 10
94.9246240564
 20
239.7596915234
 30
0.0
  0
SEQEND
  5
98A
  8
0
  6
CONTINUOUS
 62
     7
  0
ARC
  5
165
  8
0
  6
CONTINUOUS
 62
     7
 10
95.0137324747
 20
239.4868375386
 30
0.0
 40
0.0318781045875681
 50
183.0341510287
 51
240.4130548867
  0
ARC
  5
166
  8
0
  6
CONTINUOUS
 62
     7
 10
103.7613838468
 20
261.8091775814
 30
0.0
 40
1.0
 50
0.0
 51
90.0
  0
LINE
  5
167
  8
0
  6
CONTINUOUS
 62
     7
 10
104.7613838468
 20
261.8091775814
 30
0.0
 11
104.7613838468
 21
248.8091775814
 31
0.0
  0
ARC
  5
168
  8
0
  6
CONTINUOUS
 62
     7
 10
105.7613838468
 20
248.8091775814
 30
0.0
 40
1.000000000000031
 50
180.0
 51
251.2469165733
  0
LINE
  5
169
  8
0
  6
CONTINUOUS
 62
     7
 10
105.439893422
 20
227.7560904109
 30
0.0
 11
105.439893422
 21
247.8622647518
 31
0.0
  0
ARC
  5
16A
  8
0
  6
CONTINUOUS
 62
     7
 10
105.7613838468
 20
226.8091775814
 30
0.0
 40
1.0
 50
108.7530834267
 51
180.0
  0
LINE
  5
16B
  8
0
  6
CONTINUOUS
 62
     7
 10
104.7613838468
 20
226.8091775814
 30
0.0
 11
104.7613838468
 21
209.8091775814
 31
0.0
  0
ARC
  5
16C
  8
0
  6
CONTINUOUS
 62
     7
 10
105.7613838468
 20
209.8091775814
 30
0.0
 40
1.000000000000004
 50
180.0
 51
251.2469165733
  0
LINE
  5
16D
  8
0
  6
CONTINUOUS
 62
     7
 10
105.439893422
 20
188.7560904109
 30
0.0
 11
105.439893422
 21
208.8622647518
 31
0.0
  0
ARC
  5
16E
  8
0
  6
CONTINUOUS
 62
     7
 10
105.7613838468
 20
187.8091775814
 30
0.0
 40
1.000000000000014
 50
108.7530834267
 51
180.0
  0
LINE
  5
16F
  8
0
  6
CONTINUOUS
 62
     7
 10
104.7613838468
 20
187.8091775814
 30
0.0
 11
104.7613838468
 21
174.8091775814
 31
0.0
  0
ARC
  5
170
  8
0
  6
CONTINUOUS
 62
     7
 10
103.7613838468
 20
174.8091775814
 30
0.0
 40
1.0
 50
270.0
 51
0.0
  0
LINE
  5
171
  8
0
  6
CONTINUOUS
 62
     7
 10
103.7613838468
 20
173.8091775814
 30
0.0
 11
69.0613838468
 21
173.8091775814
 31
0.0
  0
ARC
  5
172
  8
0
  6
CONTINUOUS
 62
     7
 10
69.0613838468
 20
174.8091775814
 30
0.0
 40
1.0
 50
180.0
 51
270.0
  0
LINE
  5
173
  8
0
  6
CONTINUOUS
 62
     7
 10
68.0613838468
 20
174.8091775814
 30
0.0
 11
68.0613838468
 21
261.8091775814
 31
0.0
  0
ARC
  5
174
  8
0
  6
CONTINUOUS
 62
     7
 10
69.0613838468
 20
261.8091775814
 30
0.0
 40
1.0
 50
90.0
 51
180.0
  0
LINE
  5
175
  8
0
  6
CONTINUOUS
 62
     7
 10
103.7613838468
 20
262.8091775814
 30
0.0
 11
69.0613838468
 21
262.8091775814
 31
0.0
  0
CIRCLE
  5
176
  8
0
  6
CONTINUOUS
 62
     7
 10
86.0613838468
 20
253.3091775814
 30
0.0
 40
4.75
  0
CIRCLE
  5
177
  8
0
  6
CONTINUOUS
 62
     7
 10
86.0613838468
 20
183.3091775814
 30
0.0
 40
4.75
  0
CIRCLE
  5
178
  8
0
  6
CONTINUOUS
 62
     7
 10
77.0613838468
 20
236.3091775814
 30
0.0
 40
4.75
  0
CIRCLE
  5
179
  8
0
  6
CONTINUOUS
 62
     7
 10
77.0613838468
 20
200.3091775814
 30
0.0
 40
4.75
  0
LINE
  5
17A
  8
0
  6
CONTINUOUS
 62
     7
 10
92.2424874896
 20
237.5832284497
 30
0.0
 11
92.2424874896
 21
245.9832284497
 31
0.0
  0
LINE
  5
17B
  8
0
  6
CONTINUOUS
 62
     7
 10
92.2424874896
 20
245.9832284497
 30
0.0
 11
91.5144874896
 21
245.9832284497
 31
0.0
  0
LINE
  5
17C
  8
0
  6
CONTINUOUS
 62
     7
 10
91.5144874896
 20
245.9832284497
 30
0.0
 11
88.0984874896
 21
240.0472284497
 31
0.0
  0
LINE
  5
17D
  8
0
  6
CONTINUOUS
 62
     7
 10
88.0984874896
 20
240.0472284497
 30
0.0
 11
90.3384874896
 21
237.5832284497
 31
0.0
  0
LINE
  5
17E
  8
0
  6
CONTINUOUS
 62
     7
 10
90.3384874896
 20
237.5832284497
 30
0.0
 11
92.2424874896
 21
237.5832284497
 31
0.0
  0
POLYLINE
  5
17F
  8
0
  6
CONTINUOUS
 62
     7
 66
     1
 10
0.0
 20
0.0
 30
0.0
 70
   128
  0
VERTEX
  5
76F
  8
0
  6
CONTINUOUS
 62
     7
 10
92.9891076769
 20
238.9412743505
 30
0.0
  0
VERTEX
  5
770
  8
0
  6
CONTINUOUS
 62
     7
 10
93.0353277525
 20
239.0480002848
 30
0.0
  0
VERTEX
  5
771
  8
0
  6
CONTINUOUS
 62
     7
 10
93.0833037541
 20
239.1258797278
 30
0.0
  0
SEQEND
  5
98B
  8
0
  6
CONTINUOUS
 62
     7
  0
POLYLINE
  5
180
  8
0
  6
CONTINUOUS
 62
     7
 66
     1
 10
0.0
 20
0.0
 30
0.0
 70
   128
  0
VERTEX
  5
772
  8
0
  6
CONTINUOUS
 62
     7
 10
92.9521866014
 20
238.6482724823
 30
0.0
  0
VERTEX
  5
773
  8
0
  6
CONTINUOUS
 62
     7
 10
92.9626035175
 20
238.8137538022
 30
0.0
  0
VERTEX
  5
774
  8
0
  6
CONTINUOUS
 62
     7
 10
92.9891076769
 20
238.9412743505
 30
0.0
  0
SEQEND
  5
98C
  8
0
  6
CONTINUOUS
 62
     7
  0
POLYLINE
  5
181
  8
0
  6
CONTINUOUS
 62
     7
 66
     1
 10
0.0
 20
0.0
 30
0.0
 70
   128
  0
VERTEX
  5
775
  8
0
  6
CONTINUOUS
 62
     7
 10
93.4813886832
 20
237.9746995285
 30
0.0
  0
VERTEX
  5
776
  8
0
  6
CONTINUOUS
 62
     7
 10
93.3067824872
 20
238.0071190366
 30
0.0
  0
VERTEX
  5
777
  8
0
  6
CONTINUOUS
 62
     7
 10
93.1573475256
 20
238.103339486
 30
0.0
  0
VERTEX
  5
778
  8
0
  6
CONTINUOUS
 62
     7
 10
93.0466512385
 20
238.242797872
 30
0.0
  0
VERTEX
  5
779
  8
0
  6
CONTINUOUS
 62
     7
 10
92.9521866014
 20
238.6482724823
 30
0.0
  0
SEQEND
  5
98D
  8
0
  6
CONTINUOUS
 62
     7
  0
POLYLINE
  5
182
  8
0
  6
CONTINUOUS
 62
     7
 66
     1
 10
0.0
 20
0.0
 30
0.0
 70
   128
  0
VERTEX
  5
77A
  8
0
  6
CONTINUOUS
 62
     7
 10
93.6967616234
 20
238.0225075878
 30
0.0
  0
VERTEX
  5
77B
  8
0
  6
CONTINUOUS
 62
     7
 10
93.5789056407
 20
237.9829553454
 30
0.0
  0
VERTEX
  5
77C
  8
0
  6
CONTINUOUS
 62
     7
 10
93.4813886832
 20
237.9746995285
 30
0.0
  0
SEQEND
  5
98E
  8
0
  6
CONTINUOUS
 62
     7
  0
POLYLINE
  5
183
  8
0
  6
CONTINUOUS
 62
     7
 66
     1
 10
0.0
 20
0.0
 30
0.0
 70
   128
  0
VERTEX
  5
77D
  8
0
  6
CONTINUOUS
 62
     7
 10
93.9230215475
 20
238.2156332133
 30
0.0
  0
VERTEX
  5
77E
  8
0
  6
CONTINUOUS
 62
     7
 10
93.8054854798
 20
238.0964694692
 30
0.0
  0
VERTEX
  5
77F
  8
0
  6
CONTINUOUS
 62
     7
 10
93.6967616234
 20
238.0225075878
 30
0.0
  0
SEQEND
  5
98F
  8
0
  6
CONTINUOUS
 62
     7
  0
ARC
  5
184
  8
0
  6
CONTINUOUS
 62
     7
 10
99.1219473963
 20
235.6683912994
 30
0.0
 40
5.789410276476945
 50
144.9139096308
 51
153.8972055938
  0
POLYLINE
  5
185
  8
0
  6
CONTINUOUS
 62
     7
 66
     1
 10
0.0
 20
0.0
 30
0.0
 70
   128
  0
VERTEX
  5
780
  8
0
  6
CONTINUOUS
 62
     7
 10
94.6292554526
 20
239.095585512
 30
0.0
  0
VERTEX
  5
781
  8
0
  6
CONTINUOUS
 62
     7
 10
94.4827595041
 20
239.0625142355
 30
0.0
  0
VERTEX
  5
782
  8
0
  6
CONTINUOUS
 62
     7
 10
94.3845349908
 20
238.9961826165
 30
0.0
  0
SEQEND
  5
990
  8
0
  6
CONTINUOUS
 62
     7
  0
ARC
  5
186
  8
0
  6
CONTINUOUS
 62
     7
 10
94.6013886278
 20
238.6545622343
 30
0.0
 40
0.4419028076945864
 50
356.5433649372
 51
86.3844728982
  0
POLYLINE
  5
187
  8
0
  6
CONTINUOUS
 62
     7
 66
     1
 10
0.0
 20
0.0
 30
0.0
 70
   128
  0
VERTEX
  5
783
  8
0
  6
CONTINUOUS
 62
     7
 10
94.8820228154
 20
238.2516075946
 30
0.0
  0
VERTEX
  5
784
  8
0
  6
CONTINUOUS
 62
     7
 10
95.0096397778
 20
238.4471630412
 30
0.0
  0
VERTEX
  5
785
  8
0
  6
CONTINUOUS
 62
     7
 10
95.0424874896
 20
238.6279185561
 30
0.0
  0
SEQEND
  5
991
  8
0
  6
CONTINUOUS
 62
     7
  0
POLYLINE
  5
188
  8
0
  6
CONTINUOUS
 62
     7
 66
     1
 10
0.0
 20
0.0
 30
0.0
 70
   128
  0
VERTEX
  5
786
  8
0
  6
CONTINUOUS
 62
     7
 10
94.5180188791
 20
238.0655821759
 30
0.0
  0
VERTEX
  5
787
  8
0
  6
CONTINUOUS
 62
     7
 10
94.7391957032
 20
238.1365534719
 30
0.0
  0
VERTEX
  5
788
  8
0
  6
CONTINUOUS
 62
     7
 10
94.8820228154
 20
238.2516075946
 30
0.0
  0
SEQEND
  5
992
  8
0
  6
CONTINUOUS
 62
     7
  0
POLYLINE
  5
189
  8
0
  6
CONTINUOUS
 62
     7
 66
     1
 10
0.0
 20
0.0
 30
0.0
 70
   128
  0
VERTEX
  5
789
  8
0
  6
CONTINUOUS
 62
     7
 10
94.46689739
 20
238.0201408522
 30
0.0
  0
VERTEX
  5
78A
  8
0
  6
CONTINUOUS
 62
     7
 10
94.4689584446
 20
238.0341625207
 30
0.0
  0
VERTEX
  5
78B
  8
0
  6
CONTINUOUS
 62
     7
 10
94.4750123727
 20
238.0471912084
 30
0.0
  0
VERTEX
  5
78C
  8
0
  6
CONTINUOUS
 62
     7
 10
94.4857075399
 20
238.056244776
 30
0.0
  0
VERTEX
  5
78D
  8
0
  6
CONTINUOUS
 62
     7
 10
94.5180188791
 20
238.0655821759
 30
0.0
  0
SEQEND
  5
993
  8
0
  6
CONTINUOUS
 62
     7
  0
ARC
  5
18A
  8
0
  6
CONTINUOUS
 62
     7
 10
94.5026286229
 20
238.0158528495
 30
0.0
 40
0.0359876086124673
 50
173.1568239125
 51
227.3745710294
  0
POLYLINE
  5
18B
  8
0
  6
CONTINUOUS
 62
     7
 66
     1
 10
0.0
 20
0.0
 30
0.0
 70
   128
  0
VERTEX
  5
78E
  8
0
  6
CONTINUOUS
 62
     7
 10
94.5696137153
 20
237.9746995285
 30
0.0
  0
VERTEX
  5
78F
  8
0
  6
CONTINUOUS
 62
     7
 10
94.5176606712
 20
237.9788984372
 30
0.0
  0
VERTEX
  5
790
  8
0
  6
CONTINUOUS
 62
     7
 10
94.4782577209
 20
237.9893732893
 30
0.0
  0
SEQEND
  5
994
  8
0
  6
CONTINUOUS
 62
     7
  0
POLYLINE
  5
18C
  8
0
  6
CONTINUOUS
 62
     7
 66
     1
 10
0.0
 20
0.0
 30
0.0
 70
   128
  0
VERTEX
  5
791
  8
0
  6
CONTINUOUS
 62
     7
 10
94.8900697165
 20
237.9481920897
 30
0.0
  0
VERTEX
  5
792
  8
0
  6
CONTINUOUS
 62
     7
 10
94.7109437512
 20
237.9672600073
 30
0.0
  0
VERTEX
  5
793
  8
0
  6
CONTINUOUS
 62
     7
 10
94.5696137153
 20
237.9746995285
 30
0.0
  0
SEQEND
  5
995
  8
0
  6
CONTINUOUS
 62
     7
  0
POLYLINE
  5
18D
  8
0
  6
CONTINUOUS
 62
     7
 66
     1
 10
0.0
 20
0.0
 30
0.0
 70
   128
  0
VERTEX
  5
794
  8
0
  6
CONTINUOUS
 62
     7
 10
94.9364577344
 20
237.9444053128
 30
0.0
  0
VERTEX
  5
795
  8
0
  6
CONTINUOUS
 62
     7
 10
94.9104251661
 20
237.945814711
 30
0.0
  0
VERTEX
  5
796
  8
0
  6
CONTINUOUS
 62
     7
 10
94.8900697165
 20
237.9481920897
 30
0.0
  0
SEQEND
  5
996
  8
0
  6
CONTINUOUS
 62
     7
  0
POLYLINE
  5
18E
  8
0
  6
CONTINUOUS
 62
     7
 66
     1
 10
0.0
 20
0.0
 30
0.0
 70
   128
  0
VERTEX
  5
797
  8
0
  6
CONTINUOUS
 62
     7
 10
95.0448542252
 20
238.1114968466
 30
0.0
  0
VERTEX
  5
798
  8
0
  6
CONTINUOUS
 62
     7
 10
95.0102924003
 20
238.0111724064
 30
0.0
  0
VERTEX
  5
799
  8
0
  6
CONTINUOUS
 62
     7
 10
94.9839797533
 20
237.9653249272
 30
0.0
  0
VERTEX
  5
79A
  8
0
  6
CONTINUOUS
 62
     7
 10
94.9625260607
 20
237.949659218
 30
0.0
  0
VERTEX
  5
79B
  8
0
  6
CONTINUOUS
 62
     7
 10
94.9364577344
 20
237.9444053128
 30
0.0
  0
SEQEND
  5
997
  8
0
  6
CONTINUOUS
 62
     7
  0
POLYLINE
  5
18F
  8
0
  6
CONTINUOUS
 62
     7
 66
     1
 10
0.0
 20
0.0
 30
0.0
 70
   128
  0
VERTEX
  5
79C
  8
0
  6
CONTINUOUS
 62
     7
 10
95.1030759211
 20
238.5242555365
 30
0.0
  0
VERTEX
  5
79D
  8
0
  6
CONTINUOUS
 62
     7
 10
95.0851246002
 20
238.2909385195
 30
0.0
  0
VERTEX
  5
79E
  8
0
  6
CONTINUOUS
 62
     7
 10
95.0448542252
 20
238.1114968466
 30
0.0
  0
SEQEND
  5
998
  8
0
  6
CONTINUOUS
 62
     7
  0
ARC
  5
190
  8
0
  6
CONTINUOUS
 62
     7
 10
94.4729298793
 20
238.6116729624
 30
0.0
 40
0.6361806664747567
 50
352.1020128006
 51
87.1316491894
  0
ARC
  5
191
  8
0
  6
CONTINUOUS
 62
     7
 10
94.5923137373
 20
238.5104618231
 30
0.0
 40
0.7417793508808667
 50
96.7781388132
 51
167.5015123277
  0
POLYLINE
  5
192
  8
0
  6
CONTINUOUS
 62
     7
 66
     1
 10
0.0
 20
0.0
 30
0.0
 70
   128
  0
VERTEX
  5
79F
  8
0
  6
CONTINUOUS
 62
     7
 10
93.5992521164
 20
238.2151598662
 30
0.0
  0
VERTEX
  5
7A0
  8
0
  6
CONTINUOUS
 62
     7
 10
93.7635587476
 20
238.4619720126
 30
0.0
  0
VERTEX
  5
7A1
  8
0
  6
CONTINUOUS
 62
     7
 10
93.8681132814
 20
238.6709931441
 30
0.0
  0
SEQEND
  5
999
  8
0
  6
CONTINUOUS
 62
     7
  0
POLYLINE
  5
193
  8
0
  6
CONTINUOUS
 62
     7
 66
     1
 10
0.0
 20
0.0
 30
0.0
 70
   128
  0
VERTEX
  5
7A2
  8
0
  6
CONTINUOUS
 62
     7
 10
93.3890859945
 20
238.1261706074
 30
0.0
  0
VERTEX
  5
7A3
  8
0
  6
CONTINUOUS
 62
     7
 10
93.5154602781
 20
238.1560183753
 30
0.0
  0
VERTEX
  5
7A4
  8
0
  6
CONTINUOUS
 62
     7
 10
93.5992521164
 20
238.2151598662
 30
0.0
  0
SEQEND
  5
99A
  8
0
  6
CONTINUOUS
 62
     7
  0
ARC
  5
194
  8
0
  6
CONTINUOUS
 62
     7
 10
93.4092077507
 20
238.5231230121
 30
0.0
 40
0.3974620694680502
 50
175.875555529
 51
267.0981262568
  0
ARC
  5
195
  8
0
  6
CONTINUOUS
 62
     7
 10
93.5053099232
 20
238.543877233
 30
0.0
 40
0.4925971631031638
 50
94.438507067
 51
179.0889422368
  0
LINE
  5
196
  8
0
  6
CONTINUOUS
 62
     7
 10
93.4705016994
 20
239.0676580319
 30
0.0
 11
93.4671882695
 21
239.0349970805
 31
0.0
  0
POLYLINE
  5
197
  8
0
  6
CONTINUOUS
 62
     7
 66
     1
 10
0.0
 20
0.0
 30
0.0
 70
   128
  0
VERTEX
  5
7A5
  8
0
  6
CONTINUOUS
 62
     7
 10
93.4638748397
 20
239.1220929508
 30
0.0
  0
VERTEX
  5
7A6
  8
0
  6
CONTINUOUS
 62
     7
 10
93.4691342329
 20
239.0917886295
 30
0.0
  0
VERTEX
  5
7A7
  8
0
  6
CONTINUOUS
 62
     7
 10
93.4705016994
 20
239.0676580319
 30
0.0
  0
SEQEND
  5
99B
  8
0
  6
CONTINUOUS
 62
     7
  0
POLYLINE
  5
198
  8
0
  6
CONTINUOUS
 62
     7
 66
     1
 10
0.0
 20
0.0
 30
0.0
 70
   128
  0
VERTEX
  5
7A8
  8
0
  6
CONTINUOUS
 62
     7
 10
93.3474314478
 20
239.1325065875
 30
0.0
  0
VERTEX
  5
7A9
  8
0
  6
CONTINUOUS
 62
     7
 10
93.4128838038
 20
239.1290200555
 30
0.0
  0
VERTEX
  5
7AA
  8
0
  6
CONTINUOUS
 62
     7
 10
93.4638748397
 20
239.1220929508
 30
0.0
  0
SEQEND
  5
99C
  8
0
  6
CONTINUOUS
 62
     7
  0
LINE
  5
199
  8
0
  6
CONTINUOUS
 62
     7
 10
93.2049539643
 20
239.1386601001
 30
0.0
 11
93.3474314478
 21
239.1325065875
 31
0.0
  0
POLYLINE
  5
19A
  8
0
  6
CONTINUOUS
 62
     7
 66
     1
 10
0.0
 20
0.0
 30
0.0
 70
   128
  0
VERTEX
  5
7AB
  8
0
  6
CONTINUOUS
 62
     7
 10
93.0833037541
 20
239.1258797278
 30
0.0
  0
VERTEX
  5
7AC
  8
0
  6
CONTINUOUS
 62
     7
 10
93.1513538498
 20
239.1337659481
 30
0.0
  0
VERTEX
  5
7AD
  8
0
  6
CONTINUOUS
 62
     7
 10
93.2049539643
 20
239.1386601001
 30
0.0
  0
SEQEND
  5
99D
  8
0
  6
CONTINUOUS
 62
     7
  0
POLYLINE
  5
19B
  8
0
  6
CONTINUOUS
 62
     7
 66
     1
 10
0.0
 20
0.0
 30
0.0
 70
   128
  0
VERTEX
  5
7AE
  8
0
  6
CONTINUOUS
 62
     7
 10
94.342407097
 20
240.506633281
 30
0.0
  0
VERTEX
  5
7AF
  8
0
  6
CONTINUOUS
 62
     7
 10
94.1628823737
 20
240.2787727805
 30
0.0
  0
VERTEX
  5
7B0
  8
0
  6
CONTINUOUS
 62
     7
 10
94.0276312613
 20
240.0952946325
 30
0.0
  0
SEQEND
  5
99E
  8
0
  6
CONTINUOUS
 62
     7
  0
LINE
  5
19C
  8
0
  6
CONTINUOUS
 62
     7
 10
94.5857075174
 20
240.8034219261
 30
0.0
 11
94.342407097
 21
240.506633281
 31
0.0
  0
LINE
  5
19D
  8
0
  6
CONTINUOUS
 62
     7
 10
94.7357585549
 20
240.9960742045
 30
0.0
 11
94.5857075174
 21
240.8034219261
 31
0.0
  0
POLYLINE
  5
19E
  8
0
  6
CONTINUOUS
 62
     7
 66
     1
 10
0.0
 20
0.0
 30
0.0
 70
   128
  0
VERTEX
  5
7B1
  8
0
  6
CONTINUOUS
 62
     7
 10
94.8938564935
 20
241.1712126394
 30
0.0
  0
VERTEX
  5
7B2
  8
0
  6
CONTINUOUS
 62
     7
 10
94.8036237329
 20
241.0746736114
 30
0.0
  0
VERTEX
  5
7B3
  8
0
  6
CONTINUOUS
 62
     7
 10
94.7357585549
 20
240.9960742045
 30
0.0
  0
SEQEND
  5
99F
  8
0
  6
CONTINUOUS
 62
     7
  0
POLYLINE
  5
19F
  8
0
  6
CONTINUOUS
 62
     7
 66
     1
 10
0.0
 20
0.0
 30
0.0
 70
   128
  0
VERTEX
  5
7B4
  8
0
  6
CONTINUOUS
 62
     7
 10
94.9440312883
 20
241.2237541699
 30
0.0
  0
VERTEX
  5
7B5
  8
0
  6
CONTINUOUS
 62
     7
 10
94.9144467839
 20
241.1957728491
 30
0.0
  0
VERTEX
  5
7B6
  8
0
  6
CONTINUOUS
 62
     7
 10
94.8938564935
 20
241.1712126394
 30
0.0
  0
SEQEND
  5
9A0
  8
0
  6
CONTINUOUS
 62
     7
  0
POLYLINE
  5
1A0
  8
0
  6
CONTINUOUS
 62
     7
 66
     1
 10
0.0
 20
0.0
 30
0.0
 70
   128
  0
VERTEX
  5
7B7
  8
0
  6
CONTINUOUS
 62
     7
 10
94.9468713711
 20
241.1787861934
 30
0.0
  0
VERTEX
  5
7B8
  8
0
  6
CONTINUOUS
 62
     7
 10
94.9461673611
 20
241.2040230338
 30
0.0
  0
VERTEX
  5
7B9
  8
0
  6
CONTINUOUS
 62
     7
 10
94.9440312883
 20
241.2237541699
 30
0.0
  0
SEQEND
  5
9A1
  8
0
  6
CONTINUOUS
 62
     7
  0
POLYLINE
  5
1A1
  8
0
  6
CONTINUOUS
 62
     7
 66
     1
 10
0.0
 20
0.0
 30
0.0
 70
   128
  0
VERTEX
  5
7BA
  8
0
  6
CONTINUOUS
 62
     7
 10
94.9681719915
 20
240.9974942459
 30
0.0
  0
VERTEX
  5
7BB
  8
0
  6
CONTINUOUS
 62
     7
 10
94.9520878857
 20
241.0985259345
 30
0.0
  0
VERTEX
  5
7BC
  8
0
  6
CONTINUOUS
 62
     7
 10
94.9468713711
 20
241.1787861934
 30
0.0
  0
SEQEND
  5
9A2
  8
0
  6
CONTINUOUS
 62
     7
  0
POLYLINE
  5
1A2
  8
0
  6
CONTINUOUS
 62
     7
 66
     1
 10
0.0
 20
0.0
 30
0.0
 70
   128
  0
VERTEX
  5
7BD
  8
0
  6
CONTINUOUS
 62
     7
 10
94.9994129015
 20
240.9146584996
 30
0.0
  0
VERTEX
  5
7BE
  8
0
  6
CONTINUOUS
 62
     7
 10
94.978157266
 20
240.9595649195
 30
0.0
  0
VERTEX
  5
7BF
  8
0
  6
CONTINUOUS
 62
     7
 10
94.9681719915
 20
240.9974942459
 30
0.0
  0
SEQEND
  5
9A3
  8
0
  6
CONTINUOUS
 62
     7
  0
LINE
  5
1A3
  8
0
  6
CONTINUOUS
 62
     7
 10
95.0112465796
 20
240.9132384582
 30
0.0
 11
94.9994129015
 21
240.9146584996
 31
0.0
  0
POLYLINE
  5
1A4
  8
0
  6
CONTINUOUS
 62
     7
 66
     1
 10
0.0
 20
0.0
 30
0.0
 70
   128
  0
VERTEX
  5
7C0
  8
0
  6
CONTINUOUS
 62
     7
 10
95.0424874896
 20
240.9179719295
 30
0.0
  0
VERTEX
  5
7C1
  8
0
  6
CONTINUOUS
 62
     7
 10
95.0251401306
 20
240.9142695952
 30
0.0
  0
VERTEX
  5
7C2
  8
0
  6
CONTINUOUS
 62
     7
 10
95.0112465796
 20
240.9132384582
 30
0.0
  0
SEQEND
  5
9A4
  8
0
  6
CONTINUOUS
 62
     7
  0
LINE
  5
1A5
  8
0
  6
CONTINUOUS
 62
     7
 10
95.0424874896
 20
241.586811412
 30
0.0
 11
95.0424874896
 21
240.9179719295
 31
0.0
  0
POLYLINE
  5
1A6
  8
0
  6
CONTINUOUS
 62
     7
 66
     1
 10
0.0
 20
0.0
 30
0.0
 70
   128
  0
VERTEX
  5
7C3
  8
0
  6
CONTINUOUS
 62
     7
 10
95.0453275723
 20
241.8078645177
 30
0.0
  0
VERTEX
  5
7C4
  8
0
  6
CONTINUOUS
 62
     7
 10
95.0443912621
 20
241.6840667078
 30
0.0
  0
VERTEX
  5
7C5
  8
0
  6
CONTINUOUS
 62
     7
 10
95.0424874896
 20
241.586811412
 30
0.0
  0
SEQEND
  5
9A5
  8
0
  6
CONTINUOUS
 62
     7
  0
POLYLINE
  5
1A7
  8
0
  6
CONTINUOUS
 62
     7
 66
     1
 10
0.0
 20
0.0
 30
0.0
 70
   128
  0
VERTEX
  5
7C6
  8
0
  6
CONTINUOUS
 62
     7
 10
95.0424874896
 20
241.8812333215
 30
0.0
  0
VERTEX
  5
7C7
  8
0
  6
CONTINUOUS
 62
     7
 10
95.044673676
 20
241.8401666897
 30
0.0
  0
VERTEX
  5
7C8
  8
0
  6
CONTINUOUS
 62
     7
 10
95.0453275723
 20
241.8078645177
 30
0.0
  0
SEQEND
  5
9A6
  8
0
  6
CONTINUOUS
 62
     7
  0
LINE
  5
1A8
  8
0
  6
CONTINUOUS
 62
     7
 10
95.0226069105
 20
241.8845467514
 30
0.0
 11
95.0424874896
 21
241.8812333215
 31
0.0
  0
LINE
  5
1A9
  8
0
  6
CONTINUOUS
 62
     7
 10
95.0074598026
 20
241.8826533629
 30
0.0
 11
95.0226069105
 21
241.8845467514
 31
0.0
  0
POLYLINE
  5
1AA
  8
0
  6
CONTINUOUS
 62
     7
 66
     1
 10
0.0
 20
0.0
 30
0.0
 70
   128
  0
VERTEX
  5
7C9
  8
0
  6
CONTINUOUS
 62
     7
 10
94.981899058
 20
241.8092845591
 30
0.0
  0
VERTEX
  5
7CA
  8
0
  6
CONTINUOUS
 62
     7
 10
94.9910427635
 20
241.8523584169
 30
0.0
  0
VERTEX
  5
7CB
  8
0
  6
CONTINUOUS
 62
     7
 10
95.0074598026
 20
241.8826533629
 30
0.0
  0
SEQEND
  5
9A7
  8
0
  6
CONTINUOUS
 62
     7
  0
POLYLINE
  5
1AB
  8
0
  6
CONTINUOUS
 62
     7
 66
     1
 10
0.0
 20
0.0
 30
0.0
 70
   128
  0
VERTEX
  5
7CC
  8
0
  6
CONTINUOUS
 62
     7
 10
94.7485389272
 20
241.3652849592
 30
0.0
  0
VERTEX
  5
7CD
  8
0
  6
CONTINUOUS
 62
     7
 10
94.9139228766
 20
241.5969661649
 30
0.0
  0
VERTEX
  5
7CE
  8
0
  6
CONTINUOUS
 62
     7
 10
94.981899058
 20
241.8092845591
 30
0.0
  0
SEQEND
  5
9A8
  8
0
  6
CONTINUOUS
 62
     7
  0
ARC
  5
1AC
  8
0
  6
CONTINUOUS
 62
     7
 10
105.4587311051
 20
232.0749962638
 30
0.0
 40
14.17807040935826
 50
139.060812924
 51
143.9290676114
  0
POLYLINE
  5
1AD
  8
0
  6
CONTINUOUS
 62
     7
 66
     1
 10
0.0
 20
0.0
 30
0.0
 70
   128
  0
VERTEX
  5
7CF
  8
0
  6
CONTINUOUS
 62
     7
 10
93.9547358046
 20
240.3722026985
 30
0.0
  0
VERTEX
  5
7D0
  8
0
  6
CONTINUOUS
 62
     7
 10
93.979291309
 20
240.4006449581
 30
0.0
  0
VERTEX
  5
7D1
  8
0
  6
CONTINUOUS
 62
     7
 10
93.9987570869
 20
240.4228508405
 30
0.0
  0
SEQEND
  5
9A9
  8
0
  6
CONTINUOUS
 62
     7
  0
POLYLINE
  5
1AE
  8
0
  6
CONTINUOUS
 62
     7
 66
     1
 10
0.0
 20
0.0
 30
0.0
 70
   128
  0
VERTEX
  5
7D2
  8
0
  6
CONTINUOUS
 62
     7
 10
93.932961837
 20
240.3523221194
 30
0.0
  0
VERTEX
  5
7D3
  8
0
  6
CONTINUOUS
 62
     7
 10
93.9460829598
 20
240.3624223051
 30
0.0
  0
VERTEX
  5
7D4
  8
0
  6
CONTINUOUS
 62
     7
 10
93.9547358046
 20
240.3722026985
 30
0.0
  0
SEQEND
  5
9AA
  8
0
  6
CONTINUOUS
 62
     7
  0
LINE
  5
1AF
  8
0
  6
CONTINUOUS
 62
     7
 10
93.7327360046
 20
240.6126630362
 30
0.0
 11
93.932961837
 21
240.3523221194
 31
0.0
  0
LINE
  5
1B0
  8
0
  6
CONTINUOUS
 62
     7
 10
93.3881393003
 20
241.0429355695
 30
0.0
 11
93.7327360046
 21
240.6126630362
 31
0.0
  0
POLYLINE
  5
1B1
  8
0
  6
CONTINUOUS
 62
     7
 66
     1
 10
0.0
 20
0.0
 30
0.0
 70
   128
  0
VERTEX
  5
7D5
  8
0
  6
CONTINUOUS
 62
     7
 10
93.2399816513
 20
241.2422147076
 30
0.0
  0
VERTEX
  5
7D6
  8
0
  6
CONTINUOUS
 62
     7
 10
93.318952785
 20
241.1276416851
 30
0.0
  0
VERTEX
  5
7D7
  8
0
  6
CONTINUOUS
 62
     7
 10
93.3881393003
 20
241.0429355695
 30
0.0
  0
SEQEND
  5
9AB
  8
0
  6
CONTINUOUS
 62
     7
  0
POLYLINE
  5
1B2
  8
0
  6
CONTINUOUS
 62
     7
 66
     1
 10
0.0
 20
0.0
 30
0.0
 70
   128
  0
VERTEX
  5
7D8
  8
0
  6
CONTINUOUS
 62
     7
 10
93.1287450777
 20
241.434866986
 30
0.0
  0
VERTEX
  5
7D9
  8
0
  6
CONTINUOUS
 62
     7
 10
93.1887458213
 20
241.3256830034
 30
0.0
  0
VERTEX
  5
7DA
  8
0
  6
CONTINUOUS
 62
     7
 10
93.2399816513
 20
241.2422147076
 30
0.0
  0
SEQEND
  5
9AC
  8
0
  6
CONTINUOUS
 62
     7
  0
POLYLINE
  5
1B3
  8
0
  6
CONTINUOUS
 62
     7
 66
     1
 10
0.0
 20
0.0
 30
0.0
 70
   128
  0
VERTEX
  5
7DB
  8
0
  6
CONTINUOUS
 62
     7
 10
93.0733634645
 20
241.6942612086
 30
0.0
  0
VERTEX
  5
7DC
  8
0
  6
CONTINUOUS
 62
     7
 10
93.0967523514
 20
241.5472593547
 30
0.0
  0
VERTEX
  5
7DD
  8
0
  6
CONTINUOUS
 62
     7
 10
93.1287450777
 20
241.434866986
 30
0.0
  0
SEQEND
  5
9AD
  8
0
  6
CONTINUOUS
 62
     7
  0
POLYLINE
  5
1B4
  8
0
  6
CONTINUOUS
 62
     7
 66
     1
 10
0.0
 20
0.0
 30
0.0
 70
   128
  0
VERTEX
  5
7DE
  8
0
  6
CONTINUOUS
 62
     7
 10
93.0156151157
 20
241.7008880683
 30
0.0
  0
VERTEX
  5
7DF
  8
0
  6
CONTINUOUS
 62
     7
 10
93.0481693313
 20
241.6989473449
 30
0.0
  0
VERTEX
  5
7E0
  8
0
  6
CONTINUOUS
 62
     7
 10
93.0733634645
 20
241.6942612086
 30
0.0
  0
SEQEND
  5
9AE
  8
0
  6
CONTINUOUS
 62
     7
  0
POLYLINE
  5
1B5
  8
0
  6
CONTINUOUS
 62
     7
 66
     1
 10
0.0
 20
0.0
 30
0.0
 70
   128
  0
VERTEX
  5
7E1
  8
0
  6
CONTINUOUS
 62
     7
 10
93.012775033
 20
241.6421930252
 30
0.0
  0
VERTEX
  5
7E2
  8
0
  6
CONTINUOUS
 62
     7
 10
93.0141406532
 20
241.6750728167
 30
0.0
  0
VERTEX
  5
7E3
  8
0
  6
CONTINUOUS
 62
     7
 10
93.0156151157
 20
241.7008880683
 30
0.0
  0
SEQEND
  5
9AF
  8
0
  6
CONTINUOUS
 62
     7
  0
LINE
  5
1B6
  8
0
  6
CONTINUOUS
 62
     7
 10
93.012775033
 20
240.9548930049
 30
0.0
 11
93.012775033
 21
241.6421930252
 31
0.0
  0
POLYLINE
  5
1B7
  8
0
  6
CONTINUOUS
 62
     7
 66
     1
 10
0.0
 20
0.0
 30
0.0
 70
   128
  0
VERTEX
  5
7E4
  8
0
  6
CONTINUOUS
 62
     7
 10
93.0241353639
 20
240.8943045734
 30
0.0
  0
VERTEX
  5
7E5
  8
0
  6
CONTINUOUS
 62
     7
 10
93.0141722481
 20
240.9274990913
 30
0.0
  0
VERTEX
  5
7E6
  8
0
  6
CONTINUOUS
 62
     7
 10
93.012775033
 20
240.9548930049
 30
0.0
  0
SEQEND
  5
9B0
  8
0
  6
CONTINUOUS
 62
     7
  0
ARC
  5
1B8
  8
0
  6
CONTINUOUS
 62
     7
 10
93.0444816789
 20
240.9068343182
 30
0.0
 40
0.0238949165838244
 50
211.6257498126
 51
271.1533308554
  0
ARC
  5
1B9
  8
0
  6
CONTINUOUS
 62
     7
 10
94.462488788
 20
240.6707186023
 30
0.0
 40
1.433324844706207
 50
159.1986892192
 51
171.485176862
  0
POLYLINE
  5
1BA
  8
0
  6
CONTINUOUS
 62
     7
 66
     1
 10
0.0
 20
0.0
 30
0.0
 70
   128
  0
VERTEX
  5
7E7
  8
0
  6
CONTINUOUS
 62
     7
 10
93.1618793762
 20
241.1570122258
 30
0.0
  0
VERTEX
  5
7E8
  8
0
  6
CONTINUOUS
 62
     7
 10
93.1405420197
 20
241.1708871532
 30
0.0
  0
VERTEX
  5
7E9
  8
0
  6
CONTINUOUS
 62
     7
 10
93.1225915652
 20
241.1797328876
 30
0.0
  0
SEQEND
  5
9B1
  8
0
  6
CONTINUOUS
 62
     7
  0
POLYLINE
  5
1BB
  8
0
  6
CONTINUOUS
 62
     7
 66
     1
 10
0.0
 20
0.0
 30
0.0
 70
   128
  0
VERTEX
  5
7EA
  8
0
  6
CONTINUOUS
 62
     7
 10
93.3994996312
 20
240.9032981687
 30
0.0
  0
VERTEX
  5
7EB
  8
0
  6
CONTINUOUS
 62
     7
 10
93.2708099223
 20
241.0495506516
 30
0.0
  0
VERTEX
  5
7EC
  8
0
  6
CONTINUOUS
 62
     7
 10
93.1618793762
 20
241.1570122258
 30
0.0
  0
SEQEND
  5
9B2
  8
0
  6
CONTINUOUS
 62
     7
  0
LINE
  5
1BC
  8
0
  6
CONTINUOUS
 62
     7
 10
93.7620835262
 20
240.4668721228
 30
0.0
 11
93.3994996312
 21
240.9032981687
 31
0.0
  0
POLYLINE
  5
1BD
  8
0
  6
CONTINUOUS
 62
     7
 66
     1
 10
0.0
 20
0.0
 30
0.0
 70
   128
  0
VERTEX
  5
7ED
  8
0
  6
CONTINUOUS
 62
     7
 10
93.9821899376
 20
240.1591964938
 30
0.0
  0
VERTEX
  5
7EE
  8
0
  6
CONTINUOUS
 62
     7
 10
93.8615281028
 20
240.3333428732
 30
0.0
  0
VERTEX
  5
7EF
  8
0
  6
CONTINUOUS
 62
     7
 10
93.7620835262
 20
240.4668721228
 30
0.0
  0
SEQEND
  5
9B3
  8
0
  6
CONTINUOUS
 62
     7
  0
POLYLINE
  5
1BE
  8
0
  6
CONTINUOUS
 62
     7
 66
     1
 10
0.0
 20
0.0
 30
0.0
 70
   128
  0
VERTEX
  5
7F0
  8
0
  6
CONTINUOUS
 62
     7
 10
94.0276312613
 20
240.0952946325
 30
0.0
  0
VERTEX
  5
7F1
  8
0
  6
CONTINUOUS
 62
     7
 10
94.000893581
 20
240.1301492572
 30
0.0
  0
VERTEX
  5
7F2
  8
0
  6
CONTINUOUS
 62
     7
 10
93.9821899376
 20
240.1591964938
 30
0.0
  0
SEQEND
  5
9B4
  8
0
  6
CONTINUOUS
 62
     7
  0
CIRCLE
  5
1BF
  8
0
  6
CONTINUOUS
 62
     7
 10
89.9224874896
 20
244.9272284497
 30
0.0
 40
0.6599999999999966
  0
LINE
  5
1C0
  8
0
  6
CONTINUOUS
 62
     7
 10
105.439893422
 20
247.8622647518
 30
0.0
 11
105.9045073287
 21
247.8091775814
 31
0.0
  0
LINE
  5
1C1
  8
0
  6
CONTINUOUS
 62
     7
 10
105.9045073287
 20
227.8091775814
 30
0.0
 11
105.439893422
 21
227.7560904109
 31
0.0
  0
LINE
  5
1C2
  8
0
  6
CONTINUOUS
 62
     7
 10
105.9045073287
 20
247.8091775814
 30
0.0
 11
106.6317247957
 21
247.8091775814
 31
0.0
  0
LINE
  5
1C3
  8
0
  6
CONTINUOUS
 62
     7
 10
106.6317247957
 20
227.8091775814
 30
0.0
 11
105.9045073287
 21
227.8091775814
 31
0.0
  0
LINE
  5
1C4
  8
0
  6
CONTINUOUS
 62
     7
 10
105.439893422
 20
208.8622647518
 30
0.0
 11
105.9045073287
 21
208.8091775814
 31
0.0
  0
LINE
  5
1C5
  8
0
  6
CONTINUOUS
 62
     7
 10
105.9045073287
 20
188.8091775814
 30
0.0
 11
105.439893422
 21
188.7560904109
 31
0.0
  0
LINE
  5
1C6
  8
0
  6
CONTINUOUS
 62
     7
 10
105.9045073287
 20
208.8091775814
 30
0.0
 11
106.6317247957
 21
208.8091775814
 31
0.0
  0
LINE
  5
1C7
  8
0
  6
CONTINUOUS
 62
     7
 10
106.6317247957
 20
188.8091775814
 30
0.0
 11
105.9045073287
 21
188.8091775814
 31
0.0
  0
LINE
  5
1C8
  8
0
  6
CONTINUOUS
 62
     7
 10
89.5624874896
 20
244.683536142
 30
0.0
 11
89.5624874896
 21
244.8276226805
 31
0.0
  0
LINE
  5
1C9
  8
0
  6
CONTINUOUS
 62
     7
 10
89.9501797973
 20
244.7481515266
 30
0.0
 11
90.2824874896
 21
244.7481515266
 31
0.0
  0
LINE
  5
1CA
  8
0
  6
CONTINUOUS
 62
     7
 10
90.2824874896
 20
245.1450746035
 30
0.0
 11
90.2824874896
 21
245.0651707574
 31
0.0
  0
POLYLINE
  5
1CB
  8
0
  6
CONTINUOUS
 62
     7
 66
     1
 10
0.0
 20
0.0
 30
0.0
 70
   128
  0
VERTEX
  5
7F3
  8
0
  6
CONTINUOUS
 62
     7
 10
89.7550355665
 20
245.1358438343
 30
0.0
  0
VERTEX
  5
7F4
  8
0
  6
CONTINUOUS
 62
     7
 10
89.8220544525
 20
245.1251923689
 30
0.0
  0
VERTEX
  5
7F5
  8
0
  6
CONTINUOUS
 62
     7
 10
89.8806782237
 20
245.0911860471
 30
0.0
  0
VERTEX
  5
7F6
  8
0
  6
CONTINUOUS
 62
     7
 10
89.9217525997
 20
245.0372499949
 30
0.0
  0
VERTEX
  5
7F7
  8
0
  6
CONTINUOUS
 62
     7
 10
89.9501797973
 20
244.8805553728
 30
0.0
  0
SEQEND
  5
9B5
  8
0
  6
CONTINUOUS
 62
     7
  0
ARC
  5
1CC
  8
0
  6
CONTINUOUS
 62
     7
 10
89.7498813611
 20
244.9547116068
 30
0.0
 40
0.1812055453344525
 50
88.370060642
 51
168.5292006475
  0
POLYLINE
  5
1CD
  8
0
  6
CONTINUOUS
 62
     7
 66
     1
 10
0.0
 20
0.0
 30
0.0
 70
   128
  0
VERTEX
  5
7F8
  8
0
  6
CONTINUOUS
 62
     7
 10
89.5624874896
 20
244.8276226805
 30
0.0
  0
VERTEX
  5
7F9
  8
0
  6
CONTINUOUS
 62
     7
 10
89.5644445415
 20
244.9192433672
 30
0.0
  0
VERTEX
  5
7FA
  8
0
  6
CONTINUOUS
 62
     7
 10
89.5722951819
 20
244.9907476805
 30
0.0
  0
SEQEND
  5
9B6
  8
0
  6
CONTINUOUS
 62
     7
  0
LINE
  5
1CE
  8
0
  6
CONTINUOUS
 62
     7
 10
89.9501797973
 20
244.8006515266
 30
0.0
 11
89.9501797973
 21
244.7481515266
 31
0.0
  0
LINE
  5
1CF
  8
0
  6
CONTINUOUS
 62
     7
 10
90.2824874896
 20
244.683536142
 30
0.0
 11
89.5624874896
 21
244.683536142
 31
0.0
  0
CIRCLE
  5
1D0
  8
0
  6
CONTINUOUS
 62
     7
 10
89.9224874896
 20
244.9272284497
 30
0.0
 40
0.5800000000000125
  0
LINE
  5
1D1
  8
0
  6
CONTINUOUS
 62
     7
 10
89.9501797973
 20
244.8805553728
 30
0.0
 11
90.2824874896
 21
245.1450746035
 31
0.0
  0
LINE
  5
1D2
  8
0
  6
CONTINUOUS
 62
     7
 10
90.2824874896
 20
244.7481515266
 30
0.0
 11
90.2824874896
 21
244.683536142
 31
0.0
  0
LINE
  5
1D3
  8
0
  6
CONTINUOUS
 62
     7
 10
90.2824874896
 20
245.0651707574
 30
0.0
 11
89.9501797973
 21
244.8006515266
 31
0.0
  0
LINE
  5
1D4
  8
0
  6
CONTINUOUS
 62
     7
 10
89.6363336434
 20
244.7481515266
 30
0.0
 11
89.8763336434
 21
244.7481515266
 31
0.0
  0
LINE
  5
1D5
  8
0
  6
CONTINUOUS
 62
     7
 10
89.6363336434
 20
244.8831515266
 30
0.0
 11
89.6363336434
 21
244.7481515266
 31
0.0
  0
POLYLINE
  5
1D6
  8
0
  6
CONTINUOUS
 62
     7
 66
     1
 10
0.0
 20
0.0
 30
0.0
 70
   128
  0
VERTEX
  5
7FB
  8
0
  6
CONTINUOUS
 62
     7
 10
89.7548913357
 20
245.0712284497
 30
0.0
  0
VERTEX
  5
7FC
  8
0
  6
CONTINUOUS
 62
     7
 10
89.723727633
 20
245.0668740419
 30
0.0
  0
VERTEX
  5
7FD
  8
0
  6
CONTINUOUS
 62
     7
 10
89.6951313366
 20
245.0537487726
 30
0.0
  0
VERTEX
  5
7FE
  8
0
  6
CONTINUOUS
 62
     7
 10
89.6712311237
 20
245.0332777344
 30
0.0
  0
VERTEX
  5
7FF
  8
0
  6
CONTINUOUS
 62
     7
 10
89.6536530761
 20
245.0071610393
 30
0.0
  0
VERTEX
  5
800
  8
0
  6
CONTINUOUS
 62
     7
 10
89.6363336434
 20
244.8831515266
 30
0.0
  0
SEQEND
  5
9B7
  8
0
  6
CONTINUOUS
 62
     7
  0
POLYLINE
  5
1D7
  8
0
  6
CONTINUOUS
 62
     7
 66
     1
 10
0.0
 20
0.0
 30
0.0
 70
   128
  0
VERTEX
  5
801
  8
0
  6
CONTINUOUS
 62
     7
 10
89.8773432588
 20
244.8799784497
 30
0.0
  0
VERTEX
  5
802
  8
0
  6
CONTINUOUS
 62
     7
 10
89.8584356745
 20
245.0064168715
 30
0.0
  0
VERTEX
  5
803
  8
0
  6
CONTINUOUS
 62
     7
 10
89.8406737847
 20
245.033203777
 30
0.0
  0
VERTEX
  5
804
  8
0
  6
CONTINUOUS
 62
     7
 10
89.8161309797
 20
245.053945053
 30
0.0
  0
VERTEX
  5
805
  8
0
  6
CONTINUOUS
 62
     7
 10
89.7867304827
 20
245.0668975789
 30
0.0
  0
VERTEX
  5
806
  8
0
  6
CONTINUOUS
 62
     7
 10
89.7548913357
 20
245.0712284497
 30
0.0
  0
SEQEND
  5
9B8
  8
0
  6
CONTINUOUS
 62
     7
  0
LINE
  5
1D8
  8
0
  6
CONTINUOUS
 62
     7
 10
89.8763336434
 20
244.7481515266
 30
0.0
 11
89.8773432588
 21
244.8799784497
 31
0.0
  0
LINE
  5
1D9
  8
0
  6
CONTINUOUS
 62
     7
 10
91.6824874896
 20
245.1524196619
 30
0.0
 11
88.7875101753
 21
240.1218033453
 31
0.0
  0
LINE
  5
1DA
  8
0
  6
CONTINUOUS
 62
     7
 10
91.6824874896
 20
238.1432284497
 30
0.0
 11
91.6824874896
 21
245.1524196619
 31
0.0
  0
LINE
  5
1DB
  8
0
  6
CONTINUOUS
 62
     7
 10
90.5862146258
 20
238.1432284497
 30
0.0
 11
91.6824874896
 21
238.1432284497
 31
0.0
  0
LINE
  5
1DC
  8
0
  6
CONTINUOUS
 62
     7
 10
88.7875101753
 20
240.1218033453
 30
0.0
 11
90.5862146258
 21
238.1432284497
 31
0.0
  0
LINE
  5
1DD
  8
0
  6
CONTINUOUS
 62
     7
 10
89.6588313136
 20
240.2835492264
 30
0.0
 11
89.1671024241
 21
240.1358346768
 31
0.0
  0
LINE
  5
1DE
  8
0
  6
CONTINUOUS
 62
     7
 10
89.1671024241
 20
240.1358346768
 30
0.0
 11
89.6588313136
 21
239.9655056095
 31
0.0
  0
LINE
  5
1DF
  8
0
  6
CONTINUOUS
 62
     7
 10
89.6588313136
 20
239.9655056095
 30
0.0
 11
89.6265086886
 21
239.4964551727
 31
0.0
  0
LINE
  5
1E0
  8
0
  6
CONTINUOUS
 62
     7
 10
89.6265086886
 20
239.4964551727
 30
0.0
 11
89.90971431
 21
239.8922646662
 31
0.0
  0
LINE
  5
1E1
  8
0
  6
CONTINUOUS
 62
     7
 10
89.90971431
 20
239.8922646662
 30
0.0
 11
90.4522285178
 21
239.6858995336
 31
0.0
  0
LINE
  5
1E2
  8
0
  6
CONTINUOUS
 62
     7
 10
90.4522285178
 20
239.6858995336
 30
0.0
 11
90.0913695315
 21
240.1358346768
 31
0.0
  0
LINE
  5
1E3
  8
0
  6
CONTINUOUS
 62
     7
 10
90.0913695315
 20
240.1358346768
 30
0.0
 11
90.4522285178
 21
240.58576982
 31
0.0
  0
LINE
  5
1E4
  8
0
  6
CONTINUOUS
 62
     7
 10
90.4522285178
 20
240.58576982
 30
0.0
 11
89.90971431
 21
240.3425777293
 31
0.0
  0
LINE
  5
1E5
  8
0
  6
CONTINUOUS
 62
     7
 10
89.90971431
 20
240.3425777293
 30
0.0
 11
89.6365177375
 21
240.7403784644
 31
0.0
  0
LINE
  5
1E6
  8
0
  6
CONTINUOUS
 62
     7
 10
89.6365177375
 20
240.7403784644
 30
0.0
 11
89.6588313136
 21
240.2835492264
 31
0.0
  0
LINE
  5
1E7
  8
0
  6
CONTINUOUS
 62
     7
 10
91.1549939627
 20
241.156103501
 30
0.0
 11
91.5240568347
 21
241.6457433266
 31
0.0
  0
LINE
  5
1E8
  8
0
  6
CONTINUOUS
 62
     7
 10
91.5240568347
 20
241.6457433266
 30
0.0
 11
90.9815426269
 21
241.3777299484
 31
0.0
  0
LINE
  5
1E9
  8
0
  6
CONTINUOUS
 62
     7
 10
90.9815426269
 20
241.3777299484
 30
0.0
 11
90.6901331198
 21
241.7832284497
 31
0.0
  0
LINE
  5
1EA
  8
0
  6
CONTINUOUS
 62
     7
 10
90.6901331198
 20
241.7832284497
 30
0.0
 11
90.7224557449
 21
241.2901101901
 31
0.0
  0
LINE
  5
1EB
  8
0
  6
CONTINUOUS
 62
     7
 10
90.7224557449
 20
241.2901101901
 30
0.0
 11
90.2307268554
 21
241.156103501
 31
0.0
  0
LINE
  5
1EC
  8
0
  6
CONTINUOUS
 62
     7
 10
90.2307268554
 20
241.156103501
 30
0.0
 11
90.7224557449
 21
240.986018088
 31
0.0
  0
LINE
  5
1ED
  8
0
  6
CONTINUOUS
 62
     7
 10
90.7224557449
 20
240.986018088
 30
0.0
 11
90.6983370055
 21
240.5324569865
 31
0.0
  0
LINE
  5
1EE
  8
0
  6
CONTINUOUS
 62
     7
 10
90.6983370055
 20
240.5324569865
 30
0.0
 11
90.9815426269
 21
240.9204672512
 31
0.0
  0
LINE
  5
1EF
  8
0
  6
CONTINUOUS
 62
     7
 10
90.9733387412
 20
239.2993030228
 30
0.0
 11
90.7001421687
 21
239.6971037578
 31
0.0
  0
LINE
  5
1F0
  8
0
  6
CONTINUOUS
 62
     7
 10
90.7001421687
 20
239.6971037578
 30
0.0
 11
90.7224557449
 21
239.2402745198
 31
0.0
  0
LINE
  5
1F1
  8
0
  6
CONTINUOUS
 62
     7
 10
90.7224557449
 20
239.2402745198
 30
0.0
 11
90.2307268554
 21
239.0925599702
 31
0.0
  0
LINE
  5
1F2
  8
0
  6
CONTINUOUS
 62
     7
 10
90.2307268554
 20
239.0925599702
 30
0.0
 11
90.7224557449
 21
238.9295308208
 31
0.0
  0
LINE
  5
1F3
  8
0
  6
CONTINUOUS
 62
     7
 10
90.7224557449
 20
238.9295308208
 30
0.0
 11
90.6901331198
 21
238.4531804662
 31
0.0
  0
LINE
  5
1F4
  8
0
  6
CONTINUOUS
 62
     7
 10
90.6901331198
 20
238.4531804662
 30
0.0
 11
90.9733387412
 21
238.8489899596
 31
0.0
  0
LINE
  5
1F5
  8
0
  6
CONTINUOUS
 62
     7
 10
90.9733387412
 20
238.8489899596
 30
0.0
 11
91.515852949
 21
238.642624827
 31
0.0
  0
LINE
  5
1F6
  8
0
  6
CONTINUOUS
 62
     7
 10
91.515852949
 20
238.642624827
 30
0.0
 11
91.1549939627
 21
239.0925599702
 31
0.0
  0
LINE
  5
1F7
  8
0
  6
CONTINUOUS
 62
     7
 10
91.1549939627
 20
239.0925599702
 30
0.0
 11
91.515852949
 21
239.5424951135
 31
0.0
  0
LINE
  5
1F8
  8
0
  6
CONTINUOUS
 62
     7
 10
91.515852949
 20
239.5424951135
 30
0.0
 11
90.9733387412
 21
239.2993030228
 31
0.0
  0
LINE
  5
1F9
  8
0
  6
CONTINUOUS
 62
     7
 10
91.5240568347
 20
240.7403784644
 30
0.0
 11
91.1549939627
 21
241.156103501
 31
0.0
  0
LINE
  5
1FA
  8
0
  6
CONTINUOUS
 62
     7
 10
90.9815426269
 20
240.9204672512
 30
0.0
 11
91.5240568347
 21
240.7403784644
 31
0.0
  0
LINE
  5
1FB
  8
0
  6
CONTINUOUS
 62
     7
 10
87.7934346544
 20
250.3091775814
 30
0.0
 11
89.5254854619
 21
253.3091775814
 31
0.0
  0
LINE
  5
1FC
  8
0
  6
CONTINUOUS
 62
     7
 10
89.5254854619
 20
253.3091775814
 30
0.0
 11
87.7934346544
 21
256.3091775814
 31
0.0
  0
LINE
  5
1FD
  8
0
  6
CONTINUOUS
 62
     7
 10
87.7934346544
 20
256.3091775814
 30
0.0
 11
84.3293330392
 21
256.3091775814
 31
0.0
  0
LINE
  5
1FE
  8
0
  6
CONTINUOUS
 62
     7
 10
84.3293330392
 20
256.3091775814
 30
0.0
 11
82.5972822317
 21
253.3091775814
 31
0.0
  0
LINE
  5
1FF
  8
0
  6
CONTINUOUS
 62
     7
 10
82.5972822317
 20
253.3091775814
 30
0.0
 11
84.3293330392
 21
250.3091775814
 31
0.0
  0
LINE
  5
200
  8
0
  6
CONTINUOUS
 62
     7
 10
84.3293330392
 20
250.3091775814
 30
0.0
 11
87.7934346544
 21
250.3091775814
 31
0.0
  0
LINE
  5
201
  8
0
  6
CONTINUOUS
 62
     7
 10
78.7934346544
 20
239.3091775814
 30
0.0
 11
80.5254854619
 21
236.3091775814
 31
0.0
  0
LINE
  5
202
  8
0
  6
CONTINUOUS
 62
     7
 10
75.3293330392
 20
239.3091775814
 30
0.0
 11
78.7934346544
 21
239.3091775814
 31
0.0
  0
LINE
  5
203
  8
0
  6
CONTINUOUS
 62
     7
 10
73.5972822317
 20
236.3091775814
 30
0.0
 11
75.3293330392
 21
239.3091775814
 31
0.0
  0
LINE
  5
204
  8
0
  6
CONTINUOUS
 62
     7
 10
75.3293330392
 20
233.3091775814
 30
0.0
 11
73.5972822317
 21
236.3091775814
 31
0.0
  0
LINE
  5
205
  8
0
  6
CONTINUOUS
 62
     7
 10
78.7934346544
 20
233.3091775814
 30
0.0
 11
75.3293330392
 21
233.3091775814
 31
0.0
  0
LINE
  5
206
  8
0
  6
CONTINUOUS
 62
     7
 10
80.5254854619
 20
236.3091775814
 30
0.0
 11
78.7934346544
 21
233.3091775814
 31
0.0
  0
LINE
  5
207
  8
0
  6
CONTINUOUS
 62
     7
 10
73.5972822317
 20
200.3091775814
 30
0.0
 11
75.3293330392
 21
203.3091775814
 31
0.0
  0
LINE
  5
208
  8
0
  6
CONTINUOUS
 62
     7
 10
75.3293330392
 20
197.3091775814
 30
0.0
 11
73.5972822317
 21
200.3091775814
 31
0.0
  0
LINE
  5
209
  8
0
  6
CONTINUOUS
 62
     7
 10
78.7934346544
 20
197.3091775814
 30
0.0
 11
75.3293330392
 21
197.3091775814
 31
0.0
  0
LINE
  5
20A
  8
0
  6
CONTINUOUS
 62
     7
 10
80.5254854619
 20
200.3091775814
 30
0.0
 11
78.7934346544
 21
197.3091775814
 31
0.0
  0
LINE
  5
20B
  8
0
  6
CONTINUOUS
 62
     7
 10
78.7934346544
 20
203.3091775814
 30
0.0
 11
80.5254854619
 21
200.3091775814
 31
0.0
  0
LINE
  5
20C
  8
0
  6
CONTINUOUS
 62
     7
 10
75.3293330392
 20
203.3091775814
 30
0.0
 11
78.7934346544
 21
203.3091775814
 31
0.0
  0
LINE
  5
20D
  8
0
  6
CONTINUOUS
 62
     7
 10
82.5972822317
 20
183.3091775814
 30
0.0
 11
84.3293330392
 21
186.3091775814
 31
0.0
  0
LINE
  5
20E
  8
0
  6
CONTINUOUS
 62
     7
 10
84.3293330392
 20
180.3091775814
 30
0.0
 11
82.5972822317
 21
183.3091775814
 31
0.0
  0
LINE
  5
20F
  8
0
  6
CONTINUOUS
 62
     7
 10
87.7934346544
 20
180.3091775814
 30
0.0
 11
84.3293330392
 21
180.3091775814
 31
0.0
  0
LINE
  5
210
  8
0
  6
CONTINUOUS
 62
     7
 10
89.5254854619
 20
183.3091775814
 30
0.0
 11
87.7934346544
 21
180.3091775814
 31
0.0
  0
LINE
  5
211
  8
0
  6
CONTINUOUS
 62
     7
 10
87.7934346544
 20
186.3091775814
 30
0.0
 11
89.5254854619
 21
183.3091775814
 31
0.0
  0
LINE
  5
212
  8
0
  6
CONTINUOUS
 62
     7
 10
84.3293330392
 20
186.3091775814
 30
0.0
 11
87.7934346544
 21
186.3091775814
 31
0.0
  0
POLYLINE
  5
213
  8
0
  6
CONTINUOUS
 62
     7
 66
     1
 10
0.0
 20
0.0
 30
0.0
 70
   128
  0
VERTEX
  5
807
  8
0
  6
CONTINUOUS
 62
     7
 10
118.5606766242
 20
262.7103868738
 30
0.0
  0
VERTEX
  5
808
  8
0
  6
CONTINUOUS
 62
     7
 10
118.5613222104
 20
262.7243062276
 30
0.0
  0
VERTEX
  5
809
  8
0
  6
CONTINUOUS
 62
     7
 10
118.5410828152
 20
262.8091775814
 30
0.0
  0
SEQEND
  5
9B9
  8
0
  6
CONTINUOUS
 62
     7
  0
POLYLINE
  5
214
  8
0
  6
CONTINUOUS
 62
     7
 66
     1
 10
0.0
 20
0.0
 30
0.0
 70
   128
  0
VERTEX
  5
80A
  8
0
  6
CONTINUOUS
 62
     7
 10
118.5410828152
 20
248.2341775814
 30
0.0
  0
VERTEX
  5
80B
  8
0
  6
CONTINUOUS
 62
     7
 10
118.5613750369
 20
248.3565138025
 30
0.0
  0
VERTEX
  5
80C
  8
0
  6
CONTINUOUS
 62
     7
 10
118.5610856615
 20
248.3624621736
 30
0.0
  0
SEQEND
  5
9BA
  8
0
  6
CONTINUOUS
 62
     7
  0
LINE
  5
215
  8
0
  6
CONTINUOUS
 62
     7
 10
106.5613838468
 20
248.2341775814
 30
0.0
 11
118.5410828152
 21
248.2341775814
 31
0.0
  0
LINE
  5
216
  8
0
  6
CONTINUOUS
 62
     7
 10
118.5410828152
 20
262.8091775814
 30
0.0
 11
106.5613838468
 21
262.8091775814
 31
0.0
  0
POLYLINE
  5
217
  8
0
  6
CONTINUOUS
 62
     7
 66
     1
 10
0.0
 20
0.0
 30
0.0
 70
   128
  0
VERTEX
  5
80D
  8
0
  6
CONTINUOUS
 62
     7
 10
118.5606766242
 20
188.2853868738
 30
0.0
  0
VERTEX
  5
80E
  8
0
  6
CONTINUOUS
 62
     7
 10
118.5613222104
 20
188.2993062276
 30
0.0
  0
VERTEX
  5
80F
  8
0
  6
CONTINUOUS
 62
     7
 10
118.5410828152
 20
188.3841775814
 30
0.0
  0
SEQEND
  5
9BB
  8
0
  6
CONTINUOUS
 62
     7
  0
POLYLINE
  5
218
  8
0
  6
CONTINUOUS
 62
     7
 66
     1
 10
0.0
 20
0.0
 30
0.0
 70
   128
  0
VERTEX
  5
810
  8
0
  6
CONTINUOUS
 62
     7
 10
118.5410828152
 20
173.8091775814
 30
0.0
  0
VERTEX
  5
811
  8
0
  6
CONTINUOUS
 62
     7
 10
118.5613750369
 20
173.9315138025
 30
0.0
  0
VERTEX
  5
812
  8
0
  6
CONTINUOUS
 62
     7
 10
118.5610856615
 20
173.9374621736
 30
0.0
  0
SEQEND
  5
9BC
  8
0
  6
CONTINUOUS
 62
     7
  0
LINE
  5
219
  8
0
  6
CONTINUOUS
 62
     7
 10
106.5613838468
 20
173.8091775814
 30
0.0
 11
118.5410828152
 21
173.8091775814
 31
0.0
  0
LINE
  5
21A
  8
0
  6
CONTINUOUS
 62
     7
 10
118.5410828152
 20
188.3841775814
 30
0.0
 11
106.5613838468
 21
188.3841775814
 31
0.0
  0
POLYLINE
  5
21B
  8
0
  6
CONTINUOUS
 62
     7
 66
     1
 10
0.0
 20
0.0
 30
0.0
 70
   128
  0
VERTEX
  5
813
  8
0
  6
CONTINUOUS
 62
     7
 10
118.5606766242
 20
227.0603868738
 30
0.0
  0
VERTEX
  5
814
  8
0
  6
CONTINUOUS
 62
     7
 10
118.5613222104
 20
227.0743062276
 30
0.0
  0
VERTEX
  5
815
  8
0
  6
CONTINUOUS
 62
     7
 10
118.5410828152
 20
227.1591775814
 30
0.0
  0
SEQEND
  5
9BD
  8
0
  6
CONTINUOUS
 62
     7
  0
POLYLINE
  5
21C
  8
0
  6
CONTINUOUS
 62
     7
 66
     1
 10
0.0
 20
0.0
 30
0.0
 70
   128
  0
VERTEX
  5
816
  8
0
  6
CONTINUOUS
 62
     7
 10
118.5410828152
 20
209.4591775814
 30
0.0
  0
VERTEX
  5
817
  8
0
  6
CONTINUOUS
 62
     7
 10
118.5613750369
 20
209.5815138025
 30
0.0
  0
VERTEX
  5
818
  8
0
  6
CONTINUOUS
 62
     7
 10
118.5610856615
 20
209.5874621736
 30
0.0
  0
SEQEND
  5
9BE
  8
0
  6
CONTINUOUS
 62
     7
  0
LINE
  5
21D
  8
0
  6
CONTINUOUS
 62
     7
 10
106.5613838468
 20
209.4591775814
 30
0.0
 11
118.5410828152
 21
209.4591775814
 31
0.0
  0
LINE
  5
21E
  8
0
  6
CONTINUOUS
 62
     7
 10
118.5410828152
 20
227.1591775814
 30
0.0
 11
106.5613838468
 21
227.1591775814
 31
0.0
  0
LINE
  5
21F
  8
0
  6
CONTINUOUS
 62
     7
 10
118.4910428979
 20
188.3841775814
 30
0.0
 11
119.2182603649
 21
188.3841775814
 31
0.0
  0
LINE
  5
220
  8
0
  6
CONTINUOUS
 62
     7
 10
119.2182603649
 20
188.3841775814
 30
0.0
 11
119.6828742716
 21
188.4372647518
 31
0.0
  0
LINE
  5
221
  8
0
  6
CONTINUOUS
 62
     7
 10
119.6828742716
 20
188.4372647518
 30
0.0
 11
119.6828742716
 21
173.8091775814
 31
0.0
  0
LINE
  5
222
  8
0
  6
CONTINUOUS
 62
     7
 10
119.6828742716
 20
173.8091775814
 30
0.0
 11
118.4910428979
 21
173.8091775814
 31
0.0
  0
LINE
  5
223
  8
0
  6
CONTINUOUS
 62
     7
 10
119.2182603649
 20
227.1591775814
 30
0.0
 11
119.6828742716
 21
227.2122647518
 31
0.0
  0
LINE
  5
224
  8
0
  6
CONTINUOUS
 62
     7
 10
119.6828742716
 20
227.2122647518
 30
0.0
 11
119.6828742716
 21
209.4060904109
 31
0.0
  0
LINE
  5
225
  8
0
  6
CONTINUOUS
 62
     7
 10
119.6828742716
 20
209.4060904109
 30
0.0
 11
119.2182603649
 21
209.4591775814
 31
0.0
  0
LINE
  5
226
  8
0
  6
CONTINUOUS
 62
     7
 10
119.2182603649
 20
209.4591775814
 30
0.0
 11
118.4910428979
 21
209.4591775814
 31
0.0
  0
LINE
  5
227
  8
0
  6
CONTINUOUS
 62
     7
 10
118.4910428979
 20
227.1591775814
 30
0.0
 11
119.2182603649
 21
227.1591775814
 31
0.0
  0
LINE
  5
228
  8
0
  6
CONTINUOUS
 62
     7
 10
118.5613838468
 20
262.8091775814
 30
0.0
 11
119.6828742716
 21
262.8091775814
 31
0.0
  0
LINE
  5
229
  8
0
  6
CONTINUOUS
 62
     7
 10
119.6828742716
 20
262.8091775814
 30
0.0
 11
119.6828742716
 21
248.1810904109
 31
0.0
  0
LINE
  5
22A
  8
0
  6
CONTINUOUS
 62
     7
 10
119.6828742716
 20
248.1810904109
 30
0.0
 11
119.2182603649
 21
248.2341775814
 31
0.0
  0
LINE
  5
22B
  8
0
  6
CONTINUOUS
 62
     7
 10
119.2182603649
 20
248.2341775814
 30
0.0
 11
118.4910428979
 21
248.2341775814
 31
0.0
  0
POLYLINE
  5
22C
  8
0
  6
CONTINUOUS
 62
     7
 66
     1
 10
0.0
 20
0.0
 30
0.0
 70
   128
  0
VERTEX
  5
819
  8
0
  6
CONTINUOUS
 62
     7
 10
131.2056455621
 20
197.5264447109
 30
0.0
  0
VERTEX
  5
81A
  8
0
  6
CONTINUOUS
 62
     7
 10
131.2009193361
 20
197.5023662089
 30
0.0
  0
VERTEX
  5
81B
  8
0
  6
CONTINUOUS
 62
     7
 10
131.1915188498
 20
197.4853488205
 30
0.0
  0
SEQEND
  5
9BF
  8
0
  6
CONTINUOUS
 62
     7
  0
POLYLINE
  5
22D
  8
0
  6
CONTINUOUS
 62
     7
 66
     1
 10
0.0
 20
0.0
 30
0.0
 70
   128
  0
VERTEX
  5
81C
  8
0
  6
CONTINUOUS
 62
     7
 10
131.2026489868
 20
197.5439960807
 30
0.0
  0
VERTEX
  5
81D
  8
0
  6
CONTINUOUS
 62
     7
 10
131.2054203185
 20
197.5343985965
 30
0.0
  0
VERTEX
  5
81E
  8
0
  6
CONTINUOUS
 62
     7
 10
131.2056455621
 20
197.5264447109
 30
0.0
  0
SEQEND
  5
9C0
  8
0
  6
CONTINUOUS
 62
     7
  0
ARC
  5
22E
  8
0
  6
CONTINUOUS
 62
     7
 10
131.1490109389
 20
197.537716353
 30
0.0
 40
0.0540043994070458
 50
6.6775617661
 51
81.2006148534
  0
LINE
  5
22F
  8
0
  6
CONTINUOUS
 62
     7
 10
129.2540188498
 20
197.5910851218
 30
0.0
 11
131.1572722744
 21
197.5910851218
 31
0.0
  0
ARC
  5
230
  8
0
  6
CONTINUOUS
 62
     7
 10
129.2674829854
 20
197.5300400768
 30
0.0
 40
0.0625122426061121
 50
102.4380555308
 51
188.4263657624
  0
ARC
  5
231
  8
0
  6
CONTINUOUS
 62
     7
 10
129.270052208
 20
197.5159568892
 30
0.0
 40
0.0645945008236579
 50
175.6292451753
 51
253.2630074281
  0
LINE
  5
232
  8
0
  6
CONTINUOUS
 62
     7
 10
130.8969983018
 20
197.4540988205
 30
0.0
 11
129.2514503566
 21
197.4540988205
 31
0.0
  0
LINE
  5
233
  8
0
  6
CONTINUOUS
 62
     7
 10
129.3768784388
 20
196.5850919711
 30
0.0
 11
130.8969983018
 21
197.4540988205
 31
0.0
  0
LINE
  5
234
  8
0
  6
CONTINUOUS
 62
     7
 10
129.2398921374
 20
196.5058967657
 30
0.0
 11
129.3768784388
 21
196.5850919711
 31
0.0
  0
LINE
  5
235
  8
0
  6
CONTINUOUS
 62
     7
 10
129.2227688498
 20
196.4943385465
 30
0.0
 11
129.2398921374
 21
196.5058967657
 31
0.0
  0
POLYLINE
  5
236
  8
0
  6
CONTINUOUS
 62
     7
 66
     1
 10
0.0
 20
0.0
 30
0.0
 70
   128
  0
VERTEX
  5
81F
  8
0
  6
CONTINUOUS
 62
     7
 10
129.2056455621
 20
196.4472495054
 30
0.0
  0
VERTEX
  5
820
  8
0
  6
CONTINUOUS
 62
     7
 10
129.2111294526
 20
196.4751039555
 30
0.0
  0
VERTEX
  5
821
  8
0
  6
CONTINUOUS
 62
     7
 10
129.2227688498
 20
196.4943385465
 30
0.0
  0
SEQEND
  5
9C1
  8
0
  6
CONTINUOUS
 62
     7
  0
POLYLINE
  5
237
  8
0
  6
CONTINUOUS
 62
     7
 66
     1
 10
0.0
 20
0.0
 30
0.0
 70
   128
  0
VERTEX
  5
822
  8
0
  6
CONTINUOUS
 62
     7
 10
129.2086421374
 20
196.4326947109
 30
0.0
  0
VERTEX
  5
823
  8
0
  6
CONTINUOUS
 62
     7
 10
129.2059310201
 20
196.4405896087
 30
0.0
  0
VERTEX
  5
824
  8
0
  6
CONTINUOUS
 62
     7
 10
129.2056455621
 20
196.4472495054
 30
0.0
  0
SEQEND
  5
9C2
  8
0
  6
CONTINUOUS
 62
     7
  0
ARC
  5
238
  8
0
  6
CONTINUOUS
 62
     7
 10
129.2663555458
 20
196.4429016043
 30
0.0
 40
0.0586090281109483
 50
190.0293273497
 51
257.8488492698
  0
LINE
  5
239
  8
0
  6
CONTINUOUS
 62
     7
 10
131.1572722744
 20
196.3856056698
 30
0.0
 11
129.2540188498
 21
196.3856056698
 31
0.0
  0
POLYLINE
  5
23A
  8
0
  6
CONTINUOUS
 62
     7
 66
     1
 10
0.0
 20
0.0
 30
0.0
 70
   128
  0
VERTEX
  5
825
  8
0
  6
CONTINUOUS
 62
     7
 10
131.1940873429
 20
196.4112906013
 30
0.0
  0
VERTEX
  5
826
  8
0
  6
CONTINUOUS
 62
     7
 10
131.1756702448
 20
196.3935757651
 30
0.0
  0
VERTEX
  5
827
  8
0
  6
CONTINUOUS
 62
     7
 10
131.1572722744
 20
196.3856056698
 30
0.0
  0
SEQEND
  5
9C3
  8
0
  6
CONTINUOUS
 62
     7
  0
POLYLINE
  5
23B
  8
0
  6
CONTINUOUS
 62
     7
 66
     1
 10
0.0
 20
0.0
 30
0.0
 70
   128
  0
VERTEX
  5
828
  8
0
  6
CONTINUOUS
 62
     7
 10
131.2056455621
 20
196.4558111492
 30
0.0
  0
VERTEX
  5
829
  8
0
  6
CONTINUOUS
 62
     7
 10
131.2025899138
 20
196.4299288771
 30
0.0
  0
VERTEX
  5
82A
  8
0
  6
CONTINUOUS
 62
     7
 10
131.1940873429
 20
196.4112906013
 30
0.0
  0
SEQEND
  5
9C4
  8
0
  6
CONTINUOUS
 62
     7
  0
ARC
  5
23C
  8
0
  6
CONTINUOUS
 62
     7
 10
131.1366376875
 20
196.4577280413
 30
0.0
 40
0.0690344930637189
 50
358.4088542428
 51
69.9823565622
  0
LINE
  5
23D
  8
0
  6
CONTINUOUS
 62
     7
 10
129.5267072059
 20
196.5225919711
 30
0.0
 11
131.1602688498
 21
196.5225919711
 31
0.0
  0
LINE
  5
23E
  8
0
  6
CONTINUOUS
 62
     7
 10
131.1234537813
 20
197.4442529301
 30
0.0
 11
129.5267072059
 21
196.5225919711
 31
0.0
  0
POLYLINE
  5
23F
  8
0
  6
CONTINUOUS
 62
     7
 66
     1
 10
0.0
 20
0.0
 30
0.0
 70
   128
  0
VERTEX
  5
82B
  8
0
  6
CONTINUOUS
 62
     7
 10
131.1915188498
 20
197.4853488205
 30
0.0
  0
VERTEX
  5
82C
  8
0
  6
CONTINUOUS
 62
     7
 10
131.1536956548
 20
197.4618592199
 30
0.0
  0
VERTEX
  5
82D
  8
0
  6
CONTINUOUS
 62
     7
 10
131.1234537813
 20
197.4442529301
 30
0.0
  0
SEQEND
  5
9C5
  8
0
  6
CONTINUOUS
 62
     7
  0
POLYLINE
  5
240
  8
0
  6
CONTINUOUS
 62
     7
 66
     1
 10
0.0
 20
0.0
 30
0.0
 70
   128
  0
VERTEX
  5
82E
  8
0
  6
CONTINUOUS
 62
     7
 10
131.1773921374
 20
193.6142015602
 30
0.0
  0
VERTEX
  5
82F
  8
0
  6
CONTINUOUS
 62
     7
 10
131.2000115253
 20
193.5205831902
 30
0.0
  0
VERTEX
  5
830
  8
0
  6
CONTINUOUS
 62
     7
 10
131.2056455621
 20
193.4451090944
 30
0.0
  0
SEQEND
  5
9C6
  8
0
  6
CONTINUOUS
 62
     7
  0
ARC
  5
241
  8
0
  6
CONTINUOUS
 62
     7
 10
130.7201553686
 20
193.471732857
 30
0.0
 40
0.4789183585281758
 50
17.3063175388
 51
83.166976147
  0
POLYLINE
  5
242
  8
0
  6
CONTINUOUS
 62
     7
 66
     1
 10
0.0
 20
0.0
 30
0.0
 70
   128
  0
VERTEX
  5
831
  8
0
  6
CONTINUOUS
 62
     7
 10
130.7403202196
 20
193.9472495054
 30
0.0
  0
VERTEX
  5
832
  8
0
  6
CONTINUOUS
 62
     7
 10
130.7573331534
 20
193.9547863585
 30
0.0
  0
VERTEX
  5
833
  8
0
  6
CONTINUOUS
 62
     7
 10
130.7643712314
 20
193.9564962082
 30
0.0
  0
VERTEX
  5
834
  8
0
  6
CONTINUOUS
 62
     7
 10
130.7720471714
 20
193.956123354
 30
0.0
  0
VERTEX
  5
835
  8
0
  6
CONTINUOUS
 62
     7
 10
130.7744925543
 20
193.9549677956
 30
0.0
  0
VERTEX
  5
836
  8
0
  6
CONTINUOUS
 62
     7
 10
130.7760348252
 20
193.952966583
 30
0.0
  0
VERTEX
  5
837
  8
0
  6
CONTINUOUS
 62
     7
 10
130.7771352881
 20
193.9472495054
 30
0.0
  0
SEQEND
  5
9C7
  8
0
  6
CONTINUOUS
 62
     7
  0
LINE
  5
243
  8
0
  6
CONTINUOUS
 62
     7
 10
130.6499948772
 20
193.9472495054
 30
0.0
 11
130.7403202196
 21
193.9472495054
 31
0.0
  0
ARC
  5
244
  8
0
  6
CONTINUOUS
 62
     7
 10
130.6063304936
 20
193.8554556236
 30
0.0
 40
0.1016498653140209
 50
64.5605677104
 51
115.4394322896
  0
POLYLINE
  5
245
  8
0
  6
CONTINUOUS
 62
     7
 66
     1
 10
0.0
 20
0.0
 30
0.0
 70
   128
  0
VERTEX
  5
838
  8
0
  6
CONTINUOUS
 62
     7
 10
130.3456284388
 20
193.9087221081
 30
0.0
  0
VERTEX
  5
839
  8
0
  6
CONTINUOUS
 62
     7
 10
130.4651372889
 20
193.9415346157
 30
0.0
  0
VERTEX
  5
83A
  8
0
  6
CONTINUOUS
 62
     7
 10
130.56266611
 20
193.9472495054
 30
0.0
  0
SEQEND
  5
9C8
  8
0
  6
CONTINUOUS
 62
     7
  0
ARC
  5
246
  8
0
  6
CONTINUOUS
 62
     7
 10
130.5239831609
 20
193.4740888323
 30
0.0
 40
0.469804737446233
 50
112.3111283628
 51
176.6932596444
  0
LINE
  5
247
  8
0
  6
CONTINUOUS
 62
     7
 10
130.0549606306
 20
193.0932255328
 30
0.0
 11
130.0549606306
 21
193.5011878616
 31
0.0
  0
ARC
  5
248
  8
0
  6
CONTINUOUS
 62
     7
 10
130.175455176
 20
193.9716647783
 30
0.0
 40
0.8866647864037208
 50
204.047889221
 51
262.1895429203
  0
POLYLINE
  5
249
  8
0
  6
CONTINUOUS
 62
     7
 66
     1
 10
0.0
 20
0.0
 30
0.0
 70
   128
  0
VERTEX
  5
83B
  8
0
  6
CONTINUOUS
 62
     7
 10
129.3366387128
 20
193.6844070396
 30
0.0
  0
VERTEX
  5
83C
  8
0
  6
CONTINUOUS
 62
     7
 10
129.3519902317
 20
193.6425486767
 30
0.0
  0
VERTEX
  5
83D
  8
0
  6
CONTINUOUS
 62
     7
 10
129.3657483018
 20
193.6103488205
 30
0.0
  0
SEQEND
  5
9C9
  8
0
  6
CONTINUOUS
 62
     7
  0
POLYLINE
  5
24A
  8
0
  6
CONTINUOUS
 62
     7
 66
     1
 10
0.0
 20
0.0
 30
0.0
 70
   128
  0
VERTEX
  5
83E
  8
0
  6
CONTINUOUS
 62
     7
 10
129.2869811785
 20
193.7404858068
 30
0.0
  0
VERTEX
  5
83F
  8
0
  6
CONTINUOUS
 62
     7
 10
129.3214495549
 20
193.714867975
 30
0.0
  0
VERTEX
  5
840
  8
0
  6
CONTINUOUS
 62
     7
 10
129.3366387128
 20
193.6844070396
 30
0.0
  0
SEQEND
  5
9CA
  8
0
  6
CONTINUOUS
 62
     7
  0
POLYLINE
  5
24B
  8
0
  6
CONTINUOUS
 62
     7
 66
     1
 10
0.0
 20
0.0
 30
0.0
 70
   128
  0
VERTEX
  5
841
  8
0
  6
CONTINUOUS
 62
     7
 10
129.2056455621
 20
193.6767015602
 30
0.0
  0
VERTEX
  5
842
  8
0
  6
CONTINUOUS
 62
     7
 10
129.2085637774
 20
193.6984688454
 30
0.0
  0
VERTEX
  5
843
  8
0
  6
CONTINUOUS
 62
     7
 10
129.2189320768
 20
193.7177786902
 30
0.0
  0
VERTEX
  5
844
  8
0
  6
CONTINUOUS
 62
     7
 10
129.236392891
 20
193.7310400546
 30
0.0
  0
VERTEX
  5
845
  8
0
  6
CONTINUOUS
 62
     7
 10
129.2869811785
 20
193.7404858068
 30
0.0
  0
SEQEND
  5
9CB
  8
0
  6
CONTINUOUS
 62
     7
  0
POLYLINE
  5
24C
  8
0
  6
CONTINUOUS
 62
     7
 66
     1
 10
0.0
 20
0.0
 30
0.0
 70
   128
  0
VERTEX
  5
846
  8
0
  6
CONTINUOUS
 62
     7
 10
129.2283339183
 20
193.5949378616
 30
0.0
  0
VERTEX
  5
847
  8
0
  6
CONTINUOUS
 62
     7
 10
129.2124399642
 20
193.6597850134
 30
0.0
  0
VERTEX
  5
848
  8
0
  6
CONTINUOUS
 62
     7
 10
129.2077462899
 20
193.6756217187
 30
0.0
  0
VERTEX
  5
849
  8
0
  6
CONTINUOUS
 62
     7
 10
129.2069789921
 20
193.6774562258
 30
0.0
  0
VERTEX
  5
84A
  8
0
  6
CONTINUOUS
 62
     7
 10
129.2065282133
 20
193.6783169916
 30
0.0
  0
VERTEX
  5
84B
  8
0
  6
CONTINUOUS
 62
     7
 10
129.2063530779
 20
193.6785858612
 30
0.0
  0
VERTEX
  5
84C
  8
0
  6
CONTINUOUS
 62
     7
 10
129.2061918117
 20
193.6787715901
 30
0.0
  0
VERTEX
  5
84D
  8
0
  6
CONTINUOUS
 62
     7
 10
129.2061287688
 20
193.6788186832
 30
0.0
  0
VERTEX
  5
84E
  8
0
  6
CONTINUOUS
 62
     7
 10
129.20607053
 20
193.6788426613
 30
0.0
  0
VERTEX
  5
84F
  8
0
  6
CONTINUOUS
 62
     7
 10
129.2060175722
 20
193.6788419557
 30
0.0
  0
VERTEX
  5
850
  8
0
  6
CONTINUOUS
 62
     7
 10
129.20596971
 20
193.678817542
 30
0.0
  0
VERTEX
  5
851
  8
0
  6
CONTINUOUS
 62
     7
 10
129.2059217523
 20
193.6787639208
 30
0.0
  0
VERTEX
  5
852
  8
0
  6
CONTINUOUS
 62
     7
 10
129.2058793216
 20
193.6786845844
 30
0.0
  0
VERTEX
  5
853
  8
0
  6
CONTINUOUS
 62
     7
 10
129.2058227124
 20
193.6785130715
 30
0.0
  0
VERTEX
  5
854
  8
0
  6
CONTINUOUS
 62
     7
 10
129.2056455621
 20
193.6767015602
 30
0.0
  0
SEQEND
  5
9CC
  8
0
  6
CONTINUOUS
 62
     7
  0
ARC
  5
24D
  8
0
  6
CONTINUOUS
 62
     7
 10
130.1490389034
 20
193.9023476621
 30
0.0
 40
0.9706690760314847
 50
198.4634035908
 51
266.440751296
  0
LINE
  5
24E
  8
0
  6
CONTINUOUS
 62
     7
 10
130.7184880279
 20
192.9335508753
 30
0.0
 11
130.0887791237
 21
192.9335508753
 31
0.0
  0
POLYLINE
  5
24F
  8
0
  6
CONTINUOUS
 62
     7
 66
     1
 10
0.0
 20
0.0
 30
0.0
 70
   128
  0
VERTEX
  5
855
  8
0
  6
CONTINUOUS
 62
     7
 10
130.9462277539
 20
192.990913889
 30
0.0
  0
VERTEX
  5
856
  8
0
  6
CONTINUOUS
 62
     7
 10
130.8221862509
 20
192.9442677016
 30
0.0
  0
VERTEX
  5
857
  8
0
  6
CONTINUOUS
 62
     7
 10
130.7184880279
 20
192.9335508753
 30
0.0
  0
SEQEND
  5
9CD
  8
0
  6
CONTINUOUS
 62
     7
  0
ARC
  5
250
  8
0
  6
CONTINUOUS
 62
     7
 10
130.6895719349
 20
193.4386872902
 30
0.0
 40
0.5161135807636686
 50
299.8205744568
 51
0.7129279087
  0
LINE
  5
251
  8
0
  6
CONTINUOUS
 62
     7
 10
131.2026489868
 20
190.8890303273
 30
0.0
 11
131.2056455621
 21
190.8834652588
 31
0.0
  0
ARC
  5
252
  8
0
  6
CONTINUOUS
 62
     7
 10
131.1467525665
 20
190.8774439206
 30
0.0
 40
0.0570846267935152
 50
11.710629043
 51
79.3806861438
  0
LINE
  5
253
  8
0
  6
CONTINUOUS
 62
     7
 10
130.292546247
 20
190.9335508753
 30
0.0
 11
131.1572722744
 21
190.9335508753
 31
0.0
  0
ARC
  5
254
  8
0
  6
CONTINUOUS
 62
     7
 10
130.2975081723
 20
190.8829019682
 30
0.0
 40
0.0508913792979943
 50
95.5952453297
 51
175.9888688546
  0
LINE
  5
255
  8
0
  6
CONTINUOUS
 62
     7
 10
130.2467414525
 20
190.4194241629
 30
0.0
 11
130.2467414525
 21
190.8864618342
 31
0.0
  0
ARC
  5
256
  8
0
  6
CONTINUOUS
 62
     7
 10
129.9016381376
 20
190.4155389026
 30
0.0
 40
0.3451251847979617
 50
277.7100412345
 51
0.6450231107
  0
POLYLINE
  5
257
  8
0
  6
CONTINUOUS
 62
     7
 66
     1
 10
0.0
 20
0.0
 30
0.0
 70
   128
  0
VERTEX
  5
858
  8
0
  6
CONTINUOUS
 62
     7
 10
129.9042756991
 20
190.0765303273
 30
0.0
  0
VERTEX
  5
859
  8
0
  6
CONTINUOUS
 62
     7
 10
129.9288011543
 20
190.075802825
 30
0.0
  0
VERTEX
  5
85A
  8
0
  6
CONTINUOUS
 62
     7
 10
129.9479400826
 20
190.073533752
 30
0.0
  0
SEQEND
  5
9CE
  8
0
  6
CONTINUOUS
 62
     7
  0
POLYLINE
  5
258
  8
0
  6
CONTINUOUS
 62
     7
 66
     1
 10
0.0
 20
0.0
 30
0.0
 70
   128
  0
VERTEX
  5
85B
  8
0
  6
CONTINUOUS
 62
     7
 10
129.7398921374
 20
190.0705371766
 30
0.0
  0
VERTEX
  5
85C
  8
0
  6
CONTINUOUS
 62
     7
 10
129.8319411426
 20
190.0740681036
 30
0.0
  0
VERTEX
  5
85D
  8
0
  6
CONTINUOUS
 62
     7
 10
129.9042756991
 20
190.0765303273
 30
0.0
  0
SEQEND
  5
9CF
  8
0
  6
CONTINUOUS
 62
     7
  0
POLYLINE
  5
259
  8
0
  6
CONTINUOUS
 62
     7
 66
     1
 10
0.0
 20
0.0
 30
0.0
 70
   128
  0
VERTEX
  5
85E
  8
0
  6
CONTINUOUS
 62
     7
 10
129.6221695347
 20
190.082523478
 30
0.0
  0
VERTEX
  5
85F
  8
0
  6
CONTINUOUS
 62
     7
 10
129.6877348672
 20
190.0724355046
 30
0.0
  0
VERTEX
  5
860
  8
0
  6
CONTINUOUS
 62
     7
 10
129.7398921374
 20
190.0705371766
 30
0.0
  0
SEQEND
  5
9D0
  8
0
  6
CONTINUOUS
 62
     7
  0
ARC
  5
25A
  8
0
  6
CONTINUOUS
 62
     7
 10
129.7379544154
 20
190.4341896804
 30
0.0
 40
0.3702367573907084
 50
186.4057178435
 51
251.7760492846
  0
LINE
  5
25B
  8
0
  6
CONTINUOUS
 62
     7
 10
129.3700291237
 20
190.8864618342
 30
0.0
 11
129.3700291237
 21
190.392883067
 31
0.0
  0
LINE
  5
25C
  8
0
  6
CONTINUOUS
 62
     7
 10
129.3606113155
 20
190.904013204
 30
0.0
 11
129.3700291237
 21
190.8864618342
 31
0.0
  0
POLYLINE
  5
25D
  8
0
  6
CONTINUOUS
 62
     7
 66
     1
 10
0.0
 20
0.0
 30
0.0
 70
   128
  0
VERTEX
  5
861
  8
0
  6
CONTINUOUS
 62
     7
 10
129.2839846032
 20
190.9335508753
 30
0.0
  0
VERTEX
  5
862
  8
0
  6
CONTINUOUS
 62
     7
 10
129.3314159996
 20
190.9269350821
 30
0.0
  0
VERTEX
  5
863
  8
0
  6
CONTINUOUS
 62
     7
 10
129.348249478
 20
190.9182320131
 30
0.0
  0
VERTEX
  5
864
  8
0
  6
CONTINUOUS
 62
     7
 10
129.3606113155
 20
190.904013204
 30
0.0
  0
SEQEND
  5
9D1
  8
0
  6
CONTINUOUS
 62
     7
  0
ARC
  5
25E
  8
0
  6
CONTINUOUS
 62
     7
 10
129.2883648673
 20
190.8771339918
 30
0.0
 40
0.0565866720716549
 50
94.439595981
 51
167.8640450972
  0
LINE
  5
25F
  8
0
  6
CONTINUOUS
 62
     7
 10
129.2056455621
 20
190.4545269027
 30
0.0
 11
129.2330428224
 21
190.8890303273
 31
0.0
  0
POLYLINE
  5
260
  8
0
  6
CONTINUOUS
 62
     7
 66
     1
 10
0.0
 20
0.0
 30
0.0
 70
   128
  0
VERTEX
  5
865
  8
0
  6
CONTINUOUS
 62
     7
 10
129.2403202196
 20
190.2537563547
 30
0.0
  0
VERTEX
  5
866
  8
0
  6
CONTINUOUS
 62
     7
 10
129.2120377654
 20
190.3647241698
 30
0.0
  0
VERTEX
  5
867
  8
0
  6
CONTINUOUS
 62
     7
 10
129.2056455621
 20
190.4545269027
 30
0.0
  0
SEQEND
  5
9D2
  8
0
  6
CONTINUOUS
 62
     7
  0
ARC
  5
261
  8
0
  6
CONTINUOUS
 62
     7
 10
129.6950620039
 20
190.4278670738
 30
0.0
 40
0.4869339101298726
 50
200.9507540761
 51
264.2340460882
  0
POLYLINE
  5
262
  8
0
  6
CONTINUOUS
 62
     7
 66
     1
 10
0.0
 20
0.0
 30
0.0
 70
   128
  0
VERTEX
  5
868
  8
0
  6
CONTINUOUS
 62
     7
 10
129.6838133703
 20
189.9566673136
 30
0.0
  0
VERTEX
  5
869
  8
0
  6
CONTINUOUS
 62
     7
 10
129.6624983939
 20
189.9550314952
 30
0.0
  0
VERTEX
  5
86A
  8
0
  6
CONTINUOUS
 62
     7
 10
129.6520218075
 20
189.9518538563
 30
0.0
  0
VERTEX
  5
86B
  8
0
  6
CONTINUOUS
 62
     7
 10
129.6480657834
 20
189.948485893
 30
0.0
  0
VERTEX
  5
86C
  8
0
  6
CONTINUOUS
 62
     7
 10
129.6461421374
 20
189.9433967657
 30
0.0
  0
SEQEND
  5
9D3
  8
0
  6
CONTINUOUS
 62
     7
  0
POLYLINE
  5
263
  8
0
  6
CONTINUOUS
 62
     7
 66
     1
 10
0.0
 20
0.0
 30
0.0
 70
   128
  0
VERTEX
  5
86D
  8
0
  6
CONTINUOUS
 62
     7
 10
129.7758510416
 20
189.9433967657
 30
0.0
  0
VERTEX
  5
86E
  8
0
  6
CONTINUOUS
 62
     7
 10
129.7245677262
 20
189.9527396092
 30
0.0
  0
VERTEX
  5
86F
  8
0
  6
CONTINUOUS
 62
     7
 10
129.6838133703
 20
189.9566673136
 30
0.0
  0
SEQEND
  5
9D4
  8
0
  6
CONTINUOUS
 62
     7
  0
POLYLINE
  5
264
  8
0
  6
CONTINUOUS
 62
     7
 66
     1
 10
0.0
 20
0.0
 30
0.0
 70
   128
  0
VERTEX
  5
870
  8
0
  6
CONTINUOUS
 62
     7
 10
129.868316795
 20
189.9404001903
 30
0.0
  0
VERTEX
  5
871
  8
0
  6
CONTINUOUS
 62
     7
 10
129.8165270062
 20
189.941717191
 30
0.0
  0
VERTEX
  5
872
  8
0
  6
CONTINUOUS
 62
     7
 10
129.7758510416
 20
189.9433967657
 30
0.0
  0
SEQEND
  5
9D5
  8
0
  6
CONTINUOUS
 62
     7
  0
POLYLINE
  5
265
  8
0
  6
CONTINUOUS
 62
     7
 66
     1
 10
0.0
 20
0.0
 30
0.0
 70
   128
  0
VERTEX
  5
873
  8
0
  6
CONTINUOUS
 62
     7
 10
130.0810736443
 20
189.9755029301
 30
0.0
  0
VERTEX
  5
874
  8
0
  6
CONTINUOUS
 62
     7
 10
129.9635541897
 20
189.9459003984
 30
0.0
  0
VERTEX
  5
875
  8
0
  6
CONTINUOUS
 62
     7
 10
129.868316795
 20
189.9404001903
 30
0.0
  0
SEQEND
  5
9D6
  8
0
  6
CONTINUOUS
 62
     7
  0
ARC
  5
266
  8
0
  6
CONTINUOUS
 62
     7
 10
129.9166064084
 20
190.4133914357
 30
0.0
 40
0.4677561491205507
 50
290.5857556636
 51
357.0146400892
  0
LINE
  5
267
  8
0
  6
CONTINUOUS
 62
     7
 10
130.3837277539
 20
190.7965645739
 30
0.0
 11
130.3837277539
 21
190.3890303273
 31
0.0
  0
LINE
  5
268
  8
0
  6
CONTINUOUS
 62
     7
 10
131.0686592607
 20
190.7965645739
 30
0.0
 11
130.3837277539
 21
190.7965645739
 31
0.0
  0
LINE
  5
269
  8
0
  6
CONTINUOUS
 62
     7
 10
131.0686592607
 20
190.1171981355
 30
0.0
 11
131.0686592607
 21
190.7965645739
 31
0.0
  0
POLYLINE
  5
26A
  8
0
  6
CONTINUOUS
 62
     7
 66
     1
 10
0.0
 20
0.0
 30
0.0
 70
   128
  0
VERTEX
  5
876
  8
0
  6
CONTINUOUS
 62
     7
 10
131.0874948772
 20
190.0645440259
 30
0.0
  0
VERTEX
  5
877
  8
0
  6
CONTINUOUS
 62
     7
 10
131.0728756718
 20
190.0926186699
 30
0.0
  0
VERTEX
  5
878
  8
0
  6
CONTINUOUS
 62
     7
 10
131.0686592607
 20
190.1171981355
 30
0.0
  0
SEQEND
  5
9D7
  8
0
  6
CONTINUOUS
 62
     7
  0
POLYLINE
  5
26B
  8
0
  6
CONTINUOUS
 62
     7
 66
     1
 10
0.0
 20
0.0
 30
0.0
 70
   128
  0
VERTEX
  5
879
  8
0
  6
CONTINUOUS
 62
     7
 10
131.1465702196
 20
190.0499892314
 30
0.0
  0
VERTEX
  5
87A
  8
0
  6
CONTINUOUS
 62
     7
 10
131.1126848603
 20
190.0547843758
 30
0.0
  0
VERTEX
  5
87B
  8
0
  6
CONTINUOUS
 62
     7
 10
131.0874948772
 20
190.0645440259
 30
0.0
  0
SEQEND
  5
9D8
  8
0
  6
CONTINUOUS
 62
     7
  0
ARC
  5
26C
  8
0
  6
CONTINUOUS
 62
     7
 10
131.1458842878
 20
190.1084323545
 30
0.0
 40
0.0584471482894768
 50
270.6724348471
 51
346.2192039722
  0
LINE
  5
26D
  8
0
  6
CONTINUOUS
 62
     7
 10
131.2056455621
 20
190.8834652588
 30
0.0
 11
131.2026489868
 21
190.0945097794
 31
0.0
  0
LINE
  5
26E
  8
0
  6
CONTINUOUS
 62
     7
 10
129.829310031
 20
240.7338431316
 30
0.0
 11
129.5455266535
 21
240.7755392072
 31
0.0
  0
LINE
  5
26F
  8
0
  6
CONTINUOUS
 62
     7
 10
129.9311739656
 20
240.4045027728
 30
0.0
 11
129.829310031
 21
240.7338431316
 31
0.0
  0
LINE
  5
270
  8
0
  6
CONTINUOUS
 62
     7
 10
129.716722417
 20
240.2116108558
 30
0.0
 11
129.9311739656
 21
240.4045027728
 31
0.0
  0
LINE
  5
271
  8
0
  6
CONTINUOUS
 62
     7
 10
129.7422050231
 20
240.1292220235
 30
0.0
 11
129.716722417
 21
240.2116108558
 31
0.0
  0
LINE
  5
272
  8
0
  6
CONTINUOUS
 62
     7
 10
130.3930936937
 20
240.7146743749
 30
0.0
 11
129.7422050231
 21
240.1292220235
 31
0.0
  0
LINE
  5
273
  8
0
  6
CONTINUOUS
 62
     7
 10
130.3872744971
 20
240.7338431316
 30
0.0
 11
130.3930936937
 21
240.7146743749
 31
0.0
  0
LINE
  5
274
  8
0
  6
CONTINUOUS
 62
     7
 10
129.519477081
 20
240.8613479455
 30
0.0
 11
130.3872744971
 21
240.7338431316
 31
0.0
  0
LINE
  5
275
  8
0
  6
CONTINUOUS
 62
     7
 10
129.5455266535
 20
240.7755392072
 30
0.0
 11
129.519477081
 21
240.8613479455
 31
0.0
  0
LINE
  5
276
  8
0
  6
CONTINUOUS
 62
     7
 10
130.3937490522
 20
242.9337055281
 30
0.0
 11
130.334996242
 21
242.7334129072
 31
0.0
  0
LINE
  5
277
  8
0
  6
CONTINUOUS
 62
     7
 10
129.6273804399
 20
243.1585081663
 30
0.0
 11
130.3937490522
 21
242.9337055281
 31
0.0
  0
LINE
  5
278
  8
0
  6
CONTINUOUS
 62
     7
 10
129.6050677467
 20
243.0829214205
 30
0.0
 11
129.6273804399
 21
243.1585081663
 31
0.0
  0
LINE
  5
279
  8
0
  6
CONTINUOUS
 62
     7
 10
129.9612881931
 20
242.9775447171
 30
0.0
 11
129.6050677467
 21
243.0829214205
 31
0.0
  0
LINE
  5
27A
  8
0
  6
CONTINUOUS
 62
     7
 10
129.9483471628
 20
242.9337055281
 30
0.0
 11
129.9612881931
 21
242.9775447171
 31
0.0
  0
LINE
  5
27B
  8
0
  6
CONTINUOUS
 62
     7
 10
129.5117617741
 20
242.7668369935
 30
0.0
 11
129.9483471628
 21
242.9337055281
 31
0.0
  0
LINE
  5
27C
  8
0
  6
CONTINUOUS
 62
     7
 10
129.4830322709
 20
242.6695125855
 30
0.0
 11
129.5117617741
 21
242.7668369935
 31
0.0
  0
LINE
  5
27D
  8
0
  6
CONTINUOUS
 62
     7
 10
129.9209217642
 20
242.8397547242
 30
0.0
 11
129.4830322709
 21
242.6695125855
 31
0.0
  0
POLYLINE
  5
27E
  8
0
  6
CONTINUOUS
 62
     7
 66
     1
 10
0.0
 20
0.0
 30
0.0
 70
   128
  0
VERTEX
  5
87C
  8
0
  6
CONTINUOUS
 62
     7
 10
130.334996242
 20
242.7334129072
 30
0.0
  0
VERTEX
  5
87D
  8
0
  6
CONTINUOUS
 62
     7
 10
130.2437474793
 20
242.5562711639
 30
0.0
  0
VERTEX
  5
87E
  8
0
  6
CONTINUOUS
 62
     7
 10
130.1550740568
 20
242.5093834266
 30
0.0
  0
VERTEX
  5
87F
  8
0
  6
CONTINUOUS
 62
     7
 10
130.0551656486
 20
242.5130721324
 30
0.0
  0
VERTEX
  5
880
  8
0
  6
CONTINUOUS
 62
     7
 10
129.9663572573
 20
242.5589073909
 30
0.0
  0
VERTEX
  5
881
  8
0
  6
CONTINUOUS
 62
     7
 10
129.9101987993
 20
242.6415188134
 30
0.0
  0
VERTEX
  5
882
  8
0
  6
CONTINUOUS
 62
     7
 10
129.9005158872
 20
242.7413215891
 30
0.0
  0
VERTEX
  5
883
  8
0
  6
CONTINUOUS
 62
     7
 10
129.9209217642
 20
242.8397547242
 30
0.0
  0
SEQEND
  5
9D9
  8
0
  6
CONTINUOUS
 62
     7
  0
LINE
  5
27F
  8
0
  6
CONTINUOUS
 62
     7
 10
130.8393185312
 20
243.7974724128
 30
0.0
 11
130.1758662055
 21
244.2301845685
 31
0.0
  0
LINE
  5
280
  8
0
  6
CONTINUOUS
 62
     7
 10
130.1758662055
 20
244.2301845685
 30
0.0
 11
129.9303493244
 21
243.8537478458
 31
0.0
  0
LINE
  5
281
  8
0
  6
CONTINUOUS
 62
     7
 10
129.9303493244
 20
243.8537478458
 30
0.0
 11
129.9955498576
 21
243.8112232179
 31
0.0
  0
LINE
  5
282
  8
0
  6
CONTINUOUS
 62
     7
 10
129.9955498576
 20
243.8112232179
 30
0.0
 11
130.196997193
 21
244.1200906749
 31
0.0
  0
LINE
  5
283
  8
0
  6
CONTINUOUS
 62
     7
 10
130.196997193
 20
244.1200906749
 30
0.0
 11
130.4581876369
 21
243.9497389018
 31
0.0
  0
LINE
  5
284
  8
0
  6
CONTINUOUS
 62
     7
 10
130.4581876369
 20
243.9497389018
 30
0.0
 11
130.2555219812
 21
243.6407617506
 31
0.0
  0
LINE
  5
285
  8
0
  6
CONTINUOUS
 62
     7
 10
130.2555219812
 20
243.6407617506
 30
0.0
 11
130.3206157523
 21
243.5980651572
 31
0.0
  0
LINE
  5
286
  8
0
  6
CONTINUOUS
 62
     7
 10
130.3206157523
 20
243.5980651572
 30
0.0
 11
130.5235042113
 21
243.909142205
 31
0.0
  0
LINE
  5
287
  8
0
  6
CONTINUOUS
 62
     7
 10
130.5235042113
 20
243.909142205
 30
0.0
 11
130.7309497253
 21
243.7738435677
 31
0.0
  0
LINE
  5
288
  8
0
  6
CONTINUOUS
 62
     7
 10
130.7309497253
 20
243.7738435677
 30
0.0
 11
130.5258542916
 21
243.4606160646
 31
0.0
  0
LINE
  5
289
  8
0
  6
CONTINUOUS
 62
     7
 10
130.5258542916
 20
243.4606160646
 30
0.0
 11
130.5912479259
 21
243.4179654937
 31
0.0
  0
LINE
  5
28A
  8
0
  6
CONTINUOUS
 62
     7
 10
130.5912479259
 20
243.4179654937
 30
0.0
 11
130.8393185312
 21
243.7974724128
 31
0.0
  0
LINE
  5
28B
  8
0
  6
CONTINUOUS
 62
     7
 10
131.6804258721
 20
239.0407173571
 30
0.0
 11
131.2215529249
 21
238.8828016189
 31
0.0
  0
LINE
  5
28C
  8
0
  6
CONTINUOUS
 62
     7
 10
131.6094823034
 20
239.0997824774
 30
0.0
 11
131.6804258721
 21
239.0407173571
 31
0.0
  0
LINE
  5
28D
  8
0
  6
CONTINUOUS
 62
     7
 10
131.2470141985
 20
238.9748925954
 30
0.0
 11
131.6094823034
 21
239.0997824774
 31
0.0
  0
LINE
  5
28E
  8
0
  6
CONTINUOUS
 62
     7
 10
131.3005886914
 20
239.3569564355
 30
0.0
 11
131.2470141985
 21
238.9748925954
 31
0.0
  0
LINE
  5
28F
  8
0
  6
CONTINUOUS
 62
     7
 10
131.2287366435
 20
239.4167779237
 30
0.0
 11
131.3005886914
 21
239.3569564355
 31
0.0
  0
LINE
  5
290
  8
0
  6
CONTINUOUS
 62
     7
 10
131.1609639501
 20
238.9334603208
 30
0.0
 11
131.2287366435
 21
239.4167779237
 31
0.0
  0
LINE
  5
291
  8
0
  6
CONTINUOUS
 62
     7
 10
130.9172516562
 20
238.6407356167
 30
0.0
 11
131.1609639501
 21
238.9334603208
 31
0.0
  0
LINE
  5
292
  8
0
  6
CONTINUOUS
 62
     7
 10
130.9781496998
 20
238.5900340473
 30
0.0
 11
130.9172516562
 21
238.6407356167
 31
0.0
  0
LINE
  5
293
  8
0
  6
CONTINUOUS
 62
     7
 10
131.2215529249
 20
238.8828016189
 30
0.0
 11
130.9781496998
 21
238.5900340473
 31
0.0
  0
ARC
  5
294
  8
0
  6
CONTINUOUS
 62
     7
 10
156.0613838468
 20
174.8091775814
 30
0.0
 40
1.0
 50
270.0
 51
0.0
  0
LINE
  5
295
  8
0
  6
CONTINUOUS
 62
     7
 10
119.6828742716
 20
173.8091775814
 30
0.0
 11
156.0613838468
 21
173.8091775814
 31
0.0
  0
LINE
  5
296
  8
0
  6
CONTINUOUS
 62
     7
 10
120.3613838468
 20
189.3841775814
 30
0.0
 11
120.3613838468
 21
208.4591775814
 31
0.0
  0
ARC
  5
297
  8
0
  6
CONTINUOUS
 62
     7
 10
119.3613838468
 20
228.1591775814
 30
0.0
 40
1.000000000000004
 50
288.7530834267
 51
0.0
  0
LINE
  5
298
  8
0
  6
CONTINUOUS
 62
     7
 10
120.3613838468
 20
228.1591775814
 30
0.0
 11
120.3613838468
 21
247.2341775814
 31
0.0
  0
LINE
  5
299
  8
0
  6
CONTINUOUS
 62
     7
 10
119.6828742716
 20
262.8091775814
 30
0.0
 11
156.0613838468
 21
262.8091775814
 31
0.0
  0
ARC
  5
29A
  8
0
  6
CONTINUOUS
 62
     7
 10
156.0613838468
 20
261.8091775814
 30
0.0
 40
1.0
 50
0.0
 51
90.0
  0
LINE
  5
29B
  8
0
  6
CONTINUOUS
 62
     7
 10
157.0613838468
 20
261.8091775814
 30
0.0
 11
157.0613838468
 21
174.8091775814
 31
0.0
  0
CIRCLE
  5
29C
  8
0
  6
CONTINUOUS
 62
     7
 10
146.5613838468
 20
218.3091775814
 30
0.0
 40
7.5
  0
CIRCLE
  5
29D
  8
0
  6
CONTINUOUS
 62
     7
 10
148.0613838468
 20
200.3091775814
 30
0.0
 40
4.75
  0
CIRCLE
  5
29E
  8
0
  6
CONTINUOUS
 62
     7
 10
148.0613838468
 20
236.3091775814
 30
0.0
 40
4.75
  0
CIRCLE
  5
29F
  8
0
  6
CONTINUOUS
 62
     7
 10
139.0613838468
 20
183.3091775814
 30
0.0
 40
4.75
  0
CIRCLE
  5
2A0
  8
0
  6
CONTINUOUS
 62
     7
 10
139.0613838468
 20
253.3091775814
 30
0.0
 40
4.75
  0
CIRCLE
  5
2A1
  8
0
  6
CONTINUOUS
 62
     7
 10
133.542170992
 20
241.830225558
 30
0.0
 40
2.900000000000034
  0
LINE
  5
2A2
  8
0
  6
CONTINUOUS
 62
     7
 10
130.3416628805
 20
239.182447211
 30
0.0
 11
130.5529066864
 21
239.9529694249
 31
0.0
  0
LINE
  5
2A3
  8
0
  6
CONTINUOUS
 62
     7
 10
130.3512988078
 20
239.1679185489
 30
0.0
 11
130.3416628805
 21
239.182447211
 31
0.0
  0
LINE
  5
2A4
  8
0
  6
CONTINUOUS
 62
     7
 10
131.0147691386
 20
239.6079557575
 30
0.0
 11
130.3512988078
 21
239.1679185489
 31
0.0
  0
LINE
  5
2A5
  8
0
  6
CONTINUOUS
 62
     7
 10
130.971774904
 20
239.6727807278
 30
0.0
 11
131.0147691386
 21
239.6079557575
 31
0.0
  0
LINE
  5
2A6
  8
0
  6
CONTINUOUS
 62
     7
 10
130.4647035792
 20
239.3364729233
 30
0.0
 11
130.971774904
 21
239.6727807278
 31
0.0
  0
LINE
  5
2A7
  8
0
  6
CONTINUOUS
 62
     7
 10
130.6781052449
 20
240.1148660371
 30
0.0
 11
130.4647035792
 21
239.3364729233
 31
0.0
  0
LINE
  5
2A8
  8
0
  6
CONTINUOUS
 62
     7
 10
130.6685838422
 20
240.1292220235
 30
0.0
 11
130.6781052449
 21
240.1148660371
 31
0.0
  0
LINE
  5
2A9
  8
0
  6
CONTINUOUS
 62
     7
 10
130.0054349963
 20
239.6893980351
 30
0.0
 11
130.6685838422
 21
240.1292220235
 31
0.0
  0
LINE
  5
2AA
  8
0
  6
CONTINUOUS
 62
     7
 10
130.0512809632
 20
239.6202733378
 30
0.0
 11
130.0054349963
 21
239.6893980351
 31
0.0
  0
LINE
  5
2AB
  8
0
  6
CONTINUOUS
 62
     7
 10
130.5529066864
 20
239.9529694249
 30
0.0
 11
130.0512809632
 21
239.6202733378
 31
0.0
  0
LINE
  5
2AC
  8
0
  6
CONTINUOUS
 62
     7
 10
130.8484494933
 20
244.10004632
 30
0.0
 11
130.8575664439
 21
244.1836707632
 31
0.0
  0
POLYLINE
  5
2AD
  8
0
  6
CONTINUOUS
 62
     7
 66
     1
 10
0.0
 20
0.0
 30
0.0
 70
   128
  0
VERTEX
  5
884
  8
0
  6
CONTINUOUS
 62
     7
 10
130.6326417339
 20
244.2831195272
 30
0.0
  0
VERTEX
  5
885
  8
0
  6
CONTINUOUS
 62
     7
 10
130.553958601
 20
244.4076537596
 30
0.0
  0
VERTEX
  5
886
  8
0
  6
CONTINUOUS
 62
     7
 10
130.5266734
 20
244.5557245725
 30
0.0
  0
VERTEX
  5
887
  8
0
  6
CONTINUOUS
 62
     7
 10
130.5597993897
 20
244.6987544576
 30
0.0
  0
VERTEX
  5
888
  8
0
  6
CONTINUOUS
 62
     7
 10
130.6494939497
 20
244.8167853896
 30
0.0
  0
VERTEX
  5
889
  8
0
  6
CONTINUOUS
 62
     7
 10
130.8357598938
 20
244.9366477893
 30
0.0
  0
VERTEX
  5
88A
  8
0
  6
CONTINUOUS
 62
     7
 10
131.0574865713
 20
244.9516120432
 30
0.0
  0
VERTEX
  5
88B
  8
0
  6
CONTINUOUS
 62
     7
 10
131.1633469498
 20
244.9142237986
 30
0.0
  0
VERTEX
  5
88C
  8
0
  6
CONTINUOUS
 62
     7
 10
131.2547013646
 20
244.8488690091
 30
0.0
  0
VERTEX
  5
88D
  8
0
  6
CONTINUOUS
 62
     7
 10
131.3250923889
 20
244.7611119217
 30
0.0
  0
VERTEX
  5
88E
  8
0
  6
CONTINUOUS
 62
     7
 10
131.3688844655
 20
244.6571946982
 30
0.0
  0
VERTEX
  5
88F
  8
0
  6
CONTINUOUS
 62
     7
 10
131.3836253711
 20
244.545456765
 30
0.0
  0
VERTEX
  5
890
  8
0
  6
CONTINUOUS
 62
     7
 10
131.3677881523
 20
244.4347825177
 30
0.0
  0
VERTEX
  5
891
  8
0
  6
CONTINUOUS
 62
     7
 10
131.2542309067
 20
244.2446251524
 30
0.0
  0
VERTEX
  5
892
  8
0
  6
CONTINUOUS
 62
     7
 10
131.0674775302
 20
244.1274977155
 30
0.0
  0
VERTEX
  5
893
  8
0
  6
CONTINUOUS
 62
     7
 10
130.8484494933
 20
244.10004632
 30
0.0
  0
SEQEND
  5
9DA
  8
0
  6
CONTINUOUS
 62
     7
  0
LINE
  5
2AE
  8
0
  6
CONTINUOUS
 62
     7
 10
130.8926445441
 20
244.5029660369
 30
0.0
 11
130.6326417339
 21
244.2831195272
 31
0.0
  0
LINE
  5
2AF
  8
0
  6
CONTINUOUS
 62
     7
 10
130.8432681031
 20
244.5615491015
 30
0.0
 11
130.8926445441
 21
244.5029660369
 31
0.0
  0
LINE
  5
2B0
  8
0
  6
CONTINUOUS
 62
     7
 10
130.6508854385
 20
244.3985557889
 30
0.0
 11
130.8432681031
 21
244.5615491015
 31
0.0
  0
POLYLINE
  5
2B1
  8
0
  6
CONTINUOUS
 62
     7
 66
     1
 10
0.0
 20
0.0
 30
0.0
 70
   128
  0
VERTEX
  5
894
  8
0
  6
CONTINUOUS
 62
     7
 10
130.8575664439
 20
244.1836707632
 30
0.0
  0
VERTEX
  5
895
  8
0
  6
CONTINUOUS
 62
     7
 10
131.0285490963
 20
244.2016090288
 30
0.0
  0
VERTEX
  5
896
  8
0
  6
CONTINUOUS
 62
     7
 10
131.1799873022
 20
244.2849463946
 30
0.0
  0
VERTEX
  5
897
  8
0
  6
CONTINUOUS
 62
     7
 10
131.2779386412
 20
244.4298040194
 30
0.0
  0
VERTEX
  5
898
  8
0
  6
CONTINUOUS
 62
     7
 10
131.2962678388
 20
244.6029335032
 30
0.0
  0
VERTEX
  5
899
  8
0
  6
CONTINUOUS
 62
     7
 10
131.2710354623
 20
244.6863410157
 30
0.0
  0
VERTEX
  5
89A
  8
0
  6
CONTINUOUS
 62
     7
 10
131.2238928248
 20
244.7595240053
 30
0.0
  0
VERTEX
  5
89B
  8
0
  6
CONTINUOUS
 62
     7
 10
131.0805720273
 20
244.8576361717
 30
0.0
  0
VERTEX
  5
89C
  8
0
  6
CONTINUOUS
 62
     7
 10
130.9098722321
 20
244.8728137728
 30
0.0
  0
VERTEX
  5
89D
  8
0
  6
CONTINUOUS
 62
     7
 10
130.7502574117
 20
244.8063789251
 30
0.0
  0
VERTEX
  5
89E
  8
0
  6
CONTINUOUS
 62
     7
 10
130.6680850657
 20
244.7253475133
 30
0.0
  0
VERTEX
  5
89F
  8
0
  6
CONTINUOUS
 62
     7
 10
130.6168806153
 20
244.6203944888
 30
0.0
  0
VERTEX
  5
8A0
  8
0
  6
CONTINUOUS
 62
     7
 10
130.6098603176
 20
244.5055653293
 30
0.0
  0
VERTEX
  5
8A1
  8
0
  6
CONTINUOUS
 62
     7
 10
130.6508854385
 20
244.3985557889
 30
0.0
  0
SEQEND
  5
9DB
  8
0
  6
CONTINUOUS
 62
     7
  0
LINE
  5
2B2
  8
0
  6
CONTINUOUS
 62
     7
 10
129.4122723001
 20
241.5824659526
 30
0.0
 11
129.9846891397
 21
241.8695078079
 31
0.0
  0
LINE
  5
2B3
  8
0
  6
CONTINUOUS
 62
     7
 10
129.4122723001
 20
241.5626270349
 30
0.0
 11
129.4122723001
 21
241.5824659526
 31
0.0
  0
LINE
  5
2B4
  8
0
  6
CONTINUOUS
 62
     7
 10
129.9822781335
 20
241.2832325037
 30
0.0
 11
129.4122723001
 21
241.5626270349
 31
0.0
  0
LINE
  5
2B5
  8
0
  6
CONTINUOUS
 62
     7
 10
129.4138673707
 20
241.2052255589
 30
0.0
 11
129.9822781335
 21
241.2832325037
 31
0.0
  0
LINE
  5
2B6
  8
0
  6
CONTINUOUS
 62
     7
 10
129.4140515971
 20
241.1251888792
 30
0.0
 11
129.4138673707
 21
241.2052255589
 31
0.0
  0
LINE
  5
2B7
  8
0
  6
CONTINUOUS
 62
     7
 10
130.2094614957
 20
241.2413245395
 30
0.0
 11
129.4140515971
 21
241.1251888792
 31
0.0
  0
LINE
  5
2B8
  8
0
  6
CONTINUOUS
 62
     7
 10
130.2094614957
 20
241.2545610497
 30
0.0
 11
130.2094614957
 21
241.2413245395
 31
0.0
  0
LINE
  5
2B9
  8
0
  6
CONTINUOUS
 62
     7
 10
129.5557874331
 20
241.5727802569
 30
0.0
 11
130.2094614957
 21
241.2545610497
 31
0.0
  0
LINE
  5
2BA
  8
0
  6
CONTINUOUS
 62
     7
 10
130.2072770571
 20
241.8998656222
 30
0.0
 11
129.5557874331
 21
241.5727802569
 31
0.0
  0
LINE
  5
2BB
  8
0
  6
CONTINUOUS
 62
     7
 10
130.2072770571
 20
241.91153029
 30
0.0
 11
130.2072770571
 21
241.8998656222
 31
0.0
  0
LINE
  5
2BC
  8
0
  6
CONTINUOUS
 62
     7
 10
129.4106572633
 20
242.0210584317
 30
0.0
 11
130.2072770571
 21
241.91153029
 31
0.0
  0
LINE
  5
2BD
  8
0
  6
CONTINUOUS
 62
     7
 10
129.4110208556
 20
241.9449850672
 30
0.0
 11
129.4106572633
 21
242.0210584317
 31
0.0
  0
LINE
  5
2BE
  8
0
  6
CONTINUOUS
 62
     7
 10
129.9846891397
 20
241.8695078079
 30
0.0
 11
129.4110208556
 21
241.9449850672
 31
0.0
  0
LINE
  5
2BF
  8
0
  6
CONTINUOUS
 62
     7
 10
131.2026489868
 20
199.053413889
 30
0.0
 11
131.2056455621
 21
199.0478488205
 31
0.0
  0
ARC
  5
2C0
  8
0
  6
CONTINUOUS
 62
     7
 10
131.1469488989
 20
199.0421289116
 30
0.0
 40
0.0568317736898008
 50
11.45323797
 51
79.0950428175
  0
LINE
  5
2C1
  8
0
  6
CONTINUOUS
 62
     7
 10
129.2779914525
 20
199.0979344369
 30
0.0
 11
131.1577003566
 21
199.0979344369
 31
0.0
  0
ARC
  5
2C2
  8
0
  6
CONTINUOUS
 62
     7
 10
129.2905244614
 20
199.0409738344
 30
0.0
 40
0.0583231219659266
 50
102.4090269087
 51
170.255412799
  0
LINE
  5
2C3
  8
0
  6
CONTINUOUS
 62
     7
 10
129.2330428224
 20
198.1518727931
 30
0.0
 11
129.2330428224
 21
199.0508453958
 31
0.0
  0
LINE
  5
2C4
  8
0
  6
CONTINUOUS
 62
     7
 10
129.2424606306
 20
198.1313248479
 30
0.0
 11
129.2330428224
 21
198.1518727931
 31
0.0
  0
POLYLINE
  5
2C5
  8
0
  6
CONTINUOUS
 62
     7
 66
     1
 10
0.0
 20
0.0
 30
0.0
 70
   128
  0
VERTEX
  5
8A2
  8
0
  6
CONTINUOUS
 62
     7
 10
129.2998236443
 20
198.104783752
 30
0.0
  0
VERTEX
  5
8A3
  8
0
  6
CONTINUOUS
 62
     7
 10
129.2644867533
 20
198.1130313149
 30
0.0
  0
VERTEX
  5
8A4
  8
0
  6
CONTINUOUS
 62
     7
 10
129.2424606306
 20
198.1313248479
 30
0.0
  0
SEQEND
  5
9DC
  8
0
  6
CONTINUOUS
 62
     7
  0
POLYLINE
  5
2C6
  8
0
  6
CONTINUOUS
 62
     7
 66
     1
 10
0.0
 20
0.0
 30
0.0
 70
   128
  0
VERTEX
  5
8A5
  8
0
  6
CONTINUOUS
 62
     7
 10
129.3096695347
 20
198.1077803273
 30
0.0
  0
VERTEX
  5
8A6
  8
0
  6
CONTINUOUS
 62
     7
 10
129.304275971
 20
198.105688029
 30
0.0
  0
VERTEX
  5
8A7
  8
0
  6
CONTINUOUS
 62
     7
 10
129.2998236443
 20
198.104783752
 30
0.0
  0
SEQEND
  5
9DD
  8
0
  6
CONTINUOUS
 62
     7
  0
POLYLINE
  5
2C7
  8
0
  6
CONTINUOUS
 62
     7
 66
     1
 10
0.0
 20
0.0
 30
0.0
 70
   128
  0
VERTEX
  5
8A8
  8
0
  6
CONTINUOUS
 62
     7
 10
129.3190873429
 20
198.1077803273
 30
0.0
  0
VERTEX
  5
8A9
  8
0
  6
CONTINUOUS
 62
     7
 10
129.3180750667
 20
198.1118783658
 30
0.0
  0
VERTEX
  5
8AA
  8
0
  6
CONTINUOUS
 62
     7
 10
129.3167205896
 20
198.1135503326
 30
0.0
  0
VERTEX
  5
8AB
  8
0
  6
CONTINUOUS
 62
     7
 10
129.3157923923
 20
198.1140830563
 30
0.0
  0
VERTEX
  5
8AC
  8
0
  6
CONTINUOUS
 62
     7
 10
129.3148032686
 20
198.1141802581
 30
0.0
  0
VERTEX
  5
8AD
  8
0
  6
CONTINUOUS
 62
     7
 10
129.3129244987
 20
198.1131564141
 30
0.0
  0
VERTEX
  5
8AE
  8
0
  6
CONTINUOUS
 62
     7
 10
129.3114954381
 20
198.1115188472
 30
0.0
  0
VERTEX
  5
8AF
  8
0
  6
CONTINUOUS
 62
     7
 10
129.3096695347
 20
198.1077803273
 30
0.0
  0
SEQEND
  5
9DE
  8
0
  6
CONTINUOUS
 62
     7
  0
ARC
  5
2C8
  8
0
  6
CONTINUOUS
 62
     7
 10
129.3109086997
 20
198.1678474536
 30
0.0
 40
0.060621364765541
 50
277.7536206689
 51
347.2236527968
  0
LINE
  5
2C9
  8
0
  6
CONTINUOUS
 62
     7
 10
129.3700291237
 20
198.9609481355
 30
0.0
 11
129.3700291237
 21
198.1544412862
 31
0.0
  0
LINE
  5
2CA
  8
0
  6
CONTINUOUS
 62
     7
 10
130.2467414525
 20
198.9609481355
 30
0.0
 11
129.3700291237
 21
198.9609481355
 31
0.0
  0
LINE
  5
2CB
  8
0
  6
CONTINUOUS
 62
     7
 10
130.2467414525
 20
198.3701947109
 30
0.0
 11
130.2467414525
 21
198.9609481355
 31
0.0
  0
LINE
  5
2CC
  8
0
  6
CONTINUOUS
 62
     7
 10
130.2561592607
 20
198.3496467657
 30
0.0
 11
130.2467414525
 21
198.3701947109
 31
0.0
  0
ARC
  5
2CD
  8
0
  6
CONTINUOUS
 62
     7
 10
130.3147471928
 20
198.39822568
 30
0.0
 40
0.0761081907321226
 50
219.6642482633
 51
281.0705606616
  0
ARC
  5
2CE
  8
0
  6
CONTINUOUS
 62
     7
 10
130.3280611084
 20
198.380830602
 30
0.0
 40
0.0573116006155157
 50
271.299959754
 51
346.2393910179
  0
LINE
  5
2CF
  8
0
  6
CONTINUOUS
 62
     7
 10
130.3837277539
 20
198.9609481355
 30
0.0
 11
130.3837277539
 21
198.3671981355
 31
0.0
  0
LINE
  5
2D0
  8
0
  6
CONTINUOUS
 62
     7
 10
131.0686592607
 20
198.9609481355
 30
0.0
 11
130.3837277539
 21
198.9609481355
 31
0.0
  0
LINE
  5
2D1
  8
0
  6
CONTINUOUS
 62
     7
 10
131.0686592607
 20
198.1544412862
 30
0.0
 11
131.0686592607
 21
198.9609481355
 31
0.0
  0
ARC
  5
2D2
  8
0
  6
CONTINUOUS
 62
     7
 10
131.1390871395
 20
198.1793106004
 30
0.0
 40
0.0746898178863018
 50
199.4490162371
 51
266.2143628313
  0
POLYLINE
  5
2D3
  8
0
  6
CONTINUOUS
 62
     7
 66
     1
 10
0.0
 20
0.0
 30
0.0
 70
   128
  0
VERTEX
  5
8B0
  8
0
  6
CONTINUOUS
 62
     7
 10
131.2026489868
 20
198.1518727931
 30
0.0
  0
VERTEX
  5
8B1
  8
0
  6
CONTINUOUS
 62
     7
 10
131.1930143162
 20
198.128326
 30
0.0
  0
VERTEX
  5
8B2
  8
0
  6
CONTINUOUS
 62
     7
 10
131.1733965078
 20
198.1121282577
 30
0.0
  0
VERTEX
  5
8B3
  8
0
  6
CONTINUOUS
 62
     7
 10
131.1341558361
 20
198.104783752
 30
0.0
  0
SEQEND
  5
9DF
  8
0
  6
CONTINUOUS
 62
     7
  0
LINE
  5
2D4
  8
0
  6
CONTINUOUS
 62
     7
 10
131.2056455621
 20
199.0478488205
 30
0.0
 11
131.2026489868
 21
198.1518727931
 31
0.0
  0
ARC
  5
2D5
  8
0
  6
CONTINUOUS
 62
     7
 10
134.5729201206
 20
196.3243316424
 30
0.0
 40
1.802507478549967
 50
358.4988417754
 51
181.5011582246
  0
LINE
  5
2D6
  8
0
  6
CONTINUOUS
 62
     7
 10
136.3748089706
 20
196.2771110724
 30
0.0
 11
137.3350239902
 21
196.2771110724
 31
0.0
  0
ARC
  5
2D7
  8
0
  6
CONTINUOUS
 62
     7
 10
134.5729201206
 20
196.3243316424
 30
0.0
 40
2.762507478550035
 50
359.020574186
 51
180.979425814
  0
LINE
  5
2D8
  8
0
  6
CONTINUOUS
 62
     7
 10
131.8108162509
 20
196.2771110724
 30
0.0
 11
132.7710312705
 21
196.2771110724
 31
0.0
  0
ARC
  5
2D9
  8
0
  6
CONTINUOUS
 62
     7
 10
134.5729201206
 20
191.8586477046
 30
0.0
 40
1.802115155852642
 50
106.6002893219
 51
180.2510444181
  0
LINE
  5
2DA
  8
0
  6
CONTINUOUS
 62
     7
 10
134.0580680631
 20
193.5856527404
 30
0.0
 11
134.0580680631
 21
192.2895162781
 31
0.0
  0
LINE
  5
2DB
  8
0
  6
CONTINUOUS
 62
     7
 10
134.0580680631
 20
192.2895162781
 30
0.0
 11
135.0180680631
 21
192.2895162781
 31
0.0
  0
LINE
  5
2DC
  8
0
  6
CONTINUOUS
 62
     7
 10
135.0180680631
 20
192.2895162781
 30
0.0
 11
135.0180680631
 21
193.604918687
 31
0.0
  0
ARC
  5
2DD
  8
0
  6
CONTINUOUS
 62
     7
 10
134.5729201206
 20
191.8586477046
 30
0.0
 40
1.80211515585249
 50
359.7489555819
 51
75.6991049937
  0
LINE
  5
2DE
  8
0
  6
CONTINUOUS
 62
     7
 10
136.375017978
 20
191.8507516692
 30
0.0
 11
137.3350239902
 21
191.8507516692
 31
0.0
  0
ARC
  5
2DF
  8
0
  6
CONTINUOUS
 62
     7
 10
134.5729201206
 20
191.8586477046
 30
0.0
 40
2.762115155852716
 50
359.8362088133
 51
180.1637911867
  0
LINE
  5
2E0
  8
0
  6
CONTINUOUS
 62
     7
 10
131.8108162509
 20
191.8507516692
 30
0.0
 11
132.7708222632
 21
191.8507516692
 31
0.0
  0
POLYLINE
  5
2E1
  8
0
  6
CONTINUOUS
 62
     7
 66
     1
 10
0.0
 20
0.0
 30
0.0
 70
   128
  0
VERTEX
  5
8B4
  8
0
  6
CONTINUOUS
 62
     7
 10
131.1962277539
 20
192.4104344369
 30
0.0
  0
VERTEX
  5
8B5
  8
0
  6
CONTINUOUS
 62
     7
 10
131.2012038018
 20
192.3968937736
 30
0.0
  0
VERTEX
  5
8B6
  8
0
  6
CONTINUOUS
 62
     7
 10
131.2056455621
 20
192.3864618342
 30
0.0
  0
SEQEND
  5
9E0
  8
0
  6
CONTINUOUS
 62
     7
  0
POLYLINE
  5
2E2
  8
0
  6
CONTINUOUS
 62
     7
 66
     1
 10
0.0
 20
0.0
 30
0.0
 70
   128
  0
VERTEX
  5
8B7
  8
0
  6
CONTINUOUS
 62
     7
 10
131.118316795
 20
192.4404001903
 30
0.0
  0
VERTEX
  5
8B8
  8
0
  6
CONTINUOUS
 62
     7
 10
131.1656469562
 20
192.4322699266
 30
0.0
  0
VERTEX
  5
8B9
  8
0
  6
CONTINUOUS
 62
     7
 10
131.1962277539
 20
192.4104344369
 30
0.0
  0
SEQEND
  5
9E1
  8
0
  6
CONTINUOUS
 62
     7
  0
ARC
  5
2E3
  8
0
  6
CONTINUOUS
 62
     7
 10
131.1347539215
 20
192.3747037229
 30
0.0
 40
0.0677215250432259
 50
104.046921643
 51
167.4158698632
  0
LINE
  5
2E4
  8
0
  6
CONTINUOUS
 62
     7
 10
131.0686592607
 20
191.9138590944
 30
0.0
 11
131.0686592607
 21
192.3894584095
 31
0.0
  0
POLYLINE
  5
2E5
  8
0
  6
CONTINUOUS
 62
     7
 66
     1
 10
0.0
 20
0.0
 30
0.0
 70
   128
  0
VERTEX
  5
8BA
  8
0
  6
CONTINUOUS
 62
     7
 10
131.0463989868
 20
191.7999892314
 30
0.0
  0
VERTEX
  5
8BB
  8
0
  6
CONTINUOUS
 62
     7
 10
131.0636701472
 20
191.8628806995
 30
0.0
  0
VERTEX
  5
8BC
  8
0
  6
CONTINUOUS
 62
     7
 10
131.0686592607
 20
191.9138590944
 30
0.0
  0
SEQEND
  5
9E2
  8
0
  6
CONTINUOUS
 62
     7
  0
ARC
  5
2E6
  8
0
  6
CONTINUOUS
 62
     7
 10
130.7164913512
 20
191.9119700868
 30
0.0
 40
0.348394546433668
 50
271.4549380077
 51
341.2511985764
  0
ARC
  5
2E7
  8
0
  6
CONTINUOUS
 62
     7
 10
130.7221876893
 20
191.8906620651
 30
0.0
 40
0.3269893730594114
 50
208.4432870595
 51
270.5518976025
  0
POLYLINE
  5
2E8
  8
0
  6
CONTINUOUS
 62
     7
 66
     1
 10
0.0
 20
0.0
 30
0.0
 70
   128
  0
VERTEX
  5
8BD
  8
0
  6
CONTINUOUS
 62
     7
 10
130.3760222744
 20
191.9874892314
 30
0.0
  0
VERTEX
  5
8BE
  8
0
  6
CONTINUOUS
 62
     7
 10
130.3899814011
 20
191.8410189696
 30
0.0
  0
VERTEX
  5
8BF
  8
0
  6
CONTINUOUS
 62
     7
 10
130.4346695347
 20
191.7349207383
 30
0.0
  0
SEQEND
  5
9E3
  8
0
  6
CONTINUOUS
 62
     7
  0
LINE
  5
2E9
  8
0
  6
CONTINUOUS
 62
     7
 10
130.3760222744
 20
192.1767015602
 30
0.0
 11
130.3760222744
 21
191.9874892314
 31
0.0
  0
LINE
  5
2EA
  8
0
  6
CONTINUOUS
 62
     7
 10
130.3674606306
 20
192.1946810122
 30
0.0
 11
130.3760222744
 21
192.1767015602
 31
0.0
  0
ARC
  5
2EB
  8
0
  6
CONTINUOUS
 62
     7
 10
130.3161374401
 20
192.1657149788
 30
0.0
 40
0.0589330211210953
 50
29.439726345
 51
89.6291838161
  0
POLYLINE
  5
2EC
  8
0
  6
CONTINUOUS
 62
     7
 66
     1
 10
0.0
 20
0.0
 30
0.0
 70
   128
  0
VERTEX
  5
8C0
  8
0
  6
CONTINUOUS
 62
     7
 10
130.2993955621
 20
192.2216501903
 30
0.0
  0
VERTEX
  5
8C1
  8
0
  6
CONTINUOUS
 62
     7
 10
130.3091401615
 20
192.2226753282
 30
0.0
  0
VERTEX
  5
8C2
  8
0
  6
CONTINUOUS
 62
     7
 10
130.3165188498
 20
192.2246467657
 30
0.0
  0
SEQEND
  5
9E4
  8
0
  6
CONTINUOUS
 62
     7
  0
ARC
  5
2ED
  8
0
  6
CONTINUOUS
 62
     7
 10
130.3071754302
 20
192.1693512524
 30
0.0
 40
0.0528744291481865
 50
98.4611389614
 51
175.742169694
  0
POLYLINE
  5
2EE
  8
0
  6
CONTINUOUS
 62
     7
 66
     1
 10
0.0
 20
0.0
 30
0.0
 70
   128
  0
VERTEX
  5
8C3
  8
0
  6
CONTINUOUS
 62
     7
 10
130.2514503566
 20
192.0979344369
 30
0.0
  0
VERTEX
  5
8C4
  8
0
  6
CONTINUOUS
 62
     7
 10
130.2522032311
 20
192.1401657191
 30
0.0
  0
VERTEX
  5
8C5
  8
0
  6
CONTINUOUS
 62
     7
 10
130.254446932
 20
192.1732769027
 30
0.0
  0
SEQEND
  5
9E5
  8
0
  6
CONTINUOUS
 62
     7
  0
LINE
  5
2EF
  8
0
  6
CONTINUOUS
 62
     7
 10
130.2514503566
 20
191.9682255328
 30
0.0
 11
130.2514503566
 21
192.0979344369
 31
0.0
  0
POLYLINE
  5
2F0
  8
0
  6
CONTINUOUS
 62
     7
 66
     1
 10
0.0
 20
0.0
 30
0.0
 70
   128
  0
VERTEX
  5
8C6
  8
0
  6
CONTINUOUS
 62
     7
 10
130.2458852881
 20
191.8714789575
 30
0.0
  0
VERTEX
  5
8C7
  8
0
  6
CONTINUOUS
 62
     7
 10
130.2506261598
 20
191.925560226
 30
0.0
  0
VERTEX
  5
8C8
  8
0
  6
CONTINUOUS
 62
     7
 10
130.2514503566
 20
191.9682255328
 30
0.0
  0
SEQEND
  5
9E6
  8
0
  6
CONTINUOUS
 62
     7
  0
ARC
  5
2F1
  8
0
  6
CONTINUOUS
 62
     7
 10
129.8963495374
 20
191.9111376905
 30
0.0
 40
0.3517784190992825
 50
278.9975155486
 51
353.5268367484
  0
LINE
  5
2F2
  8
0
  6
CONTINUOUS
 62
     7
 10
129.7420325484
 20
191.5636878616
 30
0.0
 11
129.9513647402
 21
191.5636878616
 31
0.0
  0
POLYLINE
  5
2F3
  8
0
  6
CONTINUOUS
 62
     7
 66
     1
 10
0.0
 20
0.0
 30
0.0
 70
   128
  0
VERTEX
  5
8C9
  8
0
  6
CONTINUOUS
 62
     7
 10
129.5656626854
 20
191.5966501903
 30
0.0
  0
VERTEX
  5
8CA
  8
0
  6
CONTINUOUS
 62
     7
 10
129.6625437231
 20
191.5683796343
 30
0.0
  0
VERTEX
  5
8CB
  8
0
  6
CONTINUOUS
 62
     7
 10
129.7420325484
 20
191.5636878616
 30
0.0
  0
SEQEND
  5
9E7
  8
0
  6
CONTINUOUS
 62
     7
  0
POLYLINE
  5
2F4
  8
0
  6
CONTINUOUS
 62
     7
 66
     1
 10
0.0
 20
0.0
 30
0.0
 70
   128
  0
VERTEX
  5
8CC
  8
0
  6
CONTINUOUS
 62
     7
 10
129.3700291237
 20
191.892883067
 30
0.0
  0
VERTEX
  5
8CD
  8
0
  6
CONTINUOUS
 62
     7
 10
129.441436984
 20
191.7006846696
 30
0.0
  0
VERTEX
  5
8CE
  8
0
  6
CONTINUOUS
 62
     7
 10
129.5656626854
 20
191.5966501903
 30
0.0
  0
SEQEND
  5
9E8
  8
0
  6
CONTINUOUS
 62
     7
  0
LINE
  5
2F5
  8
0
  6
CONTINUOUS
 62
     7
 10
129.3700291237
 20
192.3894584095
 30
0.0
 11
129.3700291237
 21
191.892883067
 31
0.0
  0
LINE
  5
2F6
  8
0
  6
CONTINUOUS
 62
     7
 10
129.3606113155
 20
192.4104344369
 30
0.0
 11
129.3700291237
 21
192.3894584095
 31
0.0
  0
ARC
  5
2F7
  8
0
  6
CONTINUOUS
 62
     7
 10
129.2970920404
 20
192.3609621781
 30
0.0
 40
0.0805121276583997
 50
37.9133941391
 51
99.3695011068
  0
ARC
  5
2F8
  8
0
  6
CONTINUOUS
 62
     7
 10
129.2980441291
 20
192.3744265202
 30
0.0
 40
0.0674551363026565
 50
102.0302334289
 51
164.4983573932
  0
LINE
  5
2F9
  8
0
  6
CONTINUOUS
 62
     7
 10
129.2056455621
 20
191.9502460807
 30
0.0
 11
129.2330428224
 21
192.3924549848
 31
0.0
  0
LINE
  5
2FA
  8
0
  6
CONTINUOUS
 62
     7
 10
129.2330428224
 20
191.8808967657
 30
0.0
 11
129.2056455621
 21
191.9502460807
 31
0.0
  0
ARC
  5
2FB
  8
0
  6
CONTINUOUS
 62
     7
 10
129.7146986144
 20
191.9096811818
 30
0.0
 40
0.4825151236852616
 50
183.4200074481
 51
246.959501972
  0
POLYLINE
  5
2FC
  8
0
  6
CONTINUOUS
 62
     7
 66
     1
 10
0.0
 20
0.0
 30
0.0
 70
   128
  0
VERTEX
  5
8CF
  8
0
  6
CONTINUOUS
 62
     7
 10
129.7283339183
 20
191.4267015602
 30
0.0
  0
VERTEX
  5
8D0
  8
0
  6
CONTINUOUS
 62
     7
 10
129.6123977051
 20
191.4366937986
 30
0.0
  0
VERTEX
  5
8D1
  8
0
  6
CONTINUOUS
 62
     7
 10
129.5258510416
 20
191.4656570396
 30
0.0
  0
SEQEND
  5
9E9
  8
0
  6
CONTINUOUS
 62
     7
  0
LINE
  5
2FD
  8
0
  6
CONTINUOUS
 62
     7
 10
129.7904058361
 20
191.4267015602
 30
0.0
 11
129.7283339183
 21
191.4267015602
 31
0.0
  0
POLYLINE
  5
2FE
  8
0
  6
CONTINUOUS
 62
     7
 66
     1
 10
0.0
 20
0.0
 30
0.0
 70
   128
  0
VERTEX
  5
8D2
  8
0
  6
CONTINUOUS
 62
     7
 10
129.855046247
 20
191.4267015602
 30
0.0
  0
VERTEX
  5
8D3
  8
0
  6
CONTINUOUS
 62
     7
 10
129.8188823089
 20
191.4314983887
 30
0.0
  0
VERTEX
  5
8D4
  8
0
  6
CONTINUOUS
 62
     7
 10
129.7904058361
 20
191.4267015602
 30
0.0
  0
SEQEND
  5
9EA
  8
0
  6
CONTINUOUS
 62
     7
  0
LINE
  5
2FF
  8
0
  6
CONTINUOUS
 62
     7
 10
129.9166900826
 20
191.4267015602
 30
0.0
 11
129.855046247
 21
191.4267015602
 31
0.0
  0
ARC
  5
300
  8
0
  6
CONTINUOUS
 62
     7
 10
129.9080104303
 20
191.8752683899
 30
0.0
 40
0.4486507964017653
 50
271.1085202048
 51
336.3840697266
  0
POLYLINE
  5
301
  8
0
  6
CONTINUOUS
 62
     7
 66
     1
 10
0.0
 20
0.0
 30
0.0
 70
   128
  0
VERTEX
  5
8D5
  8
0
  6
CONTINUOUS
 62
     7
 10
130.4038476169
 20
191.5752460807
 30
0.0
  0
VERTEX
  5
8D6
  8
0
  6
CONTINUOUS
 62
     7
 10
130.3538609419
 20
191.6408388402
 30
0.0
  0
VERTEX
  5
8D7
  8
0
  6
CONTINUOUS
 62
     7
 10
130.3190873429
 20
191.6955371766
 30
0.0
  0
SEQEND
  5
9EB
  8
0
  6
CONTINUOUS
 62
     7
  0
POLYLINE
  5
302
  8
0
  6
CONTINUOUS
 62
     7
 66
     1
 10
0.0
 20
0.0
 30
0.0
 70
   128
  0
VERTEX
  5
8D8
  8
0
  6
CONTINUOUS
 62
     7
 10
130.7356113155
 20
191.4267015602
 30
0.0
  0
VERTEX
  5
8D9
  8
0
  6
CONTINUOUS
 62
     7
 10
130.5335203653
 20
191.4748015641
 30
0.0
  0
VERTEX
  5
8DA
  8
0
  6
CONTINUOUS
 62
     7
 10
130.4038476169
 20
191.5752460807
 30
0.0
  0
SEQEND
  5
9EC
  8
0
  6
CONTINUOUS
 62
     7
  0
POLYLINE
  5
303
  8
0
  6
CONTINUOUS
 62
     7
 66
     1
 10
0.0
 20
0.0
 30
0.0
 70
   128
  0
VERTEX
  5
8DB
  8
0
  6
CONTINUOUS
 62
     7
 10
130.9072722744
 20
191.4626604643
 30
0.0
  0
VERTEX
  5
8DC
  8
0
  6
CONTINUOUS
 62
     7
 10
130.8128110699
 20
191.4340653529
 30
0.0
  0
VERTEX
  5
8DD
  8
0
  6
CONTINUOUS
 62
     7
 10
130.7356113155
 20
191.4267015602
 30
0.0
  0
SEQEND
  5
9ED
  8
0
  6
CONTINUOUS
 62
     7
  0
ARC
  5
304
  8
0
  6
CONTINUOUS
 62
     7
 10
130.7247060692
 20
191.904720344
 30
0.0
 40
0.4782753982299688
 50
292.4401242222
 51
357.8634798026
  0
LINE
  5
305
  8
0
  6
CONTINUOUS
 62
     7
 10
131.2056455621
 20
192.3864618342
 30
0.0
 11
131.2026489868
 21
191.8868899164
 31
0.0
  0
POLYLINE
  5
306
  8
0
  6
CONTINUOUS
 62
     7
 66
     1
 10
0.0
 20
0.0
 30
0.0
 70
   128
  0
VERTEX
  5
8DE
  8
0
  6
CONTINUOUS
 62
     7
 10
131.2056455621
 20
194.5071810122
 30
0.0
  0
VERTEX
  5
8DF
  8
0
  6
CONTINUOUS
 62
     7
 10
131.2049791703
 20
194.4950305361
 30
0.0
  0
VERTEX
  5
8E0
  8
0
  6
CONTINUOUS
 62
     7
 10
131.2026489868
 20
194.4857769027
 30
0.0
  0
SEQEND
  5
9EE
  8
0
  6
CONTINUOUS
 62
     7
  0
POLYLINE
  5
307
  8
0
  6
CONTINUOUS
 62
     7
 66
     1
 10
0.0
 20
0.0
 30
0.0
 70
   128
  0
VERTEX
  5
8E1
  8
0
  6
CONTINUOUS
 62
     7
 10
131.1915188498
 20
194.5465645739
 30
0.0
  0
VERTEX
  5
8E2
  8
0
  6
CONTINUOUS
 62
     7
 10
131.2023799053
 20
194.5255203079
 30
0.0
  0
VERTEX
  5
8E3
  8
0
  6
CONTINUOUS
 62
     7
 10
131.2056455621
 20
194.5071810122
 30
0.0
  0
SEQEND
  5
9EF
  8
0
  6
CONTINUOUS
 62
     7
  0
LINE
  5
308
  8
0
  6
CONTINUOUS
 62
     7
 10
130.7668613155
 20
195.0037563547
 30
0.0
 11
131.1915188498
 21
194.5465645739
 31
0.0
  0
POLYLINE
  5
309
  8
0
  6
CONTINUOUS
 62
     7
 66
     1
 10
0.0
 20
0.0
 30
0.0
 70
   128
  0
VERTEX
  5
8E4
  8
0
  6
CONTINUOUS
 62
     7
 10
130.71891611
 20
195.0157426561
 30
0.0
  0
VERTEX
  5
8E5
  8
0
  6
CONTINUOUS
 62
     7
 10
130.7466095251
 20
195.0123028865
 30
0.0
  0
VERTEX
  5
8E6
  8
0
  6
CONTINUOUS
 62
     7
 10
130.7668613155
 20
195.0037563547
 30
0.0
  0
SEQEND
  5
9F0
  8
0
  6
CONTINUOUS
 62
     7
  0
ARC
  5
30A
  8
0
  6
CONTINUOUS
 62
     7
 10
130.735726945
 20
194.9468457201
 30
0.0
 40
0.0709182060787985
 50
103.7122231884
 51
162.8163676338
  0
ARC
  5
30B
  8
0
  6
CONTINUOUS
 62
     7
 10
130.6084247375
 20
194.9668283676
 30
0.0
 40
0.0595574764372197
 50
342.3857923907
 51
0.9323231519
  0
POLYLINE
  5
30C
  8
0
  6
CONTINUOUS
 62
     7
 66
     1
 10
0.0
 20
0.0
 30
0.0
 70
   128
  0
VERTEX
  5
8E7
  8
0
  6
CONTINUOUS
 62
     7
 10
130.6761078909
 20
194.9108625191
 30
0.0
  0
VERTEX
  5
8E8
  8
0
  6
CONTINUOUS
 62
     7
 10
130.6690804223
 20
194.9318411661
 30
0.0
  0
VERTEX
  5
8E9
  8
0
  6
CONTINUOUS
 62
     7
 10
130.6651899009
 20
194.9488059034
 30
0.0
  0
SEQEND
  5
9F1
  8
0
  6
CONTINUOUS
 62
     7
  0
LINE
  5
30D
  8
0
  6
CONTINUOUS
 62
     7
 10
130.9903202196
 20
194.5773864917
 30
0.0
 11
130.6761078909
 21
194.9108625191
 31
0.0
  0
LINE
  5
30E
  8
0
  6
CONTINUOUS
 62
     7
 10
129.2540188498
 20
194.5773864917
 30
0.0
 11
130.9903202196
 21
194.5773864917
 31
0.0
  0
ARC
  5
30F
  8
0
  6
CONTINUOUS
 62
     7
 10
129.2674829854
 20
194.5163414466
 30
0.0
 40
0.0625122426060609
 50
102.4380555308
 51
188.4263657624
  0
POLYLINE
  5
310
  8
0
  6
CONTINUOUS
 62
     7
 66
     1
 10
0.0
 20
0.0
 30
0.0
 70
   128
  0
VERTEX
  5
8EA
  8
0
  6
CONTINUOUS
 62
     7
 10
129.2510222744
 20
194.4404001903
 30
0.0
  0
VERTEX
  5
8EB
  8
0
  6
CONTINUOUS
 62
     7
 10
129.2284006437
 20
194.4500741487
 30
0.0
  0
VERTEX
  5
8EC
  8
0
  6
CONTINUOUS
 62
     7
 10
129.2129383769
 20
194.4692733516
 30
0.0
  0
VERTEX
  5
8ED
  8
0
  6
CONTINUOUS
 62
     7
 10
129.2056455621
 20
194.5071810122
 30
0.0
  0
SEQEND
  5
9F2
  8
0
  6
CONTINUOUS
 62
     7
  0
LINE
  5
311
  8
0
  6
CONTINUOUS
 62
     7
 10
131.1542756991
 20
194.4404001903
 30
0.0
 11
129.2510222744
 21
194.4404001903
 31
0.0
  0
LINE
  5
312
  8
0
  6
CONTINUOUS
 62
     7
 10
131.1743955621
 20
194.4493899164
 30
0.0
 11
131.1542756991
 21
194.4404001903
 31
0.0
  0
POLYLINE
  5
313
  8
0
  6
CONTINUOUS
 62
     7
 66
     1
 10
0.0
 20
0.0
 30
0.0
 70
   128
  0
VERTEX
  5
8EE
  8
0
  6
CONTINUOUS
 62
     7
 10
131.2026489868
 20
194.4857769027
 30
0.0
  0
VERTEX
  5
8EF
  8
0
  6
CONTINUOUS
 62
     7
 10
131.1907679813
 20
194.4623648189
 30
0.0
  0
VERTEX
  5
8F0
  8
0
  6
CONTINUOUS
 62
     7
 10
131.1743955621
 20
194.4493899164
 30
0.0
  0
SEQEND
  5
9F3
  8
0
  6
CONTINUOUS
 62
     7
  0
ARC
  5
314
  8
0
  6
CONTINUOUS
 62
     7
 10
119.3613838468
 20
208.4591775814
 30
0.0
 40
1.000000000000026
 50
0.0
 51
71.2469165733
  0
ARC
  5
315
  8
0
  6
CONTINUOUS
 62
     7
 10
119.3613838468
 20
247.2341775814
 30
0.0
 40
1.000000000000004
 50
0.0
 51
71.2469165733
  0
ARC
  5
316
  8
0
  6
CONTINUOUS
 62
     7
 10
119.3613838468
 20
189.3841775814
 30
0.0
 40
1.000000000000031
 50
288.7530834267
 51
0.0
  0
LINE
  5
317
  8
0
  6
CONTINUOUS
 62
     7
 10
149.7934346544
 20
239.3091775814
 30
0.0
 11
151.5254854619
 21
236.3091775814
 31
0.0
  0
LINE
  5
318
  8
0
  6
CONTINUOUS
 62
     7
 10
146.3293330392
 20
239.3091775814
 30
0.0
 11
149.7934346544
 21
239.3091775814
 31
0.0
  0
LINE
  5
319
  8
0
  6
CONTINUOUS
 62
     7
 10
144.5972822317
 20
236.3091775814
 30
0.0
 11
146.3293330392
 21
239.3091775814
 31
0.0
  0
LINE
  5
31A
  8
0
  6
CONTINUOUS
 62
     7
 10
146.3293330392
 20
233.3091775814
 30
0.0
 11
144.5972822317
 21
236.3091775814
 31
0.0
  0
LINE
  5
31B
  8
0
  6
CONTINUOUS
 62
     7
 10
149.7934346544
 20
233.3091775814
 30
0.0
 11
146.3293330392
 21
233.3091775814
 31
0.0
  0
LINE
  5
31C
  8
0
  6
CONTINUOUS
 62
     7
 10
151.5254854619
 20
236.3091775814
 30
0.0
 11
149.7934346544
 21
233.3091775814
 31
0.0
  0
LINE
  5
31D
  8
0
  6
CONTINUOUS
 62
     7
 10
135.5972822317
 20
183.3091775814
 30
0.0
 11
137.3293330392
 21
186.3091775814
 31
0.0
  0
LINE
  5
31E
  8
0
  6
CONTINUOUS
 62
     7
 10
137.3293330392
 20
180.3091775814
 30
0.0
 11
135.5972822317
 21
183.3091775814
 31
0.0
  0
LINE
  5
31F
  8
0
  6
CONTINUOUS
 62
     7
 10
140.7934346544
 20
180.3091775814
 30
0.0
 11
137.3293330392
 21
180.3091775814
 31
0.0
  0
LINE
  5
320
  8
0
  6
CONTINUOUS
 62
     7
 10
142.5254854619
 20
183.3091775814
 30
0.0
 11
140.7934346544
 21
180.3091775814
 31
0.0
  0
LINE
  5
321
  8
0
  6
CONTINUOUS
 62
     7
 10
140.7934346544
 20
186.3091775814
 30
0.0
 11
142.5254854619
 21
183.3091775814
 31
0.0
  0
LINE
  5
322
  8
0
  6
CONTINUOUS
 62
     7
 10
137.3293330392
 20
186.3091775814
 30
0.0
 11
140.7934346544
 21
186.3091775814
 31
0.0
  0
LINE
  5
323
  8
0
  6
CONTINUOUS
 62
     7
 10
130.191946932
 20
193.0705371766
 30
0.0
 11
130.7043613155
 21
193.0705371766
 31
0.0
  0
LINE
  5
324
  8
0
  6
CONTINUOUS
 62
     7
 10
130.191946932
 20
193.4853488205
 30
0.0
 11
130.191946932
 21
193.0705371766
 31
0.0
  0
ARC
  5
325
  8
0
  6
CONTINUOUS
 62
     7
 10
130.5424112056
 20
193.4608649447
 30
0.0
 40
0.3513184698359773
 50
116.8515085301
 51
176.0037375843
  0
POLYLINE
  5
326
  8
0
  6
CONTINUOUS
 62
     7
 66
     1
 10
0.0
 20
0.0
 30
0.0
 70
   128
  0
VERTEX
  5
8F1
  8
0
  6
CONTINUOUS
 62
     7
 10
130.5592414525
 20
193.810263204
 30
0.0
  0
VERTEX
  5
8F2
  8
0
  6
CONTINUOUS
 62
     7
 10
130.4586122645
 20
193.80056106
 30
0.0
  0
VERTEX
  5
8F3
  8
0
  6
CONTINUOUS
 62
     7
 10
130.3837277539
 20
193.7743042999
 30
0.0
  0
SEQEND
  5
9F4
  8
0
  6
CONTINUOUS
 62
     7
  0
LINE
  5
327
  8
0
  6
CONTINUOUS
 62
     7
 10
130.7698578909
 20
193.810263204
 30
0.0
 11
130.5592414525
 21
193.810263204
 31
0.0
  0
ARC
  5
328
  8
0
  6
CONTINUOUS
 62
     7
 10
130.7096005328
 20
193.4560071375
 30
0.0
 40
0.3593442776387523
 50
357.7157066783
 51
80.3466374472
  0
ARC
  5
329
  8
0
  6
CONTINUOUS
 62
     7
 10
130.6970994532
 20
193.433482867
 30
0.0
 40
0.3716503146075211
 50
298.9294009095
 51
1.264504494
  0
POLYLINE
  5
32A
  8
0
  6
CONTINUOUS
 62
     7
 66
     1
 10
0.0
 20
0.0
 30
0.0
 70
   128
  0
VERTEX
  5
8F4
  8
0
  6
CONTINUOUS
 62
     7
 10
130.7043613155
 20
193.0705371766
 30
0.0
  0
VERTEX
  5
8F5
  8
0
  6
CONTINUOUS
 62
     7
 10
130.8032883645
 20
193.0816954722
 30
0.0
  0
VERTEX
  5
8F6
  8
0
  6
CONTINUOUS
 62
     7
 10
130.8768784388
 20
193.1082084095
 30
0.0
  0
SEQEND
  5
9F5
  8
0
  6
CONTINUOUS
 62
     7
  0
LINE
  5
32B
  8
0
  6
CONTINUOUS
 62
     7
 10
130.0357739932
 20
242.9555104174
 30
0.0
 11
129.9982856349
 21
242.8321836075
 31
0.0
  0
LINE
  5
32C
  8
0
  6
CONTINUOUS
 62
     7
 10
130.0357739932
 20
242.9555104174
 30
0.0
 11
130.2968237345
 21
242.8782869975
 31
0.0
  0
LINE
  5
32D
  8
0
  6
CONTINUOUS
 62
     7
 10
130.2968237345
 20
242.8782869975
 30
0.0
 11
130.2599709523
 21
242.7554235695
 31
0.0
  0
POLYLINE
  5
32E
  8
0
  6
CONTINUOUS
 62
     7
 66
     1
 10
0.0
 20
0.0
 30
0.0
 70
   128
  0
VERTEX
  5
8F7
  8
0
  6
CONTINUOUS
 62
     7
 10
129.9982856349
 20
242.8321836075
 30
0.0
  0
VERTEX
  5
8F8
  8
0
  6
CONTINUOUS
 62
     7
 10
129.979380684
 20
242.6934055939
 30
0.0
  0
VERTEX
  5
8F9
  8
0
  6
CONTINUOUS
 62
     7
 10
129.9911143146
 20
242.6600271478
 30
0.0
  0
VERTEX
  5
8FA
  8
0
  6
CONTINUOUS
 62
     7
 10
130.0115063172
 20
242.6311335177
 30
0.0
  0
VERTEX
  5
8FB
  8
0
  6
CONTINUOUS
 62
     7
 10
130.071376973
 20
242.5946972113
 30
0.0
  0
VERTEX
  5
8FC
  8
0
  6
CONTINUOUS
 62
     7
 10
130.1061858787
 20
242.5887380014
 30
0.0
  0
VERTEX
  5
8FD
  8
0
  6
CONTINUOUS
 62
     7
 10
130.1414612492
 20
242.5927422275
 30
0.0
  0
VERTEX
  5
8FE
  8
0
  6
CONTINUOUS
 62
     7
 10
130.1745907197
 20
242.6056329599
 30
0.0
  0
VERTEX
  5
8FF
  8
0
  6
CONTINUOUS
 62
     7
 10
130.2022951218
 20
242.6273250735
 30
0.0
  0
VERTEX
  5
900
  8
0
  6
CONTINUOUS
 62
     7
 10
130.2599709523
 20
242.7554235695
 30
0.0
  0
SEQEND
  5
9F6
  8
0
  6
CONTINUOUS
 62
     7
  0
LINE
  5
32F
  8
0
  6
CONTINUOUS
 62
     7
 10
133.342170992
 20
242.830225558
 30
0.0
 11
132.0503571738
 21
242.4842040005
 31
0.0
  0
LINE
  5
330
  8
0
  6
CONTINUOUS
 62
     7
 10
133.342170992
 20
243.230225558
 30
0.0
 11
133.342170992
 21
242.830225558
 31
0.0
  0
LINE
  5
331
  8
0
  6
CONTINUOUS
 62
     7
 10
131.642170992
 20
242.705225558
 30
0.0
 11
133.342170992
 21
243.230225558
 31
0.0
  0
LINE
  5
332
  8
0
  6
CONTINUOUS
 62
     7
 10
131.642170992
 20
241.455225558
 30
0.0
 11
131.642170992
 21
240.955225558
 31
0.0
  0
LINE
  5
333
  8
0
  6
CONTINUOUS
 62
     7
 10
131.642170992
 20
240.955225558
 30
0.0
 11
133.342170992
 21
240.430225558
 31
0.0
  0
LINE
  5
334
  8
0
  6
CONTINUOUS
 62
     7
 10
132.0503571738
 20
241.2342040005
 30
0.0
 11
133.342170992
 21
241.580225558
 31
0.0
  0
LINE
  5
335
  8
0
  6
CONTINUOUS
 62
     7
 10
132.0503571738
 20
242.4262471174
 30
0.0
 11
133.342170992
 21
242.080225558
 31
0.0
  0
ARC
  5
336
  8
0
  6
CONTINUOUS
 62
     7
 10
132.0581192563
 20
242.4552255589
 30
0.0
 40
0.0300000000000495
 50
104.9950790897
 51
255.0049208314
  0
LINE
  5
337
  8
0
  6
CONTINUOUS
 62
     7
 10
134.8044839172
 20
240.6672327275
 30
0.0
 11
134.8046035047
 21
240.2406143574
 31
0.0
  0
POLYLINE
  5
338
  8
0
  6
CONTINUOUS
 62
     7
 66
     1
 10
0.0
 20
0.0
 30
0.0
 70
   128
  0
VERTEX
  5
901
  8
0
  6
CONTINUOUS
 62
     7
 10
134.2418260139
 20
240.7792563738
 30
0.0
  0
VERTEX
  5
902
  8
0
  6
CONTINUOUS
 62
     7
 10
134.2144048061
 20
240.7156816959
 30
0.0
  0
VERTEX
  5
903
  8
0
  6
CONTINUOUS
 62
     7
 10
134.1680278397
 20
240.6620175919
 30
0.0
  0
VERTEX
  5
904
  8
0
  6
CONTINUOUS
 62
     7
 10
134.1065368382
 20
240.6306921096
 30
0.0
  0
VERTEX
  5
905
  8
0
  6
CONTINUOUS
 62
     7
 10
134.036844933
 20
240.6271079158
 30
0.0
  0
VERTEX
  5
906
  8
0
  6
CONTINUOUS
 62
     7
 10
133.9408899352
 20
240.6657458431
 30
0.0
  0
VERTEX
  5
907
  8
0
  6
CONTINUOUS
 62
     7
 10
133.8738784319
 20
240.745813499
 30
0.0
  0
VERTEX
  5
908
  8
0
  6
CONTINUOUS
 62
     7
 10
133.8409954775
 20
240.8443300922
 30
0.0
  0
VERTEX
  5
909
  8
0
  6
CONTINUOUS
 62
     7
 10
133.8396989266
 20
240.948385676
 30
0.0
  0
VERTEX
  5
90A
  8
0
  6
CONTINUOUS
 62
     7
 10
133.8647771881
 20
241.0496980938
 30
0.0
  0
VERTEX
  5
90B
  8
0
  6
CONTINUOUS
 62
     7
 10
133.9225449332
 20
241.137012193
 30
0.0
  0
VERTEX
  5
90C
  8
0
  6
CONTINUOUS
 62
     7
 10
134.0122991246
 20
241.1890641701
 30
0.0
  0
VERTEX
  5
90D
  8
0
  6
CONTINUOUS
 62
     7
 10
134.1154717747
 20
241.2033998688
 30
0.0
  0
SEQEND
  5
9F7
  8
0
  6
CONTINUOUS
 62
     7
  0
LINE
  5
339
  8
0
  6
CONTINUOUS
 62
     7
 10
134.117170992
 20
241.6258333825
 30
0.0
 11
134.1154717747
 21
241.2033998688
 31
0.0
  0
POLYLINE
  5
33A
  8
0
  6
CONTINUOUS
 62
     7
 66
     1
 10
0.0
 20
0.0
 30
0.0
 70
   128
  0
VERTEX
  5
90E
  8
0
  6
CONTINUOUS
 62
     7
 10
134.117170992
 20
241.6258333825
 30
0.0
  0
VERTEX
  5
90F
  8
0
  6
CONTINUOUS
 62
     7
 10
133.8716055029
 20
241.5780226199
 30
0.0
  0
VERTEX
  5
910
  8
0
  6
CONTINUOUS
 62
     7
 10
133.6796604522
 20
241.4188096481
 30
0.0
  0
VERTEX
  5
911
  8
0
  6
CONTINUOUS
 62
     7
 10
133.5815059945
 20
241.189112857
 30
0.0
  0
VERTEX
  5
912
  8
0
  6
CONTINUOUS
 62
     7
 10
133.5575897546
 20
240.9394400552
 30
0.0
  0
VERTEX
  5
913
  8
0
  6
CONTINUOUS
 62
     7
 10
133.6600425129
 20
240.4527734973
 30
0.0
  0
VERTEX
  5
914
  8
0
  6
CONTINUOUS
 62
     7
 10
133.8252543907
 20
240.2659706478
 30
0.0
  0
VERTEX
  5
915
  8
0
  6
CONTINUOUS
 62
     7
 10
134.0604897449
 20
240.1862631335
 30
0.0
  0
VERTEX
  5
916
  8
0
  6
CONTINUOUS
 62
     7
 10
134.2270014564
 20
240.1994122607
 30
0.0
  0
VERTEX
  5
917
  8
0
  6
CONTINUOUS
 62
     7
 10
134.3758896024
 20
240.2750039525
 30
0.0
  0
VERTEX
  5
918
  8
0
  6
CONTINUOUS
 62
     7
 10
134.4804506347
 20
240.405168149
 30
0.0
  0
VERTEX
  5
919
  8
0
  6
CONTINUOUS
 62
     7
 10
134.5416438614
 20
240.5609680087
 30
0.0
  0
SEQEND
  5
9F8
  8
0
  6
CONTINUOUS
 62
     7
  0
POLYLINE
  5
33B
  8
0
  6
CONTINUOUS
 62
     7
 66
     1
 10
0.0
 20
0.0
 30
0.0
 70
   128
  0
VERTEX
  5
91A
  8
0
  6
CONTINUOUS
 62
     7
 10
134.6563306015
 20
240.9749981964
 30
0.0
  0
VERTEX
  5
91B
  8
0
  6
CONTINUOUS
 62
     7
 10
134.7055910692
 20
241.0904377703
 30
0.0
  0
VERTEX
  5
91C
  8
0
  6
CONTINUOUS
 62
     7
 10
134.7515036578
 20
241.133600873
 30
0.0
  0
VERTEX
  5
91D
  8
0
  6
CONTINUOUS
 62
     7
 10
134.8110251072
 20
241.1536627796
 30
0.0
  0
VERTEX
  5
91E
  8
0
  6
CONTINUOUS
 62
     7
 10
134.9049973004
 20
241.1452201004
 30
0.0
  0
VERTEX
  5
91F
  8
0
  6
CONTINUOUS
 62
     7
 10
134.9461952857
 20
241.1226830777
 30
0.0
  0
VERTEX
  5
920
  8
0
  6
CONTINUOUS
 62
     7
 10
134.9791121831
 20
241.0886756531
 30
0.0
  0
VERTEX
  5
921
  8
0
  6
CONTINUOUS
 62
     7
 10
135.018509651
 20
241.0033920835
 30
0.0
  0
VERTEX
  5
922
  8
0
  6
CONTINUOUS
 62
     7
 10
135.0324460526
 20
240.9102907909
 30
0.0
  0
VERTEX
  5
923
  8
0
  6
CONTINUOUS
 62
     7
 10
135.019041252
 20
240.8170873292
 30
0.0
  0
VERTEX
  5
924
  8
0
  6
CONTINUOUS
 62
     7
 10
134.9766901453
 20
240.7337054059
 30
0.0
  0
VERTEX
  5
925
  8
0
  6
CONTINUOUS
 62
     7
 10
134.897333106
 20
240.6834926632
 30
0.0
  0
VERTEX
  5
926
  8
0
  6
CONTINUOUS
 62
     7
 10
134.8044839172
 20
240.6672327275
 30
0.0
  0
SEQEND
  5
9F9
  8
0
  6
CONTINUOUS
 62
     7
  0
ARC
  5
33C
  8
0
  6
CONTINUOUS
 62
     7
 10
134.017170992
 20
242.330225558
 30
0.0
 40
0.4499999999995443
 50
286.9900700185
 51
351.7524019439
  0
ARC
  5
33D
  8
0
  6
CONTINUOUS
 62
     7
 10
134.4674651097
 20
242.2649552921
 30
0.0
 40
0.0049999999998394
 50
9.2742999618
 51
171.7524019436
  0
ARC
  5
33E
  8
0
  6
CONTINUOUS
 62
     7
 10
134.867170992
 20
242.330225558
 30
0.0
 40
0.4000000000002049
 50
189.2742999592
 51
0.0
  0
LINE
  5
33F
  8
0
  6
CONTINUOUS
 62
     7
 10
135.267170992
 20
243.330225558
 30
0.0
 11
135.267170992
 21
242.330225558
 31
0.0
  0
LINE
  5
340
  8
0
  6
CONTINUOUS
 62
     7
 10
133.567170992
 20
243.330225558
 30
0.0
 11
135.267170992
 21
243.330225558
 31
0.0
  0
LINE
  5
341
  8
0
  6
CONTINUOUS
 62
     7
 10
133.567170992
 20
243.330225558
 30
0.0
 11
133.567170992
 21
242.4068023754
 31
0.0
  0
ARC
  5
342
  8
0
  6
CONTINUOUS
 62
     7
 10
134.1965292004
 20
242.4435139667
 30
0.0
 40
0.6304280255574358
 50
183.3383824581
 51
224.3596915523
  0
ARC
  5
343
  8
0
  6
CONTINUOUS
 62
     7
 10
134.0317812901
 20
242.2824077873
 30
0.0
 40
0.3999999999995022
 50
224.3596915523
 51
286.9900700185
  0
LINE
  5
344
  8
0
  6
CONTINUOUS
 62
     7
 10
133.342170992
 20
240.830225558
 30
0.0
 11
133.342170992
 21
240.430225558
 31
0.0
  0
ARC
  5
345
  8
0
  6
CONTINUOUS
 62
     7
 10
132.0581192563
 20
241.2052255589
 30
0.0
 40
0.0300000000000314
 50
104.9950790897
 51
255.0049208313
  0
LINE
  5
346
  8
0
  6
CONTINUOUS
 62
     7
 10
131.642170992
 20
242.205225558
 30
0.0
 11
131.642170992
 21
242.705225558
 31
0.0
  0
ARC
  5
347
  8
0
  6
CONTINUOUS
 62
     7
 10
132.9262227277
 20
241.830225557
 30
0.0
 40
0.0299999999999946
 50
284.9950790897
 51
75.0049208314
  0
LINE
  5
348
  8
0
  6
CONTINUOUS
 62
     7
 10
131.642170992
 20
241.455225558
 30
0.0
 11
132.9339848102
 21
241.8012471155
 31
0.0
  0
LINE
  5
349
  8
0
  6
CONTINUOUS
 62
     7
 10
133.342170992
 20
240.830225558
 30
0.0
 11
132.0503571738
 21
241.1762471174
 31
0.0
  0
CIRCLE
  5
34A
  8
0
  6
CONTINUOUS
 62
     7
 10
133.542170992
 20
241.830225558
 30
0.0
 40
2.550000000000011
  0
LINE
  5
34B
  8
0
  6
CONTINUOUS
 62
     7
 10
132.9339848103
 20
241.8592039986
 30
0.0
 11
131.642170992
 21
242.205225558
 31
0.0
  0
LINE
  5
34C
  8
0
  6
CONTINUOUS
 62
     7
 10
134.2418260139
 20
240.7792563738
 30
0.0
 11
134.3624524829
 21
241.2133495128
 31
0.0
  0
POLYLINE
  5
34D
  8
0
  6
CONTINUOUS
 62
     7
 66
     1
 10
0.0
 20
0.0
 30
0.0
 70
   128
  0
VERTEX
  5
927
  8
0
  6
CONTINUOUS
 62
     7
 10
134.8046035047
 20
240.2406143574
 30
0.0
  0
VERTEX
  5
928
  8
0
  6
CONTINUOUS
 62
     7
 10
134.9226703465
 20
240.2441195158
 30
0.0
  0
VERTEX
  5
929
  8
0
  6
CONTINUOUS
 62
     7
 10
135.0341065623
 20
240.2831372035
 30
0.0
  0
VERTEX
  5
92A
  8
0
  6
CONTINUOUS
 62
     7
 10
135.1301462704
 20
240.3518565393
 30
0.0
  0
VERTEX
  5
92B
  8
0
  6
CONTINUOUS
 62
     7
 10
135.2035006391
 20
240.4443568474
 30
0.0
  0
VERTEX
  5
92C
  8
0
  6
CONTINUOUS
 62
     7
 10
135.2777487287
 20
240.6679424654
 30
0.0
  0
VERTEX
  5
92D
  8
0
  6
CONTINUOUS
 62
     7
 10
135.298970723
 20
240.9032962358
 30
0.0
  0
VERTEX
  5
92E
  8
0
  6
CONTINUOUS
 62
     7
 10
135.1936596072
 20
241.3607599923
 30
0.0
  0
VERTEX
  5
92F
  8
0
  6
CONTINUOUS
 62
     7
 10
135.0296858913
 20
241.5293095059
 30
0.0
  0
VERTEX
  5
930
  8
0
  6
CONTINUOUS
 62
     7
 10
134.9227305181
 20
241.5796669276
 30
0.0
  0
VERTEX
  5
931
  8
0
  6
CONTINUOUS
 62
     7
 10
134.8056475712
 20
241.5966059609
 30
0.0
  0
VERTEX
  5
932
  8
0
  6
CONTINUOUS
 62
     7
 10
134.6504227059
 20
241.570942547
 30
0.0
  0
VERTEX
  5
933
  8
0
  6
CONTINUOUS
 62
     7
 10
134.518328436
 20
241.4848467928
 30
0.0
  0
VERTEX
  5
934
  8
0
  6
CONTINUOUS
 62
     7
 10
134.3624524829
 20
241.2133495128
 30
0.0
  0
SEQEND
  5
9FA
  8
0
  6
CONTINUOUS
 62
     7
  0
LINE
  5
34E
  8
0
  6
CONTINUOUS
 62
     7
 10
134.5416438614
 20
240.5609680087
 30
0.0
 11
134.6563306015
 21
240.9749981964
 31
0.0
  0
LINE
  5
34F
  8
0
  6
CONTINUOUS
 62
     7
 10
133.342170992
 20
242.080225558
 30
0.0
 11
133.342170992
 21
241.580225558
 31
0.0
  0
ARC
  5
350
  8
0
  6
CONTINUOUS
 62
     7
 10
134.1989603391
 20
242.6401723492
 30
0.0
 40
0.3335922682361923
 50
185.9595545318
 51
224.3596915523
  0
LINE
  5
351
  8
0
  6
CONTINUOUS
 62
     7
 10
133.867170992
 20
242.880225558
 30
0.0
 11
134.342170992
 21
242.880225558
 31
0.0
  0
LINE
  5
352
  8
0
  6
CONTINUOUS
 62
     7
 10
133.867170992
 20
242.880225558
 30
0.0
 11
133.867170992
 21
242.6055366657
 31
0.0
  0
LINE
  5
353
  8
0
  6
CONTINUOUS
 62
     7
 10
134.342170992
 20
242.880225558
 30
0.0
 11
134.342170992
 21
242.580225558
 31
0.0
  0
ARC
  5
354
  8
0
  6
CONTINUOUS
 62
     7
 10
134.1040525794
 20
242.580225558
 30
0.0
 40
0.2381184126032849
 50
286.9900700188
 51
0.0
  0
ARC
  5
355
  8
0
  6
CONTINUOUS
 62
     7
 10
134.1117836483
 20
242.5549226877
 30
0.0
 40
0.2116608112030076
 50
224.3596915523
 51
286.9900700188
  0
LINE
  5
356
  8
0
  6
CONTINUOUS
 62
     7
 10
134.967170992
 20
242.880225558
 30
0.0
 11
134.967170992
 21
242.580225558
 31
0.0
  0
ARC
  5
357
  8
0
  6
CONTINUOUS
 62
     7
 10
134.8517424173
 20
242.6285430017
 30
0.0
 40
0.2688772048000053
 50
195.1181138048
 51
224.3596915523
  0
LINE
  5
358
  8
0
  6
CONTINUOUS
 62
     7
 10
134.592170992
 20
242.880225558
 30
0.0
 11
134.592170992
 21
242.5584172118
 31
0.0
  0
LINE
  5
359
  8
0
  6
CONTINUOUS
 62
     7
 10
134.592170992
 20
242.880225558
 30
0.0
 11
134.967170992
 21
242.880225558
 31
0.0
  0
ARC
  5
35A
  8
0
  6
CONTINUOUS
 62
     7
 10
134.7814775246
 20
242.5598313052
 30
0.0
 40
0.1705997791341542
 50
224.3596915523
 51
286.9900700185
  0
ARC
  5
35B
  8
0
  6
CONTINUOUS
 62
     7
 10
134.7752462405
 20
242.580225558
 30
0.0
 40
0.1919247515258436
 50
286.9900700185
 51
0.0
  0
LINE
  5
35C
  8
0
  6
CONTINUOUS
 62
     7
 10
130.2290630595
 20
240.6753862432
 30
0.0
 11
129.9146221821
 21
240.7221532173
 31
0.0
  0
LINE
  5
35D
  8
0
  6
CONTINUOUS
 62
     7
 10
129.9933498963
 20
240.4628874549
 30
0.0
 11
130.2290630595
 21
240.6753862432
 31
0.0
  0
LINE
  5
35E
  8
0
  6
CONTINUOUS
 62
     7
 10
129.9146221821
 20
240.7221532173
 30
0.0
 11
129.9933498963
 21
240.4628874549
 31
0.0
  0
LINE
  5
35F
  8
0
  6
CONTINUOUS
 62
     7
 10
140.7934346544
 20
256.3091775814
 30
0.0
 11
142.5254854619
 21
253.3091775814
 31
0.0
  0
LINE
  5
360
  8
0
  6
CONTINUOUS
 62
     7
 10
137.3293330392
 20
256.3091775814
 30
0.0
 11
140.7934346544
 21
256.3091775814
 31
0.0
  0
LINE
  5
361
  8
0
  6
CONTINUOUS
 62
     7
 10
135.5972822317
 20
253.3091775814
 30
0.0
 11
137.3293330392
 21
256.3091775814
 31
0.0
  0
LINE
  5
362
  8
0
  6
CONTINUOUS
 62
     7
 10
137.3293330392
 20
250.3091775814
 30
0.0
 11
135.5972822317
 21
253.3091775814
 31
0.0
  0
LINE
  5
363
  8
0
  6
CONTINUOUS
 62
     7
 10
140.7934346544
 20
250.3091775814
 30
0.0
 11
137.3293330392
 21
250.3091775814
 31
0.0
  0
LINE
  5
364
  8
0
  6
CONTINUOUS
 62
     7
 10
142.5254854619
 20
253.3091775814
 30
0.0
 11
140.7934346544
 21
250.3091775814
 31
0.0
  0
LINE
  5
365
  8
0
  6
CONTINUOUS
 62
     7
 10
144.5972822317
 20
200.3091775814
 30
0.0
 11
146.3293330392
 21
203.3091775814
 31
0.0
  0
LINE
  5
366
  8
0
  6
CONTINUOUS
 62
     7
 10
146.3293330392
 20
197.3091775814
 30
0.0
 11
144.5972822317
 21
200.3091775814
 31
0.0
  0
LINE
  5
367
  8
0
  6
CONTINUOUS
 62
     7
 10
149.7934346544
 20
197.3091775814
 30
0.0
 11
146.3293330392
 21
197.3091775814
 31
0.0
  0
LINE
  5
368
  8
0
  6
CONTINUOUS
 62
     7
 10
151.5254854619
 20
200.3091775814
 30
0.0
 11
149.7934346544
 21
197.3091775814
 31
0.0
  0
LINE
  5
369
  8
0
  6
CONTINUOUS
 62
     7
 10
149.7934346544
 20
203.3091775814
 30
0.0
 11
151.5254854619
 21
200.3091775814
 31
0.0
  0
LINE
  5
36A
  8
0
  6
CONTINUOUS
 62
     7
 10
146.3293330392
 20
203.3091775814
 30
0.0
 11
149.7934346544
 21
203.3091775814
 31
0.0
  0
LINE
  5
36B
  8
0
  6
CONTINUOUS
 62
     7
 10
106.5613838468
 20
262.8091775814
 30
0.0
 11
118.5613838468
 21
262.8091775814
 31
0.0
  0
LINE
  5
36C
  8
0
  6
CONTINUOUS
 62
     7
 10
106.5613838468
 20
265.2910568805
 30
0.0
 11
118.5613838468
 21
265.2910568805
 31
0.0
  0
LINE
  5
36D
  8
0
  6
CONTINUOUS
 62
     7
 10
109.8830517471
 20
172.8091775814
 30
0.0
 11
115.2397159465
 21
172.8091775814
 31
0.0
  0
DIMENSION
  5
36E
  8
0
  6
CONTINUOUS
 62
     7
  2
_D
 10
40.6508694965
 20
173.8091775814
 30
0.0
 11
40.6508694965
 21
218.3091775814
 31
0.0
 70
   160
  1
<>
  3
SLDDIMSTYLE0
 13
69.0613838468
 23
262.8091775814
 33
0.0
 14
69.0613838468
 24
173.8091775814
 34
0.0
 50
90.0
  0
DIMENSION
  5
379
  8
0
  6
CONTINUOUS
 62
     7
  2
_D_1
 10
48.2788543673
 20
183.3091775814
 30
0.0
 11
48.2788543673
 21
218.3091775814
 31
0.0
 70
   160
  1
<>
  3
SLDDIMSTYLE0
 13
78.8113838468
 23
253.3091775814
 33
0.0
 14
78.8113838468
 24
183.3091775814
 34
0.0
 50
90.0
  0
DIMENSION
  5
383
  8
0
  6
CONTINUOUS
 62
     7
  2
_D_2
 10
55.0243782866
 20
200.3091775814
 30
0.0
 11
55.0243782866
 21
218.3091775814
 31
0.0
 70
   160
  1
<>
  3
SLDDIMSTYLE0
 13
69.8113838468
 23
236.3091775814
 33
0.0
 14
69.8113838468
 24
200.3091775814
 34
0.0
 50
90.0
  0
DIMENSION
  5
38D
  8
0
  6
CONTINUOUS
 62
     7
  2
_D_3
 10
86.0613838468
 20
165.8901355879
 30
0.0
 11
77.0613838468
 21
165.8901355879
 31
0.0
 70
   160
  1
<>
  3
SLDDIMSTYLE1
 13
68.0613838468
 23
174.8091775814
 33
0.0
 14
86.0613838468
 24
176.0591775814
 34
0.0
 50
0.0
  0
DIMENSION
  5
398
  8
0
  6
CONTINUOUS
 62
     7
  2
_D_4
 10
68.0613838468
 20
189.6172967342
 30
0.0
 11
72.5613838468
 21
189.6172967342
 31
0.0
 70
   160
  1
<>
  3
SLDDIMSTYLE1
 13
77.0613838468
 23
193.0591775814
 33
0.0
 14
68.0613838468
 24
174.8091775814
 34
0.0
 50
0.0
  0
DIMENSION
  5
3A3
  8
0
  6
CONTINUOUS
 62
     7
  2
_D_5
 10
165.2195986722
 20
197.3091775814
 30
0.0
 11
165.2195986722
 21
200.3091775814
 31
0.0
 70
   160
  1
<>
  3
SLDDIMSTYLE1
 13
149.7934346544
 23
203.3091775814
 33
0.0
 14
149.7934346544
 24
197.3091775814
 34
0.0
 50
90.0
  0
DIMENSION
  5
3AF
  8
0
  6
CONTINUOUS
 62
     7
  2
_D_6
 10
143.9477631788
 20
233.9341775814
 30
0.0
 11
166.538914349
 21
246.9771890173
 31
0.0
 70
   163
  1
<>x90°
  3
SLDDIMSTYLE2
 15
152.1750045148
 25
238.6841775814
 35
0.0
 40
0.0
  0
INSERT
  5
3C4
  8
0
  6
CONTINUOUS
 62
     7
  2
SW_NOTE_0_4
 10
155.1058015908
 20
259.8541862028
 30
0.0
  0
INSERT
  5
3CA
  8
0
  6
CONTINUOUS
 62
     7
  2
SW_NOTE_0_5
 10
58.293679508
 20
216.3021518165
 30
0.0
  0
INSERT
  5
3D0
  8
0
  6
CONTINUOUS
 62
     7
  2
SW_NOTE_0_6
 10
122.2065184395
 20
266.0433393325
 30
0.0
  0
INSERT
  5
3DC
  8
0
  6
CONTINUOUS
 62
     7
  2
SW_CENTERMARKSYMBOL_0
 10
139.0613838468
 20
253.3091775814
 30
0.0
  0
INSERT
  5
3E8
  8
0
  6
CONTINUOUS
 62
     7
  2
SW_CENTERMARKSYMBOL_1
 10
148.0613838468
 20
236.3091775814
 30
0.0
  0
INSERT
  5
3F4
  8
0
  6
CONTINUOUS
 62
     7
  2
SW_CENTERMARKSYMBOL_2
 10
146.5613838468
 20
218.3091775814
 30
0.0
  0
INSERT
  5
400
  8
0
  6
CONTINUOUS
 62
     7
  2
SW_CENTERMARKSYMBOL_3
 10
148.0613838468
 20
200.3091775814
 30
0.0
  0
INSERT
  5
40C
  8
0
  6
CONTINUOUS
 62
     7
  2
SW_CENTERMARKSYMBOL_4
 10
139.0613838468
 20
183.3091775814
 30
0.0
  0
INSERT
  5
418
  8
0
  6
CONTINUOUS
 62
     7
  2
SW_CENTERMARKSYMBOL_5
 10
86.0613838468
 20
183.3091775814
 30
0.0
  0
INSERT
  5
424
  8
0
  6
CONTINUOUS
 62
     7
  2
SW_CENTERMARKSYMBOL_6
 10
77.0613838468
 20
200.3091775814
 30
0.0
  0
INSERT
  5
430
  8
0
  6
CONTINUOUS
 62
     7
  2
SW_CENTERMARKSYMBOL_7
 10
80.0613838468
 20
218.3091775814
 30
0.0
  0
INSERT
  5
43C
  8
0
  6
CONTINUOUS
 62
     7
  2
SW_CENTERMARKSYMBOL_8
 10
77.0613838468
 20
236.3091775814
 30
0.0
  0
INSERT
  5
448
  8
0
  6
CONTINUOUS
 62
     7
  2
SW_CENTERMARKSYMBOL_9
 10
86.0613838468
 20
253.3091775814
 30
0.0
  0
LINE
  5
449
  8
0
  6
CENTERX2
 62
     7
 10
112.5613838468
 20
169.6442178559
 30
0.0
 11
112.5613838468
 21
268.0021931097
 31
0.0
  0
LINE
  5
44A
  8
0
  6
CENTERX2
 62
     7
 10
76.5258499409
 20
118.7957794715
 30
0.0
 11
76.5258499409
 21
121.2957794715
 31
0.0
  0
LINE
  5
44B
  8
0
  6
CONTINUOUS
 62
     7
 10
136.8803050417
 20
121.2957794715
 30
0.0
 11
135.5102206812
 21
119.9256951111
 31
0.0
  0
LINE
  5
44C
  8
0
  6
CONTINUOUS
 62
     7
 10
139.0780690733
 20
119.0034154425
 30
0.0
 11
138.8704331022
 21
118.7957794715
 31
0.0
  0
LINE
  5
44D
  8
0
  6
CONTINUOUS
 62
     7
 10
154.8408172838
 20
121.2957794715
 30
0.0
 11
154.0446986204
 21
120.499660808
 31
0.0
  0
LINE
  5
44E
  8
0
  6
CONTINUOUS
 62
     7
 10
157.0613838468
 20
119.0262179739
 30
0.0
 11
156.8309453444
 21
118.7957794715
 31
0.0
  0
LINE
  5
44F
  8
0
  6
CONTINUOUS
 62
     7
 10
130.6065240282
 20
118.7957794715
 30
0.0
 11
130.6065240282
 21
118.7832794715
 31
0.0
  0
LINE
  5
450
  8
0
  6
CONTINUOUS
 62
     7
 10
131.3003814563
 20
118.7832794715
 30
0.0
 11
131.3003814563
 21
118.7957794715
 31
0.0
  0
LINE
  5
451
  8
0
  6
CONTINUOUS
 62
     7
 10
129.9766541238
 20
118.7957794715
 30
0.0
 11
129.9766541238
 21
118.7832794715
 31
0.0
  0
LINE
  5
452
  8
0
  6
CONTINUOUS
 62
     7
 10
133.837026222
 20
118.7957794715
 30
0.0
 11
133.837026222
 21
118.7832794715
 31
0.0
  0
LINE
  5
453
  8
0
  6
CONTINUOUS
 62
     7
 10
135.0324484208
 20
118.7832794715
 30
0.0
 11
135.0324484208
 21
118.7957794715
 31
0.0
  0
LINE
  5
454
  8
0
  6
CONTINUOUS
 62
     7
 10
72.5613838468
 20
118.7957794715
 30
0.0
 11
72.5613838468
 21
117.7957794715
 31
0.0
  0
LINE
  5
455
  8
0
  6
CONTINUOUS
 62
     7
 10
87.5613838468
 20
117.7957794715
 30
0.0
 11
87.5613838468
 21
118.7957794715
 31
0.0
  0
ARC
  5
456
  8
0
  6
CONTINUOUS
 62
     7
 10
85.5613838468
 20
117.2957794715
 30
0.0
 40
0.5
 50
90.0
 51
180.0
  0
ARC
  5
457
  8
0
  6
CONTINUOUS
 62
     7
 10
74.5613838468
 20
117.2957794715
 30
0.0
 40
0.5
 50
0.0
 51
90.0
  0
LINE
  5
458
  8
0
  6
CONTINUOUS
 62
     7
 10
75.0613838468
 20
117.2957794715
 30
0.0
 11
75.0613838468
 21
101.7957794715
 31
0.0
  0
LINE
  5
459
  8
0
  6
CONTINUOUS
 62
     7
 10
85.0613838468
 20
101.7957794715
 30
0.0
 11
85.0613838468
 21
117.2957794715
 31
0.0
  0
LINE
  5
45A
  8
0
  6
CONTINUOUS
 62
     7
 10
75.0613838468
 20
101.7957794715
 30
0.0
 11
76.0613838468
 21
100.7957794715
 31
0.0
  0
LINE
  5
45B
  8
0
  6
CONTINUOUS
 62
     7
 10
84.0613838468
 20
100.7957794715
 30
0.0
 11
85.0613838468
 21
101.7957794715
 31
0.0
  0
ARC
  5
45C
  8
0
  6
CONTINUOUS
 62
     7
 10
112.5613838468
 20
117.7957794715
 30
0.0
 40
6.000000000003133
 50
355.285413719
 51
6.5919316298
  0
LINE
  5
45D
  8
0
  6
CONTINUOUS
 62
     7
 10
119.6828742716
 20
121.2957794715
 30
0.0
 11
119.6828742716
 21
118.7957794715
 31
0.0
  0
POLYLINE
  5
45E
  8
0
  6
CONTINUOUS
 62
     7
 66
     1
 10
0.0
 20
0.0
 30
0.0
 70
   128
  0
VERTEX
  5
935
  8
0
  6
CONTINUOUS
 62
     7
 10
134.0978192003
 20
121.2957794537
 30
0.0
  0
VERTEX
  5
936
  8
0
  6
CONTINUOUS
 62
     7
 10
134.1030111798
 20
121.1645532419
 30
0.0
  0
VERTEX
  5
937
  8
0
  6
CONTINUOUS
 62
     7
 10
134.1450706642
 20
121.0704907448
 30
0.0
  0
VERTEX
  5
938
  8
0
  6
CONTINUOUS
 62
     7
 10
134.2148169272
 20
120.9799240219
 30
0.0
  0
VERTEX
  5
939
  8
0
  6
CONTINUOUS
 62
     7
 10
134.5438003124
 20
120.7213253018
 30
0.0
  0
VERTEX
  5
93A
  8
0
  6
CONTINUOUS
 62
     7
 10
134.9550108335
 20
120.465845043
 30
0.0
  0
VERTEX
  5
93B
  8
0
  6
CONTINUOUS
 62
     7
 10
135.212998156
 20
120.2867597539
 30
0.0
  0
VERTEX
  5
93C
  8
0
  6
CONTINUOUS
 62
     7
 10
135.4147787215
 20
120.0933140553
 30
0.0
  0
VERTEX
  5
93D
  8
0
  6
CONTINUOUS
 62
     7
 10
135.5233509825
 20
119.8792287807
 30
0.0
  0
VERTEX
  5
93E
  8
0
  6
CONTINUOUS
 62
     7
 10
135.5117971618
 20
119.5931825986
 30
0.0
  0
VERTEX
  5
93F
  8
0
  6
CONTINUOUS
 62
     7
 10
135.39678727
 20
119.2864157995
 30
0.0
  0
VERTEX
  5
940
  8
0
  6
CONTINUOUS
 62
     7
 10
135.1575054238
 20
118.7957794715
 30
0.0
  0
SEQEND
  5
9FB
  8
0
  6
CONTINUOUS
 62
     7
  0
LINE
  5
45F
  8
0
  6
CONTINUOUS
 62
     7
 10
119.6828742716
 20
118.7957794715
 30
0.0
 11
135.1575054238
 21
118.7957794715
 31
0.0
  0
LINE
  5
460
  8
0
  6
CONTINUOUS
 62
     7
 10
119.6828742716
 20
121.2957794715
 30
0.0
 11
134.0978192003
 21
121.2957794537
 31
0.0
  0
LINE
  5
461
  8
0
  6
CONTINUOUS
 62
     7
 10
114.9450465942
 20
123.3019716137
 30
0.0
 11
119.4842357093
 21
121.3369301263
 31
0.0
  0
LINE
  5
462
  8
0
  6
CONTINUOUS
 62
     7
 10
118.4910428979
 20
119.0426834004
 30
0.0
 11
119.4842357093
 21
121.3369301263
 31
0.0
  0
LINE
  5
463
  8
0
  6
CONTINUOUS
 62
     7
 10
118.4241639855
 20
119.0716356723
 30
0.0
 11
118.4910428979
 21
119.0426834004
 31
0.0
  0
ARC
  5
464
  8
0
  6
CONTINUOUS
 62
     7
 10
119.6828742716
 20
121.7957794715
 30
0.0
 40
3.000000000000009
 50
246.5919316298
 51
270.0
  0
ARC
  5
465
  8
0
  6
CONTINUOUS
 62
     7
 10
119.6828742716
 20
121.7957794715
 30
0.0
 40
0.5
 50
246.5919316298
 51
270.0
  0
LINE
  5
466
  8
0
  6
CONTINUOUS
 62
     7
 10
154.0446986204
 20
121.2957794715
 30
0.0
 11
154.0446986204
 21
118.7957794715
 31
0.0
  0
LINE
  5
467
  8
0
  6
CONTINUOUS
 62
     7
 10
139.0780690733
 20
118.7957794715
 30
0.0
 11
139.0780690733
 21
121.2957794715
 31
0.0
  0
LINE
  5
468
  8
0
  6
CONTINUOUS
 62
     7
 10
139.0780690733
 20
118.7957794715
 30
0.0
 11
154.0446986204
 21
118.7957794715
 31
0.0
  0
LINE
  5
469
  8
0
  6
CONTINUOUS
 62
     7
 10
154.0446986204
 20
121.2957794715
 30
0.0
 11
139.0780690733
 21
121.2957794715
 31
0.0
  0
LINE
  5
46A
  8
0
  6
CONTINUOUS
 62
     7
 10
135.15928862
 20
118.7957794715
 30
0.0
 11
139.0780690733
 21
118.7957794715
 31
0.0
  0
LINE
  5
46B
  8
0
  6
CONTINUOUS
 62
     7
 10
134.0978192003
 20
121.2957794537
 30
0.0
 11
139.0780690733
 21
121.2957794715
 31
0.0
  0
LINE
  5
46C
  8
0
  6
CONTINUOUS
 62
     7
 10
157.0613838468
 20
121.2957794715
 30
0.0
 11
157.0613838468
 21
118.7957794715
 31
0.0
  0
LINE
  5
46D
  8
0
  6
CONTINUOUS
 62
     7
 10
154.0446986204
 20
118.7957794715
 30
0.0
 11
157.0613838468
 21
118.7957794715
 31
0.0
  0
LINE
  5
46E
  8
0
  6
CONTINUOUS
 62
     7
 10
154.0446986204
 20
121.2957794715
 30
0.0
 11
157.0613838468
 21
121.2957794715
 31
0.0
  0
LINE
  5
46F
  8
0
  6
CONTINUOUS
 62
     7
 10
80.0613838468
 20
117.7957794715
 30
0.0
 11
72.5613838468
 21
117.7957794715
 31
0.0
  0
LINE
  5
470
  8
0
  6
CONTINUOUS
 62
     7
 10
87.5613838468
 20
117.7957794715
 30
0.0
 11
80.0613838468
 21
117.7957794715
 31
0.0
  0
LINE
  5
471
  8
0
  6
CONTINUOUS
 62
     7
 10
80.0613838468
 20
101.7957794715
 30
0.0
 11
85.0613838468
 21
101.7957794715
 31
0.0
  0
LINE
  5
472
  8
0
  6
CONTINUOUS
 62
     7
 10
75.0613838468
 20
101.7957794715
 30
0.0
 11
80.0613838468
 21
101.7957794715
 31
0.0
  0
LINE
  5
473
  8
0
  6
CONTINUOUS
 62
     7
 10
80.0613838468
 20
100.7957794715
 30
0.0
 11
76.0613838468
 21
100.7957794715
 31
0.0
  0
LINE
  5
474
  8
0
  6
CONTINUOUS
 62
     7
 10
84.0613838468
 20
100.7957794715
 30
0.0
 11
80.0613838468
 21
100.7957794715
 31
0.0
  0
LINE
  5
475
  8
0
  6
CONTINUOUS
 62
     7
 10
104.7613838468
 20
121.2957794715
 30
0.0
 11
104.7613838468
 21
118.7957794715
 31
0.0
  0
LINE
  5
476
  8
0
  6
CONTINUOUS
 62
     7
 10
104.7613838468
 20
118.7957794715
 30
0.0
 11
103.7613838468
 21
118.7957794715
 31
0.0
  0
LINE
  5
477
  8
0
  6
CONTINUOUS
 62
     7
 10
103.7613838468
 20
118.7957794715
 30
0.0
 11
103.7613838468
 21
121.2957794715
 31
0.0
  0
LINE
  5
478
  8
0
  6
CONTINUOUS
 62
     7
 10
103.7613838468
 20
121.2957794715
 30
0.0
 11
104.7613838468
 21
121.2957794715
 31
0.0
  0
LINE
  5
479
  8
0
  6
CONTINUOUS
 62
     7
 10
69.0613838468
 20
121.2957794715
 30
0.0
 11
69.0613838468
 21
118.7957794715
 31
0.0
  0
LINE
  5
47A
  8
0
  6
CONTINUOUS
 62
     7
 10
103.7613838468
 20
118.7957794715
 30
0.0
 11
69.0613838468
 21
118.7957794715
 31
0.0
  0
LINE
  5
47B
  8
0
  6
CONTINUOUS
 62
     7
 10
103.7613838468
 20
121.2957794715
 30
0.0
 11
69.0613838468
 21
121.2957794715
 31
0.0
  0
LINE
  5
47C
  8
0
  6
CONTINUOUS
 62
     7
 10
68.0613838468
 20
118.7957794715
 30
0.0
 11
68.0613838468
 21
121.2957794715
 31
0.0
  0
LINE
  5
47D
  8
0
  6
CONTINUOUS
 62
     7
 10
69.0613838468
 20
118.7957794715
 30
0.0
 11
68.0613838468
 21
118.7957794715
 31
0.0
  0
LINE
  5
47E
  8
0
  6
CONTINUOUS
 62
     7
 10
68.0613838468
 20
121.2957794715
 30
0.0
 11
69.0613838468
 21
121.2957794715
 31
0.0
  0
LINE
  5
47F
  8
0
  6
CONTINUOUS
 62
     7
 10
105.439893422
 20
121.2957794715
 30
0.0
 11
105.439893422
 21
118.7957794715
 31
0.0
  0
LINE
  5
480
  8
0
  6
CONTINUOUS
 62
     7
 10
105.439893422
 20
118.7957794715
 30
0.0
 11
104.7613838468
 21
118.7957794715
 31
0.0
  0
LINE
  5
481
  8
0
  6
CONTINUOUS
 62
     7
 10
104.7613838468
 20
121.2957794715
 30
0.0
 11
105.439893422
 21
121.2957794715
 31
0.0
  0
POLYLINE
  5
482
  8
0
  6
CONTINUOUS
 62
     7
 66
     1
 10
0.0
 20
0.0
 30
0.0
 70
   128
  0
VERTEX
  5
941
  8
0
  6
CONTINUOUS
 62
     7
 10
105.439893422
 20
121.2957794715
 30
0.0
  0
VERTEX
  5
942
  8
0
  6
CONTINUOUS
 62
     7
 10
105.4751044929
 20
121.297020832
 30
0.0
  0
VERTEX
  5
943
  8
0
  6
CONTINUOUS
 62
     7
 10
105.5173290731
 20
121.3018121447
 30
0.0
  0
SEQEND
  5
9FC
  8
0
  6
CONTINUOUS
 62
     7
  0
LINE
  5
483
  8
0
  6
CONTINUOUS
 62
     7
 10
105.9045073287
 20
118.8319755108
 30
0.0
 11
105.5173290731
 21
121.3018121447
 31
0.0
  0
LINE
  5
484
  8
0
  6
CONTINUOUS
 62
     7
 10
105.439893422
 20
118.7957794715
 30
0.0
 11
105.9045073287
 21
118.8319755108
 31
0.0
  0
LINE
  5
485
  8
0
  6
CONTINUOUS
 62
     7
 10
106.6317247957
 20
119.0426834004
 30
0.0
 11
105.6385319843
 21
121.3369301263
 31
0.0
  0
ARC
  5
486
  8
0
  6
CONTINUOUS
 62
     7
 10
105.439893422
 20
121.7957794715
 30
0.0
 40
0.4999999999999948
 50
278.9093322824
 51
293.4080683702
  0
ARC
  5
487
  8
0
  6
CONTINUOUS
 62
     7
 10
105.439893422
 20
121.7957794715
 30
0.0
 40
3.000000000000009
 50
278.9093322824
 51
293.4080683702
  0
LINE
  5
488
  8
0
  6
CONTINUOUS
 62
     7
 10
105.6385319843
 20
121.3369301263
 30
0.0
 11
110.1777210995
 21
123.3019716137
 31
0.0
  0
LINE
  5
489
  8
0
  6
CONTINUOUS
 62
     7
 10
106.6317247957
 20
119.0426834004
 30
0.0
 11
106.6986037081
 21
119.0716356723
 31
0.0
  0
CIRCLE
  5
48A
  8
0
  6
CONTINUOUS
 62
     7
 10
112.5613838468
 20
117.7957794715
 30
0.0
 40
6.000000000000011
  0
LINE
  5
48B
  8
0
  6
CONTINUOUS
 62
     8
 10
80.0613838468
 20
117.2957794715
 30
0.0
 11
75.0613838468
 21
117.2957794715
 31
0.0
  0
LINE
  5
48C
  8
0
  6
CONTINUOUS
 62
     8
 10
85.0613838468
 20
117.2957794715
 30
0.0
 11
80.0613838468
 21
117.2957794715
 31
0.0
  0
DIMENSION
  5
48D
  8
0
  6
CONTINUOUS
 62
     7
  2
_D_7
 10
157.0613838468
 20
134.657052943
 30
0.0
 11
112.5613838468
 21
134.657052943
 31
0.0
 70
   160
  1
<>
  3
SLDDIMSTYLE0
 13
68.0613838468
 23
121.2957794715
 33
0.0
 14
157.0613838468
 24
121.2957794715
 34
0.0
  0
DIMENSION
  5
497
  8
0
  6
CONTINUOUS
 62
     7
  2
_D_8
 10
154.0446986204
 20
127.5719360889
 30
0.0
 11
146.5613838468
 21
127.5719360889
 31
0.0
 70
   160
  1
<>
  3
SLDDIMSTYLE3
 13
139.0780690733
 23
121.2957794715
 33
0.0
 14
154.0446986204
 24
121.2957794715
 34
0.0
  0
DIMENSION
  5
4A4
  8
0
  6
CONTINUOUS
 62
     7
  2
_D_9
 10
59.8018635526
 20
118.7957794715
 30
0.0
 11
59.8018635526
 21
111.5196249454
 31
0.0
 70
   160
  1
<>
  3
SLDDIMSTYLE1
 13
69.0613838468
 23
121.2957794715
 33
0.0
 14
69.0613838468
 24
118.7957794715
 34
0.0
 50
90.0
  0
DIMENSION
  5
4B0
  8
0
  6
CONTINUOUS
 62
     7
  2
_D_10
 10
80.0613838468
 20
127.8806343801
 30
0.0
 11
74.0613838468
 21
127.8806343801
 31
0.0
 70
   160
  1
<>
  3
SLDDIMSTYLE1
 13
68.0613838468
 23
121.2957794715
 33
0.0
 14
80.0613838468
 24
122.3686284696
 34
0.0
  0
DIMENSION
  5
4BC
  8
0
  6
CONTINUOUS
 62
     7
  2
_D_11
 10
75.0613838468
 20
93.1006269025
 30
0.0
 11
80.0613838468
 21
93.1006269025
 31
0.0
 70
   160
  1
%%c<>
  3
SLDDIMSTYLE1
 13
85.0613838468
 23
101.7957794715
 33
0.0
 14
75.0613838468
 24
101.7957794715
 34
0.0
  0
DIMENSION
  5
4C9
  8
0
  6
CONTINUOUS
 62
     7
  2
_D_12
 10
157.0613838468
 20
109.5825159793
 30
0.0
 11
151.8113838468
 21
109.5825159793
 31
0.0
 70
   160
  1
<>
  3
SLDDIMSTYLE1
 13
146.5613838468
 23
116.7957794715
 33
0.0
 14
157.0613838468
 24
118.7957794715
 34
0.0
  0
DIMENSION
  5
4D5
  8
0
  6
CONTINUOUS
 62
     7
  2
_D_13
 10
168.6275450347
 20
117.7957794715
 30
0.0
 11
168.6275450347
 21
128.4537842865
 31
0.0
 70
   160
  1
<>
  3
SLDDIMSTYLE1
 13
156.0613838468
 23
121.2957794715
 33
0.0
 14
121.0613838468
 24
117.7957794715
 34
0.0
 50
90.0
  0
INSERT
  5
4EC
  8
0
  6
CONTINUOUS
 62
     7
  2
SW_CENTERMARKSYMBOL_10
 10
112.5613838468
 20
117.7957794715
 30
0.0
  0
LINE
  5
4ED
  8
0
  6
CENTERX2
 62
     7
 10
80.0613838468
 20
99.7957794715
 30
0.0
 11
80.0613838468
 21
122.3686284696
 31
0.0
  0
LINE
  5
4EE
  8
0
  6
CENTERX2
 62
     7
 10
146.5613838468
 20
123.2957794715
 30
0.0
 11
146.5613838468
 21
116.7957794715
 31
0.0
  0
LINE
  5
4EF
  8
0
  6
CENTERX2
 62
     7
 10
148.5969177527
 20
64.6529975731
 30
0.0
 11
148.5969177527
 21
62.1529975731
 31
0.0
  0
LINE
  5
4F0
  8
0
  6
CONTINUOUS
 62
     7
 10
154.8408172838
 20
69.1529975731
 30
0.0
 11
154.0446986204
 21
68.3568789096
 31
0.0
  0
LINE
  5
4F1
  8
0
  6
CONTINUOUS
 62
     7
 10
157.0613838468
 20
66.8834360756
 30
0.0
 11
156.8309453444
 21
66.6529975731
 31
0.0
  0
LINE
  5
4F2
  8
0
  6
CONTINUOUS
 62
     7
 10
132.3901769812
 20
69.1529975731
 30
0.0
 11
129.8901769812
 21
66.6529975731
 31
0.0
  0
LINE
  5
4F3
  8
0
  6
CONTINUOUS
 62
     7
 10
136.8803050417
 20
69.1529975731
 30
0.0
 11
134.3803050417
 21
66.6529975731
 31
0.0
  0
LINE
  5
4F4
  8
0
  6
CONTINUOUS
 62
     7
 10
139.0780690733
 20
66.8606335442
 30
0.0
 11
138.8704331022
 21
66.6529975731
 31
0.0
  0
LINE
  5
4F5
  8
0
  6
CONTINUOUS
 62
     7
 10
132.3803050417
 20
64.6529975731
 30
0.0
 11
129.8803050417
 21
62.1529975731
 31
0.0
  0
LINE
  5
4F6
  8
0
  6
CONTINUOUS
 62
     7
 10
136.8704331022
 20
64.6529975731
 30
0.0
 11
134.3704331022
 21
62.1529975731
 31
0.0
  0
LINE
  5
4F7
  8
0
  6
CONTINUOUS
 62
     7
 10
141.3605611628
 20
64.6529975731
 30
0.0
 11
138.8605611628
 21
62.1529975731
 31
0.0
  0
LINE
  5
4F8
  8
0
  6
CONTINUOUS
 62
     7
 10
145.8506892233
 20
64.6529975731
 30
0.0
 11
143.3506892233
 21
62.1529975731
 31
0.0
  0
LINE
  5
4F9
  8
0
  6
CONTINUOUS
 62
     7
 10
150.3408172838
 20
64.6529975731
 30
0.0
 11
147.8408172838
 21
62.1529975731
 31
0.0
  0
LINE
  5
4FA
  8
0
  6
CONTINUOUS
 62
     7
 10
154.8309453444
 20
64.6529975731
 30
0.0
 11
152.3309453444
 21
62.1529975731
 31
0.0
  0
LINE
  5
4FB
  8
0
  6
CONTINUOUS
 62
     7
 10
157.0613838468
 20
62.393308015
 30
0.0
 11
156.8210734049
 21
62.1529975731
 31
0.0
  0
LINE
  5
4FC
  8
0
  6
CONTINUOUS
 62
     7
 10
137.8704331022
 20
65.6529975731
 30
0.0
 11
138.8704331022
 21
64.6529975731
 31
0.0
  0
LINE
  5
4FD
  8
0
  6
CONTINUOUS
 62
     7
 10
140.0864466613
 20
67.9271120747
 30
0.0
 11
143.3605611628
 21
64.6529975731
 31
0.0
  0
LINE
  5
4FE
  8
0
  6
CONTINUOUS
 62
     7
 10
140.0864466613
 20
72.4172401352
 30
0.0
 11
147.8506892233
 21
64.6529975731
 31
0.0
  0
LINE
  5
4FF
  8
0
  6
CONTINUOUS
 62
     7
 10
151.3408172838
 20
65.6529975731
 30
0.0
 11
152.3408172838
 21
64.6529975731
 31
0.0
  0
LINE
  5
500
  8
0
  6
CONTINUOUS
 62
     7
 10
140.0864466613
 20
76.9073681957
 30
0.0
 11
150.0363210323
 21
66.9574938247
 31
0.0
  0
LINE
  5
501
  8
0
  6
CONTINUOUS
 62
     7
 10
140.0864466613
 20
81.3974962563
 30
0.0
 11
150.0363210323
 21
71.4476218852
 31
0.0
  0
LINE
  5
502
  8
0
  6
CONTINUOUS
 62
     7
 10
143.3210734049
 20
82.6529975731
 30
0.0
 11
150.0363210323
 21
75.9377499457
 31
0.0
  0
LINE
  5
503
  8
0
  6
CONTINUOUS
 62
     7
 10
147.8112014655
 20
82.6529975731
 30
0.0
 11
150.0363210323
 21
80.4278780063
 31
0.0
  0
LINE
  5
504
  8
0
  6
CONTINUOUS
 62
     7
 10
152.5613838468
 20
64.6529975731
 30
0.0
 11
152.5613838468
 21
65.6529975731
 31
0.0
  0
LINE
  5
505
  8
0
  6
CONTINUOUS
 62
     7
 10
137.5613838468
 20
65.6529975731
 30
0.0
 11
137.5613838468
 21
64.6529975731
 31
0.0
  0
ARC
  5
506
  8
0
  6
CONTINUOUS
 62
     7
 10
139.5613838468
 20
66.1529975731
 30
0.0
 40
0.5
 50
270.0
 51
0.0
  0
ARC
  5
507
  8
0
  6
CONTINUOUS
 62
     7
 10
150.5613838468
 20
66.1529975731
 30
0.0
 40
0.5
 50
180.0
 51
270.0
  0
LINE
  5
508
  8
0
  6
CONTINUOUS
 62
     7
 10
150.0613838468
 20
81.6529975731
 30
0.0
 11
149.0613838468
 21
82.6529975731
 31
0.0
  0
LINE
  5
509
  8
0
  6
CONTINUOUS
 62
     7
 10
141.0613838468
 20
82.6529975731
 30
0.0
 11
140.0613838468
 21
81.6529975731
 31
0.0
  0
LINE
  5
50A
  8
0
  6
CONTINUOUS
 62
     7
 10
150.0613838468
 20
66.1529975731
 30
0.0
 11
150.0613838468
 21
81.6529975731
 31
0.0
  0
LINE
  5
50B
  8
0
  6
CONTINUOUS
 62
     7
 10
140.0613838468
 20
81.6529975731
 30
0.0
 11
140.0613838468
 21
66.1529975731
 31
0.0
  0
LINE
  5
50C
  8
0
  6
CONTINUOUS
 62
     7
 10
140.0864466613
 20
81.6529975731
 30
0.0
 11
140.0864466613
 21
66.1529975731
 31
0.0
  0
LINE
  5
50D
  8
0
  6
CONTINUOUS
 62
     7
 10
140.0864466613
 20
81.6529975731
 30
0.0
 11
141.0927568802
 21
82.6529975731
 31
0.0
  0
LINE
  5
50E
  8
0
  6
CONTINUOUS
 62
     7
 10
141.0927568802
 20
82.6529975731
 30
0.0
 11
149.0300108134
 21
82.6529975731
 31
0.0
  0
LINE
  5
50F
  8
0
  6
CONTINUOUS
 62
     7
 10
149.0300108134
 20
82.6529975731
 30
0.0
 11
150.0363210323
 21
81.6529975731
 31
0.0
  0
LINE
  5
510
  8
0
  6
CONTINUOUS
 62
     7
 10
150.0363210323
 20
66.1529975731
 30
0.0
 11
150.0363210323
 21
81.6529975731
 31
0.0
  0
ARC
  5
511
  8
0
  6
CONTINUOUS
 62
     7
 10
150.5376783811
 20
66.1543558975
 30
0.0
 40
0.5013591888242642
 50
180.1552307181
 51
270.1064002353
  0
LINE
  5
512
  8
0
  6
CONTINUOUS
 62
     7
 10
150.5386094219
 20
65.6529975731
 30
0.0
 11
152.5446986204
 21
65.6529975731
 31
0.0
  0
LINE
  5
513
  8
0
  6
CONTINUOUS
 62
     7
 10
152.5446986204
 20
64.6529975731
 30
0.0
 11
152.5446986204
 21
65.6529975731
 31
0.0
  0
LINE
  5
514
  8
0
  6
CONTINUOUS
 62
     7
 10
137.5780690733
 20
64.6529975731
 30
0.0
 11
152.5446986204
 21
64.6529975731
 31
0.0
  0
LINE
  5
515
  8
0
  6
CONTINUOUS
 62
     7
 10
137.5780690733
 20
65.6529975731
 30
0.0
 11
137.5780690733
 21
64.6529975731
 31
0.0
  0
LINE
  5
516
  8
0
  6
CONTINUOUS
 62
     7
 10
137.5780690733
 20
65.6529975731
 30
0.0
 11
139.5841582718
 21
65.6529975731
 31
0.0
  0
ARC
  5
517
  8
0
  6
CONTINUOUS
 62
     7
 10
139.5850303104
 20
66.1544151696
 30
0.0
 40
0.5014183547350107
 50
269.9003543432
 51
359.8380147034
  0
LINE
  5
518
  8
0
  6
CONTINUOUS
 62
     7
 10
152.5446986204
 20
65.6529975731
 30
0.0
 11
152.5613838468
 21
65.6529975731
 31
0.0
  0
LINE
  5
519
  8
0
  6
CONTINUOUS
 62
     7
 10
137.5613838468
 20
65.6529975731
 30
0.0
 11
137.5780690733
 21
65.6529975731
 31
0.0
  0
LINE
  5
51A
  8
0
  6
CONTINUOUS
 62
     7
 10
149.0300108134
 20
82.6529975731
 30
0.0
 11
149.0613838468
 21
82.6529975731
 31
0.0
  0
LINE
  5
51B
  8
0
  6
CONTINUOUS
 62
     7
 10
141.0613838468
 20
82.6529975731
 30
0.0
 11
141.0927568802
 21
82.6529975731
 31
0.0
  0
LINE
  5
51C
  8
0
  6
CONTINUOUS
 62
     7
 10
140.0864466613
 20
81.6529975731
 30
0.0
 11
140.0613838468
 21
81.6529975731
 31
0.0
  0
LINE
  5
51D
  8
0
  6
CONTINUOUS
 62
     7
 10
150.0613838468
 20
81.6529975731
 30
0.0
 11
150.0363210323
 21
81.6529975731
 31
0.0
  0
LINE
  5
51E
  8
0
  6
CONTINUOUS
 62
     7
 10
121.3613838468
 20
64.6529975731
 30
0.0
 11
121.3613838468
 21
62.1529975731
 31
0.0
  0
POLYLINE
  5
51F
  8
0
  6
CONTINUOUS
 62
     7
 66
     1
 10
0.0
 20
0.0
 30
0.0
 70
   128
  0
VERTEX
  5
944
  8
0
  6
CONTINUOUS
 62
     7
 10
129.40527513
 20
64.6529975732
 30
0.0
  0
VERTEX
  5
945
  8
0
  6
CONTINUOUS
 62
     7
 10
129.1855629455
 20
64.4336031289
 30
0.0
  0
VERTEX
  5
946
  8
0
  6
CONTINUOUS
 62
     7
 10
128.6389967294
 20
63.9858914016
 30
0.0
  0
VERTEX
  5
947
  8
0
  6
CONTINUOUS
 62
     7
 10
128.1338827726
 20
63.5700049721
 30
0.0
  0
VERTEX
  5
948
  8
0
  6
CONTINUOUS
 62
     7
 10
127.9816888457
 20
63.4110795158
 30
0.0
  0
VERTEX
  5
949
  8
0
  6
CONTINUOUS
 62
     7
 10
127.886366616
 20
63.264283117
 30
0.0
  0
VERTEX
  5
94A
  8
0
  6
CONTINUOUS
 62
     7
 10
127.8640545181
 20
63.1928773652
 30
0.0
  0
VERTEX
  5
94B
  8
0
  6
CONTINUOUS
 62
     7
 10
127.8634753323
 20
63.1256052119
 30
0.0
  0
VERTEX
  5
94C
  8
0
  6
CONTINUOUS
 62
     7
 10
127.8863320674
 20
63.0626679614
 30
0.0
  0
VERTEX
  5
94D
  8
0
  6
CONTINUOUS
 62
     7
 10
127.9613036937
 20
62.9759673719
 30
0.0
  0
VERTEX
  5
94E
  8
0
  6
CONTINUOUS
 62
     7
 10
128.0782949866
 20
62.8963594083
 30
0.0
  0
VERTEX
  5
94F
  8
0
  6
CONTINUOUS
 62
     7
 10
128.3283677275
 20
62.7811497328
 30
0.0
  0
VERTEX
  5
950
  8
0
  6
CONTINUOUS
 62
     7
 10
128.8908133843
 20
62.5851491133
 30
0.0
  0
VERTEX
  5
951
  8
0
  6
CONTINUOUS
 62
     7
 10
129.400058646
 20
62.3925000742
 30
0.0
  0
VERTEX
  5
952
  8
0
  6
CONTINUOUS
 62
     7
 10
129.7890172904
 20
62.1529975731
 30
0.0
  0
SEQEND
  5
9FD
  8
0
  6
CONTINUOUS
 62
     7
  0
LINE
  5
520
  8
0
  6
CONTINUOUS
 62
     7
 10
121.3613838468
 20
62.1529975731
 30
0.0
 11
129.7890172904
 21
62.1529975731
 31
0.0
  0
LINE
  5
521
  8
0
  6
CONTINUOUS
 62
     7
 10
121.3613838468
 20
64.6529975731
 30
0.0
 11
129.40527513
 21
64.6529975732
 31
0.0
  0
LINE
  5
522
  8
0
  6
CONTINUOUS
 62
     7
 10
120.3613838468
 20
62.1529975731
 30
0.0
 11
120.3613838468
 21
64.6529975731
 31
0.0
  0
LINE
  5
523
  8
0
  6
CONTINUOUS
 62
     7
 10
121.3613838468
 20
62.1529975731
 30
0.0
 11
120.3613838468
 21
62.1529975731
 31
0.0
  0
LINE
  5
524
  8
0
  6
CONTINUOUS
 62
     7
 10
120.3613838468
 20
64.6529975731
 30
0.0
 11
121.3613838468
 21
64.6529975731
 31
0.0
  0
LINE
  5
525
  8
0
  6
CONTINUOUS
 62
     7
 10
119.6828742716
 20
62.1529975731
 30
0.0
 11
119.6828742716
 21
64.6529975731
 31
0.0
  0
LINE
  5
526
  8
0
  6
CONTINUOUS
 62
     7
 10
120.3613838468
 20
62.1529975731
 30
0.0
 11
119.6828742716
 21
62.1529975731
 31
0.0
  0
LINE
  5
527
  8
0
  6
CONTINUOUS
 62
     7
 10
119.6828742716
 20
64.6529975731
 30
0.0
 11
120.3613838468
 21
64.6529975731
 31
0.0
  0
POLYLINE
  5
528
  8
0
  6
CONTINUOUS
 62
     7
 66
     1
 10
0.0
 20
0.0
 30
0.0
 70
   128
  0
VERTEX
  5
953
  8
0
  6
CONTINUOUS
 62
     7
 10
119.6828742716
 20
62.1529975731
 30
0.0
  0
VERTEX
  5
954
  8
0
  6
CONTINUOUS
 62
     7
 10
119.6476632007
 20
62.1517562127
 30
0.0
  0
VERTEX
  5
955
  8
0
  6
CONTINUOUS
 62
     7
 10
119.6054386205
 20
62.1469648999
 30
0.0
  0
SEQEND
  5
9FE
  8
0
  6
CONTINUOUS
 62
     7
  0
LINE
  5
529
  8
0
  6
CONTINUOUS
 62
     7
 10
119.2182603649
 20
64.6168015339
 30
0.0
 11
119.6054386205
 21
62.1469648999
 31
0.0
  0
LINE
  5
52A
  8
0
  6
CONTINUOUS
 62
     7
 10
119.6828742716
 20
64.6529975731
 30
0.0
 11
119.2182603649
 21
64.6168015339
 31
0.0
  0
LINE
  5
52B
  8
0
  6
CONTINUOUS
 62
     7
 10
118.4910428979
 20
64.4060936442
 30
0.0
 11
119.4842357093
 21
62.1118469183
 31
0.0
  0
ARC
  5
52C
  8
0
  6
CONTINUOUS
 62
     7
 10
119.6828742716
 20
61.6529975731
 30
0.0
 40
0.4999999999999959
 50
98.9093322824
 51
113.4080683702
  0
ARC
  5
52D
  8
0
  6
CONTINUOUS
 62
     7
 10
119.6828742716
 20
61.6529975731
 30
0.0
 40
2.999999999999997
 50
98.9093322824
 51
113.4080683702
  0
LINE
  5
52E
  8
0
  6
CONTINUOUS
 62
     7
 10
119.4842357093
 20
62.1118469183
 30
0.0
 11
114.9450465942
 21
60.1468054309
 31
0.0
  0
LINE
  5
52F
  8
0
  6
CONTINUOUS
 62
     7
 10
118.4910428979
 20
64.4060936442
 30
0.0
 11
118.4241639855
 21
64.3771413723
 31
0.0
  0
LINE
  5
530
  8
0
  6
CONTINUOUS
 62
     7
 10
157.0613838468
 20
64.6529975731
 30
0.0
 11
157.0613838468
 21
62.1529975731
 31
0.0
  0
LINE
  5
531
  8
0
  6
CONTINUOUS
 62
     7
 10
157.0613838468
 20
62.1529975731
 30
0.0
 11
129.7890173102
 21
62.1529975731
 31
0.0
  0
LINE
  5
532
  8
0
  6
CONTINUOUS
 62
     7
 10
157.0613838468
 20
64.6529975731
 30
0.0
 11
129.40527513
 21
64.6529975732
 31
0.0
  0
LINE
  5
533
  8
0
  6
CONTINUOUS
 62
     7
 10
119.6828742716
 20
69.1529975731
 30
0.0
 11
119.6828742716
 21
66.6529975731
 31
0.0
  0
POLYLINE
  5
534
  8
0
  6
CONTINUOUS
 62
     7
 66
     1
 10
0.0
 20
0.0
 30
0.0
 70
   128
  0
VERTEX
  5
956
  8
0
  6
CONTINUOUS
 62
     7
 10
129.6516505609
 20
69.1529975893
 30
0.0
  0
VERTEX
  5
957
  8
0
  6
CONTINUOUS
 62
     7
 10
129.5642355113
 20
68.868063231
 30
0.0
  0
VERTEX
  5
958
  8
0
  6
CONTINUOUS
 62
     7
 10
129.2404120511
 20
68.3526143362
 30
0.0
  0
VERTEX
  5
959
  8
0
  6
CONTINUOUS
 62
     7
 10
128.8218442872
 20
67.8568745909
 30
0.0
  0
VERTEX
  5
95A
  8
0
  6
CONTINUOUS
 62
     7
 10
128.4447415214
 20
67.3835929544
 30
0.0
  0
VERTEX
  5
95B
  8
0
  6
CONTINUOUS
 62
     7
 10
128.245313056
 20
66.9355183859
 30
0.0
  0
VERTEX
  5
95C
  8
0
  6
CONTINUOUS
 62
     7
 10
128.2418154062
 20
66.7926637596
 30
0.0
  0
VERTEX
  5
95D
  8
0
  6
CONTINUOUS
 62
     7
 10
128.2779832382
 20
66.6529975679
 30
0.0
  0
SEQEND
  5
9FF
  8
0
  6
CONTINUOUS
 62
     7
  0
LINE
  5
535
  8
0
  6
CONTINUOUS
 62
     7
 10
119.6828742716
 20
66.6529975731
 30
0.0
 11
128.2779832382
 21
66.6529975679
 31
0.0
  0
LINE
  5
536
  8
0
  6
CONTINUOUS
 62
     7
 10
119.6828742716
 20
69.1529975731
 30
0.0
 11
129.6516505609
 21
69.1529975893
 31
0.0
  0
LINE
  5
537
  8
0
  6
CONTINUOUS
 62
     7
 10
118.4910428979
 20
66.899901502
 30
0.0
 11
119.4842357093
 21
69.194148228
 31
0.0
  0
LINE
  5
538
  8
0
  6
CONTINUOUS
 62
     7
 10
118.4241639855
 20
66.9288537739
 30
0.0
 11
118.4910428979
 21
66.899901502
 31
0.0
  0
LINE
  5
539
  8
0
  6
CONTINUOUS
 62
     7
 10
114.9450465942
 20
71.1591897153
 30
0.0
 11
119.4842357093
 21
69.194148228
 31
0.0
  0
ARC
  5
53A
  8
0
  6
CONTINUOUS
 62
     7
 10
119.6828742716
 20
69.6529975731
 30
0.0
 40
3.000000000000009
 50
246.5919316298
 51
270.0
  0
ARC
  5
53B
  8
0
  6
CONTINUOUS
 62
     7
 10
119.6828742716
 20
69.6529975731
 30
0.0
 40
0.5000000000000078
 50
246.5919316298
 51
270.0
  0
LINE
  5
53C
  8
0
  6
CONTINUOUS
 62
     7
 10
154.0446986204
 20
69.1529975731
 30
0.0
 11
154.0446986204
 21
66.6529975731
 31
0.0
  0
LINE
  5
53D
  8
0
  6
CONTINUOUS
 62
     7
 10
139.0780690733
 20
66.6529975731
 30
0.0
 11
139.0780690733
 21
69.1529975731
 31
0.0
  0
LINE
  5
53E
  8
0
  6
CONTINUOUS
 62
     7
 10
139.0780690733
 20
66.6529975731
 30
0.0
 11
140.0613838468
 21
66.6529975731
 31
0.0
  0
LINE
  5
53F
  8
0
  6
CONTINUOUS
 62
     7
 10
150.0613838468
 20
66.6529975731
 30
0.0
 11
154.0446986204
 21
66.6529975731
 31
0.0
  0
LINE
  5
540
  8
0
  6
CONTINUOUS
 62
     7
 10
154.0446986204
 20
69.1529975731
 30
0.0
 11
150.0613838468
 21
69.1529975731
 31
0.0
  0
LINE
  5
541
  8
0
  6
CONTINUOUS
 62
     7
 10
140.0613838468
 20
69.1529975731
 30
0.0
 11
139.0780690733
 21
69.1529975731
 31
0.0
  0
LINE
  5
542
  8
0
  6
CONTINUOUS
 62
     7
 10
128.2779832382
 20
66.6529975679
 30
0.0
 11
139.0780690733
 21
66.6529975731
 31
0.0
  0
LINE
  5
543
  8
0
  6
CONTINUOUS
 62
     7
 10
129.6516505609
 20
69.1529975893
 30
0.0
 11
139.0780690733
 21
69.1529975731
 31
0.0
  0
LINE
  5
544
  8
0
  6
CONTINUOUS
 62
     7
 10
157.0613838468
 20
69.1529975731
 30
0.0
 11
157.0613838468
 21
66.6529975731
 31
0.0
  0
LINE
  5
545
  8
0
  6
CONTINUOUS
 62
     7
 10
154.0446986204
 20
66.6529975731
 30
0.0
 11
157.0613838468
 21
66.6529975731
 31
0.0
  0
LINE
  5
546
  8
0
  6
CONTINUOUS
 62
     7
 10
154.0446986204
 20
69.1529975731
 30
0.0
 11
157.0613838468
 21
69.1529975731
 31
0.0
  0
CIRCLE
  5
547
  8
0
  6
CONTINUOUS
 62
     7
 10
112.5613838468
 20
65.6529975731
 30
0.0
 40
5.999999999999996
  0
LINE
  5
548
  8
0
  6
CONTINUOUS
 62
     8
 10
150.0363210323
 20
66.1529975731
 30
0.0
 11
150.0613838468
 21
66.1529975731
 31
0.0
  0
LINE
  5
549
  8
0
  6
CONTINUOUS
 62
     8
 10
140.0613838468
 20
66.1529975731
 30
0.0
 11
140.0864466613
 21
66.1529975731
 31
0.0
  0
DIMENSION
  5
54A
  8
0
  6
CONTINUOUS
 62
     7
  2
_D_14
 10
165.6827985577
 20
62.1529975731
 30
0.0
 11
165.6827985577
 21
65.6529975731
 31
0.0
 70
   160
  1
<>
  3
SLDDIMSTYLE1
 13
157.0613838468
 23
69.1529975731
 33
0.0
 14
157.0613838468
 24
62.1529975731
 34
0.0
 50
90.0
  0
DIMENSION
  5
556
  8
0
  6
CONTINUOUS
 62
     7
  2
_D_15
 10
174.0613838468
 20
82.6529975731
 30
0.0
 11
174.0613838468
 21
72.4029975731
 31
0.0
 70
   160
  1
<>
  3
SLDDIMSTYLE1
 13
157.0613838468
 23
62.1529975731
 33
0.0
 14
149.0300108134
 24
82.6529975731
 34
0.0
 50
90.0
  0
DIMENSION
  5
560
  8
0
  6
CONTINUOUS
 62
     7
  2
_D_16
 10
157.0613838468
 20
53.1582697855
 30
0.0
 11
134.8113838468
 21
53.1582697855
 31
0.0
 70
   160
  1
<>
  3
SLDDIMSTYLE0
 13
112.5613838468
 23
57.1529975731
 33
0.0
 14
157.0613838468
 24
62.1529975731
 34
0.0
  0
DIMENSION
  5
56A
  8
0
  6
CONTINUOUS
 62
     7
  2
_D_17
 10
117.1546209473
 20
69.513330841
 30
0.0
 11
102.0860919826
 21
56.8491606581
 31
0.0
 70
   163
  1
<>
  3
SLDDIMSTYLE2
 15
107.9681467463
 25
61.7926643053
 35
0.0
 40
0.0
  0
INSERT
  5
57A
  8
0
  6
CONTINUOUS
 62
     7
  2
SW_NOTE_0_7
 10
140.5476696082
 20
82.1116743928
 30
0.0
  0
INSERT
  5
586
  8
0
  6
CONTINUOUS
 62
     7
  2
SW_CENTERMARKSYMBOL_11
 10
112.5613838468
 20
65.6529975731
 30
0.0
  0
LINE
  5
587
  8
0
  6
CENTERX2
 62
     7
 10
145.0613838468
 20
60.5038154294
 30
0.0
 11
145.0613838468
 21
83.6529975731
 31
0.0
  0
LINE
  5
588
  8
0
  6
CENTERX2
 62
     7
 10
301.6051961574
 20
191.6308760648
 30
0.0
 11
301.6051961574
 21
189.1308760648
 31
0.0
  0
LINE
  5
589
  8
0
  6
CONTINUOUS
 62
     7
 10
259.5709253969
 20
192.7539863785
 30
0.0
 11
265.4465519378
 21
198.6296129194
 31
0.0
  0
LINE
  5
58A
  8
0
  6
CONTINUOUS
 62
     7
 10
267.0925598508
 20
195.7854927719
 30
0.0
 11
268.9937355011
 21
197.6866684222
 31
0.0
  0
LINE
  5
58B
  8
0
  6
CONTINUOUS
 62
     7
 10
260.590345818
 20
189.2832787391
 30
0.0
 11
262.4172725377
 21
191.1102054588
 31
0.0
  0
LINE
  5
58C
  8
0
  6
CONTINUOUS
 62
     7
 10
270.2261419243
 20
194.4289467849
 30
0.0
 11
272.1273175746
 21
196.3301224351
 31
0.0
  0
LINE
  5
58D
  8
0
  6
CONTINUOUS
 62
     7
 10
263.0041984607
 20
187.2070033213
 30
0.0
 11
264.9783780333
 21
189.1811828939
 31
0.0
  0
LINE
  5
58E
  8
0
  6
CONTINUOUS
 62
     7
 10
273.9181992648
 20
193.6308760648
 30
0.0
 11
276.4181992648
 21
196.1308760648
 31
0.0
  0
LINE
  5
58F
  8
0
  6
CONTINUOUS
 62
     7
 10
267.1226691191
 20
186.8353459192
 30
0.0
 11
271.3651923971
 21
191.0778691972
 31
0.0
  0
LINE
  5
590
  8
0
  6
CONTINUOUS
 62
     7
 10
278.4083273253
 20
193.6308760648
 30
0.0
 11
280.9083273253
 21
196.1308760648
 31
0.0
  0
LINE
  5
591
  8
0
  6
CONTINUOUS
 62
     7
 10
282.8984553859
 20
193.6308760648
 30
0.0
 11
285.3984553859
 21
196.1308760648
 31
0.0
  0
LINE
  5
592
  8
0
  6
CONTINUOUS
 62
     7
 10
287.3885834464
 20
193.6308760648
 30
0.0
 11
289.8885834464
 21
196.1308760648
 31
0.0
  0
LINE
  5
593
  8
0
  6
CONTINUOUS
 62
     7
 10
291.8787115069
 20
193.6308760648
 30
0.0
 11
292.0696622515
 21
193.8218268094
 31
0.0
  0
LINE
  5
594
  8
0
  6
CONTINUOUS
 62
     7
 10
307.0696622515
 20
195.3514426278
 30
0.0
 11
307.8490956885
 21
196.1308760648
 31
0.0
  0
LINE
  5
595
  8
0
  6
CONTINUOUS
 62
     7
 10
309.8392237491
 20
193.6308760648
 30
0.0
 11
310.0696622515
 21
193.8613145672
 31
0.0
  0
LINE
  5
596
  8
0
  6
CONTINUOUS
 62
     7
 10
273.9083273253
 20
189.1308760648
 30
0.0
 11
276.4083273253
 21
191.6308760648
 31
0.0
  0
LINE
  5
597
  8
0
  6
CONTINUOUS
 62
     7
 10
278.3984553859
 20
189.1308760648
 30
0.0
 11
280.8984553859
 21
191.6308760648
 31
0.0
  0
LINE
  5
598
  8
0
  6
CONTINUOUS
 62
     7
 10
282.8885834464
 20
189.1308760648
 30
0.0
 11
285.3885834464
 21
191.6308760648
 31
0.0
  0
LINE
  5
599
  8
0
  6
CONTINUOUS
 62
     7
 10
287.3787115069
 20
189.1308760648
 30
0.0
 11
289.8787115069
 21
191.6308760648
 31
0.0
  0
LINE
  5
59A
  8
0
  6
CONTINUOUS
 62
     7
 10
291.8688395675
 20
189.1308760648
 30
0.0
 11
294.3688395675
 21
191.6308760648
 31
0.0
  0
LINE
  5
59B
  8
0
  6
CONTINUOUS
 62
     7
 10
296.358967628
 20
189.1308760648
 30
0.0
 11
298.858967628
 21
191.6308760648
 31
0.0
  0
LINE
  5
59C
  8
0
  6
CONTINUOUS
 62
     7
 10
300.8490956885
 20
189.1308760648
 30
0.0
 11
303.3490956885
 21
191.6308760648
 31
0.0
  0
LINE
  5
59D
  8
0
  6
CONTINUOUS
 62
     7
 10
305.3392237491
 20
189.1308760648
 30
0.0
 11
307.8392237491
 21
191.6308760648
 31
0.0
  0
LINE
  5
59E
  8
0
  6
CONTINUOUS
 62
     7
 10
309.8293518096
 20
189.1308760648
 30
0.0
 11
310.0696622515
 21
189.3711865067
 31
0.0
  0
LINE
  5
59F
  8
0
  6
CONTINUOUS
 62
     7
 10
262.5111066218
 20
191.2040395429
 30
0.0
 11
266.9964987734
 21
195.6894316945
 31
0.0
  0
LINE
  5
5A0
  8
0
  6
CONTINUOUS
 62
     7
 10
265.0876663028
 20
189.2904711634
 30
0.0
 11
268.9100671529
 21
193.1128720135
 31
0.0
  0
LINE
  5
5A1
  8
0
  6
CONTINUOUS
 62
     7
 10
291.8787115069
 20
191.6308760648
 30
0.0
 11
290.8787115069
 21
192.6308760648
 31
0.0
  0
LINE
  5
5A2
  8
0
  6
CONTINUOUS
 62
     7
 10
296.3688395675
 20
191.6308760648
 30
0.0
 11
293.0696622515
 21
194.9300533808
 31
0.0
  0
LINE
  5
5A3
  8
0
  6
CONTINUOUS
 62
     7
 10
300.858967628
 20
191.6308760648
 30
0.0
 11
293.0696622515
 21
199.4201814413
 31
0.0
  0
LINE
  5
5A4
  8
0
  6
CONTINUOUS
 62
     7
 10
303.0696622515
 20
193.9103095019
 30
0.0
 11
293.0696622515
 21
203.9103095019
 31
0.0
  0
LINE
  5
5A5
  8
0
  6
CONTINUOUS
 62
     7
 10
305.3490956885
 20
191.6308760648
 30
0.0
 11
304.3490956885
 21
192.6308760648
 31
0.0
  0
LINE
  5
5A6
  8
0
  6
CONTINUOUS
 62
     7
 10
303.0696622515
 20
198.4004375624
 30
0.0
 11
293.0696622515
 21
208.4004375624
 31
0.0
  0
LINE
  5
5A7
  8
0
  6
CONTINUOUS
 62
     7
 10
303.0696622515
 20
202.8905656229
 30
0.0
 11
296.3293518096
 21
209.6308760648
 31
0.0
  0
LINE
  5
5A8
  8
0
  6
CONTINUOUS
 62
     7
 10
303.0696622515
 20
207.3806936835
 30
0.0
 11
300.8194798701
 21
209.6308760648
 31
0.0
  0
LINE
  5
5A9
  8
0
  6
CONTINUOUS
 62
     7
 10
275.0037115069
 20
151.6308760648
 30
0.0
 11
275.0037115069
 21
177.293091629
 31
0.0
  0
LINE
  5
5AA
  8
0
  6
CONTINUOUS
 62
     7
 10
278.1787115069
 20
151.6308760648
 30
0.0
 11
278.1787115069
 21
178.043091629
 31
0.0
  0
LINE
  5
5AB
  8
0
  6
CONTINUOUS
 62
     7
 10
281.3537115069
 20
151.6308760648
 30
0.0
 11
281.3537115069
 21
189.1308760648
 31
0.0
  0
LINE
  5
5AC
  8
0
  6
CONTINUOUS
 62
     7
 10
284.5287115069
 20
151.6308760648
 30
0.0
 11
284.5287115069
 21
189.1308760648
 31
0.0
  0
LINE
  5
5AD
  8
0
  6
CONTINUOUS
 62
     7
 10
287.7037115069
 20
151.6308760648
 30
0.0
 11
287.7037115069
 21
189.1308760648
 31
0.0
  0
LINE
  5
5AE
  8
0
  6
CONTINUOUS
 62
     7
 10
290.8787115069
 20
151.6308760648
 30
0.0
 11
290.8787115069
 21
189.1308760648
 31
0.0
  0
LINE
  5
5AF
  8
0
  6
CONTINUOUS
 62
     7
 10
294.0537115069
 20
151.6308760648
 30
0.0
 11
294.0537115069
 21
189.1308760648
 31
0.0
  0
LINE
  5
5B0
  8
0
  6
CONTINUOUS
 62
     7
 10
297.2287115069
 20
151.6308760648
 30
0.0
 11
297.2287115069
 21
189.1308760648
 31
0.0
  0
LINE
  5
5B1
  8
0
  6
CONTINUOUS
 62
     7
 10
300.4037115069
 20
151.6308760648
 30
0.0
 11
300.4037115069
 21
189.1308760648
 31
0.0
  0
LINE
  5
5B2
  8
0
  6
CONTINUOUS
 62
     7
 10
303.5787115069
 20
151.6308760648
 30
0.0
 11
303.5787115069
 21
189.1308760648
 31
0.0
  0
LINE
  5
5B3
  8
0
  6
CONTINUOUS
 62
     7
 10
306.7537115069
 20
151.6308760648
 30
0.0
 11
306.7537115069
 21
189.1308760648
 31
0.0
  0
LINE
  5
5B4
  8
0
  6
CONTINUOUS
 62
     7
 10
309.9287115069
 20
151.6308760648
 30
0.0
 11
309.9287115069
 21
189.1308760648
 31
0.0
  0
LINE
  5
5B5
  8
0
  6
CONTINUOUS
 62
     7
 10
313.1037115069
 20
151.6308760648
 30
0.0
 11
313.1037115069
 21
191.6308760648
 31
0.0
  0
LINE
  5
5B6
  8
0
  6
CONTINUOUS
 62
     7
 10
316.2787115069
 20
151.6308760648
 30
0.0
 11
316.2787115069
 21
191.6308760648
 31
0.0
  0
LINE
  5
5B7
  8
0
  6
CONTINUOUS
 62
     7
 10
317.5696622515
 20
155.8218269159
 30
0.0
 11
314.6912114157
 21
152.9433760802
 31
0.0
  0
LINE
  5
5B8
  8
0
  6
CONTINUOUS
 62
     7
 10
317.5696622515
 20
168.5218268946
 30
0.0
 11
314.6912114517
 21
165.6433760948
 31
0.0
  0
LINE
  5
5B9
  8
0
  6
CONTINUOUS
 62
     7
 10
311.516211439
 20
162.4683760822
 30
0.0
 11
308.3412114264
 21
159.2933760695
 31
0.0
  0
LINE
  5
5BA
  8
0
  6
CONTINUOUS
 62
     7
 10
305.1662114138
 20
156.1183760569
 30
0.0
 11
301.9912114011
 21
152.9433760443
 31
0.0
  0
LINE
  5
5BB
  8
0
  6
CONTINUOUS
 62
     7
 10
317.5696622515
 20
181.2218268733
 30
0.0
 11
314.6912114876
 21
178.3433761094
 31
0.0
  0
LINE
  5
5BC
  8
0
  6
CONTINUOUS
 62
     7
 10
311.516211475
 20
175.1683760968
 30
0.0
 11
308.3412114623
 21
171.9933760842
 31
0.0
  0
LINE
  5
5BD
  8
0
  6
CONTINUOUS
 62
     7
 10
305.1662114497
 20
168.8183760715
 30
0.0
 11
301.9912114371
 21
165.6433760589
 31
0.0
  0
LINE
  5
5BE
  8
0
  6
CONTINUOUS
 62
     7
 10
298.8162114244
 20
162.4683760463
 30
0.0
 11
295.6412114118
 21
159.2933760336
 31
0.0
  0
LINE
  5
5BF
  8
0
  6
CONTINUOUS
 62
     7
 10
292.4662113992
 20
156.118376021
 30
0.0
 11
289.2912113865
 21
152.9433760084
 31
0.0
  0
LINE
  5
5C0
  8
0
  6
CONTINUOUS
 62
     7
 10
315.2787114643
 20
191.6308760648
 30
0.0
 11
314.6912115235
 21
191.043376124
 31
0.0
  0
LINE
  5
5C1
  8
0
  6
CONTINUOUS
 62
     7
 10
311.5162115109
 20
187.8683761114
 30
0.0
 11
308.3412114982
 21
184.6933760988
 31
0.0
  0
LINE
  5
5C2
  8
0
  6
CONTINUOUS
 62
     7
 10
305.1662114856
 20
181.5183760861
 30
0.0
 11
301.991211473
 21
178.3433760735
 31
0.0
  0
LINE
  5
5C3
  8
0
  6
CONTINUOUS
 62
     7
 10
298.8162114603
 20
175.1683760609
 30
0.0
 11
295.6412114477
 21
171.9933760482
 31
0.0
  0
LINE
  5
5C4
  8
0
  6
CONTINUOUS
 62
     7
 10
292.4662114351
 20
168.8183760356
 30
0.0
 11
289.2912114224
 21
165.643376023
 31
0.0
  0
LINE
  5
5C5
  8
0
  6
CONTINUOUS
 62
     7
 10
286.1162114098
 20
162.4683760103
 30
0.0
 11
282.9412113972
 21
159.2933759977
 31
0.0
  0
LINE
  5
5C6
  8
0
  6
CONTINUOUS
 62
     7
 10
279.7662113845
 20
156.1183759851
 30
0.0
 11
276.5912113719
 21
152.9433759724
 31
0.0
  0
LINE
  5
5C7
  8
0
  6
CONTINUOUS
 62
     7
 10
298.8162114963
 20
187.8683760755
 30
0.0
 11
295.6412114836
 21
184.6933760628
 31
0.0
  0
LINE
  5
5C8
  8
0
  6
CONTINUOUS
 62
     7
 10
292.466211471
 20
181.5183760502
 30
0.0
 11
289.2912114584
 21
178.3433760376
 31
0.0
  0
LINE
  5
5C9
  8
0
  6
CONTINUOUS
 62
     7
 10
286.1162114457
 20
175.1683760249
 30
0.0
 11
282.9412114331
 21
171.9933760123
 31
0.0
  0
LINE
  5
5CA
  8
0
  6
CONTINUOUS
 62
     7
 10
279.7662114205
 20
168.8183759997
 30
0.0
 11
276.5912114078
 21
165.643375987
 31
0.0
  0
LINE
  5
5CB
  8
0
  6
CONTINUOUS
 62
     7
 10
286.1162114817
 20
187.8683760396
 30
0.0
 11
282.941211469
 21
184.6933760269
 31
0.0
  0
LINE
  5
5CC
  8
0
  6
CONTINUOUS
 62
     7
 10
279.7662114564
 20
181.5183760143
 30
0.0
 11
277.8696622515
 21
179.6218268094
 31
0.0
  0
LINE
  5
5CD
  8
0
  6
CONTINUOUS
 62
     7
 10
317.5696622515
 20
156.6155769159
 30
0.0
 11
314.6912114157
 21
153.7371260802
 31
0.0
  0
LINE
  5
5CE
  8
0
  6
CONTINUOUS
 62
     7
 10
317.5696622515
 20
169.3155768946
 30
0.0
 11
314.6912114517
 21
166.4371260948
 31
0.0
  0
LINE
  5
5CF
  8
0
  6
CONTINUOUS
 62
     7
 10
311.516211439
 20
163.2621260822
 30
0.0
 11
308.3412114264
 21
160.0871260695
 31
0.0
  0
LINE
  5
5D0
  8
0
  6
CONTINUOUS
 62
     7
 10
305.1662114138
 20
156.9121260569
 30
0.0
 11
301.9912114011
 21
153.7371260443
 31
0.0
  0
LINE
  5
5D1
  8
0
  6
CONTINUOUS
 62
     7
 10
317.5696622515
 20
182.0155768733
 30
0.0
 11
314.6912114876
 21
179.1371261094
 31
0.0
  0
LINE
  5
5D2
  8
0
  6
CONTINUOUS
 62
     7
 10
311.516211475
 20
175.9621260968
 30
0.0
 11
308.3412114623
 21
172.7871260842
 31
0.0
  0
LINE
  5
5D3
  8
0
  6
CONTINUOUS
 62
     7
 10
305.1662114497
 20
169.6121260715
 30
0.0
 11
301.9912114371
 21
166.4371260589
 31
0.0
  0
LINE
  5
5D4
  8
0
  6
CONTINUOUS
 62
     7
 10
298.8162114244
 20
163.2621260463
 30
0.0
 11
295.6412114118
 21
160.0871260336
 31
0.0
  0
LINE
  5
5D5
  8
0
  6
CONTINUOUS
 62
     7
 10
292.4662113992
 20
156.912126021
 30
0.0
 11
289.2912113865
 21
153.7371260084
 31
0.0
  0
LINE
  5
5D6
  8
0
  6
CONTINUOUS
 62
     7
 10
311.5162115109
 20
188.6621261114
 30
0.0
 11
308.3412114982
 21
185.4871260988
 31
0.0
  0
LINE
  5
5D7
  8
0
  6
CONTINUOUS
 62
     7
 10
305.1662114856
 20
182.3121260861
 30
0.0
 11
301.991211473
 21
179.1371260735
 31
0.0
  0
LINE
  5
5D8
  8
0
  6
CONTINUOUS
 62
     7
 10
298.8162114603
 20
175.9621260609
 30
0.0
 11
295.6412114477
 21
172.7871260482
 31
0.0
  0
LINE
  5
5D9
  8
0
  6
CONTINUOUS
 62
     7
 10
292.4662114351
 20
169.6121260356
 30
0.0
 11
289.2912114224
 21
166.437126023
 31
0.0
  0
LINE
  5
5DA
  8
0
  6
CONTINUOUS
 62
     7
 10
286.1162114098
 20
163.2621260103
 30
0.0
 11
282.9412113972
 21
160.0871259977
 31
0.0
  0
LINE
  5
5DB
  8
0
  6
CONTINUOUS
 62
     7
 10
279.7662113845
 20
156.9121259851
 30
0.0
 11
276.5912113719
 21
153.7371259724
 31
0.0
  0
LINE
  5
5DC
  8
0
  6
CONTINUOUS
 62
     7
 10
298.8162114963
 20
188.6621260755
 30
0.0
 11
295.6412114836
 21
185.4871260628
 31
0.0
  0
LINE
  5
5DD
  8
0
  6
CONTINUOUS
 62
     7
 10
292.466211471
 20
182.3121260502
 30
0.0
 11
289.2912114584
 21
179.1371260376
 31
0.0
  0
LINE
  5
5DE
  8
0
  6
CONTINUOUS
 62
     7
 10
286.1162114457
 20
175.9621260249
 30
0.0
 11
282.9412114331
 21
172.7871260123
 31
0.0
  0
LINE
  5
5DF
  8
0
  6
CONTINUOUS
 62
     7
 10
279.7662114205
 20
169.6121259997
 30
0.0
 11
276.5912114078
 21
166.437125987
 31
0.0
  0
LINE
  5
5E0
  8
0
  6
CONTINUOUS
 62
     7
 10
286.1162114817
 20
188.6621260396
 30
0.0
 11
282.941211469
 21
185.4871260269
 31
0.0
  0
LINE
  5
5E1
  8
0
  6
CONTINUOUS
 62
     7
 10
279.7662114564
 20
182.3121260143
 30
0.0
 11
277.2471770711
 21
179.793091629
 31
0.0
  0
LINE
  5
5E2
  8
0
  6
CONTINUOUS
 62
     7
 10
317.5696622515
 20
157.4093269159
 30
0.0
 11
314.6912114157
 21
154.5308760802
 31
0.0
  0
LINE
  5
5E3
  8
0
  6
CONTINUOUS
 62
     7
 10
317.5696622515
 20
170.1093268946
 30
0.0
 11
314.6912114517
 21
167.2308760948
 31
0.0
  0
LINE
  5
5E4
  8
0
  6
CONTINUOUS
 62
     7
 10
311.516211439
 20
164.0558760822
 30
0.0
 11
308.3412114264
 21
160.8808760695
 31
0.0
  0
LINE
  5
5E5
  8
0
  6
CONTINUOUS
 62
     7
 10
305.1662114138
 20
157.7058760569
 30
0.0
 11
301.9912114011
 21
154.5308760443
 31
0.0
  0
LINE
  5
5E6
  8
0
  6
CONTINUOUS
 62
     7
 10
317.5696622515
 20
182.8093268733
 30
0.0
 11
314.6912114876
 21
179.9308761094
 31
0.0
  0
LINE
  5
5E7
  8
0
  6
CONTINUOUS
 62
     7
 10
311.516211475
 20
176.7558760968
 30
0.0
 11
308.3412114623
 21
173.5808760842
 31
0.0
  0
LINE
  5
5E8
  8
0
  6
CONTINUOUS
 62
     7
 10
305.1662114497
 20
170.4058760715
 30
0.0
 11
301.9912114371
 21
167.2308760589
 31
0.0
  0
LINE
  5
5E9
  8
0
  6
CONTINUOUS
 62
     7
 10
298.8162114244
 20
164.0558760463
 30
0.0
 11
295.6412114118
 21
160.8808760336
 31
0.0
  0
LINE
  5
5EA
  8
0
  6
CONTINUOUS
 62
     7
 10
292.4662113992
 20
157.705876021
 30
0.0
 11
289.2912113865
 21
154.5308760084
 31
0.0
  0
LINE
  5
5EB
  8
0
  6
CONTINUOUS
 62
     7
 10
311.5162115109
 20
189.4558761114
 30
0.0
 11
308.3412114982
 21
186.2808760988
 31
0.0
  0
LINE
  5
5EC
  8
0
  6
CONTINUOUS
 62
     7
 10
305.1662114856
 20
183.1058760861
 30
0.0
 11
301.991211473
 21
179.9308760735
 31
0.0
  0
LINE
  5
5ED
  8
0
  6
CONTINUOUS
 62
     7
 10
298.8162114603
 20
176.7558760609
 30
0.0
 11
295.6412114477
 21
173.5808760482
 31
0.0
  0
LINE
  5
5EE
  8
0
  6
CONTINUOUS
 62
     7
 10
292.4662114351
 20
170.4058760356
 30
0.0
 11
289.2912114224
 21
167.230876023
 31
0.0
  0
LINE
  5
5EF
  8
0
  6
CONTINUOUS
 62
     7
 10
286.1162114098
 20
164.0558760103
 30
0.0
 11
282.9412113972
 21
160.8808759977
 31
0.0
  0
LINE
  5
5F0
  8
0
  6
CONTINUOUS
 62
     7
 10
279.7662113845
 20
157.7058759851
 30
0.0
 11
276.5912113719
 21
154.5308759724
 31
0.0
  0
LINE
  5
5F1
  8
0
  6
CONTINUOUS
 62
     7
 10
298.4912114856
 20
189.1308760648
 30
0.0
 11
295.6412114836
 21
186.2808760628
 31
0.0
  0
LINE
  5
5F2
  8
0
  6
CONTINUOUS
 62
     7
 10
292.466211471
 20
183.1058760502
 30
0.0
 11
289.2912114584
 21
179.9308760376
 31
0.0
  0
LINE
  5
5F3
  8
0
  6
CONTINUOUS
 62
     7
 10
286.1162114457
 20
176.7558760249
 30
0.0
 11
282.9412114331
 21
173.5808760123
 31
0.0
  0
LINE
  5
5F4
  8
0
  6
CONTINUOUS
 62
     7
 10
279.7662114205
 20
170.4058759997
 30
0.0
 11
276.5912114078
 21
167.230875987
 31
0.0
  0
LINE
  5
5F5
  8
0
  6
CONTINUOUS
 62
     7
 10
285.7912115069
 20
189.1308760648
 30
0.0
 11
282.941211469
 21
186.2808760269
 31
0.0
  0
LINE
  5
5F6
  8
0
  6
CONTINUOUS
 62
     7
 10
279.7662114564
 20
183.1058760143
 30
0.0
 11
276.5912114438
 21
179.9308760017
 31
0.0
  0
LINE
  5
5F7
  8
0
  6
CONTINUOUS
 62
     7
 10
275.0037115069
 20
196.1308760648
 30
0.0
 11
275.0037115069
 21
268.6308760648
 31
0.0
  0
LINE
  5
5F8
  8
0
  6
CONTINUOUS
 62
     7
 10
278.1787115069
 20
196.1308760648
 30
0.0
 11
278.1787115069
 21
268.6308760648
 31
0.0
  0
LINE
  5
5F9
  8
0
  6
CONTINUOUS
 62
     7
 10
281.3537115069
 20
196.1308760648
 30
0.0
 11
281.3537115069
 21
268.6308760648
 31
0.0
  0
LINE
  5
5FA
  8
0
  6
CONTINUOUS
 62
     7
 10
284.5287115069
 20
196.1308760648
 30
0.0
 11
284.5287115069
 21
268.6308760648
 31
0.0
  0
LINE
  5
5FB
  8
0
  6
CONTINUOUS
 62
     7
 10
287.7037115069
 20
214.1308760648
 30
0.0
 11
287.7037115069
 21
268.6308760648
 31
0.0
  0
LINE
  5
5FC
  8
0
  6
CONTINUOUS
 62
     7
 10
290.8787115069
 20
214.1308760648
 30
0.0
 11
290.8787115069
 21
268.6308760648
 31
0.0
  0
LINE
  5
5FD
  8
0
  6
CONTINUOUS
 62
     7
 10
294.0537115069
 20
214.1308760648
 30
0.0
 11
294.0537115069
 21
268.6308760648
 31
0.0
  0
LINE
  5
5FE
  8
0
  6
CONTINUOUS
 62
     7
 10
297.2287115069
 20
214.1308760648
 30
0.0
 11
297.2287115069
 21
268.6308760648
 31
0.0
  0
LINE
  5
5FF
  8
0
  6
CONTINUOUS
 62
     7
 10
300.4037115069
 20
214.1308760648
 30
0.0
 11
300.4037115069
 21
268.6308760648
 31
0.0
  0
LINE
  5
600
  8
0
  6
CONTINUOUS
 62
     7
 10
303.5787115069
 20
214.1308760648
 30
0.0
 11
303.5787115069
 21
268.6308760648
 31
0.0
  0
LINE
  5
601
  8
0
  6
CONTINUOUS
 62
     7
 10
306.7537115069
 20
196.1308760648
 30
0.0
 11
306.7537115069
 21
268.6308760648
 31
0.0
  0
LINE
  5
602
  8
0
  6
CONTINUOUS
 62
     7
 10
309.9287115069
 20
196.1308760648
 30
0.0
 11
309.9287115069
 21
268.6308760648
 31
0.0
  0
LINE
  5
603
  8
0
  6
CONTINUOUS
 62
     7
 10
313.1037115069
 20
193.6308760648
 30
0.0
 11
313.1037115069
 21
268.6308760648
 31
0.0
  0
LINE
  5
604
  8
0
  6
CONTINUOUS
 62
     7
 10
316.2787115069
 20
193.6308760648
 30
0.0
 11
316.2787115069
 21
268.6308760648
 31
0.0
  0
LINE
  5
605
  8
0
  6
CONTINUOUS
 62
     7
 10
317.5696622515
 20
193.921826852
 30
0.0
 11
317.2787114643
 21
193.6308760648
 31
0.0
  0
LINE
  5
606
  8
0
  6
CONTINUOUS
 62
     7
 10
317.5696622515
 20
206.6218268307
 30
0.0
 11
314.6912115594
 21
203.7433761386
 31
0.0
  0
LINE
  5
607
  8
0
  6
CONTINUOUS
 62
     7
 10
311.5162115468
 20
200.568376126
 30
0.0
 11
308.3412115342
 21
197.3933761134
 31
0.0
  0
LINE
  5
608
  8
0
  6
CONTINUOUS
 62
     7
 10
317.5696622515
 20
219.3218268094
 30
0.0
 11
314.6912115954
 21
216.4433761533
 31
0.0
  0
LINE
  5
609
  8
0
  6
CONTINUOUS
 62
     7
 10
311.5162115827
 20
213.2683761406
 30
0.0
 11
308.3412115701
 21
210.093376128
 31
0.0
  0
LINE
  5
60A
  8
0
  6
CONTINUOUS
 62
     7
 10
305.1662115575
 20
206.9183761154
 30
0.0
 11
304.5696622515
 21
206.3218268094
 31
0.0
  0
LINE
  5
60B
  8
0
  6
CONTINUOUS
 62
     7
 10
286.1162115176
 20
200.5683760542
 30
0.0
 11
282.9412115049
 21
197.3933760415
 31
0.0
  0
LINE
  5
60C
  8
0
  6
CONTINUOUS
 62
     7
 10
317.5696622515
 20
232.0218267881
 30
0.0
 11
314.6912116313
 21
229.1433761679
 31
0.0
  0
LINE
  5
60D
  8
0
  6
CONTINUOUS
 62
     7
 10
311.5162116186
 20
225.9683761552
 30
0.0
 11
308.341211606
 21
222.7933761426
 31
0.0
  0
LINE
  5
60E
  8
0
  6
CONTINUOUS
 62
     7
 10
305.1662115934
 20
219.61837613
 30
0.0
 11
301.9912115807
 21
216.4433761173
 31
0.0
  0
LINE
  5
60F
  8
0
  6
CONTINUOUS
 62
     7
 10
317.5696622515
 20
244.7218267668
 30
0.0
 11
314.6912116672
 21
241.8433761825
 31
0.0
  0
LINE
  5
610
  8
0
  6
CONTINUOUS
 62
     7
 10
311.5162116546
 20
238.6683761698
 30
0.0
 11
308.3412116419
 21
235.4933761572
 31
0.0
  0
LINE
  5
611
  8
0
  6
CONTINUOUS
 62
     7
 10
305.1662116293
 20
232.3183761446
 30
0.0
 11
301.9912116167
 21
229.1433761319
 31
0.0
  0
LINE
  5
612
  8
0
  6
CONTINUOUS
 62
     7
 10
298.816211604
 20
225.9683761193
 30
0.0
 11
295.6412115914
 21
222.7933761067
 31
0.0
  0
LINE
  5
613
  8
0
  6
CONTINUOUS
 62
     7
 10
292.4662115788
 20
219.618376094
 30
0.0
 11
289.2912115661
 21
216.4433760814
 31
0.0
  0
LINE
  5
614
  8
0
  6
CONTINUOUS
 62
     7
 10
286.1162115535
 20
213.2683760688
 30
0.0
 11
282.9412115409
 21
210.0933760561
 31
0.0
  0
LINE
  5
615
  8
0
  6
CONTINUOUS
 62
     7
 10
279.7662115282
 20
206.9183760435
 30
0.0
 11
276.5912115156
 21
203.7433760309
 31
0.0
  0
LINE
  5
616
  8
0
  6
CONTINUOUS
 62
     7
 10
317.5696622515
 20
257.4218267454
 30
0.0
 11
314.6912117031
 21
254.5433761971
 31
0.0
  0
LINE
  5
617
  8
0
  6
CONTINUOUS
 62
     7
 10
311.5162116905
 20
251.3683761845
 30
0.0
 11
308.3412116778
 21
248.1933761718
 31
0.0
  0
LINE
  5
618
  8
0
  6
CONTINUOUS
 62
     7
 10
305.1662116652
 20
245.0183761592
 30
0.0
 11
301.9912116526
 21
241.8433761466
 31
0.0
  0
LINE
  5
619
  8
0
  6
CONTINUOUS
 62
     7
 10
298.8162116399
 20
238.6683761339
 30
0.0
 11
295.6412116273
 21
235.4933761213
 31
0.0
  0
LINE
  5
61A
  8
0
  6
CONTINUOUS
 62
     7
 10
292.4662116147
 20
232.3183761087
 30
0.0
 11
289.2912116021
 21
229.143376096
 31
0.0
  0
LINE
  5
61B
  8
0
  6
CONTINUOUS
 62
     7
 10
286.1162115894
 20
225.9683760834
 30
0.0
 11
282.9412115768
 21
222.7933760708
 31
0.0
  0
LINE
  5
61C
  8
0
  6
CONTINUOUS
 62
     7
 10
279.7662115642
 20
219.6183760581
 30
0.0
 11
276.5912115515
 21
216.4433760455
 31
0.0
  0
LINE
  5
61D
  8
0
  6
CONTINUOUS
 62
     7
 10
316.0787115922
 20
268.6308760648
 30
0.0
 11
314.691211739
 21
267.2433762117
 31
0.0
  0
LINE
  5
61E
  8
0
  6
CONTINUOUS
 62
     7
 10
311.5162117264
 20
264.0683761991
 30
0.0
 11
308.3412117138
 21
260.8933761864
 31
0.0
  0
LINE
  5
61F
  8
0
  6
CONTINUOUS
 62
     7
 10
305.1662117011
 20
257.7183761738
 30
0.0
 11
301.9912116885
 21
254.5433761612
 31
0.0
  0
LINE
  5
620
  8
0
  6
CONTINUOUS
 62
     7
 10
298.8162116759
 20
251.3683761485
 30
0.0
 11
295.6412116632
 21
248.1933761359
 31
0.0
  0
LINE
  5
621
  8
0
  6
CONTINUOUS
 62
     7
 10
292.4662116506
 20
245.0183761233
 30
0.0
 11
289.291211638
 21
241.8433761106
 31
0.0
  0
LINE
  5
622
  8
0
  6
CONTINUOUS
 62
     7
 10
286.1162116253
 20
238.668376098
 30
0.0
 11
282.9412116127
 21
235.4933760854
 31
0.0
  0
LINE
  5
623
  8
0
  6
CONTINUOUS
 62
     7
 10
279.7662116001
 20
232.3183760727
 30
0.0
 11
276.5912115874
 21
229.1433760601
 31
0.0
  0
LINE
  5
624
  8
0
  6
CONTINUOUS
 62
     7
 10
303.3787116135
 20
268.6308760648
 30
0.0
 11
301.9912117244
 21
267.2433761758
 31
0.0
  0
LINE
  5
625
  8
0
  6
CONTINUOUS
 62
     7
 10
298.8162117118
 20
264.0683761631
 30
0.0
 11
295.6412116992
 21
260.8933761505
 31
0.0
  0
LINE
  5
626
  8
0
  6
CONTINUOUS
 62
     7
 10
292.4662116865
 20
257.7183761379
 30
0.0
 11
289.2912116739
 21
254.5433761252
 31
0.0
  0
LINE
  5
627
  8
0
  6
CONTINUOUS
 62
     7
 10
286.1162116613
 20
251.3683761126
 30
0.0
 11
282.9412116486
 21
248.1933761
 31
0.0
  0
LINE
  5
628
  8
0
  6
CONTINUOUS
 62
     7
 10
279.766211636
 20
245.0183760873
 30
0.0
 11
276.5912116234
 21
241.8433760747
 31
0.0
  0
LINE
  5
629
  8
0
  6
CONTINUOUS
 62
     7
 10
290.6787116348
 20
268.6308760648
 30
0.0
 11
289.2912117098
 21
267.2433761399
 31
0.0
  0
LINE
  5
62A
  8
0
  6
CONTINUOUS
 62
     7
 10
286.1162116972
 20
264.0683761272
 30
0.0
 11
282.9412116845
 21
260.8933761146
 31
0.0
  0
LINE
  5
62B
  8
0
  6
CONTINUOUS
 62
     7
 10
279.7662116719
 20
257.718376102
 30
0.0
 11
276.5912116593
 21
254.5433760893
 31
0.0
  0
LINE
  5
62C
  8
0
  6
CONTINUOUS
 62
     7
 10
277.9787116561
 20
268.6308760648
 30
0.0
 11
276.5912116952
 21
267.2433761039
 31
0.0
  0
LINE
  5
62D
  8
0
  6
CONTINUOUS
 62
     7
 10
317.5696622515
 20
194.715576852
 30
0.0
 11
316.4849614643
 21
193.6308760648
 31
0.0
  0
LINE
  5
62E
  8
0
  6
CONTINUOUS
 62
     7
 10
317.5696622515
 20
207.4155768307
 30
0.0
 11
314.6912115594
 21
204.5371261386
 31
0.0
  0
LINE
  5
62F
  8
0
  6
CONTINUOUS
 62
     7
 10
311.5162115468
 20
201.362126126
 30
0.0
 11
308.3412115342
 21
198.1871261134
 31
0.0
  0
LINE
  5
630
  8
0
  6
CONTINUOUS
 62
     7
 10
317.5696622515
 20
220.1155768094
 30
0.0
 11
314.6912115954
 21
217.2371261533
 31
0.0
  0
LINE
  5
631
  8
0
  6
CONTINUOUS
 62
     7
 10
311.5162115827
 20
214.0621261406
 30
0.0
 11
308.3412115701
 21
210.887126128
 31
0.0
  0
LINE
  5
632
  8
0
  6
CONTINUOUS
 62
     7
 10
305.1662115575
 20
207.7121261154
 30
0.0
 11
304.5696622515
 21
207.1155768094
 31
0.0
  0
LINE
  5
633
  8
0
  6
CONTINUOUS
 62
     7
 10
286.1162115176
 20
201.3621260542
 30
0.0
 11
282.9412115049
 21
198.1871260415
 31
0.0
  0
LINE
  5
634
  8
0
  6
CONTINUOUS
 62
     7
 10
317.5696622515
 20
232.8155767881
 30
0.0
 11
314.6912116313
 21
229.9371261679
 31
0.0
  0
LINE
  5
635
  8
0
  6
CONTINUOUS
 62
     7
 10
311.5162116186
 20
226.7621261552
 30
0.0
 11
308.341211606
 21
223.5871261426
 31
0.0
  0
LINE
  5
636
  8
0
  6
CONTINUOUS
 62
     7
 10
305.1662115934
 20
220.41212613
 30
0.0
 11
301.9912115807
 21
217.2371261173
 31
0.0
  0
LINE
  5
637
  8
0
  6
CONTINUOUS
 62
     7
 10
317.5696622515
 20
245.5155767668
 30
0.0
 11
314.6912116672
 21
242.6371261825
 31
0.0
  0
LINE
  5
638
  8
0
  6
CONTINUOUS
 62
     7
 10
311.5162116546
 20
239.4621261698
 30
0.0
 11
308.3412116419
 21
236.2871261572
 31
0.0
  0
LINE
  5
639
  8
0
  6
CONTINUOUS
 62
     7
 10
305.1662116293
 20
233.1121261446
 30
0.0
 11
301.9912116167
 21
229.9371261319
 31
0.0
  0
LINE
  5
63A
  8
0
  6
CONTINUOUS
 62
     7
 10
298.816211604
 20
226.7621261193
 30
0.0
 11
295.6412115914
 21
223.5871261067
 31
0.0
  0
LINE
  5
63B
  8
0
  6
CONTINUOUS
 62
     7
 10
292.4662115788
 20
220.412126094
 30
0.0
 11
289.2912115661
 21
217.2371260814
 31
0.0
  0
LINE
  5
63C
  8
0
  6
CONTINUOUS
 62
     7
 10
286.1162115535
 20
214.0621260688
 30
0.0
 11
282.9412115409
 21
210.8871260561
 31
0.0
  0
LINE
  5
63D
  8
0
  6
CONTINUOUS
 62
     7
 10
279.7662115282
 20
207.7121260435
 30
0.0
 11
276.5912115156
 21
204.5371260309
 31
0.0
  0
LINE
  5
63E
  8
0
  6
CONTINUOUS
 62
     7
 10
317.5696622515
 20
258.2155767454
 30
0.0
 11
314.6912117031
 21
255.3371261971
 31
0.0
  0
LINE
  5
63F
  8
0
  6
CONTINUOUS
 62
     7
 10
311.5162116905
 20
252.1621261845
 30
0.0
 11
308.3412116778
 21
248.9871261718
 31
0.0
  0
LINE
  5
640
  8
0
  6
CONTINUOUS
 62
     7
 10
305.1662116652
 20
245.8121261592
 30
0.0
 11
301.9912116526
 21
242.6371261466
 31
0.0
  0
LINE
  5
641
  8
0
  6
CONTINUOUS
 62
     7
 10
298.8162116399
 20
239.4621261339
 30
0.0
 11
295.6412116273
 21
236.2871261213
 31
0.0
  0
LINE
  5
642
  8
0
  6
CONTINUOUS
 62
     7
 10
292.4662116147
 20
233.1121261087
 30
0.0
 11
289.2912116021
 21
229.937126096
 31
0.0
  0
LINE
  5
643
  8
0
  6
CONTINUOUS
 62
     7
 10
286.1162115894
 20
226.7621260834
 30
0.0
 11
282.9412115768
 21
223.5871260708
 31
0.0
  0
LINE
  5
644
  8
0
  6
CONTINUOUS
 62
     7
 10
279.7662115642
 20
220.4121260581
 30
0.0
 11
276.5912115515
 21
217.2371260455
 31
0.0
  0
LINE
  5
645
  8
0
  6
CONTINUOUS
 62
     7
 10
315.2849615922
 20
268.6308760648
 30
0.0
 11
314.691211739
 21
268.0371262117
 31
0.0
  0
LINE
  5
646
  8
0
  6
CONTINUOUS
 62
     7
 10
311.5162117264
 20
264.8621261991
 30
0.0
 11
308.3412117138
 21
261.6871261864
 31
0.0
  0
LINE
  5
647
  8
0
  6
CONTINUOUS
 62
     7
 10
305.1662117011
 20
258.5121261738
 30
0.0
 11
301.9912116885
 21
255.3371261612
 31
0.0
  0
LINE
  5
648
  8
0
  6
CONTINUOUS
 62
     7
 10
298.8162116759
 20
252.1621261485
 30
0.0
 11
295.6412116632
 21
248.9871261359
 31
0.0
  0
LINE
  5
649
  8
0
  6
CONTINUOUS
 62
     7
 10
292.4662116506
 20
245.8121261233
 30
0.0
 11
289.291211638
 21
242.6371261106
 31
0.0
  0
LINE
  5
64A
  8
0
  6
CONTINUOUS
 62
     7
 10
286.1162116253
 20
239.462126098
 30
0.0
 11
282.9412116127
 21
236.2871260854
 31
0.0
  0
LINE
  5
64B
  8
0
  6
CONTINUOUS
 62
     7
 10
279.7662116001
 20
233.1121260727
 30
0.0
 11
276.5912115874
 21
229.9371260601
 31
0.0
  0
LINE
  5
64C
  8
0
  6
CONTINUOUS
 62
     7
 10
302.5849616135
 20
268.6308760648
 30
0.0
 11
301.9912117244
 21
268.0371261758
 31
0.0
  0
LINE
  5
64D
  8
0
  6
CONTINUOUS
 62
     7
 10
298.8162117118
 20
264.8621261631
 30
0.0
 11
295.6412116992
 21
261.6871261505
 31
0.0
  0
LINE
  5
64E
  8
0
  6
CONTINUOUS
 62
     7
 10
292.4662116865
 20
258.5121261379
 30
0.0
 11
289.2912116739
 21
255.3371261252
 31
0.0
  0
LINE
  5
64F
  8
0
  6
CONTINUOUS
 62
     7
 10
286.1162116613
 20
252.1621261126
 30
0.0
 11
282.9412116486
 21
248.9871261
 31
0.0
  0
LINE
  5
650
  8
0
  6
CONTINUOUS
 62
     7
 10
279.766211636
 20
245.8121260873
 30
0.0
 11
276.5912116234
 21
242.6371260747
 31
0.0
  0
LINE
  5
651
  8
0
  6
CONTINUOUS
 62
     7
 10
289.8849616348
 20
268.6308760648
 30
0.0
 11
289.2912117098
 21
268.0371261399
 31
0.0
  0
LINE
  5
652
  8
0
  6
CONTINUOUS
 62
     7
 10
286.1162116972
 20
264.8621261272
 30
0.0
 11
282.9412116845
 21
261.6871261146
 31
0.0
  0
LINE
  5
653
  8
0
  6
CONTINUOUS
 62
     7
 10
279.7662116719
 20
258.512126102
 30
0.0
 11
276.5912116593
 21
255.3371260893
 31
0.0
  0
LINE
  5
654
  8
0
  6
CONTINUOUS
 62
     7
 10
277.1849616561
 20
268.6308760648
 30
0.0
 11
276.5912116952
 21
268.0371261039
 31
0.0
  0
LINE
  5
655
  8
0
  6
CONTINUOUS
 62
     7
 10
317.5696622515
 20
195.509326852
 30
0.0
 11
315.6912114643
 21
193.6308760648
 31
0.0
  0
LINE
  5
656
  8
0
  6
CONTINUOUS
 62
     7
 10
317.5696622515
 20
208.2093268307
 30
0.0
 11
314.6912115594
 21
205.3308761386
 31
0.0
  0
LINE
  5
657
  8
0
  6
CONTINUOUS
 62
     7
 10
311.5162115468
 20
202.155876126
 30
0.0
 11
308.3412115342
 21
198.9808761134
 31
0.0
  0
LINE
  5
658
  8
0
  6
CONTINUOUS
 62
     7
 10
317.5696622515
 20
220.9093268094
 30
0.0
 11
314.6912115954
 21
218.0308761533
 31
0.0
  0
LINE
  5
659
  8
0
  6
CONTINUOUS
 62
     7
 10
311.5162115827
 20
214.8558761406
 30
0.0
 11
308.3412115701
 21
211.680876128
 31
0.0
  0
LINE
  5
65A
  8
0
  6
CONTINUOUS
 62
     7
 10
305.1662115575
 20
208.5058761154
 30
0.0
 11
304.5696622515
 21
207.9093268094
 31
0.0
  0
LINE
  5
65B
  8
0
  6
CONTINUOUS
 62
     7
 10
286.1162115176
 20
202.1558760542
 30
0.0
 11
282.9412115049
 21
198.9808760415
 31
0.0
  0
LINE
  5
65C
  8
0
  6
CONTINUOUS
 62
     7
 10
317.5696622515
 20
233.6093267881
 30
0.0
 11
314.6912116313
 21
230.7308761679
 31
0.0
  0
LINE
  5
65D
  8
0
  6
CONTINUOUS
 62
     7
 10
311.5162116186
 20
227.5558761552
 30
0.0
 11
308.341211606
 21
224.3808761426
 31
0.0
  0
LINE
  5
65E
  8
0
  6
CONTINUOUS
 62
     7
 10
305.1662115934
 20
221.20587613
 30
0.0
 11
301.9912115807
 21
218.0308761173
 31
0.0
  0
LINE
  5
65F
  8
0
  6
CONTINUOUS
 62
     7
 10
298.8162115681
 20
214.8558761047
 30
0.0
 11
298.0912115282
 21
214.1308760648
 31
0.0
  0
LINE
  5
660
  8
0
  6
CONTINUOUS
 62
     7
 10
317.5696622515
 20
246.3093267668
 30
0.0
 11
314.6912116672
 21
243.4308761825
 31
0.0
  0
LINE
  5
661
  8
0
  6
CONTINUOUS
 62
     7
 10
311.5162116546
 20
240.2558761698
 30
0.0
 11
308.3412116419
 21
237.0808761572
 31
0.0
  0
LINE
  5
662
  8
0
  6
CONTINUOUS
 62
     7
 10
305.1662116293
 20
233.9058761446
 30
0.0
 11
301.9912116167
 21
230.7308761319
 31
0.0
  0
LINE
  5
663
  8
0
  6
CONTINUOUS
 62
     7
 10
298.816211604
 20
227.5558761193
 30
0.0
 11
295.6412115914
 21
224.3808761067
 31
0.0
  0
LINE
  5
664
  8
0
  6
CONTINUOUS
 62
     7
 10
292.4662115788
 20
221.205876094
 30
0.0
 11
289.2912115661
 21
218.0308760814
 31
0.0
  0
LINE
  5
665
  8
0
  6
CONTINUOUS
 62
     7
 10
286.1162115535
 20
214.8558760688
 30
0.0
 11
282.9412115409
 21
211.6808760561
 31
0.0
  0
LINE
  5
666
  8
0
  6
CONTINUOUS
 62
     7
 10
279.7662115282
 20
208.5058760435
 30
0.0
 11
276.5912115156
 21
205.3308760309
 31
0.0
  0
LINE
  5
667
  8
0
  6
CONTINUOUS
 62
     7
 10
317.5696622515
 20
259.0093267454
 30
0.0
 11
314.6912117031
 21
256.1308761971
 31
0.0
  0
LINE
  5
668
  8
0
  6
CONTINUOUS
 62
     7
 10
311.5162116905
 20
252.9558761845
 30
0.0
 11
308.3412116778
 21
249.7808761718
 31
0.0
  0
LINE
  5
669
  8
0
  6
CONTINUOUS
 62
     7
 10
305.1662116652
 20
246.6058761592
 30
0.0
 11
301.9912116526
 21
243.4308761466
 31
0.0
  0
LINE
  5
66A
  8
0
  6
CONTINUOUS
 62
     7
 10
298.8162116399
 20
240.2558761339
 30
0.0
 11
295.6412116273
 21
237.0808761213
 31
0.0
  0
LINE
  5
66B
  8
0
  6
CONTINUOUS
 62
     7
 10
292.4662116147
 20
233.9058761087
 30
0.0
 11
289.2912116021
 21
230.730876096
 31
0.0
  0
LINE
  5
66C
  8
0
  6
CONTINUOUS
 62
     7
 10
286.1162115894
 20
227.5558760834
 30
0.0
 11
282.9412115768
 21
224.3808760708
 31
0.0
  0
LINE
  5
66D
  8
0
  6
CONTINUOUS
 62
     7
 10
279.7662115642
 20
221.2058760581
 30
0.0
 11
276.5912115515
 21
218.0308760455
 31
0.0
  0
LINE
  5
66E
  8
0
  6
CONTINUOUS
 62
     7
 10
311.5162117264
 20
265.6558761991
 30
0.0
 11
308.3412117138
 21
262.4808761864
 31
0.0
  0
LINE
  5
66F
  8
0
  6
CONTINUOUS
 62
     7
 10
305.1662117011
 20
259.3058761738
 30
0.0
 11
301.9912116885
 21
256.1308761612
 31
0.0
  0
LINE
  5
670
  8
0
  6
CONTINUOUS
 62
     7
 10
298.8162116759
 20
252.9558761485
 30
0.0
 11
295.6412116632
 21
249.7808761359
 31
0.0
  0
LINE
  5
671
  8
0
  6
CONTINUOUS
 62
     7
 10
292.4662116506
 20
246.6058761233
 30
0.0
 11
289.291211638
 21
243.4308761106
 31
0.0
  0
LINE
  5
672
  8
0
  6
CONTINUOUS
 62
     7
 10
286.1162116253
 20
240.255876098
 30
0.0
 11
282.9412116127
 21
237.0808760854
 31
0.0
  0
LINE
  5
673
  8
0
  6
CONTINUOUS
 62
     7
 10
279.7662116001
 20
233.9058760727
 30
0.0
 11
276.5912115874
 21
230.7308760601
 31
0.0
  0
LINE
  5
674
  8
0
  6
CONTINUOUS
 62
     7
 10
298.8162117118
 20
265.6558761631
 30
0.0
 11
295.6412116992
 21
262.4808761505
 31
0.0
  0
LINE
  5
675
  8
0
  6
CONTINUOUS
 62
     7
 10
292.4662116865
 20
259.3058761379
 30
0.0
 11
289.2912116739
 21
256.1308761252
 31
0.0
  0
LINE
  5
676
  8
0
  6
CONTINUOUS
 62
     7
 10
286.1162116613
 20
252.9558761126
 30
0.0
 11
282.9412116486
 21
249.7808761
 31
0.0
  0
LINE
  5
677
  8
0
  6
CONTINUOUS
 62
     7
 10
279.766211636
 20
246.6058760873
 30
0.0
 11
276.5912116234
 21
243.4308760747
 31
0.0
  0
LINE
  5
678
  8
0
  6
CONTINUOUS
 62
     7
 10
286.1162116972
 20
265.6558761272
 30
0.0
 11
282.9412116845
 21
262.4808761146
 31
0.0
  0
LINE
  5
679
  8
0
  6
CONTINUOUS
 62
     7
 10
279.7662116719
 20
259.305876102
 30
0.0
 11
276.5912116593
 21
256.1308760893
 31
0.0
  0
LINE
  5
67A
  8
0
  6
CONTINUOUS
 62
     7
 10
275.0037115069
 20
179.793091629
 30
0.0
 11
275.0037115069
 21
189.1308760648
 31
0.0
  0
LINE
  5
67B
  8
0
  6
CONTINUOUS
 62
     7
 10
278.1787115069
 20
179.043091629
 30
0.0
 11
278.1787115069
 21
189.1308760648
 31
0.0
  0
LINE
  5
67C
  8
0
  6
CONTINUOUS
 62
     7
 10
287.5696622515
 20
214.1308760648
 30
0.0
 11
287.5696622515
 21
196.1308760648
 31
0.0
  0
LINE
  5
67D
  8
0
  6
CONTINUOUS
 62
     7
 10
304.5696622515
 20
196.1308760648
 30
0.0
 11
304.5696622515
 21
214.1308760648
 31
0.0
  0
LINE
  5
67E
  8
0
  6
CONTINUOUS
 62
     7
 10
303.0696622515
 20
196.1308760648
 30
0.0
 11
304.5696622515
 21
196.1308760648
 31
0.0
  0
LINE
  5
67F
  8
0
  6
CONTINUOUS
 62
     7
 10
273.5696622515
 20
268.6308760648
 30
0.0
 11
317.5696622515
 21
268.6308760648
 31
0.0
  0
LINE
  5
680
  8
0
  6
CONTINUOUS
 62
     7
 10
273.5696622515
 20
196.1308760648
 30
0.0
 11
273.5696622515
 21
268.6308760648
 31
0.0
  0
LINE
  5
681
  8
0
  6
CONTINUOUS
 62
     7
 10
317.5696622515
 20
268.6308760648
 30
0.0
 11
317.5696622515
 21
193.6308760648
 31
0.0
  0
LINE
  5
682
  8
0
  6
CONTINUOUS
 62
     7
 10
310.0696622515
 20
196.1308760648
 30
0.0
 11
310.0696622515
 21
193.6308760648
 31
0.0
  0
LINE
  5
683
  8
0
  6
CONTINUOUS
 62
     7
 10
317.5696622515
 20
193.6308760648
 30
0.0
 11
310.0696622515
 21
193.6308760648
 31
0.0
  0
LINE
  5
684
  8
0
  6
CONTINUOUS
 62
     7
 10
287.5696622515
 20
214.1308760648
 30
0.0
 11
304.5696622515
 21
214.1308760648
 31
0.0
  0
LINE
  5
685
  8
0
  6
CONTINUOUS
 62
     7
 10
304.5696622515
 20
196.1308760648
 30
0.0
 11
310.0696622515
 21
196.1308760648
 31
0.0
  0
LINE
  5
686
  8
0
  6
CONTINUOUS
 62
     7
 10
273.5696622515
 20
196.1308760648
 30
0.0
 11
287.5696622515
 21
196.1308760648
 31
0.0
  0
LINE
  5
687
  8
0
  6
CONTINUOUS
 62
     7
 10
317.5696622515
 20
191.6308760648
 30
0.0
 11
317.5696622515
 21
151.6308760648
 31
0.0
  0
LINE
  5
688
  8
0
  6
CONTINUOUS
 62
     7
 10
317.5696622515
 20
151.6308760648
 30
0.0
 11
273.5696622515
 21
151.6308760648
 31
0.0
  0
LINE
  5
689
  8
0
  6
CONTINUOUS
 62
     7
 10
310.0696622515
 20
189.1308760648
 30
0.0
 11
273.5696622515
 21
189.1308760648
 31
0.0
  0
LINE
  5
68A
  8
0
  6
CONTINUOUS
 62
     7
 10
310.0696622515
 20
189.1308760648
 30
0.0
 11
310.0696622515
 21
191.6308760648
 31
0.0
  0
LINE
  5
68B
  8
0
  6
CONTINUOUS
 62
     7
 10
310.0696622515
 20
191.6308760648
 30
0.0
 11
317.5696622515
 21
191.6308760648
 31
0.0
  0
LINE
  5
68C
  8
0
  6
CONTINUOUS
 62
     7
 10
273.5696622515
 20
189.1308760648
 30
0.0
 11
273.5696622515
 21
151.6308760648
 31
0.0
  0
ARC
  5
68D
  8
0
  6
CONTINUOUS
 62
     7
 10
303.5696622515
 20
193.1308760648
 30
0.0
 40
0.5
 50
180.0
 51
270.0
  0
ARC
  5
68E
  8
0
  6
CONTINUOUS
 62
     7
 10
292.5696622515
 20
193.1308760648
 30
0.0
 40
0.5
 50
270.0
 51
0.0
  0
LINE
  5
68F
  8
0
  6
CONTINUOUS
 62
     7
 10
290.5696622515
 20
191.6308760648
 30
0.0
 11
290.5696622515
 21
192.6308760648
 31
0.0
  0
LINE
  5
690
  8
0
  6
CONTINUOUS
 62
     7
 10
305.5696622515
 20
192.6308760648
 30
0.0
 11
305.5696622515
 21
191.6308760648
 31
0.0
  0
LINE
  5
691
  8
0
  6
CONTINUOUS
 62
     7
 10
293.0696622515
 20
193.1308760648
 30
0.0
 11
293.0696622515
 21
208.6308760648
 31
0.0
  0
LINE
  5
692
  8
0
  6
CONTINUOUS
 62
     7
 10
303.0696622515
 20
208.6308760648
 30
0.0
 11
303.0696622515
 21
193.1308760648
 31
0.0
  0
LINE
  5
693
  8
0
  6
CONTINUOUS
 62
     7
 10
294.0696622515
 20
209.6308760648
 30
0.0
 11
293.0696622515
 21
208.6308760648
 31
0.0
  0
LINE
  5
694
  8
0
  6
CONTINUOUS
 62
     7
 10
303.0696622515
 20
208.6308760648
 30
0.0
 11
302.0696622515
 21
209.6308760648
 31
0.0
  0
LINE
  5
695
  8
0
  6
CONTINUOUS
 62
     7
 10
302.0696622515
 20
209.6308760648
 30
0.0
 11
294.0696622515
 21
209.6308760648
 31
0.0
  0
LINE
  5
696
  8
0
  6
CONTINUOUS
 62
     7
 10
305.5696622515
 20
191.6308760648
 30
0.0
 11
290.5696622515
 21
191.6308760648
 31
0.0
  0
LINE
  5
697
  8
0
  6
CONTINUOUS
 62
     7
 10
292.5696622515
 20
192.6308760648
 30
0.0
 11
290.5696622515
 21
192.6308760648
 31
0.0
  0
LINE
  5
698
  8
0
  6
CONTINUOUS
 62
     7
 10
305.5696622515
 20
192.6308760648
 30
0.0
 11
303.5696622515
 21
192.6308760648
 31
0.0
  0
CIRCLE
  5
699
  8
0
  6
CONTINUOUS
 62
     7
 10
265.5696622515
 20
192.6308760648
 30
0.0
 40
3.375000000000005
  0
LINE
  5
69A
  8
0
  6
CONTINUOUS
 62
     7
 10
273.3696622515
 20
191.6308760648
 30
0.0
 11
310.0696622515
 21
191.6308760648
 31
0.0
  0
LINE
  5
69B
  8
0
  6
CONTINUOUS
 62
     7
 10
273.3696622515
 20
189.1308760648
 30
0.0
 11
310.0696622515
 21
189.1308760648
 31
0.0
  0
LINE
  5
69C
  8
0
  6
CONTINUOUS
 62
     7
 10
273.3696622515
 20
189.1308760648
 30
0.0
 11
273.3696622515
 21
191.6308760648
 31
0.0
  0
LINE
  5
69D
  8
0
  6
CONTINUOUS
 62
     7
 10
272.6911526763
 20
189.1308760648
 30
0.0
 11
272.6911526763
 21
191.6308760648
 31
0.0
  0
LINE
  5
69E
  8
0
  6
CONTINUOUS
 62
     7
 10
272.6911526763
 20
191.6308760648
 30
0.0
 11
273.3696622515
 21
191.6308760648
 31
0.0
  0
LINE
  5
69F
  8
0
  6
CONTINUOUS
 62
     7
 10
273.3696622515
 20
189.1308760648
 30
0.0
 11
272.6911526763
 21
189.1308760648
 31
0.0
  0
LINE
  5
6A0
  8
0
  6
CONTINUOUS
 62
     7
 10
272.2265387696
 20
191.5946800256
 30
0.0
 11
272.6137170252
 21
189.1248433916
 31
0.0
  0
LINE
  5
6A1
  8
0
  6
CONTINUOUS
 62
     7
 10
272.6911526763
 20
191.6308760648
 30
0.0
 11
272.2265387696
 21
191.5946800256
 31
0.0
  0
POLYLINE
  5
6A2
  8
0
  6
CONTINUOUS
 62
     7
 66
     1
 10
0.0
 20
0.0
 30
0.0
 70
   128
  0
VERTEX
  5
95E
  8
0
  6
CONTINUOUS
 62
     7
 10
272.6911526763
 20
189.1308760648
 30
0.0
  0
VERTEX
  5
95F
  8
0
  6
CONTINUOUS
 62
     7
 10
272.6559416053
 20
189.1296347043
 30
0.0
  0
VERTEX
  5
960
  8
0
  6
CONTINUOUS
 62
     7
 10
272.6137170252
 20
189.1248433916
 30
0.0
  0
SEQEND
  5
A00
  8
0
  6
CONTINUOUS
 62
     7
  0
LINE
  5
6A3
  8
0
  6
CONTINUOUS
 62
     7
 10
271.4324423902
 20
193.9067322656
 30
0.0
 11
271.5299958984
 21
193.3196596427
 31
0.0
  0
ARC
  5
6A4
  8
0
  6
CONTINUOUS
 62
     7
 10
265.5696622515
 20
192.6308760648
 30
0.0
 40
3.500000000000019
 50
6.5919316298
 51
66.5919316298
  0
ARC
  5
6A5
  8
0
  6
CONTINUOUS
 62
     7
 10
265.5696622515
 20
192.6308760648
 30
0.0
 40
3.499999999992692
 50
353.4080683702
 51
4.714586281
  0
LINE
  5
6A6
  8
0
  6
CONTINUOUS
 62
     7
 10
271.4993213026
 20
191.3839721359
 30
0.0
 11
272.492514114
 21
189.08972541
 31
0.0
  0
ARC
  5
6A7
  8
0
  6
CONTINUOUS
 62
     7
 10
272.6911526763
 20
188.6308760648
 30
0.0
 40
2.999999999999999
 50
98.9093322824
 51
113.4080683702
  0
ARC
  5
6A8
  8
0
  6
CONTINUOUS
 62
     7
 10
272.6911526763
 20
188.6308760648
 30
0.0
 40
0.4999999999999948
 50
98.9093322824
 51
113.4080683702
  0
LINE
  5
6A9
  8
0
  6
CONTINUOUS
 62
     7
 10
272.492514114
 20
189.08972541
 30
0.0
 11
267.9533249988
 21
187.1246839226
 31
0.0
  0
LINE
  5
6AA
  8
0
  6
CONTINUOUS
 62
     7
 10
271.4993213026
 20
191.3839721359
 30
0.0
 11
271.4324423902
 21
191.355019864
 31
0.0
  0
LINE
  5
6AB
  8
0
  6
CONTINUOUS
 62
     7
 10
292.0696622515
 20
196.1308760648
 30
0.0
 11
292.0696622515
 21
193.6308760648
 31
0.0
  0
LINE
  5
6AC
  8
0
  6
CONTINUOUS
 62
     7
 10
307.0696622515
 20
193.6308760648
 30
0.0
 11
307.0696622515
 21
196.1308760648
 31
0.0
  0
LINE
  5
6AD
  8
0
  6
CONTINUOUS
 62
     7
 10
292.0696622515
 20
193.6308760648
 30
0.0
 11
293.0696622515
 21
193.6308760648
 31
0.0
  0
LINE
  5
6AE
  8
0
  6
CONTINUOUS
 62
     7
 10
303.0696622515
 20
193.6308760648
 30
0.0
 11
307.0696622515
 21
193.6308760648
 31
0.0
  0
LINE
  5
6AF
  8
0
  6
CONTINUOUS
 62
     7
 10
293.0696622515
 20
196.1308760648
 30
0.0
 11
292.0696622515
 21
196.1308760648
 31
0.0
  0
LINE
  5
6B0
  8
0
  6
CONTINUOUS
 62
     7
 10
310.0696622515
 20
193.6308760648
 30
0.0
 11
307.0696622515
 21
193.6308760648
 31
0.0
  0
LINE
  5
6B1
  8
0
  6
CONTINUOUS
 62
     7
 10
310.0696622515
 20
196.1308760648
 30
0.0
 11
307.0696622515
 21
196.1308760648
 31
0.0
  0
LINE
  5
6B2
  8
0
  6
CONTINUOUS
 62
     7
 10
272.492514114
 20
196.1720267196
 30
0.0
 11
267.9533249988
 21
198.137068207
 31
0.0
  0
LINE
  5
6B3
  8
0
  6
CONTINUOUS
 62
     7
 10
271.4993213026
 20
193.8777799937
 30
0.0
 11
266.9601321874
 21
195.8428214811
 31
0.0
  0
ARC
  5
6B4
  8
0
  6
CONTINUOUS
 62
     7
 10
265.5696622515
 20
192.6308760648
 30
0.0
 40
6.000000000000038
 50
66.5919316298
 51
6.5919316298
  0
ARC
  5
6B5
  8
0
  6
CONTINUOUS
 62
     7
 10
265.5696622515
 20
192.6308760648
 30
0.0
 40
3.500000000000019
 50
66.5919316298
 51
6.5919316298
  0
ARC
  5
6B6
  8
0
  6
CONTINUOUS
 62
     7
 10
272.6911526763
 20
196.6308760648
 30
0.0
 40
3.000000000000024
 50
246.5919316298
 51
270.0
  0
LINE
  5
6B7
  8
0
  6
CONTINUOUS
 62
     7
 10
271.5299958984
 20
193.3196596427
 30
0.0
 11
269.0465235455
 21
193.0326664852
 31
0.0
  0
LINE
  5
6B8
  8
0
  6
CONTINUOUS
 62
     7
 10
292.0696622515
 20
193.6308760648
 30
0.0
 11
272.6911526763
 21
193.6308760648
 31
0.0
  0
ARC
  5
6B9
  8
0
  6
CONTINUOUS
 62
     7
 10
272.6911526763
 20
196.6308760648
 30
0.0
 40
0.5
 50
246.5919316298
 51
270.0
  0
LINE
  5
6BA
  8
0
  6
CONTINUOUS
 62
     7
 10
292.0696622515
 20
196.1308760648
 30
0.0
 11
272.6911526763
 21
196.1308760648
 31
0.0
  0
DIMENSION
  5
6BB
  8
0
  6
CONTINUOUS
 62
     7
  2
_D_18
 10
310.0696622515
 20
141.6308760648
 30
0.0
 11
287.8196622515
 21
141.6308760648
 31
0.0
 70
   160
  1
<>
  3
SLDDIMSTYLE0
 13
265.5696622515
 23
192.6308760648
 33
0.0
 14
310.0696622515
 24
193.6308760648
 34
0.0
 50
0.0
  0
DIMENSION
  5
6C5
  8
0
  6
CONTINUOUS
 62
     7
  2
_D_19
 10
334.5696622515
 20
193.6308760648
 30
0.0
 11
334.5696622515
 21
204.0894537309
 31
0.0
 70
   160
  1
<>
  3
SLDDIMSTYLE1
 13
317.5696622515
 23
191.6308760648
 33
0.0
 14
317.5696622515
 24
193.6308760648
 34
0.0
 50
90.0
  0
DIMENSION
  5
6D1
  8
0
  6
CONTINUOUS
 62
     7
  2
_D_20
 10
265.5696622515
 20
178.543091629
 30
0.0
 11
269.5696622515
 21
178.543091629
 31
0.0
 70
   160
  1
<>
  3
SLDDIMSTYLE1
 13
273.5696622515
 23
191.6308760648
 33
0.0
 14
265.5696622515
 24
192.6308760648
 34
0.0
 50
0.0
  0
INSERT
  5
6E7
  8
0
  6
CONTINUOUS
 62
     7
  2
SW_CENTERMARKSYMBOL_12
 10
265.5696622515
 20
192.6308760648
 30
0.0
  0
LINE
  5
6E8
  8
0
  6
CENTERX2
 62
     7
 10
298.0696622515
 20
210.6308760648
 30
0.0
 11
298.0696622515
 21
189.6308760648
 31
0.0
  0
ENDSEC
  0
EOF
