  0
SECTION
  2
HEADER
  9
$ACADVER
  1
AC1009
  9
$DWGCODEPAGE
  3
ansi_1252
  9
$INSBASE
 10
0.0
 20
0.0
 30
0.0
  9
$EXTMIN
 10
0.0
 20
0.0
 30
0.0
  9
$EXTMAX
 10
420.0
 20
297.0
 30
0.0
  9
$LIMMIN
 10
0.0
 20
0.0
  9
$LIMMAX
 10
420.0
 20
297.0
  9
$ORTHOMODE
 70
     0
  9
$REGENMODE
 70
     1
  9
$FILLMODE
 70
     1
  9
$QTEXTMODE
 70
     0
  9
$MIRRTEXT
 70
     1
  9
$DRAGMODE
 70
     2
  9
$LTSCALE
 40
1.0
  9
$OSMODE
 70
    37
  9
$ATTMODE
 70
     1
  9
$TEXTSIZE
 40
3.5
  9
$TRACEWID
 40
1.0
  9
$TEXTSTYLE
  7
STANDARD
  9
$CLAYER
  8
0
  9
$CELTYPE
  6
BYLAYER
  9
$CECOLOR
 62
   256
  9
$DIMSCALE
 40
1.0
  9
$DIMASZ
 40
3.3
  9
$DIMEXO
 40
1.0
  9
$DIMDLI
 40
3.75
  9
$DIMRND
 40
0.0
  9
$DIMDLE
 40
0.0
  9
$DIMEXE
 40
1.0
  9
$DIMTP
 40
0.0
  9
$DIMTM
 40
0.0
  9
$DIMTXT
 40
3.5277777778
  9
$DIMCEN
 40
2.5
  9
$DIMTSZ
 40
0.0
  9
$DIMTOL
 70
     0
  9
$DIMLIM
 70
     0
  9
$DIMTIH
 70
     1
  9
$DIMTOH
 70
     1
  9
$DIMSE1
 70
     0
  9
$DIMSE2
 70
     0
  9
$DIMTAD
 70
     1
  9
$DIMZIN
 70
     0
  9
$DIMBLK
  1

  9
$DIMASO
 70
     1
  9
$DIMSHO
 70
     1
  9
$DIMPOST
  1

  9
$DIMAPOST
  1

  9
$DIMALT
 70
     0
  9
$DIMALTD
 70
     3
  9
$DIMALTF
 40
0.0393700787
  9
$DIMLFAC
 40
1.0
  9
$DIMTOFL
 70
     1
  9
$DIMTVP
 40
0.0
  9
$DIMTIX
 70
     0
  9
$DIMSOXD
 70
     0
  9
$DIMSAH
 70
     0
  9
$DIMBLK1
  1

  9
$DIMBLK2
  1

  9
$DIMSTYLE
  2
ISO-25
  9
$DIMCLRD
 70
     0
  9
$DIMCLRE
 70
     0
  9
$DIMCLRT
 70
     0
  9
$DIMTFAC
 40
1.0
  9
$DIMGAP
 40
1.524
  9
$LUNITS
 70
     2
  9
$LUPREC
 70
     2
  9
$SKETCHINC
 40
1.0
  9
$FILLETRAD
 40
10.0
  9
$AUNITS
 70
     0
  9
$AUPREC
 70
     2
  9
$MENU
  1
.
  9
$ELEVATION
 40
0.0
  9
$PELEVATION
 40
0.0
  9
$THICKNESS
 40
0.0
  9
$LIMCHECK
 70
     0
  9
$CHAMFERA
 40
0.0
  9
$CHAMFERB
 40
0.0
  9
$SKPOLY
 70
     0
  9
$TDCREATE
 40
2460109.645701968
  9
$TDUPDATE
 40
2460109.645742199
  9
$TDINDWG
 40
0.0000000116
  9
$TDUSRTIMER
 40
0.0000000116
  9
$USRTIMER
 70
     1
  9
$ANGBASE
 50
0.0
  9
$ANGDIR
 70
     0
  9
$PDMODE
 70
     0
  9
$PDSIZE
 40
-1.0
  9
$PLINEWID
 40
0.0
  9
$COORDS
 70
     1
  9
$SPLFRAME
 70
     0
  9
$SPLINETYPE
 70
     6
  9
$SPLINESEGS
 70
     8
  9
$ATTDIA
 70
     0
  9
$ATTREQ
 70
     1
  9
$HANDLING
 70
     1
  9
$HANDSEED
  5
8FF
  9
$SURFTAB1
 70
     6
  9
$SURFTAB2
 70
     6
  9
$SURFTYPE
 70
     6
  9
$SURFU
 70
     6
  9
$SURFV
 70
     6
  9
$UCSNAME
  2

  9
$UCSORG
 10
0.0
 20
0.0
 30
0.0
  9
$UCSXDIR
 10
1.0
 20
0.0
 30
0.0
  9
$UCSYDIR
 10
0.0
 20
1.0
 30
0.0
  9
$PUCSNAME
  2

  9
$PUCSORG
 10
0.0
 20
0.0
 30
0.0
  9
$PUCSXDIR
 10
1.0
 20
0.0
 30
0.0
  9
$PUCSYDIR
 10
0.0
 20
1.0
 30
0.0
  9
$USERI1
 70
     0
  9
$USERI2
 70
     0
  9
$USERI3
 70
     0
  9
$USERI4
 70
     0
  9
$USERI5
 70
     0
  9
$USERR1
 40
0.0
  9
$USERR2
 40
0.0
  9
$USERR3
 40
0.0
  9
$USERR4
 40
0.0
  9
$USERR5
 40
0.0
  9
$WORLDVIEW
 70
     1
  9
$SHADEDGE
 70
     3
  9
$SHADEDIF
 70
    70
  9
$TILEMODE
 70
     1
  9
$MAXACTVP
 70
    64
  9
$PLIMCHECK
 70
     0
  9
$PEXTMIN
 10
1.0000000000E+20
 20
1.0000000000E+20
 30
1.0000000000E+20
  9
$PEXTMAX
 10
-1.0000000000E+20
 20
-1.0000000000E+20
 30
-1.0000000000E+20
  9
$PLIMMIN
 10
0.0
 20
0.0
  9
$PLIMMAX
 10
420.0
 20
297.0
  9
$UNITMODE
 70
     0
  9
$VISRETAIN
 70
     1
  9
$PLINEGEN
 70
     0
  9
$PSLTSCALE
 70
     1
  0
ENDSEC
  0
SECTION
  2
TABLES
  0
TABLE
  2
VPORT
 70
     1
  0
VPORT
  2
*ACTIVE
 70
     0
 10
0.0
 20
0.0
 11
1.0
 21
1.0
 12
210.0
 22
148.5
 13
0.0
 23
0.0
 14
10.0
 24
10.0
 15
10.0
 25
10.0
 16
0.0
 26
0.0
 36
1.0
 17
0.0
 27
0.0
 37
0.0
 40
297.0
 41
1.4141414141
 42
50.0
 43
0.0
 44
0.0
 50
0.0
 51
0.0
 71
     0
 72
  2000
 73
     1
 74
     3
 75
     0
 76
     0
 77
     0
 78
     0
  0
ENDTAB
  0
TABLE
  2
LTYPE
 70
     6
  0
LTYPE
  2
CONTINUOUS
 70
     0
  3
Solid line
 72
    65
 73
     0
 40
0.0
  0
LTYPE
  2
HIDDEN
 70
     0
  3
Hidden __ __ __ __ __ __ __ __ __ __ __ __ __ __
 72
    65
 73
     2
 40
1.905
 49
1.27
 49
-0.635
  0
LTYPE
  2
PHANTOM
 70
     0
  3
Phantom ______  __  __  ______  __  __  ______
 72
    65
 73
     6
 40
12.7
 49
6.35
 49
-1.27
 49
1.27
 49
-1.27
 49
1.27
 49
-1.27
  0
LTYPE
  2
CENTER
 70
     0
  3
Center ____ _ ____ _ ____ _ ____ _ ____ _ ____
 72
    65
 73
     4
 40
10.16
 49
6.35
 49
-1.27
 49
1.27
 49
-1.27
  0
LTYPE
  2
CENTERX2
 70
     0
  3
Center (2x) ________  __  ________  __  _____
 72
    65
 73
     4
 40
20.32
 49
12.7
 49
-2.54
 49
2.54
 49
-2.54
  0
LTYPE
  2
DOT2
 70
     0
  3
Dot (.5x) ........................................
 72
    65
 73
     2
 40
0.635
 49
0.0
 49
-0.635
  0
ENDTAB
  0
TABLE
  2
LAYER
 70
     1
  0
LAYER
  2
0
 70
     0
 62
     7
  6
CONTINUOUS
  0
ENDTAB
  0
TABLE
  2
STYLE
 70
     1
  0
STYLE
  2
STANDARD
 70
     0
 40
0.0
 41
1.0
 50
0.0
 71
     0
 42
3.5
  3
txt
  4

  0
ENDTAB
  0
TABLE
  2
VIEW
 70
     0
  0
ENDTAB
  0
TABLE
  2
UCS
 70
     0
  0
ENDTAB
  0
TABLE
  2
APPID
 70
     1
  0
APPID
  2
ACAD
 70
     0
  0
ENDTAB
  0
TABLE
  2
DIMSTYLE
 70
     3
  0
DIMSTYLE
  2
ISO-25
 70
     0
  3

  4

  5

  6

  7

 40
1.0
 41
2.5
 42
0.625
 43
3.75
 44
1.25
 45
0.0
 46
0.0
 47
0.0
 48
0.0
140
2.5
141
2.5
142
0.0
143
0.0393700787
144
1.0
145
0.0
146
1.0
147
0.625
 71
     0
 72
     0
 73
     0
 74
     0
 75
     0
 76
     0
 77
     1
 78
     8
170
     0
171
     3
172
     1
173
     0
174
     0
175
     0
176
     0
177
     0
178
     0
  0
DIMSTYLE
  2
SLDDIMSTYLE0
 70
     0
  3

  4

  5

  6

  7

 40
1.0
 41
3.3
 42
0.0625
 43
0.38
 44
0.0
 45
0.000000001
 46
0.0
 47
0.0
 48
0.0
140
2.5683186849
141
0.09
142
0.0
143
25.4
144
1.0
145
0.0
146
1.0
147
0.6420796712
 71
     0
 72
     0
 73
     0
 74
     0
 75
     0
 76
     0
 77
     1
 78
    12
170
     0
171
     2
172
     0
173
     1
174
     0
175
     0
176
     0
177
     0
178
     0
  0
DIMSTYLE
  2
SLDDIMSTYLE1
 70
     0
  3

  4

  5

  6

  7

 40
1.0
 41
3.3
 42
0.0625
 43
0.38
 44
0.0
 45
0.000000001
 46
0.0
 47
0.0
 48
0.0
140
2.5683186849
141
0.09
142
0.0
143
25.4
144
1.0
145
0.0
146
1.0
147
0.6420796712
 71
     0
 72
     0
 73
     0
 74
     0
 75
     0
 76
     0
 77
     1
 78
    12
170
     0
171
     2
172
     1
173
     1
174
     0
175
     0
176
     0
177
     0
178
     0
  0
ENDTAB
  0
ENDSEC
  0
SECTION
  2
BLOCKS
  0
BLOCK
  8
0
  2
$MODEL_SPACE
 70
     0
 10
0.0
 20
0.0
 30
0.0
  3
$MODEL_SPACE
  1

  0
ENDBLK
  5
21
  8
0
  0
BLOCK
 67
     1
  8
0
  2
$PAPER_SPACE
 70
     0
 10
0.0
 20
0.0
 30
0.0
  3
$PAPER_SPACE
  1

  0
ENDBLK
  5
1D
 67
     1
  8
0
  0
BLOCK
  8
0
  2
BREUER_UND_SCHMITZ_LOGO
 70
     0
 10
0.0
 20
0.0
 30
0.0
  3
BREUER_UND_SCHMITZ_LOGO
  1

  0
CIRCLE
  5
76
  8
0
  6
CONTINUOUS
 62
     7
 10
5.4992752597
 20
6.4970234948
 30
0.0
 40
4.029749629019967
  0
CIRCLE
  5
77
  8
0
  6
CONTINUOUS
 62
     7
 10
5.4992752597
 20
6.4970234948
 30
0.0
 40
3.493121034366434
  0
ARC
  5
78
  8
0
  6
CONTINUOUS
 62
     7
 10
4.8438997628
 20
8.3278233091
 30
0.0
 40
0.5607559038272374
 50
286.3181365054
 51
90.0
  0
ARC
  5
79
  8
0
  6
CONTINUOUS
 62
     7
 10
4.7907141206
 20
7.1605189654
 30
0.0
 40
0.6634954706062866
 50
270.0
 51
71.4807566437
  0
ARC
  5
7A
  8
0
  6
CONTINUOUS
 62
     7
 10
4.4514475732
 20
7.2629045934
 30
0.0
 40
0.2918320396633423
 50
270.0
 51
90.0
  0
ARC
  5
7B
  8
0
  6
CONTINUOUS
 62
     7
 10
4.4622337958
 20
8.1927840487
 30
0.0
 40
0.2270842982530219
 50
270.0
 51
90.0
  0
ARC
  5
7C
  8
0
  6
CONTINUOUS
 62
     7
 10
24.2822740884
 20
8.2219353124
 30
0.0
 40
1.214914566734046
 50
270.0
 51
61.2358408132
  0
ARC
  5
7D
  8
0
  6
CONTINUOUS
 62
     7
 10
24.2796517487
 20
10.11896144
 30
0.0
 40
1.018390405557888
 50
305.2146436589
 51
90.0
  0
ARC
  5
7E
  8
0
  6
CONTINUOUS
 62
     7
 10
23.7774480343
 20
9.8333287388
 30
0.0
 40
0.3254111583804047
 50
270.0
 51
90.0
  0
ARC
  5
7F
  8
0
  6
CONTINUOUS
 62
     7
 10
23.8445384541
 20
8.3597516814
 30
0.0
 40
0.3940519309173149
 50
270.0
 51
90.0
  0
ARC
  5
80
  8
0
  6
CONTINUOUS
 62
     7
 10
28.1205497116
 20
9.7427571862
 30
0.0
 40
0.4192844804805134
 50
270.0
 51
90.0
  0
ARC
  5
81
  8
0
  6
CONTINUOUS
 62
     7
 10
45.0444658383
 20
9.7371260921
 30
0.0
 40
0.4192844804805134
 50
270.0
 51
90.0
  0
LINE
  5
82
  8
0
  6
CONTINUOUS
 62
     7
 10
0.8059185621
 20
11.2624291984
 30
0.0
 11
0.8059185621
 21
1.8186002797
 31
0.0
  0
LINE
  5
83
  8
0
  6
CONTINUOUS
 62
     7
 10
0.8059185621
 20
1.8186002797
 30
0.0
 11
19.6274446696
 21
1.8186002797
 31
0.0
  0
LINE
  5
84
  8
0
  6
CONTINUOUS
 62
     7
 10
19.6274446696
 20
1.8186002797
 30
0.0
 11
19.6274446696
 21
11.2624291984
 31
0.0
  0
LINE
  5
85
  8
0
  6
CONTINUOUS
 62
     7
 10
19.6274446696
 20
11.2624291984
 30
0.0
 11
0.8059185621
 21
11.2624291984
 31
0.0
  0
LINE
  5
86
  8
0
  6
CONTINUOUS
 62
     7
 10
3.3969107808
 20
8.8885792129
 30
0.0
 11
3.3969107808
 21
6.4970234948
 31
0.0
  0
LINE
  5
87
  8
0
  6
CONTINUOUS
 62
     7
 10
3.3969107808
 20
6.4970234948
 30
0.0
 11
4.7907141206
 21
6.4970234948
 31
0.0
  0
LINE
  5
88
  8
0
  6
CONTINUOUS
 62
     7
 10
3.3969107808
 20
8.8885792129
 30
0.0
 11
4.8863533292
 21
8.8885792129
 31
0.0
  0
LINE
  5
89
  8
0
  6
CONTINUOUS
 62
     7
 10
4.0774136753
 20
8.4198683469
 30
0.0
 11
4.0774136753
 21
7.9656997504
 31
0.0
  0
LINE
  5
8A
  8
0
  6
CONTINUOUS
 62
     7
 10
4.0774136753
 20
7.9656997504
 30
0.0
 11
4.4622337958
 21
7.9656997504
 31
0.0
  0
LINE
  5
8B
  8
0
  6
CONTINUOUS
 62
     7
 10
4.0774136753
 20
8.4198683469
 30
0.0
 11
4.4622337958
 21
8.4198683469
 31
0.0
  0
LINE
  5
8C
  8
0
  6
CONTINUOUS
 62
     7
 10
4.0774136753
 20
7.5547366331
 30
0.0
 11
4.4514475732
 21
7.5547366331
 31
0.0
  0
LINE
  5
8D
  8
0
  6
CONTINUOUS
 62
     7
 10
4.0774136753
 20
7.5547366331
 30
0.0
 11
4.0774136753
 21
6.9710725538
 31
0.0
  0
LINE
  5
8E
  8
0
  6
CONTINUOUS
 62
     7
 10
4.0774136753
 20
6.9710725538
 30
0.0
 11
4.4514475732
 21
6.9710725538
 31
0.0
  0
LINE
  5
8F
  8
0
  6
CONTINUOUS
 62
     7
 10
6.4039305852
 20
7.1901777456
 30
0.0
 11
6.4039305852
 21
7.3109441667
 31
0.0
  0
LINE
  5
90
  8
0
  6
CONTINUOUS
 62
     7
 10
6.4039305852
 20
7.3109441667
 30
0.0
 11
5.7610944456
 21
7.3109441667
 31
0.0
  0
LINE
  5
91
  8
0
  6
CONTINUOUS
 62
     7
 10
7.0807619612
 20
8.2130495982
 30
0.0
 11
7.7262496761
 21
8.2130495982
 31
0.0
  0
LINE
  5
92
  8
0
  6
CONTINUOUS
 62
     7
 10
3.5231771755
 20
6.2301221058
 30
0.0
 11
4.2485672907
 21
3.84567143
 31
0.0
  0
LINE
  5
93
  8
0
  6
CONTINUOUS
 62
     7
 10
4.2485672907
 20
3.84567143
 30
0.0
 11
5.0014556369
 21
3.84567143
 31
0.0
  0
LINE
  5
94
  8
0
  6
CONTINUOUS
 62
     7
 10
5.0014556369
 20
3.84567143
 30
0.0
 11
5.4992752597
 21
5.6268273565
 31
0.0
  0
LINE
  5
95
  8
0
  6
CONTINUOUS
 62
     7
 10
5.4992752597
 20
5.6268273565
 30
0.0
 11
5.9813424984
 21
3.84567143
 31
0.0
  0
LINE
  5
96
  8
0
  6
CONTINUOUS
 62
     7
 10
5.9813424984
 20
3.84567143
 30
0.0
 11
6.7149681313
 21
3.84567143
 31
0.0
  0
LINE
  5
97
  8
0
  6
CONTINUOUS
 62
     7
 10
6.7149681313
 20
3.84567143
 30
0.0
 11
7.4784744696
 21
6.2301221058
 31
0.0
  0
LINE
  5
98
  8
0
  6
CONTINUOUS
 62
     7
 10
7.4784744696
 20
6.2301221058
 30
0.0
 11
6.8748013037
 21
6.2301221058
 31
0.0
  0
LINE
  5
99
  8
0
  6
CONTINUOUS
 62
     7
 10
6.8748013037
 20
6.2301221058
 30
0.0
 11
6.3698272603
 21
4.4233682757
 31
0.0
  0
LINE
  5
9A
  8
0
  6
CONTINUOUS
 62
     7
 10
6.3698272603
 20
4.4233682757
 30
0.0
 11
5.8808319865
 21
6.2301221058
 31
0.0
  0
LINE
  5
9B
  8
0
  6
CONTINUOUS
 62
     7
 10
5.8808319865
 20
6.2301221058
 30
0.0
 11
5.1326908924
 21
6.2301221058
 31
0.0
  0
LINE
  5
9C
  8
0
  6
CONTINUOUS
 62
     7
 10
5.1326908924
 20
6.2301221058
 30
0.0
 11
4.6250114638
 21
4.4136886393
 31
0.0
  0
LINE
  5
9D
  8
0
  6
CONTINUOUS
 62
     7
 10
4.6250114638
 20
4.4136886393
 30
0.0
 11
4.1333964107
 21
6.2301221058
 31
0.0
  0
LINE
  5
9E
  8
0
  6
CONTINUOUS
 62
     7
 10
4.1333964107
 20
6.2301221058
 30
0.0
 11
3.5231771755
 21
6.2301221058
 31
0.0
  0
LINE
  5
9F
  8
0
  6
CONTINUOUS
 62
     7
 10
21.7043722463
 20
11.1373518456
 30
0.0
 11
21.7043722463
 21
7.0070207457
 31
0.0
  0
LINE
  5
A0
  8
0
  6
CONTINUOUS
 62
     7
 10
21.7043722463
 20
7.0070207457
 30
0.0
 11
24.2822740884
 21
7.0070207457
 31
0.0
  0
LINE
  5
A1
  8
0
  6
CONTINUOUS
 62
     7
 10
21.7043722463
 20
11.1373518456
 30
0.0
 11
24.2796517487
 21
11.1373518456
 31
0.0
  0
LINE
  5
A2
  8
0
  6
CONTINUOUS
 62
     7
 10
23.7774480343
 20
10.1587398972
 30
0.0
 11
22.9816870547
 21
10.1587398972
 31
0.0
  0
LINE
  5
A3
  8
0
  6
CONTINUOUS
 62
     7
 10
22.9816870547
 20
10.1587398972
 30
0.0
 11
22.9816870547
 21
9.5079175804
 31
0.0
  0
LINE
  5
A4
  8
0
  6
CONTINUOUS
 62
     7
 10
22.9816870547
 20
9.5079175804
 30
0.0
 11
23.7774480343
 21
9.5079175804
 31
0.0
  0
LINE
  5
A5
  8
0
  6
CONTINUOUS
 62
     7
 10
23.8445384541
 20
8.7538036123
 30
0.0
 11
22.9816870547
 21
8.7538036123
 31
0.0
  0
LINE
  5
A6
  8
0
  6
CONTINUOUS
 62
     7
 10
22.9816870547
 20
8.7538036123
 30
0.0
 11
22.9816870547
 21
7.9656997504
 31
0.0
  0
LINE
  5
A7
  8
0
  6
CONTINUOUS
 62
     7
 10
22.9816870547
 20
7.9656997504
 30
0.0
 11
23.8445384541
 21
7.9656997504
 31
0.0
  0
LINE
  5
A8
  8
0
  6
CONTINUOUS
 62
     7
 10
26.0176061233
 20
7.0070207457
 30
0.0
 11
26.0176061233
 21
11.1373518456
 31
0.0
  0
LINE
  5
A9
  8
0
  6
CONTINUOUS
 62
     7
 10
26.0176061233
 20
11.1373518456
 30
0.0
 11
28.6848157428
 21
11.1373518456
 31
0.0
  0
LINE
  5
AA
  8
0
  6
CONTINUOUS
 62
     7
 10
29.9167620308
 20
7.0070207457
 30
0.0
 11
28.6415284727
 21
7.0070207457
 31
0.0
  0
LINE
  5
AB
  8
0
  6
CONTINUOUS
 62
     7
 10
28.1000756472
 20
8.4198683469
 30
0.0
 11
27.2955896372
 21
8.4198683469
 31
0.0
  0
LINE
  5
AC
  8
0
  6
CONTINUOUS
 62
     7
 10
27.2955896372
 20
8.4198683469
 30
0.0
 11
27.2955896372
 21
7.0070207457
 31
0.0
  0
LINE
  5
AD
  8
0
  6
CONTINUOUS
 62
     7
 10
27.2955896372
 20
7.0070207457
 30
0.0
 11
26.0176061233
 21
7.0070207457
 31
0.0
  0
LINE
  5
AE
  8
0
  6
CONTINUOUS
 62
     7
 10
27.2955896372
 20
10.1620416667
 30
0.0
 11
27.2955896372
 21
9.3234727058
 31
0.0
  0
LINE
  5
AF
  8
0
  6
CONTINUOUS
 62
     7
 10
27.2955896372
 20
10.1620416667
 30
0.0
 11
28.1205497116
 21
10.1620416667
 31
0.0
  0
LINE
  5
B0
  8
0
  6
CONTINUOUS
 62
     7
 10
27.2955896372
 20
9.3234727058
 30
0.0
 11
28.1205497116
 21
9.3234727058
 31
0.0
  0
LINE
  5
B1
  8
0
  6
CONTINUOUS
 62
     7
 10
30.3204311723
 20
11.1373518456
 30
0.0
 11
33.7650167992
 21
11.1373518456
 31
0.0
  0
LINE
  5
B2
  8
0
  6
CONTINUOUS
 62
     7
 10
33.7650167992
 20
11.1373518456
 30
0.0
 11
33.7650167992
 21
10.0587669339
 31
0.0
  0
LINE
  5
B3
  8
0
  6
CONTINUOUS
 62
     7
 10
33.7650167992
 20
10.0587669339
 30
0.0
 11
31.611625052
 21
10.0587669339
 31
0.0
  0
LINE
  5
B4
  8
0
  6
CONTINUOUS
 62
     7
 10
31.611625052
 20
10.0587669339
 30
0.0
 11
31.611625052
 21
9.5582715864
 31
0.0
  0
LINE
  5
B5
  8
0
  6
CONTINUOUS
 62
     7
 10
31.611625052
 20
9.5582715864
 30
0.0
 11
33.5673421662
 21
9.5582715864
 31
0.0
  0
LINE
  5
B6
  8
0
  6
CONTINUOUS
 62
     7
 10
33.5673421662
 20
9.5582715864
 30
0.0
 11
33.5673421662
 21
8.5490188691
 31
0.0
  0
LINE
  5
B7
  8
0
  6
CONTINUOUS
 62
     7
 10
33.5673421662
 20
8.5490188691
 30
0.0
 11
31.611625052
 21
8.5490188691
 31
0.0
  0
LINE
  5
B8
  8
0
  6
CONTINUOUS
 62
     7
 10
31.611625052
 20
8.5490188691
 30
0.0
 11
31.611625052
 21
8.0654699281
 31
0.0
  0
LINE
  5
B9
  8
0
  6
CONTINUOUS
 62
     7
 10
31.611625052
 20
8.0654699281
 30
0.0
 11
33.8259283689
 21
8.0654699281
 31
0.0
  0
LINE
  5
BA
  8
0
  6
CONTINUOUS
 62
     7
 10
33.8259283689
 20
8.0654699281
 30
0.0
 11
33.8259283689
 21
7.0070207457
 31
0.0
  0
LINE
  5
BB
  8
0
  6
CONTINUOUS
 62
     7
 10
33.8259283689
 20
7.0070207457
 30
0.0
 11
30.3204311723
 21
7.0070207457
 31
0.0
  0
LINE
  5
BC
  8
0
  6
CONTINUOUS
 62
     7
 10
30.3204311723
 20
7.0070207457
 30
0.0
 11
30.3204311723
 21
11.1373518456
 31
0.0
  0
LINE
  5
BD
  8
0
  6
CONTINUOUS
 62
     7
 10
34.4063700873
 20
11.1373518456
 30
0.0
 11
34.4063700873
 21
8.3597516814
 31
0.0
  0
LINE
  5
BE
  8
0
  6
CONTINUOUS
 62
     7
 10
34.4063700873
 20
11.1373518456
 30
0.0
 11
35.6885750599
 21
11.1373518456
 31
0.0
  0
LINE
  5
BF
  8
0
  6
CONTINUOUS
 62
     7
 10
35.6885750599
 20
11.1373518456
 30
0.0
 11
35.6885750599
 21
8.5798139619
 31
0.0
  0
LINE
  5
C0
  8
0
  6
CONTINUOUS
 62
     7
 10
36.9141294484
 20
8.5798139619
 30
0.0
 11
36.9141294484
 21
11.1373518456
 31
0.0
  0
LINE
  5
C1
  8
0
  6
CONTINUOUS
 62
     7
 10
36.9141294484
 20
11.1373518456
 30
0.0
 11
38.1945241464
 21
11.1373518456
 31
0.0
  0
LINE
  5
C2
  8
0
  6
CONTINUOUS
 62
     7
 10
38.1945241464
 20
11.1373518456
 30
0.0
 11
38.1945241464
 21
8.4751711477
 31
0.0
  0
LINE
  5
C3
  8
0
  6
CONTINUOUS
 62
     7
 10
42.94152225
 20
7.0013896515
 30
0.0
 11
42.94152225
 21
11.1317207514
 31
0.0
  0
LINE
  5
C4
  8
0
  6
CONTINUOUS
 62
     7
 10
42.94152225
 20
11.1317207514
 30
0.0
 11
45.6087318695
 21
11.1317207514
 31
0.0
  0
LINE
  5
C5
  8
0
  6
CONTINUOUS
 62
     7
 10
46.8406781576
 20
7.0013896515
 30
0.0
 11
45.5654445995
 21
7.0013896515
 31
0.0
  0
LINE
  5
C6
  8
0
  6
CONTINUOUS
 62
     7
 10
45.0239917739
 20
8.4142372528
 30
0.0
 11
44.2195057639
 21
8.4142372528
 31
0.0
  0
LINE
  5
C7
  8
0
  6
CONTINUOUS
 62
     7
 10
44.2195057639
 20
8.4142372528
 30
0.0
 11
44.2195057639
 21
7.0013896515
 31
0.0
  0
LINE
  5
C8
  8
0
  6
CONTINUOUS
 62
     7
 10
44.2195057639
 20
7.0013896515
 30
0.0
 11
42.94152225
 21
7.0013896515
 31
0.0
  0
LINE
  5
C9
  8
0
  6
CONTINUOUS
 62
     7
 10
44.2195057639
 20
10.1564105726
 30
0.0
 11
44.2195057639
 21
9.3178416116
 31
0.0
  0
LINE
  5
CA
  8
0
  6
CONTINUOUS
 62
     7
 10
44.2195057639
 20
10.1564105726
 30
0.0
 11
45.0444658383
 21
10.1564105726
 31
0.0
  0
LINE
  5
CB
  8
0
  6
CONTINUOUS
 62
     7
 10
44.2195057639
 20
9.3178416116
 30
0.0
 11
45.0444658383
 21
9.3178416116
 31
0.0
  0
LINE
  5
CC
  8
0
  6
CONTINUOUS
 62
     7
 10
38.8327518963
 20
11.1407657272
 30
0.0
 11
42.2773375232
 21
11.1407657272
 31
0.0
  0
LINE
  5
CD
  8
0
  6
CONTINUOUS
 62
     7
 10
42.2773375232
 20
11.1407657272
 30
0.0
 11
42.2773375232
 21
10.0621808156
 31
0.0
  0
LINE
  5
CE
  8
0
  6
CONTINUOUS
 62
     7
 10
42.2773375232
 20
10.0621808156
 30
0.0
 11
40.123945776
 21
10.0621808156
 31
0.0
  0
LINE
  5
CF
  8
0
  6
CONTINUOUS
 62
     7
 10
40.123945776
 20
10.0621808156
 30
0.0
 11
40.123945776
 21
9.5616854681
 31
0.0
  0
LINE
  5
D0
  8
0
  6
CONTINUOUS
 62
     7
 10
40.123945776
 20
9.5616854681
 30
0.0
 11
42.0796628902
 21
9.5616854681
 31
0.0
  0
LINE
  5
D1
  8
0
  6
CONTINUOUS
 62
     7
 10
42.0796628902
 20
9.5616854681
 30
0.0
 11
42.0796628902
 21
8.5524327507
 31
0.0
  0
LINE
  5
D2
  8
0
  6
CONTINUOUS
 62
     7
 10
42.0796628902
 20
8.5524327507
 30
0.0
 11
40.123945776
 21
8.5524327507
 31
0.0
  0
LINE
  5
D3
  8
0
  6
CONTINUOUS
 62
     7
 10
40.123945776
 20
8.5524327507
 30
0.0
 11
40.123945776
 21
8.0688838097
 31
0.0
  0
LINE
  5
D4
  8
0
  6
CONTINUOUS
 62
     7
 10
40.123945776
 20
8.0688838097
 30
0.0
 11
42.3382490929
 21
8.0688838097
 31
0.0
  0
LINE
  5
D5
  8
0
  6
CONTINUOUS
 62
     7
 10
42.3382490929
 20
8.0688838097
 30
0.0
 11
42.3382490929
 21
7.0104346273
 31
0.0
  0
LINE
  5
D6
  8
0
  6
CONTINUOUS
 62
     7
 10
42.3382490929
 20
7.0104346273
 30
0.0
 11
38.8327518963
 21
7.0104346273
 31
0.0
  0
LINE
  5
D7
  8
0
  6
CONTINUOUS
 62
     7
 10
38.8327518963
 20
7.0104346273
 30
0.0
 11
38.8327518963
 21
11.1407657272
 31
0.0
  0
LINE
  5
D8
  8
0
  6
CONTINUOUS
 62
     7
 10
47.1900441262
 20
8.8974048776
 30
0.0
 11
48.2176834984
 21
8.8974048776
 31
0.0
  0
LINE
  5
D9
  8
0
  6
CONTINUOUS
 62
     7
 10
48.2176834984
 20
8.8974048776
 30
0.0
 11
48.2176834984
 21
9.9317654434
 31
0.0
  0
LINE
  5
DA
  8
0
  6
CONTINUOUS
 62
     7
 10
48.2176834984
 20
9.9317654434
 30
0.0
 11
49.131140718
 21
9.9317654434
 31
0.0
  0
LINE
  5
DB
  8
0
  6
CONTINUOUS
 62
     7
 10
49.131140718
 20
9.9317654434
 30
0.0
 11
49.131140718
 21
8.8974048776
 31
0.0
  0
LINE
  5
DC
  8
0
  6
CONTINUOUS
 62
     7
 10
49.131140718
 20
8.8974048776
 30
0.0
 11
50.1409391288
 21
8.8974048776
 31
0.0
  0
LINE
  5
DD
  8
0
  6
CONTINUOUS
 62
     7
 10
50.1409391288
 20
8.8974048776
 30
0.0
 11
50.1409391288
 21
8.0049416206
 31
0.0
  0
LINE
  5
DE
  8
0
  6
CONTINUOUS
 62
     7
 10
50.1409391288
 20
8.0049416206
 30
0.0
 11
49.131140718
 21
8.0049416206
 31
0.0
  0
LINE
  5
DF
  8
0
  6
CONTINUOUS
 62
     7
 10
49.131140718
 20
8.0049416206
 30
0.0
 11
49.131140718
 21
6.9710725538
 31
0.0
  0
LINE
  5
E0
  8
0
  6
CONTINUOUS
 62
     7
 10
49.131140718
 20
6.9710725538
 30
0.0
 11
48.2176834984
 21
6.9710725538
 31
0.0
  0
LINE
  5
E1
  8
0
  6
CONTINUOUS
 62
     7
 10
48.2176834984
 20
6.9710725538
 30
0.0
 11
48.2176834984
 21
8.0049416206
 31
0.0
  0
LINE
  5
E2
  8
0
  6
CONTINUOUS
 62
     7
 10
48.2176834984
 20
8.0049416206
 30
0.0
 11
47.1900441262
 21
8.0049416206
 31
0.0
  0
LINE
  5
E3
  8
0
  6
CONTINUOUS
 62
     7
 10
47.1900441262
 20
8.0049416206
 30
0.0
 11
47.1900441262
 21
8.8974048776
 31
0.0
  0
LINE
  5
E4
  8
0
  6
CONTINUOUS
 62
     7
 10
22.758506907
 20
3.1805549066
 30
0.0
 11
21.4868443648
 21
3.1805549066
 31
0.0
  0
LINE
  5
E5
  8
0
  6
CONTINUOUS
 62
     7
 10
23.8445384541
 20
4.6922422387
 30
0.0
 11
25.0521722201
 21
4.6922422387
 31
0.0
  0
LINE
  5
E6
  8
0
  6
CONTINUOUS
 62
     7
 10
29.6524553112
 20
3.4296646822
 30
0.0
 11
28.4124778598
 21
3.4296646822
 31
0.0
  0
LINE
  5
E7
  8
0
  6
CONTINUOUS
 62
     7
 10
29.6524553112
 20
4.3928669095
 30
0.0
 11
28.3957336708
 21
4.3928669095
 31
0.0
  0
LINE
  5
E8
  8
0
  6
CONTINUOUS
 62
     7
 10
30.3643888465
 20
5.9535295808
 30
0.0
 11
30.3643888465
 21
1.7597247801
 31
0.0
  0
LINE
  5
E9
  8
0
  6
CONTINUOUS
 62
     7
 10
30.3643888465
 20
1.7597247801
 30
0.0
 11
31.6507260102
 21
1.7597247801
 31
0.0
  0
LINE
  5
EA
  8
0
  6
CONTINUOUS
 62
     7
 10
31.6507260102
 20
1.7597247801
 30
0.0
 11
31.6507260102
 21
3.4296646822
 31
0.0
  0
LINE
  5
EB
  8
0
  6
CONTINUOUS
 62
     7
 10
31.6507260102
 20
3.4296646822
 30
0.0
 11
32.8454238731
 21
3.4296646822
 31
0.0
  0
LINE
  5
EC
  8
0
  6
CONTINUOUS
 62
     7
 10
32.8454238731
 20
3.4296646822
 30
0.0
 11
32.8454238731
 21
1.7597247801
 31
0.0
  0
LINE
  5
ED
  8
0
  6
CONTINUOUS
 62
     7
 10
32.8454238731
 20
1.7597247801
 30
0.0
 11
34.1259622418
 21
1.7597247801
 31
0.0
  0
LINE
  5
EE
  8
0
  6
CONTINUOUS
 62
     7
 10
34.1259622418
 20
1.7597247801
 30
0.0
 11
34.1259622418
 21
5.9535295808
 31
0.0
  0
LINE
  5
EF
  8
0
  6
CONTINUOUS
 62
     7
 10
34.1259622418
 20
5.9535295808
 30
0.0
 11
32.8454238731
 21
5.9535295808
 31
0.0
  0
LINE
  5
F0
  8
0
  6
CONTINUOUS
 62
     7
 10
32.8454238731
 20
5.9535295808
 30
0.0
 11
32.8454238731
 21
4.4888711309
 31
0.0
  0
LINE
  5
F1
  8
0
  6
CONTINUOUS
 62
     7
 10
32.8454238731
 20
4.4888711309
 30
0.0
 11
31.6507260102
 21
4.4888711309
 31
0.0
  0
LINE
  5
F2
  8
0
  6
CONTINUOUS
 62
     7
 10
31.6507260102
 20
4.4888711309
 30
0.0
 11
31.6507260102
 21
5.9535295808
 31
0.0
  0
LINE
  5
F3
  8
0
  6
CONTINUOUS
 62
     7
 10
31.6507260102
 20
5.9535295808
 30
0.0
 11
30.3643888465
 21
5.9535295808
 31
0.0
  0
LINE
  5
F4
  8
0
  6
CONTINUOUS
 62
     7
 10
34.9219353319
 20
1.7597247801
 30
0.0
 11
34.9219353319
 21
5.9535295808
 31
0.0
  0
LINE
  5
F5
  8
0
  6
CONTINUOUS
 62
     7
 10
34.9219353319
 20
5.9535295808
 30
0.0
 11
36.737048339
 21
5.9535295808
 31
0.0
  0
LINE
  5
F6
  8
0
  6
CONTINUOUS
 62
     7
 10
36.737048339
 20
5.9535295808
 30
0.0
 11
37.3439660834
 21
3.5172167129
 31
0.0
  0
LINE
  5
F7
  8
0
  6
CONTINUOUS
 62
     7
 10
37.3439660834
 20
3.5172167129
 30
0.0
 11
37.9455336004
 21
5.9535295808
 31
0.0
  0
LINE
  5
F8
  8
0
  6
CONTINUOUS
 62
     7
 10
37.9455336004
 20
5.9535295808
 30
0.0
 11
39.7728144136
 21
5.9535295808
 31
0.0
  0
LINE
  5
F9
  8
0
  6
CONTINUOUS
 62
     7
 10
39.7728144136
 20
5.9535295808
 30
0.0
 11
39.7728144136
 21
1.7597247801
 31
0.0
  0
LINE
  5
FA
  8
0
  6
CONTINUOUS
 62
     7
 10
39.7728144136
 20
1.7597247801
 30
0.0
 11
38.561663629
 21
1.7597247801
 31
0.0
  0
LINE
  5
FB
  8
0
  6
CONTINUOUS
 62
     7
 10
38.561663629
 20
1.7597247801
 30
0.0
 11
38.561663629
 21
4.4233682757
 31
0.0
  0
LINE
  5
FC
  8
0
  6
CONTINUOUS
 62
     7
 10
38.561663629
 20
4.4233682757
 30
0.0
 11
37.8284263972
 21
1.7597247801
 31
0.0
  0
LINE
  5
FD
  8
0
  6
CONTINUOUS
 62
     7
 10
37.8284263972
 20
1.7597247801
 30
0.0
 11
36.8980066751
 21
1.7597247801
 31
0.0
  0
LINE
  5
FE
  8
0
  6
CONTINUOUS
 62
     7
 10
36.8980066751
 20
1.7597247801
 30
0.0
 11
36.1385242115
 21
4.45387011
 31
0.0
  0
LINE
  5
FF
  8
0
  6
CONTINUOUS
 62
     7
 10
36.1385242115
 20
4.45387011
 30
0.0
 11
36.1385242115
 21
1.7597247801
 31
0.0
  0
LINE
  5
100
  8
0
  6
CONTINUOUS
 62
     7
 10
36.1385242115
 20
1.7597247801
 30
0.0
 11
34.9219353319
 21
1.7597247801
 31
0.0
  0
LINE
  5
101
  8
0
  6
CONTINUOUS
 62
     7
 10
40.5862716846
 20
5.9450710284
 30
0.0
 11
40.5862716846
 21
1.7597247801
 31
0.0
  0
LINE
  5
102
  8
0
  6
CONTINUOUS
 62
     7
 10
40.5862716846
 20
1.7597247801
 30
0.0
 11
41.8594463223
 21
1.7597247801
 31
0.0
  0
LINE
  5
103
  8
0
  6
CONTINUOUS
 62
     7
 10
41.8594463223
 20
1.7597247801
 30
0.0
 11
41.8594463223
 21
5.9450710284
 31
0.0
  0
LINE
  5
104
  8
0
  6
CONTINUOUS
 62
     7
 10
41.8594463223
 20
5.9450710284
 30
0.0
 11
40.5862716846
 21
5.9450710284
 31
0.0
  0
LINE
  5
105
  8
0
  6
CONTINUOUS
 62
     7
 10
42.4867450731
 20
5.9450710284
 30
0.0
 11
46.0905373242
 21
5.9450710284
 31
0.0
  0
LINE
  5
106
  8
0
  6
CONTINUOUS
 62
     7
 10
46.0905373242
 20
5.9450710284
 30
0.0
 11
46.0905373242
 21
4.8792545585
 31
0.0
  0
LINE
  5
107
  8
0
  6
CONTINUOUS
 62
     7
 10
46.0905373242
 20
4.8792545585
 30
0.0
 11
44.9411264045
 21
4.8792545585
 31
0.0
  0
LINE
  5
108
  8
0
  6
CONTINUOUS
 62
     7
 10
44.9411264045
 20
4.8792545585
 30
0.0
 11
44.9411264045
 21
1.7597247801
 31
0.0
  0
LINE
  5
109
  8
0
  6
CONTINUOUS
 62
     7
 10
44.9411264045
 20
1.7597247801
 30
0.0
 11
43.6454083137
 21
1.7597247801
 31
0.0
  0
LINE
  5
10A
  8
0
  6
CONTINUOUS
 62
     7
 10
43.6454083137
 20
1.7597247801
 30
0.0
 11
43.6454083137
 21
4.875397139
 31
0.0
  0
LINE
  5
10B
  8
0
  6
CONTINUOUS
 62
     7
 10
43.6454083137
 20
4.875397139
 30
0.0
 11
42.4867450731
 21
4.875397139
 31
0.0
  0
LINE
  5
10C
  8
0
  6
CONTINUOUS
 62
     7
 10
42.4867450731
 20
4.875397139
 30
0.0
 11
42.4867450731
 21
5.9450710284
 31
0.0
  0
LINE
  5
10D
  8
0
  6
CONTINUOUS
 62
     7
 10
46.6307696915
 20
5.9450710284
 30
0.0
 11
50.1409391288
 21
5.9450710284
 31
0.0
  0
LINE
  5
10E
  8
0
  6
CONTINUOUS
 62
     7
 10
50.1409391288
 20
5.9450710284
 30
0.0
 11
50.1409391288
 21
4.9820078214
 31
0.0
  0
LINE
  5
10F
  8
0
  6
CONTINUOUS
 62
     7
 10
50.1409391288
 20
4.9820078214
 30
0.0
 11
48.2176834984
 21
2.8627381135
 31
0.0
  0
LINE
  5
110
  8
0
  6
CONTINUOUS
 62
     7
 10
48.2176834984
 20
2.8627381135
 30
0.0
 11
50.247110147
 21
2.8627381135
 31
0.0
  0
LINE
  5
111
  8
0
  6
CONTINUOUS
 62
     7
 10
50.247110147
 20
2.8627381135
 30
0.0
 11
50.247110147
 21
1.7597247801
 31
0.0
  0
LINE
  5
112
  8
0
  6
CONTINUOUS
 62
     7
 10
50.247110147
 20
1.7597247801
 30
0.0
 11
46.5453485295
 21
1.7597247801
 31
0.0
  0
LINE
  5
113
  8
0
  6
CONTINUOUS
 62
     7
 10
46.5453485295
 20
1.7597247801
 30
0.0
 11
46.5453485295
 21
2.7698700986
 31
0.0
  0
LINE
  5
114
  8
0
  6
CONTINUOUS
 62
     7
 10
46.5453485295
 20
2.7698700986
 30
0.0
 11
48.4596332117
 21
4.8792545585
 31
0.0
  0
LINE
  5
115
  8
0
  6
CONTINUOUS
 62
     7
 10
48.4596332117
 20
4.8792545585
 30
0.0
 11
46.6307696915
 21
4.8792545585
 31
0.0
  0
LINE
  5
116
  8
0
  6
CONTINUOUS
 62
     7
 10
46.6307696915
 20
4.8792545585
 30
0.0
 11
46.6307696915
 21
5.9450710284
 31
0.0
  0
POLYLINE
  5
117
  8
0
  6
CONTINUOUS
 62
     8
 66
     1
 10
0.0
 20
0.0
 30
0.0
  0
VERTEX
  5
3D6
  8
0
  6
CONTINUOUS
 62
     8
 10
7.7262496761
 20
8.2130495982
 30
0.0
  0
VERTEX
  5
3D7
  8
0
  6
CONTINUOUS
 62
     8
 10
7.7385001968
 20
8.2567688072
 30
0.0
  0
VERTEX
  5
3D8
  8
0
  6
CONTINUOUS
 62
     8
 10
7.7455445661
 20
8.3004772569
 30
0.0
  0
VERTEX
  5
3D9
  8
0
  6
CONTINUOUS
 62
     8
 10
7.7476763854
 20
8.3439698142
 30
0.0
  0
VERTEX
  5
3DA
  8
0
  6
CONTINUOUS
 62
     8
 10
7.7451892558
 20
8.3870413461
 30
0.0
  0
VERTEX
  5
3DB
  8
0
  6
CONTINUOUS
 62
     8
 10
7.7383767785
 20
8.4294867194
 30
0.0
  0
VERTEX
  5
3DC
  8
0
  6
CONTINUOUS
 62
     8
 10
7.7275325549
 20
8.471100801
 30
0.0
  0
VERTEX
  5
3DD
  8
0
  6
CONTINUOUS
 62
     8
 10
7.7129501862
 20
8.5116784579
 30
0.0
  0
VERTEX
  5
3DE
  8
0
  6
CONTINUOUS
 62
     8
 10
7.6949232736
 20
8.5510145568
 30
0.0
  0
VERTEX
  5
3DF
  8
0
  6
CONTINUOUS
 62
     8
 10
7.6737454183
 20
8.5889039648
 30
0.0
  0
VERTEX
  5
3E0
  8
0
  6
CONTINUOUS
 62
     8
 10
7.6497102215
 20
8.6251415486
 30
0.0
  0
VERTEX
  5
3E1
  8
0
  6
CONTINUOUS
 62
     8
 10
7.6231112846
 20
8.6595221753
 30
0.0
  0
VERTEX
  5
3E2
  8
0
  6
CONTINUOUS
 62
     8
 10
7.5942422087
 20
8.6918407117
 30
0.0
  0
VERTEX
  5
3E3
  8
0
  6
CONTINUOUS
 62
     8
 10
7.5633800028
 20
8.7219225437
 30
0.0
  0
VERTEX
  5
3E4
  8
0
  6
CONTINUOUS
 62
     8
 10
7.5307003204
 20
8.7497794845
 30
0.0
  0
VERTEX
  5
3E5
  8
0
  6
CONTINUOUS
 62
     8
 10
7.4963405534
 20
8.7754937236
 30
0.0
  0
VERTEX
  5
3E6
  8
0
  6
CONTINUOUS
 62
     8
 10
7.4604380229
 20
8.799147581
 30
0.0
  0
VERTEX
  5
3E7
  8
0
  6
CONTINUOUS
 62
     8
 10
7.4231300499
 20
8.8208233766
 30
0.0
  0
VERTEX
  5
3E8
  8
0
  6
CONTINUOUS
 62
     8
 10
7.3845539554
 20
8.8406034301
 30
0.0
  0
VERTEX
  5
3E9
  8
0
  6
CONTINUOUS
 62
     8
 10
7.3448470606
 20
8.8585700616
 30
0.0
  0
VERTEX
  5
3EA
  8
0
  6
CONTINUOUS
 62
     8
 10
7.3041466865
 20
8.8748055908
 30
0.0
  0
VERTEX
  5
3EB
  8
0
  6
CONTINUOUS
 62
     8
 10
7.262590154
 20
8.8893923377
 30
0.0
  0
VERTEX
  5
3EC
  8
0
  6
CONTINUOUS
 62
     8
 10
7.2203147844
 20
8.9024126222
 30
0.0
  0
VERTEX
  5
3ED
  8
0
  6
CONTINUOUS
 62
     8
 10
7.1774578985
 20
8.9139487641
 30
0.0
  0
VERTEX
  5
3EE
  8
0
  6
CONTINUOUS
 62
     8
 10
7.1341568175
 20
8.9240830834
 30
0.0
  0
VERTEX
  5
3EF
  8
0
  6
CONTINUOUS
 62
     8
 10
7.0905488624
 20
8.9328978998
 30
0.0
  0
VERTEX
  5
3F0
  8
0
  6
CONTINUOUS
 62
     8
 10
7.0467713541
 20
8.9404755331
 30
0.0
  0
VERTEX
  5
3F1
  8
0
  6
CONTINUOUS
 62
     8
 10
7.002941382
 20
8.9468816617
 30
0.0
  0
VERTEX
  5
3F2
  8
0
  6
CONTINUOUS
 62
     8
 10
6.9591007013
 20
8.9521199962
 30
0.0
  0
VERTEX
  5
3F3
  8
0
  6
CONTINUOUS
 62
     8
 10
6.915273535
 20
8.9561798268
 30
0.0
  0
VERTEX
  5
3F4
  8
0
  6
CONTINUOUS
 62
     8
 10
6.8714841067
 20
8.9590504434
 30
0.0
  0
VERTEX
  5
3F5
  8
0
  6
CONTINUOUS
 62
     8
 10
6.8277566397
 20
8.9607211362
 30
0.0
  0
VERTEX
  5
3F6
  8
0
  6
CONTINUOUS
 62
     8
 10
6.7841153573
 20
8.9611811952
 30
0.0
  0
VERTEX
  5
3F7
  8
0
  6
CONTINUOUS
 62
     8
 10
6.7405844828
 20
8.9604199104
 30
0.0
  0
VERTEX
  5
3F8
  8
0
  6
CONTINUOUS
 62
     8
 10
6.6971882396
 20
8.9584265718
 30
0.0
  0
VERTEX
  5
3F9
  8
0
  6
CONTINUOUS
 62
     8
 10
6.653950851
 20
8.9551904696
 30
0.0
  0
VERTEX
  5
3FA
  8
0
  6
CONTINUOUS
 62
     8
 10
6.6108965404
 20
8.9507008936
 30
0.0
  0
VERTEX
  5
3FB
  8
0
  6
CONTINUOUS
 62
     8
 10
6.5680495311
 20
8.9449471341
 30
0.0
  0
VERTEX
  5
3FC
  8
0
  6
CONTINUOUS
 62
     8
 10
6.5254340464
 20
8.937918481
 30
0.0
  0
VERTEX
  5
3FD
  8
0
  6
CONTINUOUS
 62
     8
 10
6.4830743097
 20
8.9296042243
 30
0.0
  0
VERTEX
  5
3FE
  8
0
  6
CONTINUOUS
 62
     8
 10
6.4409945444
 20
8.9199936542
 30
0.0
  0
VERTEX
  5
3FF
  8
0
  6
CONTINUOUS
 62
     8
 10
6.3992189738
 20
8.9090760606
 30
0.0
  0
VERTEX
  5
400
  8
0
  6
CONTINUOUS
 62
     8
 10
6.3577718212
 20
8.8968407336
 30
0.0
  0
VERTEX
  5
401
  8
0
  6
CONTINUOUS
 62
     8
 10
6.3166773099
 20
8.8832769632
 30
0.0
  0
VERTEX
  5
402
  8
0
  6
CONTINUOUS
 62
     8
 10
6.2759596634
 20
8.8683740395
 30
0.0
  0
VERTEX
  5
403
  8
0
  6
CONTINUOUS
 62
     8
 10
6.2356477892
 20
8.8521184819
 30
0.0
  0
VERTEX
  5
404
  8
0
  6
CONTINUOUS
 62
     8
 10
6.1958715803
 20
8.8344370777
 30
0.0
  0
VERTEX
  5
405
  8
0
  6
CONTINUOUS
 62
     8
 10
6.1568583002
 20
8.8151990207
 30
0.0
  0
VERTEX
  5
406
  8
0
  6
CONTINUOUS
 62
     8
 10
6.1188391731
 20
8.7942711621
 30
0.0
  0
VERTEX
  5
407
  8
0
  6
CONTINUOUS
 62
     8
 10
6.0820454235
 20
8.7715203526
 30
0.0
  0
VERTEX
  5
408
  8
0
  6
CONTINUOUS
 62
     8
 10
6.0467082758
 20
8.7468134433
 30
0.0
  0
VERTEX
  5
409
  8
0
  6
CONTINUOUS
 62
     8
 10
6.0130589541
 20
8.720017285
 30
0.0
  0
VERTEX
  5
40A
  8
0
  6
CONTINUOUS
 62
     8
 10
5.981328683
 20
8.6909987289
 30
0.0
  0
VERTEX
  5
40B
  8
0
  6
CONTINUOUS
 62
     8
 10
5.9517355006
 20
8.6596563139
 30
0.0
  0
VERTEX
  5
40C
  8
0
  6
CONTINUOUS
 62
     8
 10
5.9244094178
 20
8.6261001245
 30
0.0
  0
VERTEX
  5
40D
  8
0
  6
CONTINUOUS
 62
     8
 10
5.8994443991
 20
8.5905268692
 30
0.0
  0
VERTEX
  5
40E
  8
0
  6
CONTINUOUS
 62
     8
 10
5.8769343008
 20
8.5531335175
 30
0.0
  0
VERTEX
  5
40F
  8
0
  6
CONTINUOUS
 62
     8
 10
5.8569729791
 20
8.5141170389
 30
0.0
  0
VERTEX
  5
410
  8
0
  6
CONTINUOUS
 62
     8
 10
5.83965429
 20
8.4736744029
 30
0.0
  0
VERTEX
  5
411
  8
0
  6
CONTINUOUS
 62
     8
 10
5.8250720898
 20
8.432002579
 30
0.0
  0
VERTEX
  5
412
  8
0
  6
CONTINUOUS
 62
     8
 10
5.8133202346
 20
8.3892985367
 30
0.0
  0
VERTEX
  5
413
  8
0
  6
CONTINUOUS
 62
     8
 10
5.8044925805
 20
8.3457592455
 30
0.0
  0
VERTEX
  5
414
  8
0
  6
CONTINUOUS
 62
     8
 10
5.7986829838
 20
8.3015816749
 30
0.0
  0
VERTEX
  5
415
  8
0
  6
CONTINUOUS
 62
     8
 10
5.7959849947
 20
8.2569629304
 30
0.0
  0
VERTEX
  5
416
  8
0
  6
CONTINUOUS
 62
     8
 10
5.7964438394
 20
8.2121216053
 30
0.0
  0
VERTEX
  5
417
  8
0
  6
CONTINUOUS
 62
     8
 10
5.8000040961
 20
8.1673210468
 30
0.0
  0
VERTEX
  5
418
  8
0
  6
CONTINUOUS
 62
     8
 10
5.8065977707
 20
8.1228301923
 30
0.0
  0
VERTEX
  5
419
  8
0
  6
CONTINUOUS
 62
     8
 10
5.8161568694
 20
8.0789179795
 30
0.0
  0
VERTEX
  5
41A
  8
0
  6
CONTINUOUS
 62
     8
 10
5.8286133979
 20
8.0358533459
 30
0.0
  0
VERTEX
  5
41B
  8
0
  6
CONTINUOUS
 62
     8
 10
5.8438993623
 20
7.9939052292
 30
0.0
  0
VERTEX
  5
41C
  8
0
  6
CONTINUOUS
 62
     8
 10
5.8619467686
 20
7.9533425668
 30
0.0
  0
VERTEX
  5
41D
  8
0
  6
CONTINUOUS
 62
     8
 10
5.8826876226
 20
7.9144342964
 30
0.0
  0
VERTEX
  5
41E
  8
0
  6
CONTINUOUS
 62
     8
 10
5.9060539304
 20
7.8774493554
 30
0.0
  0
VERTEX
  5
41F
  8
0
  6
CONTINUOUS
 62
     8
 10
5.9319776979
 20
7.8426566815
 30
0.0
  0
VERTEX
  5
420
  8
0
  6
CONTINUOUS
 62
     8
 10
5.960390931
 20
7.8103252123
 30
0.0
  0
VERTEX
  5
421
  8
0
  6
CONTINUOUS
 62
     8
 10
5.9912244605
 20
7.7807208928
 30
0.0
  0
VERTEX
  5
422
  8
0
  6
CONTINUOUS
 62
     8
 10
6.0243265642
 20
7.7538994858
 30
0.0
  0
VERTEX
  5
423
  8
0
  6
CONTINUOUS
 62
     8
 10
6.059410117
 20
7.7295720127
 30
0.0
  0
VERTEX
  5
424
  8
0
  6
CONTINUOUS
 62
     8
 10
6.0961754305
 20
7.7074175084
 30
0.0
  0
VERTEX
  5
425
  8
0
  6
CONTINUOUS
 62
     8
 10
6.1343228163
 20
7.6871150073
 30
0.0
  0
VERTEX
  5
426
  8
0
  6
CONTINUOUS
 62
     8
 10
6.1735525858
 20
7.6683435441
 30
0.0
  0
VERTEX
  5
427
  8
0
  6
CONTINUOUS
 62
     8
 10
6.2135650506
 20
7.6507821533
 30
0.0
  0
VERTEX
  5
428
  8
0
  6
CONTINUOUS
 62
     8
 10
6.2540605223
 20
7.6341098696
 30
0.0
  0
VERTEX
  5
429
  8
0
  6
CONTINUOUS
 62
     8
 10
6.2947401705
 20
7.6180067915
 30
0.0
  0
VERTEX
  5
42A
  8
0
  6
CONTINUOUS
 62
     8
 10
6.3354093269
 20
7.602282154
 30
0.0
  0
VERTEX
  5
42B
  8
0
  6
CONTINUOUS
 62
     8
 10
6.3760757888
 20
7.5869962026
 30
0.0
  0
VERTEX
  5
42C
  8
0
  6
CONTINUOUS
 62
     8
 10
6.4167706395
 20
7.5722380516
 30
0.0
  0
VERTEX
  5
42D
  8
0
  6
CONTINUOUS
 62
     8
 10
6.4575249619
 20
7.5580968153
 30
0.0
  0
VERTEX
  5
42E
  8
0
  6
CONTINUOUS
 62
     8
 10
6.4983698392
 20
7.544661608
 30
0.0
  0
VERTEX
  5
42F
  8
0
  6
CONTINUOUS
 62
     8
 10
6.5393363545
 20
7.5320215439
 30
0.0
  0
VERTEX
  5
430
  8
0
  6
CONTINUOUS
 62
     8
 10
6.5804555908
 20
7.5202657374
 30
0.0
  0
VERTEX
  5
431
  8
0
  6
CONTINUOUS
 62
     8
 10
6.6217586314
 20
7.5094833027
 30
0.0
  0
VERTEX
  5
432
  8
0
  6
CONTINUOUS
 62
     8
 10
6.6632765592
 20
7.4997633541
 30
0.0
  0
VERTEX
  5
433
  8
0
  6
CONTINUOUS
 62
     8
 10
6.7050398089
 20
7.491191361
 30
0.0
  0
VERTEX
  5
434
  8
0
  6
CONTINUOUS
 62
     8
 10
6.7470211248
 20
7.4835285529
 30
0.0
  0
VERTEX
  5
435
  8
0
  6
CONTINUOUS
 62
     8
 10
6.78909094
 20
7.4759611332
 30
0.0
  0
VERTEX
  5
436
  8
0
  6
CONTINUOUS
 62
     8
 10
6.8311091858
 20
7.4676162818
 30
0.0
  0
VERTEX
  5
437
  8
0
  6
CONTINUOUS
 62
     8
 10
6.8729357935
 20
7.4576211787
 30
0.0
  0
VERTEX
  5
438
  8
0
  6
CONTINUOUS
 62
     8
 10
6.9144306946
 20
7.4451030039
 30
0.0
  0
VERTEX
  5
439
  8
0
  6
CONTINUOUS
 62
     8
 10
6.9554538204
 20
7.4291889373
 30
0.0
  0
VERTEX
  5
43A
  8
0
  6
CONTINUOUS
 62
     8
 10
6.9956352961
 20
7.4091605485
 30
0.0
  0
VERTEX
  5
43B
  8
0
  6
CONTINUOUS
 62
     8
 10
7.0336961109
 20
7.384910188
 30
0.0
  0
VERTEX
  5
43C
  8
0
  6
CONTINUOUS
 62
     8
 10
7.068132465
 20
7.3564812255
 30
0.0
  0
VERTEX
  5
43D
  8
0
  6
CONTINUOUS
 62
     8
 10
7.0974405584
 20
7.3239170307
 30
0.0
  0
VERTEX
  5
43E
  8
0
  6
CONTINUOUS
 62
     8
 10
7.1201165911
 20
7.2872609733
 30
0.0
  0
VERTEX
  5
43F
  8
0
  6
CONTINUOUS
 62
     8
 10
7.1346647145
 20
7.246587483
 30
0.0
  0
VERTEX
  5
440
  8
0
  6
CONTINUOUS
 62
     8
 10
7.1399175371
 20
7.2032539924
 30
0.0
  0
VERTEX
  5
441
  8
0
  6
CONTINUOUS
 62
     8
 10
7.1351458816
 20
7.1603296683
 30
0.0
  0
VERTEX
  5
442
  8
0
  6
CONTINUOUS
 62
     8
 10
7.1201616791
 20
7.1204447767
 30
0.0
  0
VERTEX
  5
443
  8
0
  6
CONTINUOUS
 62
     8
 10
7.0967917378
 20
7.0840280064
 30
0.0
  0
VERTEX
  5
444
  8
0
  6
CONTINUOUS
 62
     8
 10
7.0673597655
 20
7.0509651026
 30
0.0
  0
VERTEX
  5
445
  8
0
  6
CONTINUOUS
 62
     8
 10
7.0341894703
 20
7.0211418106
 30
0.0
  0
VERTEX
  5
446
  8
0
  6
CONTINUOUS
 62
     8
 10
6.9993442076
 20
6.9945169479
 30
0.0
  0
VERTEX
  5
447
  8
0
  6
CONTINUOUS
 62
     8
 10
6.9629537497
 20
6.9715920248
 30
0.0
  0
VERTEX
  5
448
  8
0
  6
CONTINUOUS
 62
     8
 10
6.9242775333
 20
6.9531128257
 30
0.0
  0
VERTEX
  5
449
  8
0
  6
CONTINUOUS
 62
     8
 10
6.8826156457
 20
6.9398005707
 30
0.0
  0
VERTEX
  5
44A
  8
0
  6
CONTINUOUS
 62
     8
 10
6.8381001584
 20
6.9318988638
 30
0.0
  0
VERTEX
  5
44B
  8
0
  6
CONTINUOUS
 62
     8
 10
6.7915975131
 20
6.9292297296
 30
0.0
  0
VERTEX
  5
44C
  8
0
  6
CONTINUOUS
 62
     8
 10
6.7439993692
 20
6.9316007159
 30
0.0
  0
VERTEX
  5
44D
  8
0
  6
CONTINUOUS
 62
     8
 10
6.6961973861
 20
6.9388193708
 30
0.0
  0
VERTEX
  5
44E
  8
0
  6
CONTINUOUS
 62
     8
 10
6.6490832233
 20
6.9506932419
 30
0.0
  0
VERTEX
  5
44F
  8
0
  6
CONTINUOUS
 62
     8
 10
6.6035485403
 20
6.9670298773
 30
0.0
  0
VERTEX
  5
450
  8
0
  6
CONTINUOUS
 62
     8
 10
6.5604849964
 20
6.9876368248
 30
0.0
  0
VERTEX
  5
451
  8
0
  6
CONTINUOUS
 62
     8
 10
6.5207842512
 20
7.0123216323
 30
0.0
  0
VERTEX
  5
452
  8
0
  6
CONTINUOUS
 62
     8
 10
6.485337964
 20
7.0408918476
 30
0.0
  0
VERTEX
  5
453
  8
0
  6
CONTINUOUS
 62
     8
 10
6.4550377944
 20
7.0731550188
 30
0.0
  0
VERTEX
  5
454
  8
0
  6
CONTINUOUS
 62
     8
 10
6.4307754018
 20
7.1089186935
 30
0.0
  0
VERTEX
  5
455
  8
0
  6
CONTINUOUS
 62
     8
 10
6.4134424455
 20
7.1479904198
 30
0.0
  0
VERTEX
  5
456
  8
0
  6
CONTINUOUS
 62
     8
 10
6.4039305852
 20
7.1901777456
 30
0.0
  0
SEQEND
  5
8EE
  8
0
  6
CONTINUOUS
 62
     8
  0
POLYLINE
  5
118
  8
0
  6
CONTINUOUS
 62
     8
 66
     1
 10
0.0
 20
0.0
 30
0.0
  0
VERTEX
  5
457
  8
0
  6
CONTINUOUS
 62
     8
 10
5.7610944456
 20
7.3109441667
 30
0.0
  0
VERTEX
  5
458
  8
0
  6
CONTINUOUS
 62
     8
 10
5.7568651167
 20
7.2637072188
 30
0.0
  0
VERTEX
  5
459
  8
0
  6
CONTINUOUS
 62
     8
 10
5.7554457885
 20
7.2157508729
 30
0.0
  0
VERTEX
  5
45A
  8
0
  6
CONTINUOUS
 62
     8
 10
5.7569045146
 20
7.16740091
 30
0.0
  0
VERTEX
  5
45B
  8
0
  6
CONTINUOUS
 62
     8
 10
5.7613093482
 20
7.118983111
 30
0.0
  0
VERTEX
  5
45C
  8
0
  6
CONTINUOUS
 62
     8
 10
5.7687283428
 20
7.0708232566
 30
0.0
  0
VERTEX
  5
45D
  8
0
  6
CONTINUOUS
 62
     8
 10
5.7792295518
 20
7.0232471278
 30
0.0
  0
VERTEX
  5
45E
  8
0
  6
CONTINUOUS
 62
     8
 10
5.7928810284
 20
6.9765805054
 30
0.0
  0
VERTEX
  5
45F
  8
0
  6
CONTINUOUS
 62
     8
 10
5.8097508263
 20
6.9311491703
 30
0.0
  0
VERTEX
  5
460
  8
0
  6
CONTINUOUS
 62
     8
 10
5.8299069987
 20
6.8872789032
 30
0.0
  0
VERTEX
  5
461
  8
0
  6
CONTINUOUS
 62
     8
 10
5.853417599
 20
6.8452954852
 30
0.0
  0
VERTEX
  5
462
  8
0
  6
CONTINUOUS
 62
     8
 10
5.8803474822
 20
6.8055225823
 30
0.0
  0
VERTEX
  5
463
  8
0
  6
CONTINUOUS
 62
     8
 10
5.9105784482
 20
6.7681628352
 30
0.0
  0
VERTEX
  5
464
  8
0
  6
CONTINUOUS
 62
     8
 10
5.9437135401
 20
6.7332345861
 30
0.0
  0
VERTEX
  5
465
  8
0
  6
CONTINUOUS
 62
     8
 10
5.9793323941
 20
6.7007407019
 30
0.0
  0
VERTEX
  5
466
  8
0
  6
CONTINUOUS
 62
     8
 10
6.0170146464
 20
6.6706840496
 30
0.0
  0
VERTEX
  5
467
  8
0
  6
CONTINUOUS
 62
     8
 10
6.0563561328
 20
6.6430633607
 30
0.0
  0
VERTEX
  5
468
  8
0
  6
CONTINUOUS
 62
     8
 10
6.0971332793
 20
6.6178312644
 30
0.0
  0
VERTEX
  5
469
  8
0
  6
CONTINUOUS
 62
     8
 10
6.1392354528
 20
6.5949115579
 30
0.0
  0
VERTEX
  5
46A
  8
0
  6
CONTINUOUS
 62
     8
 10
6.1825537487
 20
6.574227597
 30
0.0
  0
VERTEX
  5
46B
  8
0
  6
CONTINUOUS
 62
     8
 10
6.2269792622
 20
6.5557027375
 30
0.0
  0
VERTEX
  5
46C
  8
0
  6
CONTINUOUS
 62
     8
 10
6.2724030887
 20
6.5392603354
 30
0.0
  0
VERTEX
  5
46D
  8
0
  6
CONTINUOUS
 62
     8
 10
6.3187163236
 20
6.5248237464
 30
0.0
  0
VERTEX
  5
46E
  8
0
  6
CONTINUOUS
 62
     8
 10
6.3658100621
 20
6.5123163263
 30
0.0
  0
VERTEX
  5
46F
  8
0
  6
CONTINUOUS
 62
     8
 10
6.4135753997
 20
6.5016614311
 30
0.0
  0
VERTEX
  5
470
  8
0
  6
CONTINUOUS
 62
     8
 10
6.4619034316
 20
6.4927824166
 30
0.0
  0
VERTEX
  5
471
  8
0
  6
CONTINUOUS
 62
     8
 10
6.5106852532
 20
6.4856026386
 30
0.0
  0
VERTEX
  5
472
  8
0
  6
CONTINUOUS
 62
     8
 10
6.5598119598
 20
6.4800454529
 30
0.0
  0
VERTEX
  5
473
  8
0
  6
CONTINUOUS
 62
     8
 10
6.6091746467
 20
6.4760342155
 30
0.0
  0
VERTEX
  5
474
  8
0
  6
CONTINUOUS
 62
     8
 10
6.6586644093
 20
6.4734922821
 30
0.0
  0
VERTEX
  5
475
  8
0
  6
CONTINUOUS
 62
     8
 10
6.708172343
 20
6.4723430086
 30
0.0
  0
VERTEX
  5
476
  8
0
  6
CONTINUOUS
 62
     8
 10
6.7575895429
 20
6.4725097508
 30
0.0
  0
VERTEX
  5
477
  8
0
  6
CONTINUOUS
 62
     8
 10
6.8068071046
 20
6.4739158647
 30
0.0
  0
VERTEX
  5
478
  8
0
  6
CONTINUOUS
 62
     8
 10
6.8557161232
 20
6.4764847059
 30
0.0
  0
VERTEX
  5
479
  8
0
  6
CONTINUOUS
 62
     8
 10
6.9042076942
 20
6.4801396305
 30
0.0
  0
VERTEX
  5
47A
  8
0
  6
CONTINUOUS
 62
     8
 10
6.9521729128
 20
6.4848039941
 30
0.0
  0
VERTEX
  5
47B
  8
0
  6
CONTINUOUS
 62
     8
 10
6.9995028745
 20
6.4904011528
 30
0.0
  0
VERTEX
  5
47C
  8
0
  6
CONTINUOUS
 62
     8
 10
7.0460886745
 20
6.4968544622
 30
0.0
  0
VERTEX
  5
47D
  8
0
  6
CONTINUOUS
 62
     8
 10
7.0918214082
 20
6.5040872783
 30
0.0
  0
VERTEX
  5
47E
  8
0
  6
CONTINUOUS
 62
     8
 10
7.1365921709
 20
6.5120229569
 30
0.0
  0
VERTEX
  5
47F
  8
0
  6
CONTINUOUS
 62
     8
 10
7.1802920579
 20
6.5205848538
 30
0.0
  0
SEQEND
  5
8EF
  8
0
  6
CONTINUOUS
 62
     8
  0
POLYLINE
  5
119
  8
0
  6
CONTINUOUS
 62
     8
 66
     1
 10
0.0
 20
0.0
 30
0.0
  0
VERTEX
  5
480
  8
0
  6
CONTINUOUS
 62
     8
 10
7.1802920579
 20
6.5205848538
 30
0.0
  0
VERTEX
  5
481
  8
0
  6
CONTINUOUS
 62
     8
 10
7.2179219748
 20
6.5276687523
 30
0.0
  0
VERTEX
  5
482
  8
0
  6
CONTINUOUS
 62
     8
 10
7.2551930053
 20
6.5367831768
 30
0.0
  0
VERTEX
  5
483
  8
0
  6
CONTINUOUS
 62
     8
 10
7.2920155128
 20
6.5478656095
 30
0.0
  0
VERTEX
  5
484
  8
0
  6
CONTINUOUS
 62
     8
 10
7.328299861
 20
6.5608535328
 30
0.0
  0
VERTEX
  5
485
  8
0
  6
CONTINUOUS
 62
     8
 10
7.3639564132
 20
6.575684429
 30
0.0
  0
VERTEX
  5
486
  8
0
  6
CONTINUOUS
 62
     8
 10
7.398895533
 20
6.5922957806
 30
0.0
  0
VERTEX
  5
487
  8
0
  6
CONTINUOUS
 62
     8
 10
7.4330275838
 20
6.6106250698
 30
0.0
  0
VERTEX
  5
488
  8
0
  6
CONTINUOUS
 62
     8
 10
7.4662629291
 20
6.630609779
 30
0.0
  0
VERTEX
  5
489
  8
0
  6
CONTINUOUS
 62
     8
 10
7.4985119325
 20
6.6521873906
 30
0.0
  0
VERTEX
  5
48A
  8
0
  6
CONTINUOUS
 62
     8
 10
7.5296849574
 20
6.675295387
 30
0.0
  0
VERTEX
  5
48B
  8
0
  6
CONTINUOUS
 62
     8
 10
7.5596923673
 20
6.6998712503
 30
0.0
  0
VERTEX
  5
48C
  8
0
  6
CONTINUOUS
 62
     8
 10
7.5884445257
 20
6.7258524631
 30
0.0
  0
VERTEX
  5
48D
  8
0
  6
CONTINUOUS
 62
     8
 10
7.6158517961
 20
6.7531765077
 30
0.0
  0
VERTEX
  5
48E
  8
0
  6
CONTINUOUS
 62
     8
 10
7.641824542
 20
6.7817808664
 30
0.0
  0
VERTEX
  5
48F
  8
0
  6
CONTINUOUS
 62
     8
 10
7.6662731268
 20
6.8116030216
 30
0.0
  0
VERTEX
  5
490
  8
0
  6
CONTINUOUS
 62
     8
 10
7.6891079141
 20
6.8425804556
 30
0.0
  0
VERTEX
  5
491
  8
0
  6
CONTINUOUS
 62
     8
 10
7.7102392674
 20
6.8746506508
 30
0.0
  0
VERTEX
  5
492
  8
0
  6
CONTINUOUS
 62
     8
 10
7.7295775501
 20
6.9077510895
 30
0.0
  0
VERTEX
  5
493
  8
0
  6
CONTINUOUS
 62
     8
 10
7.7470331258
 20
6.9418192541
 30
0.0
  0
VERTEX
  5
494
  8
0
  6
CONTINUOUS
 62
     8
 10
7.7625302401
 20
6.9767880157
 30
0.0
  0
VERTEX
  5
495
  8
0
  6
CONTINUOUS
 62
     8
 10
7.7760762104
 20
7.0125626526
 30
0.0
  0
VERTEX
  5
496
  8
0
  6
CONTINUOUS
 62
     8
 10
7.7877091179
 20
7.0490382241
 30
0.0
  0
VERTEX
  5
497
  8
0
  6
CONTINUOUS
 62
     8
 10
7.7974670941
 20
7.0861097731
 30
0.0
  0
VERTEX
  5
498
  8
0
  6
CONTINUOUS
 62
     8
 10
7.8053882703
 20
7.1236723424
 30
0.0
  0
VERTEX
  5
499
  8
0
  6
CONTINUOUS
 62
     8
 10
7.811510778
 20
7.1616209749
 30
0.0
  0
VERTEX
  5
49A
  8
0
  6
CONTINUOUS
 62
     8
 10
7.8158727485
 20
7.1998507133
 30
0.0
  0
VERTEX
  5
49B
  8
0
  6
CONTINUOUS
 62
     8
 10
7.8185123132
 20
7.2382566006
 30
0.0
  0
VERTEX
  5
49C
  8
0
  6
CONTINUOUS
 62
     8
 10
7.8194676035
 20
7.2767336796
 30
0.0
  0
VERTEX
  5
49D
  8
0
  6
CONTINUOUS
 62
     8
 10
7.8187767507
 20
7.315176993
 30
0.0
  0
VERTEX
  5
49E
  8
0
  6
CONTINUOUS
 62
     8
 10
7.8164778863
 20
7.3534815838
 30
0.0
  0
VERTEX
  5
49F
  8
0
  6
CONTINUOUS
 62
     8
 10
7.8126091416
 20
7.3915424948
 30
0.0
  0
VERTEX
  5
4A0
  8
0
  6
CONTINUOUS
 62
     8
 10
7.8072086481
 20
7.4292547688
 30
0.0
  0
SEQEND
  5
8F0
  8
0
  6
CONTINUOUS
 62
     8
  0
POLYLINE
  5
11A
  8
0
  6
CONTINUOUS
 62
     8
 66
     1
 10
0.0
 20
0.0
 30
0.0
  0
VERTEX
  5
4A1
  8
0
  6
CONTINUOUS
 62
     8
 10
7.8072086481
 20
7.4292547688
 30
0.0
  0
VERTEX
  5
4A2
  8
0
  6
CONTINUOUS
 62
     8
 10
7.8030066786
 20
7.4588402986
 30
0.0
  0
VERTEX
  5
4A3
  8
0
  6
CONTINUOUS
 62
     8
 10
7.7966217128
 20
7.4878071269
 30
0.0
  0
VERTEX
  5
4A4
  8
0
  6
CONTINUOUS
 62
     8
 10
7.7881686974
 20
7.5161013693
 30
0.0
  0
VERTEX
  5
4A5
  8
0
  6
CONTINUOUS
 62
     8
 10
7.777762579
 20
7.5436691414
 30
0.0
  0
VERTEX
  5
4A6
  8
0
  6
CONTINUOUS
 62
     8
 10
7.7655183043
 20
7.5704565589
 30
0.0
  0
VERTEX
  5
4A7
  8
0
  6
CONTINUOUS
 62
     8
 10
7.75155082
 20
7.5964097372
 30
0.0
  0
VERTEX
  5
4A8
  8
0
  6
CONTINUOUS
 62
     8
 10
7.7359750728
 20
7.6214747921
 30
0.0
  0
VERTEX
  5
4A9
  8
0
  6
CONTINUOUS
 62
     8
 10
7.7189060092
 20
7.6455978391
 30
0.0
  0
VERTEX
  5
4AA
  8
0
  6
CONTINUOUS
 62
     8
 10
7.7004585761
 20
7.6687249938
 30
0.0
  0
VERTEX
  5
4AB
  8
0
  6
CONTINUOUS
 62
     8
 10
7.68074772
 20
7.6908023718
 30
0.0
  0
VERTEX
  5
4AC
  8
0
  6
CONTINUOUS
 62
     8
 10
7.6598883876
 20
7.7117760888
 30
0.0
  0
VERTEX
  5
4AD
  8
0
  6
CONTINUOUS
 62
     8
 10
7.6379955256
 20
7.7315922602
 30
0.0
  0
VERTEX
  5
4AE
  8
0
  6
CONTINUOUS
 62
     8
 10
7.6151840807
 20
7.7501970018
 30
0.0
  0
VERTEX
  5
4AF
  8
0
  6
CONTINUOUS
 62
     8
 10
7.5915657431
 20
7.7675442114
 30
0.0
  0
VERTEX
  5
4B0
  8
0
  6
CONTINUOUS
 62
     8
 10
7.5672178937
 20
7.7836697812
 30
0.0
  0
VERTEX
  5
4B1
  8
0
  6
CONTINUOUS
 62
     8
 10
7.5421973536
 20
7.798658738
 30
0.0
  0
VERTEX
  5
4B2
  8
0
  6
CONTINUOUS
 62
     8
 10
7.5165606655
 20
7.8125967737
 30
0.0
  0
VERTEX
  5
4B3
  8
0
  6
CONTINUOUS
 62
     8
 10
7.4903643722
 20
7.8255695806
 30
0.0
  0
VERTEX
  5
4B4
  8
0
  6
CONTINUOUS
 62
     8
 10
7.4636650165
 20
7.8376628507
 30
0.0
  0
VERTEX
  5
4B5
  8
0
  6
CONTINUOUS
 62
     8
 10
7.436519141
 20
7.8489622759
 30
0.0
  0
VERTEX
  5
4B6
  8
0
  6
CONTINUOUS
 62
     8
 10
7.4089832885
 20
7.8595535485
 30
0.0
  0
VERTEX
  5
4B7
  8
0
  6
CONTINUOUS
 62
     8
 10
7.3811140017
 20
7.8695223604
 30
0.0
  0
VERTEX
  5
4B8
  8
0
  6
CONTINUOUS
 62
     8
 10
7.3529678234
 20
7.8789544038
 30
0.0
  0
VERTEX
  5
4B9
  8
0
  6
CONTINUOUS
 62
     8
 10
7.3246012964
 20
7.8879353707
 30
0.0
  0
VERTEX
  5
4BA
  8
0
  6
CONTINUOUS
 62
     8
 10
7.2960709633
 20
7.8965509531
 30
0.0
  0
VERTEX
  5
4BB
  8
0
  6
CONTINUOUS
 62
     8
 10
7.2674333669
 20
7.9048868432
 30
0.0
  0
VERTEX
  5
4BC
  8
0
  6
CONTINUOUS
 62
     8
 10
7.23874505
 20
7.9130287329
 30
0.0
  0
VERTEX
  5
4BD
  8
0
  6
CONTINUOUS
 62
     8
 10
7.2100625552
 20
7.9210623145
 30
0.0
  0
VERTEX
  5
4BE
  8
0
  6
CONTINUOUS
 62
     8
 10
7.1814424254
 20
7.9290732799
 30
0.0
  0
VERTEX
  5
4BF
  8
0
  6
CONTINUOUS
 62
     8
 10
7.1529412032
 20
7.9371473211
 30
0.0
  0
VERTEX
  5
4C0
  8
0
  6
CONTINUOUS
 62
     8
 10
7.1246153139
 20
7.945369975
 30
0.0
  0
VERTEX
  5
4C1
  8
0
  6
CONTINUOUS
 62
     8
 10
7.096493716
 20
7.953790449
 30
0.0
  0
VERTEX
  5
4C2
  8
0
  6
CONTINUOUS
 62
     8
 10
7.0685427801
 20
7.9623751691
 30
0.0
  0
VERTEX
  5
4C3
  8
0
  6
CONTINUOUS
 62
     8
 10
7.0407202025
 20
7.9710790877
 30
0.0
  0
VERTEX
  5
4C4
  8
0
  6
CONTINUOUS
 62
     8
 10
7.0129836792
 20
7.9798571572
 30
0.0
  0
VERTEX
  5
4C5
  8
0
  6
CONTINUOUS
 62
     8
 10
6.9852909066
 20
7.9886643302
 30
0.0
  0
VERTEX
  5
4C6
  8
0
  6
CONTINUOUS
 62
     8
 10
6.9575995806
 20
7.9974555589
 30
0.0
  0
VERTEX
  5
4C7
  8
0
  6
CONTINUOUS
 62
     8
 10
6.9298673976
 20
8.0061857959
 30
0.0
  0
VERTEX
  5
4C8
  8
0
  6
CONTINUOUS
 62
     8
 10
6.9020520536
 20
8.0148099936
 30
0.0
  0
VERTEX
  5
4C9
  8
0
  6
CONTINUOUS
 62
     8
 10
6.8741112447
 20
8.0232831044
 30
0.0
  0
VERTEX
  5
4CA
  8
0
  6
CONTINUOUS
 62
     8
 10
6.8460026673
 20
8.0315600807
 30
0.0
  0
VERTEX
  5
4CB
  8
0
  6
CONTINUOUS
 62
     8
 10
6.8176840173
 20
8.039595875
 30
0.0
  0
VERTEX
  5
4CC
  8
0
  6
CONTINUOUS
 62
     8
 10
6.789112991
 20
8.0473454396
 30
0.0
  0
VERTEX
  5
4CD
  8
0
  6
CONTINUOUS
 62
     8
 10
6.7602472845
 20
8.0547637271
 30
0.0
  0
VERTEX
  5
4CE
  8
0
  6
CONTINUOUS
 62
     8
 10
6.7310445941
 20
8.0618056899
 30
0.0
  0
VERTEX
  5
4CF
  8
0
  6
CONTINUOUS
 62
     8
 10
6.7014718275
 20
8.0684399546
 30
0.0
  0
VERTEX
  5
4D0
  8
0
  6
CONTINUOUS
 62
     8
 10
6.6717604599
 20
8.0750278823
 30
0.0
  0
VERTEX
  5
4D1
  8
0
  6
CONTINUOUS
 62
     8
 10
6.6424396138
 20
8.082372674
 30
0.0
  0
VERTEX
  5
4D2
  8
0
  6
CONTINUOUS
 62
     8
 10
6.6140542683
 20
8.0913010687
 30
0.0
  0
VERTEX
  5
4D3
  8
0
  6
CONTINUOUS
 62
     8
 10
6.5871494024
 20
8.1026398055
 30
0.0
  0
VERTEX
  5
4D4
  8
0
  6
CONTINUOUS
 62
     8
 10
6.5622699953
 20
8.1172156235
 30
0.0
  0
VERTEX
  5
4D5
  8
0
  6
CONTINUOUS
 62
     8
 10
6.5399579912
 20
8.1358390985
 30
0.0
  0
VERTEX
  5
4D6
  8
0
  6
CONTINUOUS
 62
     8
 10
6.5206288353
 20
8.158647084
 30
0.0
  0
VERTEX
  5
4D7
  8
0
  6
CONTINUOUS
 62
     8
 10
6.5045285399
 20
8.1848740472
 30
0.0
  0
VERTEX
  5
4D8
  8
0
  6
CONTINUOUS
 62
     8
 10
6.4918912649
 20
8.2136913318
 30
0.0
  0
VERTEX
  5
4D9
  8
0
  6
CONTINUOUS
 62
     8
 10
6.4829511705
 20
8.2442702816
 30
0.0
  0
VERTEX
  5
4DA
  8
0
  6
CONTINUOUS
 62
     8
 10
6.4779424166
 20
8.2757822404
 30
0.0
  0
VERTEX
  5
4DB
  8
0
  6
CONTINUOUS
 62
     8
 10
6.4770991631
 20
8.3073985519
 30
0.0
  0
VERTEX
  5
4DC
  8
0
  6
CONTINUOUS
 62
     8
 10
6.4806555703
 20
8.3382905598
 30
0.0
  0
VERTEX
  5
4DD
  8
0
  6
CONTINUOUS
 62
     8
 10
6.488845798
 20
8.367629608
 30
0.0
  0
VERTEX
  5
4DE
  8
0
  6
CONTINUOUS
 62
     8
 10
6.5017948749
 20
8.3946624812
 30
0.0
  0
VERTEX
  5
4DF
  8
0
  6
CONTINUOUS
 62
     8
 10
6.5189751622
 20
8.4190871455
 30
0.0
  0
VERTEX
  5
4E0
  8
0
  6
CONTINUOUS
 62
     8
 10
6.5396174464
 20
8.4407685645
 30
0.0
  0
VERTEX
  5
4E1
  8
0
  6
CONTINUOUS
 62
     8
 10
6.5629521225
 20
8.459571972
 30
0.0
  0
VERTEX
  5
4E2
  8
0
  6
CONTINUOUS
 62
     8
 10
6.588209586
 20
8.4753626024
 30
0.0
  0
VERTEX
  5
4E3
  8
0
  6
CONTINUOUS
 62
     8
 10
6.6147286008
 20
8.4880820412
 30
0.0
  0
VERTEX
  5
4E4
  8
0
  6
CONTINUOUS
 62
     8
 10
6.642264295
 20
8.4979652261
 30
0.0
  0
VERTEX
  5
4E5
  8
0
  6
CONTINUOUS
 62
     8
 10
6.6706717784
 20
8.5053175374
 30
0.0
  0
VERTEX
  5
4E6
  8
0
  6
CONTINUOUS
 62
     8
 10
6.699806161
 20
8.5104443553
 30
0.0
  0
VERTEX
  5
4E7
  8
0
  6
CONTINUOUS
 62
     8
 10
6.7295225526
 20
8.5136510601
 30
0.0
  0
VERTEX
  5
4E8
  8
0
  6
CONTINUOUS
 62
     8
 10
6.759676063
 20
8.5152430321
 30
0.0
  0
VERTEX
  5
4E9
  8
0
  6
CONTINUOUS
 62
     8
 10
6.7901030316
 20
8.5154647291
 30
0.0
  0
VERTEX
  5
4EA
  8
0
  6
CONTINUOUS
 62
     8
 10
6.8205106994
 20
8.5141416027
 30
0.0
  0
VERTEX
  5
4EB
  8
0
  6
CONTINUOUS
 62
     8
 10
6.8505520087
 20
8.5109228703
 30
0.0
  0
VERTEX
  5
4EC
  8
0
  6
CONTINUOUS
 62
     8
 10
6.8798797136
 20
8.5054571379
 30
0.0
  0
VERTEX
  5
4ED
  8
0
  6
CONTINUOUS
 62
     8
 10
6.9081465679
 20
8.4973930116
 30
0.0
  0
VERTEX
  5
4EE
  8
0
  6
CONTINUOUS
 62
     8
 10
6.9350053256
 20
8.4863790973
 30
0.0
  0
VERTEX
  5
4EF
  8
0
  6
CONTINUOUS
 62
     8
 10
6.9601090504
 20
8.4720650417
 30
0.0
  0
VERTEX
  5
4F0
  8
0
  6
CONTINUOUS
 62
     8
 10
6.9831784984
 20
8.4543279647
 30
0.0
  0
VERTEX
  5
4F1
  8
0
  6
CONTINUOUS
 62
     8
 10
7.0040864757
 20
8.4335559335
 30
0.0
  0
VERTEX
  5
4F2
  8
0
  6
CONTINUOUS
 62
     8
 10
7.0227265208
 20
8.4102066835
 30
0.0
  0
VERTEX
  5
4F3
  8
0
  6
CONTINUOUS
 62
     8
 10
7.0389921721
 20
8.3847379505
 30
0.0
  0
VERTEX
  5
4F4
  8
0
  6
CONTINUOUS
 62
     8
 10
7.052776968
 20
8.3576074699
 30
0.0
  0
VERTEX
  5
4F5
  8
0
  6
CONTINUOUS
 62
     8
 10
7.0639744469
 20
8.3292729773
 30
0.0
  0
VERTEX
  5
4F6
  8
0
  6
CONTINUOUS
 62
     8
 10
7.0724781473
 20
8.3001922083
 30
0.0
  0
VERTEX
  5
4F7
  8
0
  6
CONTINUOUS
 62
     8
 10
7.0781816075
 20
8.2708228984
 30
0.0
  0
VERTEX
  5
4F8
  8
0
  6
CONTINUOUS
 62
     8
 10
7.080978366
 20
8.2416227832
 30
0.0
  0
VERTEX
  5
4F9
  8
0
  6
CONTINUOUS
 62
     8
 10
7.0807619612
 20
8.2130495982
 30
0.0
  0
SEQEND
  5
8F1
  8
0
  6
CONTINUOUS
 62
     8
  0
POLYLINE
  5
11B
  8
0
  6
CONTINUOUS
 62
     8
 66
     1
 10
0.0
 20
0.0
 30
0.0
  0
VERTEX
  5
4FA
  8
0
  6
CONTINUOUS
 62
     8
 10
28.6848157428
 20
11.1373518456
 30
0.0
  0
VERTEX
  5
4FB
  8
0
  6
CONTINUOUS
 62
     8
 10
28.7395987981
 20
11.1306439911
 30
0.0
  0
VERTEX
  5
4FC
  8
0
  6
CONTINUOUS
 62
     8
 10
28.7940232952
 20
11.1217507061
 30
0.0
  0
VERTEX
  5
4FD
  8
0
  6
CONTINUOUS
 62
     8
 10
28.8480078959
 20
11.1106929049
 30
0.0
  0
VERTEX
  5
4FE
  8
0
  6
CONTINUOUS
 62
     8
 10
28.9014712616
 20
11.0974915019
 30
0.0
  0
VERTEX
  5
4FF
  8
0
  6
CONTINUOUS
 62
     8
 10
28.9543320541
 20
11.0821674114
 30
0.0
  0
VERTEX
  5
500
  8
0
  6
CONTINUOUS
 62
     8
 10
29.0065089349
 20
11.0647415477
 30
0.0
  0
VERTEX
  5
501
  8
0
  6
CONTINUOUS
 62
     8
 10
29.0579205656
 20
11.0452348252
 30
0.0
  0
VERTEX
  5
502
  8
0
  6
CONTINUOUS
 62
     8
 10
29.1084856079
 20
11.0236681582
 30
0.0
  0
VERTEX
  5
503
  8
0
  6
CONTINUOUS
 62
     8
 10
29.1581227234
 20
11.0000624609
 30
0.0
  0
VERTEX
  5
504
  8
0
  6
CONTINUOUS
 62
     8
 10
29.2067505736
 20
10.9744386478
 30
0.0
  0
VERTEX
  5
505
  8
0
  6
CONTINUOUS
 62
     8
 10
29.2542878203
 20
10.9468176331
 30
0.0
  0
VERTEX
  5
506
  8
0
  6
CONTINUOUS
 62
     8
 10
29.300653125
 20
10.9172203312
 30
0.0
  0
VERTEX
  5
507
  8
0
  6
CONTINUOUS
 62
     8
 10
29.3457651494
 20
10.8856676563
 30
0.0
  0
VERTEX
  5
508
  8
0
  6
CONTINUOUS
 62
     8
 10
29.389542451
 20
10.8521805332
 30
0.0
  0
VERTEX
  5
509
  8
0
  6
CONTINUOUS
 62
     8
 10
29.4318730841
 20
10.8167829002
 30
0.0
  0
VERTEX
  5
50A
  8
0
  6
CONTINUOUS
 62
     8
 10
29.4725723292
 20
10.7795058862
 30
0.0
  0
VERTEX
  5
50B
  8
0
  6
CONTINUOUS
 62
     8
 10
29.5114448451
 20
10.7403816694
 30
0.0
  0
VERTEX
  5
50C
  8
0
  6
CONTINUOUS
 62
     8
 10
29.5482952904
 20
10.699442428
 30
0.0
  0
VERTEX
  5
50D
  8
0
  6
CONTINUOUS
 62
     8
 10
29.582928324
 20
10.6567203404
 30
0.0
  0
VERTEX
  5
50E
  8
0
  6
CONTINUOUS
 62
     8
 10
29.6151486045
 20
10.6122475848
 30
0.0
  0
VERTEX
  5
50F
  8
0
  6
CONTINUOUS
 62
     8
 10
29.6447823367
 20
10.5660663813
 30
0.0
  0
VERTEX
  5
510
  8
0
  6
CONTINUOUS
 62
     8
 10
29.6718174485
 20
10.5182943231
 30
0.0
  0
VERTEX
  5
511
  8
0
  6
CONTINUOUS
 62
     8
 10
29.6963153367
 20
10.4690832449
 30
0.0
  0
VERTEX
  5
512
  8
0
  6
CONTINUOUS
 62
     8
 10
29.7183377665
 20
10.4185851528
 30
0.0
  0
VERTEX
  5
513
  8
0
  6
CONTINUOUS
 62
     8
 10
29.7379465027
 20
10.3669520527
 30
0.0
  0
VERTEX
  5
514
  8
0
  6
CONTINUOUS
 62
     8
 10
29.7552033105
 20
10.314335951
 30
0.0
  0
VERTEX
  5
515
  8
0
  6
CONTINUOUS
 62
     8
 10
29.7701699549
 20
10.2608888536
 30
0.0
  0
VERTEX
  5
516
  8
0
  6
CONTINUOUS
 62
     8
 10
29.7829082009
 20
10.2067627667
 30
0.0
  0
VERTEX
  5
517
  8
0
  6
CONTINUOUS
 62
     8
 10
29.7934798135
 20
10.1521096964
 30
0.0
  0
VERTEX
  5
518
  8
0
  6
CONTINUOUS
 62
     8
 10
29.8019366032
 20
10.0970770419
 30
0.0
  0
VERTEX
  5
519
  8
0
  6
CONTINUOUS
 62
     8
 10
29.8082618089
 20
10.0417804676
 30
0.0
  0
VERTEX
  5
51A
  8
0
  6
CONTINUOUS
 62
     8
 10
29.8124097873
 20
9.9863222714
 30
0.0
  0
VERTEX
  5
51B
  8
0
  6
CONTINUOUS
 62
     8
 10
29.8143347943
 20
9.9308047046
 30
0.0
  0
VERTEX
  5
51C
  8
0
  6
CONTINUOUS
 62
     8
 10
29.8139910856
 20
9.8753300183
 30
0.0
  0
VERTEX
  5
51D
  8
0
  6
CONTINUOUS
 62
     8
 10
29.8113329172
 20
9.8200004638
 30
0.0
  0
VERTEX
  5
51E
  8
0
  6
CONTINUOUS
 62
     8
 10
29.8063145449
 20
9.7649182922
 30
0.0
  0
VERTEX
  5
51F
  8
0
  6
CONTINUOUS
 62
     8
 10
29.7988902245
 20
9.7101857548
 30
0.0
  0
VERTEX
  5
520
  8
0
  6
CONTINUOUS
 62
     8
 10
29.7890142119
 20
9.6559051028
 30
0.0
  0
VERTEX
  5
521
  8
0
  6
CONTINUOUS
 62
     8
 10
29.776640763
 20
9.6021785874
 30
0.0
  0
VERTEX
  5
522
  8
0
  6
CONTINUOUS
 62
     8
 10
29.7617241336
 20
9.5491084597
 30
0.0
  0
VERTEX
  5
523
  8
0
  6
CONTINUOUS
 62
     8
 10
29.7442227073
 20
9.4967990885
 30
0.0
  0
VERTEX
  5
524
  8
0
  6
CONTINUOUS
 62
     8
 10
29.7241470149
 20
9.4453815918
 30
0.0
  0
VERTEX
  5
525
  8
0
  6
CONTINUOUS
 62
     8
 10
29.7015433172
 20
9.3950054157
 30
0.0
  0
VERTEX
  5
526
  8
0
  6
CONTINUOUS
 62
     8
 10
29.6764585718
 20
9.345820364
 30
0.0
  0
VERTEX
  5
527
  8
0
  6
CONTINUOUS
 62
     8
 10
29.6489397362
 20
9.2979762403
 30
0.0
  0
VERTEX
  5
528
  8
0
  6
CONTINUOUS
 62
     8
 10
29.6190337682
 20
9.2516228483
 30
0.0
  0
VERTEX
  5
529
  8
0
  6
CONTINUOUS
 62
     8
 10
29.5867876251
 20
9.2069099915
 30
0.0
  0
VERTEX
  5
52A
  8
0
  6
CONTINUOUS
 62
     8
 10
29.5522482647
 20
9.1639874737
 30
0.0
  0
VERTEX
  5
52B
  8
0
  6
CONTINUOUS
 62
     8
 10
29.5154626446
 20
9.1230050986
 30
0.0
  0
VERTEX
  5
52C
  8
0
  6
CONTINUOUS
 62
     8
 10
29.4764777222
 20
9.0841126696
 30
0.0
  0
VERTEX
  5
52D
  8
0
  6
CONTINUOUS
 62
     8
 10
29.4353404553
 20
9.0474599906
 30
0.0
  0
VERTEX
  5
52E
  8
0
  6
CONTINUOUS
 62
     8
 10
29.3920978013
 20
9.0131968651
 30
0.0
  0
VERTEX
  5
52F
  8
0
  6
CONTINUOUS
 62
     8
 10
29.3467967179
 20
8.9814730969
 30
0.0
  0
VERTEX
  5
530
  8
0
  6
CONTINUOUS
 62
     8
 10
29.2994841627
 20
8.9524384894
 30
0.0
  0
VERTEX
  5
531
  8
0
  6
CONTINUOUS
 62
     8
 10
29.2502070932
 20
8.9262428465
 30
0.0
  0
VERTEX
  5
532
  8
0
  6
CONTINUOUS
 62
     8
 10
29.1990124671
 20
8.9030359718
 30
0.0
  0
SEQEND
  5
8F2
  8
0
  6
CONTINUOUS
 62
     8
  0
POLYLINE
  5
11C
  8
0
  6
CONTINUOUS
 62
     8
 66
     1
 10
0.0
 20
0.0
 30
0.0
  0
VERTEX
  5
533
  8
0
  6
CONTINUOUS
 62
     8
 10
29.1990124671
 20
8.9030359718
 30
0.0
  0
VERTEX
  5
534
  8
0
  6
CONTINUOUS
 62
     8
 10
29.2511795377
 20
8.8830330458
 30
0.0
  0
VERTEX
  5
535
  8
0
  6
CONTINUOUS
 62
     8
 10
29.3000839164
 20
8.859008673
 30
0.0
  0
VERTEX
  5
536
  8
0
  6
CONTINUOUS
 62
     8
 10
29.3458642367
 20
8.8312559328
 30
0.0
  0
VERTEX
  5
537
  8
0
  6
CONTINUOUS
 62
     8
 10
29.3886591323
 20
8.8000679044
 30
0.0
  0
VERTEX
  5
538
  8
0
  6
CONTINUOUS
 62
     8
 10
29.428607237
 20
8.7657376671
 30
0.0
  0
VERTEX
  5
539
  8
0
  6
CONTINUOUS
 62
     8
 10
29.4658471843
 20
8.7285583001
 30
0.0
  0
VERTEX
  5
53A
  8
0
  6
CONTINUOUS
 62
     8
 10
29.5005176079
 20
8.6888228829
 30
0.0
  0
VERTEX
  5
53B
  8
0
  6
CONTINUOUS
 62
     8
 10
29.5327571416
 20
8.6468244946
 30
0.0
  0
VERTEX
  5
53C
  8
0
  6
CONTINUOUS
 62
     8
 10
29.5627044189
 20
8.6028562145
 30
0.0
  0
VERTEX
  5
53D
  8
0
  6
CONTINUOUS
 62
     8
 10
29.5904980736
 20
8.557211122
 30
0.0
  0
VERTEX
  5
53E
  8
0
  6
CONTINUOUS
 62
     8
 10
29.6162767392
 20
8.5101822963
 30
0.0
  0
VERTEX
  5
53F
  8
0
  6
CONTINUOUS
 62
     8
 10
29.6401790495
 20
8.4620628168
 30
0.0
  0
VERTEX
  5
540
  8
0
  6
CONTINUOUS
 62
     8
 10
29.6623415305
 20
8.4131419283
 30
0.0
  0
VERTEX
  5
541
  8
0
  6
CONTINUOUS
 62
     8
 10
29.6828403579
 20
8.3635990871
 30
0.0
  0
VERTEX
  5
542
  8
0
  6
CONTINUOUS
 62
     8
 10
29.7016839163
 20
8.3134904235
 30
0.0
  0
VERTEX
  5
543
  8
0
  6
CONTINUOUS
 62
     8
 10
29.7188769877
 20
8.2628655145
 30
0.0
  0
VERTEX
  5
544
  8
0
  6
CONTINUOUS
 62
     8
 10
29.7344243544
 20
8.2117739373
 30
0.0
  0
VERTEX
  5
545
  8
0
  6
CONTINUOUS
 62
     8
 10
29.7483307985
 20
8.1602652688
 30
0.0
  0
VERTEX
  5
546
  8
0
  6
CONTINUOUS
 62
     8
 10
29.7606011024
 20
8.1083890864
 30
0.0
  0
VERTEX
  5
547
  8
0
  6
CONTINUOUS
 62
     8
 10
29.771240048
 20
8.0561949669
 30
0.0
  0
VERTEX
  5
548
  8
0
  6
CONTINUOUS
 62
     8
 10
29.7802524178
 20
8.0037324876
 30
0.0
  0
VERTEX
  5
549
  8
0
  6
CONTINUOUS
 62
     8
 10
29.7876429937
 20
7.9510512255
 30
0.0
  0
VERTEX
  5
54A
  8
0
  6
CONTINUOUS
 62
     8
 10
29.7934165581
 20
7.8982007576
 30
0.0
  0
VERTEX
  5
54B
  8
0
  6
CONTINUOUS
 62
     8
 10
29.7975925446
 20
7.8452298479
 30
0.0
  0
VERTEX
  5
54C
  8
0
  6
CONTINUOUS
 62
     8
 10
29.8003846259
 20
7.7921764786
 30
0.0
  0
VERTEX
  5
54D
  8
0
  6
CONTINUOUS
 62
     8
 10
29.8021441683
 20
7.7390709891
 30
0.0
  0
VERTEX
  5
54E
  8
0
  6
CONTINUOUS
 62
     8
 10
29.8032254589
 20
7.6859435565
 30
0.0
  0
VERTEX
  5
54F
  8
0
  6
CONTINUOUS
 62
     8
 10
29.8039827851
 20
7.6328243581
 30
0.0
  0
VERTEX
  5
550
  8
0
  6
CONTINUOUS
 62
     8
 10
29.8047704341
 20
7.5797435711
 30
0.0
  0
VERTEX
  5
551
  8
0
  6
CONTINUOUS
 62
     8
 10
29.8059426931
 20
7.5267313726
 30
0.0
  0
VERTEX
  5
552
  8
0
  6
CONTINUOUS
 62
     8
 10
29.8078538494
 20
7.4738179399
 30
0.0
  0
VERTEX
  5
553
  8
0
  6
CONTINUOUS
 62
     8
 10
29.8108581902
 20
7.4210334502
 30
0.0
  0
VERTEX
  5
554
  8
0
  6
CONTINUOUS
 62
     8
 10
29.8153100029
 20
7.3684080807
 30
0.0
  0
VERTEX
  5
555
  8
0
  6
CONTINUOUS
 62
     8
 10
29.8215635746
 20
7.3159720087
 30
0.0
  0
VERTEX
  5
556
  8
0
  6
CONTINUOUS
 62
     8
 10
29.8299731925
 20
7.2637554112
 30
0.0
  0
VERTEX
  5
557
  8
0
  6
CONTINUOUS
 62
     8
 10
29.8408931441
 20
7.2117884656
 30
0.0
  0
VERTEX
  5
558
  8
0
  6
CONTINUOUS
 62
     8
 10
29.8546777164
 20
7.1601013491
 30
0.0
  0
VERTEX
  5
559
  8
0
  6
CONTINUOUS
 62
     8
 10
29.8716811968
 20
7.1087242388
 30
0.0
  0
VERTEX
  5
55A
  8
0
  6
CONTINUOUS
 62
     8
 10
29.8922578726
 20
7.0576873119
 30
0.0
  0
VERTEX
  5
55B
  8
0
  6
CONTINUOUS
 62
     8
 10
29.9167620308
 20
7.0070207457
 30
0.0
  0
SEQEND
  5
8F3
  8
0
  6
CONTINUOUS
 62
     8
  0
POLYLINE
  5
11D
  8
0
  6
CONTINUOUS
 62
     8
 66
     1
 10
0.0
 20
0.0
 30
0.0
  0
VERTEX
  5
55C
  8
0
  6
CONTINUOUS
 62
     8
 10
28.6415284727
 20
7.0070207457
 30
0.0
  0
VERTEX
  5
55D
  8
0
  6
CONTINUOUS
 62
     8
 10
28.6308613728
 20
7.0461102224
 30
0.0
  0
VERTEX
  5
55E
  8
0
  6
CONTINUOUS
 62
     8
 10
28.6210013368
 20
7.0853740626
 30
0.0
  0
VERTEX
  5
55F
  8
0
  6
CONTINUOUS
 62
     8
 10
28.6119153331
 20
7.1247992083
 30
0.0
  0
VERTEX
  5
560
  8
0
  6
CONTINUOUS
 62
     8
 10
28.6035703304
 20
7.1643726015
 30
0.0
  0
VERTEX
  5
561
  8
0
  6
CONTINUOUS
 62
     8
 10
28.595933297
 20
7.2040811843
 30
0.0
  0
VERTEX
  5
562
  8
0
  6
CONTINUOUS
 62
     8
 10
28.5889712016
 20
7.2439118988
 30
0.0
  0
VERTEX
  5
563
  8
0
  6
CONTINUOUS
 62
     8
 10
28.5826510127
 20
7.2838516869
 30
0.0
  0
VERTEX
  5
564
  8
0
  6
CONTINUOUS
 62
     8
 10
28.5769396987
 20
7.3238874907
 30
0.0
  0
VERTEX
  5
565
  8
0
  6
CONTINUOUS
 62
     8
 10
28.5718042282
 20
7.3640062524
 30
0.0
  0
VERTEX
  5
566
  8
0
  6
CONTINUOUS
 62
     8
 10
28.5672115697
 20
7.4041949138
 30
0.0
  0
VERTEX
  5
567
  8
0
  6
CONTINUOUS
 62
     8
 10
28.5631286917
 20
7.4444404172
 30
0.0
  0
VERTEX
  5
568
  8
0
  6
CONTINUOUS
 62
     8
 10
28.5595225628
 20
7.4847297044
 30
0.0
  0
VERTEX
  5
569
  8
0
  6
CONTINUOUS
 62
     8
 10
28.5563601514
 20
7.5250497177
 30
0.0
  0
VERTEX
  5
56A
  8
0
  6
CONTINUOUS
 62
     8
 10
28.553608426
 20
7.5653873989
 30
0.0
  0
VERTEX
  5
56B
  8
0
  6
CONTINUOUS
 62
     8
 10
28.5512343553
 20
7.6057296903
 30
0.0
  0
VERTEX
  5
56C
  8
0
  6
CONTINUOUS
 62
     8
 10
28.5491967176
 20
7.6460639589
 30
0.0
  0
VERTEX
  5
56D
  8
0
  6
CONTINUOUS
 62
     8
 10
28.547330214
 20
7.686384014
 30
0.0
  0
VERTEX
  5
56E
  8
0
  6
CONTINUOUS
 62
     8
 10
28.5453732402
 20
7.7266886643
 30
0.0
  0
VERTEX
  5
56F
  8
0
  6
CONTINUOUS
 62
     8
 10
28.5430616691
 20
7.76697685
 30
0.0
  0
VERTEX
  5
570
  8
0
  6
CONTINUOUS
 62
     8
 10
28.5401313732
 20
7.8072475109
 30
0.0
  0
VERTEX
  5
571
  8
0
  6
CONTINUOUS
 62
     8
 10
28.5363182251
 20
7.847499587
 30
0.0
  0
VERTEX
  5
572
  8
0
  6
CONTINUOUS
 62
     8
 10
28.5313580975
 20
7.8877320183
 30
0.0
  0
VERTEX
  5
573
  8
0
  6
CONTINUOUS
 62
     8
 10
28.5249868631
 20
7.9279437447
 30
0.0
  0
VERTEX
  5
574
  8
0
  6
CONTINUOUS
 62
     8
 10
28.5169479473
 20
7.9681245847
 30
0.0
  0
VERTEX
  5
575
  8
0
  6
CONTINUOUS
 62
     8
 10
28.5070950442
 20
8.0081311868
 30
0.0
  0
VERTEX
  5
576
  8
0
  6
CONTINUOUS
 62
     8
 10
28.4953653504
 20
8.0477193545
 30
0.0
  0
VERTEX
  5
577
  8
0
  6
CONTINUOUS
 62
     8
 10
28.4816981319
 20
8.0866423917
 30
0.0
  0
VERTEX
  5
578
  8
0
  6
CONTINUOUS
 62
     8
 10
28.4660326549
 20
8.1246536026
 30
0.0
  0
VERTEX
  5
579
  8
0
  6
CONTINUOUS
 62
     8
 10
28.4483081855
 20
8.1615062911
 30
0.0
  0
VERTEX
  5
57A
  8
0
  6
CONTINUOUS
 62
     8
 10
28.42846399
 20
8.1969537614
 30
0.0
  0
VERTEX
  5
57B
  8
0
  6
CONTINUOUS
 62
     8
 10
28.4064393345
 20
8.2307493174
 30
0.0
  0
VERTEX
  5
57C
  8
0
  6
CONTINUOUS
 62
     8
 10
28.382173485
 20
8.2626462632
 30
0.0
  0
VERTEX
  5
57D
  8
0
  6
CONTINUOUS
 62
     8
 10
28.3556057078
 20
8.2923979029
 30
0.0
  0
VERTEX
  5
57E
  8
0
  6
CONTINUOUS
 62
     8
 10
28.326675269
 20
8.3197575404
 30
0.0
  0
VERTEX
  5
57F
  8
0
  6
CONTINUOUS
 62
     8
 10
28.2953214348
 20
8.3444784798
 30
0.0
  0
VERTEX
  5
580
  8
0
  6
CONTINUOUS
 62
     8
 10
28.2614834713
 20
8.3663140252
 30
0.0
  0
VERTEX
  5
581
  8
0
  6
CONTINUOUS
 62
     8
 10
28.2251006446
 20
8.3850174806
 30
0.0
  0
VERTEX
  5
582
  8
0
  6
CONTINUOUS
 62
     8
 10
28.1861122209
 20
8.4003421499
 30
0.0
  0
VERTEX
  5
583
  8
0
  6
CONTINUOUS
 62
     8
 10
28.1444574664
 20
8.4120413374
 30
0.0
  0
VERTEX
  5
584
  8
0
  6
CONTINUOUS
 62
     8
 10
28.1000756472
 20
8.4198683469
 30
0.0
  0
SEQEND
  5
8F4
  8
0
  6
CONTINUOUS
 62
     8
  0
POLYLINE
  5
11E
  8
0
  6
CONTINUOUS
 62
     8
 66
     1
 10
0.0
 20
0.0
 30
0.0
  0
VERTEX
  5
585
  8
0
  6
CONTINUOUS
 62
     8
 10
35.6885750599
 20
8.5798139619
 30
0.0
  0
VERTEX
  5
586
  8
0
  6
CONTINUOUS
 62
     8
 10
35.6910091435
 20
8.5453139236
 30
0.0
  0
VERTEX
  5
587
  8
0
  6
CONTINUOUS
 62
     8
 10
35.6940586046
 20
8.5101095495
 30
0.0
  0
VERTEX
  5
588
  8
0
  6
CONTINUOUS
 62
     8
 10
35.6978888089
 20
8.4744179038
 30
0.0
  0
VERTEX
  5
589
  8
0
  6
CONTINUOUS
 62
     8
 10
35.7026651219
 20
8.4384560509
 30
0.0
  0
VERTEX
  5
58A
  8
0
  6
CONTINUOUS
 62
     8
 10
35.708552909
 20
8.4024410547
 30
0.0
  0
VERTEX
  5
58B
  8
0
  6
CONTINUOUS
 62
     8
 10
35.7157175357
 20
8.3665899796
 30
0.0
  0
VERTEX
  5
58C
  8
0
  6
CONTINUOUS
 62
     8
 10
35.7243243676
 20
8.3311198898
 30
0.0
  0
VERTEX
  5
58D
  8
0
  6
CONTINUOUS
 62
     8
 10
35.7345387702
 20
8.2962478494
 30
0.0
  0
VERTEX
  5
58E
  8
0
  6
CONTINUOUS
 62
     8
 10
35.746526109
 20
8.2621909226
 30
0.0
  0
VERTEX
  5
58F
  8
0
  6
CONTINUOUS
 62
     8
 10
35.7604517495
 20
8.2291661737
 30
0.0
  0
VERTEX
  5
590
  8
0
  6
CONTINUOUS
 62
     8
 10
35.7764810572
 20
8.1973906669
 30
0.0
  0
VERTEX
  5
591
  8
0
  6
CONTINUOUS
 62
     8
 10
35.7947793976
 20
8.1670814663
 30
0.0
  0
VERTEX
  5
592
  8
0
  6
CONTINUOUS
 62
     8
 10
35.8154869416
 20
8.1384398328
 30
0.0
  0
VERTEX
  5
593
  8
0
  6
CONTINUOUS
 62
     8
 10
35.8385254715
 20
8.1115300427
 30
0.0
  0
VERTEX
  5
594
  8
0
  6
CONTINUOUS
 62
     8
 10
35.8637047015
 20
8.0863460776
 30
0.0
  0
VERTEX
  5
595
  8
0
  6
CONTINUOUS
 62
     8
 10
35.8908334309
 20
8.062881345
 30
0.0
  0
VERTEX
  5
596
  8
0
  6
CONTINUOUS
 62
     8
 10
35.9197204591
 20
8.0411292526
 30
0.0
  0
VERTEX
  5
597
  8
0
  6
CONTINUOUS
 62
     8
 10
35.9501745853
 20
8.021083208
 30
0.0
  0
VERTEX
  5
598
  8
0
  6
CONTINUOUS
 62
     8
 10
35.982004609
 20
8.0027366189
 30
0.0
  0
VERTEX
  5
599
  8
0
  6
CONTINUOUS
 62
     8
 10
36.0150193295
 20
7.986082893
 30
0.0
  0
VERTEX
  5
59A
  8
0
  6
CONTINUOUS
 62
     8
 10
36.049027546
 20
7.9711154379
 30
0.0
  0
VERTEX
  5
59B
  8
0
  6
CONTINUOUS
 62
     8
 10
36.0838380581
 20
7.9578276611
 30
0.0
  0
VERTEX
  5
59C
  8
0
  6
CONTINUOUS
 62
     8
 10
36.1192596649
 20
7.9462129705
 30
0.0
  0
VERTEX
  5
59D
  8
0
  6
CONTINUOUS
 62
     8
 10
36.1551075514
 20
7.9362717928
 30
0.0
  0
VERTEX
  5
59E
  8
0
  6
CONTINUOUS
 62
     8
 10
36.1912490186
 20
7.9280618414
 30
0.0
  0
VERTEX
  5
59F
  8
0
  6
CONTINUOUS
 62
     8
 10
36.2275768008
 20
7.9216687872
 30
0.0
  0
VERTEX
  5
5A0
  8
0
  6
CONTINUOUS
 62
     8
 10
36.2639838046
 20
7.9171784897
 30
0.0
  0
VERTEX
  5
5A1
  8
0
  6
CONTINUOUS
 62
     8
 10
36.3003629363
 20
7.9146768086
 30
0.0
  0
VERTEX
  5
5A2
  8
0
  6
CONTINUOUS
 62
     8
 10
36.3366071022
 20
7.9142496034
 30
0.0
  0
VERTEX
  5
5A3
  8
0
  6
CONTINUOUS
 62
     8
 10
36.3726092089
 20
7.9159827337
 30
0.0
  0
VERTEX
  5
5A4
  8
0
  6
CONTINUOUS
 62
     8
 10
36.4082621627
 20
7.9199620592
 30
0.0
  0
VERTEX
  5
5A5
  8
0
  6
CONTINUOUS
 62
     8
 10
36.4434588699
 20
7.9262734394
 30
0.0
  0
VERTEX
  5
5A6
  8
0
  6
CONTINUOUS
 62
     8
 10
36.478092237
 20
7.935002734
 30
0.0
  0
VERTEX
  5
5A7
  8
0
  6
CONTINUOUS
 62
     8
 10
36.5120551803
 20
7.9462354459
 30
0.0
  0
VERTEX
  5
5A8
  8
0
  6
CONTINUOUS
 62
     8
 10
36.5452426792
 20
7.9599825102
 30
0.0
  0
VERTEX
  5
5A9
  8
0
  6
CONTINUOUS
 62
     8
 10
36.5775543031
 20
7.9760889973
 30
0.0
  0
VERTEX
  5
5AA
  8
0
  6
CONTINUOUS
 62
     8
 10
36.6088902401
 20
7.9943776131
 30
0.0
  0
VERTEX
  5
5AB
  8
0
  6
CONTINUOUS
 62
     8
 10
36.6391506782
 20
8.0146710635
 30
0.0
  0
VERTEX
  5
5AC
  8
0
  6
CONTINUOUS
 62
     8
 10
36.6682358054
 20
8.0367920545
 30
0.0
  0
VERTEX
  5
5AD
  8
0
  6
CONTINUOUS
 62
     8
 10
36.6960458099
 20
8.060563292
 30
0.0
  0
VERTEX
  5
5AE
  8
0
  6
CONTINUOUS
 62
     8
 10
36.7224808798
 20
8.085807482
 30
0.0
  0
VERTEX
  5
5AF
  8
0
  6
CONTINUOUS
 62
     8
 10
36.747441203
 20
8.1123473304
 30
0.0
  0
VERTEX
  5
5B0
  8
0
  6
CONTINUOUS
 62
     8
 10
36.7708269676
 20
8.1400055432
 30
0.0
  0
VERTEX
  5
5B1
  8
0
  6
CONTINUOUS
 62
     8
 10
36.7925383618
 20
8.1686048262
 30
0.0
  0
VERTEX
  5
5B2
  8
0
  6
CONTINUOUS
 62
     8
 10
36.8124884704
 20
8.1979951426
 30
0.0
  0
VERTEX
  5
5B3
  8
0
  6
CONTINUOUS
 62
     8
 10
36.8306558653
 20
8.2281648601
 30
0.0
  0
VERTEX
  5
5B4
  8
0
  6
CONTINUOUS
 62
     8
 10
36.8470398535
 20
8.2591461697
 30
0.0
  0
VERTEX
  5
5B5
  8
0
  6
CONTINUOUS
 62
     8
 10
36.8616397501
 20
8.2909712797
 30
0.0
  0
VERTEX
  5
5B6
  8
0
  6
CONTINUOUS
 62
     8
 10
36.8744548703
 20
8.3236723982
 30
0.0
  0
VERTEX
  5
5B7
  8
0
  6
CONTINUOUS
 62
     8
 10
36.8854845293
 20
8.3572817336
 30
0.0
  0
VERTEX
  5
5B8
  8
0
  6
CONTINUOUS
 62
     8
 10
36.8947280423
 20
8.391831494
 30
0.0
  0
VERTEX
  5
5B9
  8
0
  6
CONTINUOUS
 62
     8
 10
36.9021847245
 20
8.4273538879
 30
0.0
  0
VERTEX
  5
5BA
  8
0
  6
CONTINUOUS
 62
     8
 10
36.907853891
 20
8.4638811233
 30
0.0
  0
VERTEX
  5
5BB
  8
0
  6
CONTINUOUS
 62
     8
 10
36.911734857
 20
8.5014454086
 30
0.0
  0
VERTEX
  5
5BC
  8
0
  6
CONTINUOUS
 62
     8
 10
36.9138269378
 20
8.5400789521
 30
0.0
  0
VERTEX
  5
5BD
  8
0
  6
CONTINUOUS
 62
     8
 10
36.9141294484
 20
8.5798139619
 30
0.0
  0
SEQEND
  5
8F5
  8
0
  6
CONTINUOUS
 62
     8
  0
POLYLINE
  5
11F
  8
0
  6
CONTINUOUS
 62
     8
 66
     1
 10
0.0
 20
0.0
 30
0.0
  0
VERTEX
  5
5BE
  8
0
  6
CONTINUOUS
 62
     8
 10
34.4063700873
 20
8.3597516814
 30
0.0
  0
VERTEX
  5
5BF
  8
0
  6
CONTINUOUS
 62
     8
 10
34.4095912737
 20
8.2836018982
 30
0.0
  0
VERTEX
  5
5C0
  8
0
  6
CONTINUOUS
 62
     8
 10
34.4165880296
 20
8.2073409102
 30
0.0
  0
VERTEX
  5
5C1
  8
0
  6
CONTINUOUS
 62
     8
 10
34.4273491485
 20
8.131231229
 30
0.0
  0
VERTEX
  5
5C2
  8
0
  6
CONTINUOUS
 62
     8
 10
34.4418634235
 20
8.0555353665
 30
0.0
  0
VERTEX
  5
5C3
  8
0
  6
CONTINUOUS
 62
     8
 10
34.4601196482
 20
7.9805158344
 30
0.0
  0
VERTEX
  5
5C4
  8
0
  6
CONTINUOUS
 62
     8
 10
34.4821066159
 20
7.9064351445
 30
0.0
  0
VERTEX
  5
5C5
  8
0
  6
CONTINUOUS
 62
     8
 10
34.5078131199
 20
7.8335558085
 30
0.0
  0
VERTEX
  5
5C6
  8
0
  6
CONTINUOUS
 62
     8
 10
34.5372279537
 20
7.7621403381
 30
0.0
  0
VERTEX
  5
5C7
  8
0
  6
CONTINUOUS
 62
     8
 10
34.5703399105
 20
7.6924512452
 30
0.0
  0
VERTEX
  5
5C8
  8
0
  6
CONTINUOUS
 62
     8
 10
34.6071377838
 20
7.6247510415
 30
0.0
  0
VERTEX
  5
5C9
  8
0
  6
CONTINUOUS
 62
     8
 10
34.6476103669
 20
7.5593022388
 30
0.0
  0
VERTEX
  5
5CA
  8
0
  6
CONTINUOUS
 62
     8
 10
34.6917464531
 20
7.4963673487
 30
0.0
  0
VERTEX
  5
5CB
  8
0
  6
CONTINUOUS
 62
     8
 10
34.7395348359
 20
7.4362088832
 30
0.0
  0
VERTEX
  5
5CC
  8
0
  6
CONTINUOUS
 62
     8
 10
34.7909578157
 20
7.3790851031
 30
0.0
  0
VERTEX
  5
5CD
  8
0
  6
CONTINUOUS
 62
     8
 10
34.8458533197
 20
7.3251597514
 30
0.0
  0
VERTEX
  5
5CE
  8
0
  6
CONTINUOUS
 62
     8
 10
34.9039176069
 20
7.2745038237
 30
0.0
  0
VERTEX
  5
5CF
  8
0
  6
CONTINUOUS
 62
     8
 10
34.9648409843
 20
7.2271844192
 30
0.0
  0
VERTEX
  5
5D0
  8
0
  6
CONTINUOUS
 62
     8
 10
35.0283137591
 20
7.183268637
 30
0.0
  0
VERTEX
  5
5D1
  8
0
  6
CONTINUOUS
 62
     8
 10
35.0940262382
 20
7.1428235762
 30
0.0
  0
VERTEX
  5
5D2
  8
0
  6
CONTINUOUS
 62
     8
 10
35.1616687288
 20
7.1059163359
 30
0.0
  0
VERTEX
  5
5D3
  8
0
  6
CONTINUOUS
 62
     8
 10
35.2309327817
 20
7.0726119204
 30
0.0
  0
VERTEX
  5
5D4
  8
0
  6
CONTINUOUS
 62
     8
 10
35.3015768024
 20
7.0428627192
 30
0.0
  0
VERTEX
  5
5D5
  8
0
  6
CONTINUOUS
 62
     8
 10
35.3734585862
 20
7.016453703
 30
0.0
  0
VERTEX
  5
5D6
  8
0
  6
CONTINUOUS
 62
     8
 10
35.446444002
 20
6.9931562433
 30
0.0
  0
VERTEX
  5
5D7
  8
0
  6
CONTINUOUS
 62
     8
 10
35.5203989183
 20
6.9727417116
 30
0.0
  0
VERTEX
  5
5D8
  8
0
  6
CONTINUOUS
 62
     8
 10
35.5951892039
 20
6.9549814795
 30
0.0
  0
VERTEX
  5
5D9
  8
0
  6
CONTINUOUS
 62
     8
 10
35.6706807273
 20
6.9396469185
 30
0.0
  0
VERTEX
  5
5DA
  8
0
  6
CONTINUOUS
 62
     8
 10
35.7467393574
 20
6.9265094002
 30
0.0
  0
VERTEX
  5
5DB
  8
0
  6
CONTINUOUS
 62
     8
 10
35.8232309627
 20
6.9153402962
 30
0.0
  0
VERTEX
  5
5DC
  8
0
  6
CONTINUOUS
 62
     8
 10
35.9000214119
 20
6.9059109779
 30
0.0
  0
VERTEX
  5
5DD
  8
0
  6
CONTINUOUS
 62
     8
 10
35.9769765737
 20
6.897992817
 30
0.0
  0
VERTEX
  5
5DE
  8
0
  6
CONTINUOUS
 62
     8
 10
36.0539623167
 20
6.891357185
 30
0.0
  0
VERTEX
  5
5DF
  8
0
  6
CONTINUOUS
 62
     8
 10
36.1308671729
 20
6.8858332637
 30
0.0
  0
VERTEX
  5
5E0
  8
0
  6
CONTINUOUS
 62
     8
 10
36.207673873
 20
6.8814905224
 30
0.0
  0
VERTEX
  5
5E1
  8
0
  6
CONTINUOUS
 62
     8
 10
36.2843896188
 20
6.8784608516
 30
0.0
  0
VERTEX
  5
5E2
  8
0
  6
CONTINUOUS
 62
     8
 10
36.361021612
 20
6.8768761418
 30
0.0
  0
VERTEX
  5
5E3
  8
0
  6
CONTINUOUS
 62
     8
 10
36.4375770543
 20
6.8768682837
 30
0.0
  0
VERTEX
  5
5E4
  8
0
  6
CONTINUOUS
 62
     8
 10
36.5140631473
 20
6.8785691677
 30
0.0
  0
VERTEX
  5
5E5
  8
0
  6
CONTINUOUS
 62
     8
 10
36.5904870929
 20
6.8821106847
 30
0.0
  0
VERTEX
  5
5E6
  8
0
  6
CONTINUOUS
 62
     8
 10
36.6668560927
 20
6.887624725
 30
0.0
  0
VERTEX
  5
5E7
  8
0
  6
CONTINUOUS
 62
     8
 10
36.7431773484
 20
6.8952431793
 30
0.0
  0
VERTEX
  5
5E8
  8
0
  6
CONTINUOUS
 62
     8
 10
36.8194568109
 20
6.9050979193
 30
0.0
  0
VERTEX
  5
5E9
  8
0
  6
CONTINUOUS
 62
     8
 10
36.8956243134
 20
6.9173196636
 30
0.0
  0
VERTEX
  5
5EA
  8
0
  6
CONTINUOUS
 62
     8
 10
36.9714910897
 20
6.9320373344
 30
0.0
  0
VERTEX
  5
5EB
  8
0
  6
CONTINUOUS
 62
     8
 10
37.0468580987
 20
6.9493796982
 30
0.0
  0
VERTEX
  5
5EC
  8
0
  6
CONTINUOUS
 62
     8
 10
37.1215262996
 20
6.9694755215
 30
0.0
  0
VERTEX
  5
5ED
  8
0
  6
CONTINUOUS
 62
     8
 10
37.1952966514
 20
6.9924535708
 30
0.0
  0
VERTEX
  5
5EE
  8
0
  6
CONTINUOUS
 62
     8
 10
37.2679701132
 20
7.0184426128
 30
0.0
  0
VERTEX
  5
5EF
  8
0
  6
CONTINUOUS
 62
     8
 10
37.3393476442
 20
7.0475714138
 30
0.0
  0
VERTEX
  5
5F0
  8
0
  6
CONTINUOUS
 62
     8
 10
37.4092302032
 20
7.0799687405
 30
0.0
  0
VERTEX
  5
5F1
  8
0
  6
CONTINUOUS
 62
     8
 10
37.4774187496
 20
7.1157633594
 30
0.0
  0
VERTEX
  5
5F2
  8
0
  6
CONTINUOUS
 62
     8
 10
37.5437142422
 20
7.155084037
 30
0.0
  0
VERTEX
  5
5F3
  8
0
  6
CONTINUOUS
 62
     8
 10
37.6079052585
 20
7.1980298514
 30
0.0
  0
VERTEX
  5
5F4
  8
0
  6
CONTINUOUS
 62
     8
 10
37.6697066329
 20
7.2445230634
 30
0.0
  0
VERTEX
  5
5F5
  8
0
  6
CONTINUOUS
 62
     8
 10
37.7288060105
 20
7.2944207405
 30
0.0
  0
VERTEX
  5
5F6
  8
0
  6
CONTINUOUS
 62
     8
 10
37.7848909937
 20
7.3475798478
 30
0.0
  0
VERTEX
  5
5F7
  8
0
  6
CONTINUOUS
 62
     8
 10
37.8376491848
 20
7.40385735
 30
0.0
  0
VERTEX
  5
5F8
  8
0
  6
CONTINUOUS
 62
     8
 10
37.8867681863
 20
7.4631102122
 30
0.0
  0
VERTEX
  5
5F9
  8
0
  6
CONTINUOUS
 62
     8
 10
37.9319356004
 20
7.5251953993
 30
0.0
  0
VERTEX
  5
5FA
  8
0
  6
CONTINUOUS
 62
     8
 10
37.9728662689
 20
7.5899622198
 30
0.0
  0
VERTEX
  5
5FB
  8
0
  6
CONTINUOUS
 62
     8
 10
38.0095776242
 20
7.6571749306
 30
0.0
  0
VERTEX
  5
5FC
  8
0
  6
CONTINUOUS
 62
     8
 10
38.0422758395
 20
7.7265447378
 30
0.0
  0
VERTEX
  5
5FD
  8
0
  6
CONTINUOUS
 62
     8
 10
38.071169955
 20
7.7977820415
 30
0.0
  0
VERTEX
  5
5FE
  8
0
  6
CONTINUOUS
 62
     8
 10
38.096469011
 20
7.870597242
 30
0.0
  0
VERTEX
  5
5FF
  8
0
  6
CONTINUOUS
 62
     8
 10
38.1183820477
 20
7.9447007393
 30
0.0
  0
VERTEX
  5
600
  8
0
  6
CONTINUOUS
 62
     8
 10
38.1371181054
 20
8.0198029337
 30
0.0
  0
VERTEX
  5
601
  8
0
  6
CONTINUOUS
 62
     8
 10
38.1528862243
 20
8.0956142253
 30
0.0
  0
VERTEX
  5
602
  8
0
  6
CONTINUOUS
 62
     8
 10
38.1658954447
 20
8.1718450144
 30
0.0
  0
VERTEX
  5
603
  8
0
  6
CONTINUOUS
 62
     8
 10
38.1763548069
 20
8.2482057009
 30
0.0
  0
VERTEX
  5
604
  8
0
  6
CONTINUOUS
 62
     8
 10
38.1844733511
 20
8.3244066852
 30
0.0
  0
VERTEX
  5
605
  8
0
  6
CONTINUOUS
 62
     8
 10
38.1904601175
 20
8.4001583675
 30
0.0
  0
VERTEX
  5
606
  8
0
  6
CONTINUOUS
 62
     8
 10
38.1945241464
 20
8.4751711477
 30
0.0
  0
SEQEND
  5
8F6
  8
0
  6
CONTINUOUS
 62
     8
  0
POLYLINE
  5
120
  8
0
  6
CONTINUOUS
 62
     8
 66
     1
 10
0.0
 20
0.0
 30
0.0
  0
VERTEX
  5
607
  8
0
  6
CONTINUOUS
 62
     8
 10
45.6087318695
 20
11.1317207514
 30
0.0
  0
VERTEX
  5
608
  8
0
  6
CONTINUOUS
 62
     8
 10
45.6635149248
 20
11.1250128969
 30
0.0
  0
VERTEX
  5
609
  8
0
  6
CONTINUOUS
 62
     8
 10
45.717939422
 20
11.1161196119
 30
0.0
  0
VERTEX
  5
60A
  8
0
  6
CONTINUOUS
 62
     8
 10
45.7719240226
 20
11.1050618107
 30
0.0
  0
VERTEX
  5
60B
  8
0
  6
CONTINUOUS
 62
     8
 10
45.8253873884
 20
11.0918604078
 30
0.0
  0
VERTEX
  5
60C
  8
0
  6
CONTINUOUS
 62
     8
 10
45.8782481808
 20
11.0765363173
 30
0.0
  0
VERTEX
  5
60D
  8
0
  6
CONTINUOUS
 62
     8
 10
45.9304250616
 20
11.0591104536
 30
0.0
  0
VERTEX
  5
60E
  8
0
  6
CONTINUOUS
 62
     8
 10
45.9818366923
 20
11.0396037311
 30
0.0
  0
VERTEX
  5
60F
  8
0
  6
CONTINUOUS
 62
     8
 10
46.0324017346
 20
11.018037064
 30
0.0
  0
VERTEX
  5
610
  8
0
  6
CONTINUOUS
 62
     8
 10
46.0820388501
 20
10.9944313668
 30
0.0
  0
VERTEX
  5
611
  8
0
  6
CONTINUOUS
 62
     8
 10
46.1306667004
 20
10.9688075536
 30
0.0
  0
VERTEX
  5
612
  8
0
  6
CONTINUOUS
 62
     8
 10
46.178203947
 20
10.9411865389
 30
0.0
  0
VERTEX
  5
613
  8
0
  6
CONTINUOUS
 62
     8
 10
46.2245692517
 20
10.911589237
 30
0.0
  0
VERTEX
  5
614
  8
0
  6
CONTINUOUS
 62
     8
 10
46.2696812761
 20
10.8800365622
 30
0.0
  0
VERTEX
  5
615
  8
0
  6
CONTINUOUS
 62
     8
 10
46.3134585777
 20
10.846549439
 30
0.0
  0
VERTEX
  5
616
  8
0
  6
CONTINUOUS
 62
     8
 10
46.3557892108
 20
10.8111518061
 30
0.0
  0
VERTEX
  5
617
  8
0
  6
CONTINUOUS
 62
     8
 10
46.3964884559
 20
10.7738747921
 30
0.0
  0
VERTEX
  5
618
  8
0
  6
CONTINUOUS
 62
     8
 10
46.4353609718
 20
10.7347505752
 30
0.0
  0
VERTEX
  5
619
  8
0
  6
CONTINUOUS
 62
     8
 10
46.4722114171
 20
10.6938113339
 30
0.0
  0
VERTEX
  5
61A
  8
0
  6
CONTINUOUS
 62
     8
 10
46.5068444507
 20
10.6510892463
 30
0.0
  0
VERTEX
  5
61B
  8
0
  6
CONTINUOUS
 62
     8
 10
46.5390647312
 20
10.6066164907
 30
0.0
  0
VERTEX
  5
61C
  8
0
  6
CONTINUOUS
 62
     8
 10
46.5686984634
 20
10.5604352871
 30
0.0
  0
VERTEX
  5
61D
  8
0
  6
CONTINUOUS
 62
     8
 10
46.5957335752
 20
10.512663229
 30
0.0
  0
VERTEX
  5
61E
  8
0
  6
CONTINUOUS
 62
     8
 10
46.6202314634
 20
10.4634521508
 30
0.0
  0
VERTEX
  5
61F
  8
0
  6
CONTINUOUS
 62
     8
 10
46.6422538932
 20
10.4129540586
 30
0.0
  0
VERTEX
  5
620
  8
0
  6
CONTINUOUS
 62
     8
 10
46.6618626294
 20
10.3613209586
 30
0.0
  0
VERTEX
  5
621
  8
0
  6
CONTINUOUS
 62
     8
 10
46.6791194373
 20
10.3087048568
 30
0.0
  0
VERTEX
  5
622
  8
0
  6
CONTINUOUS
 62
     8
 10
46.6940860816
 20
10.2552577594
 30
0.0
  0
VERTEX
  5
623
  8
0
  6
CONTINUOUS
 62
     8
 10
46.7068243276
 20
10.2011316725
 30
0.0
  0
VERTEX
  5
624
  8
0
  6
CONTINUOUS
 62
     8
 10
46.7173959402
 20
10.1464786022
 30
0.0
  0
VERTEX
  5
625
  8
0
  6
CONTINUOUS
 62
     8
 10
46.7258527299
 20
10.0914459477
 30
0.0
  0
VERTEX
  5
626
  8
0
  6
CONTINUOUS
 62
     8
 10
46.7321779356
 20
10.0361493734
 30
0.0
  0
VERTEX
  5
627
  8
0
  6
CONTINUOUS
 62
     8
 10
46.736325914
 20
9.9806911773
 30
0.0
  0
VERTEX
  5
628
  8
0
  6
CONTINUOUS
 62
     8
 10
46.738250921
 20
9.9251736104
 30
0.0
  0
VERTEX
  5
629
  8
0
  6
CONTINUOUS
 62
     8
 10
46.7379072123
 20
9.8696989242
 30
0.0
  0
VERTEX
  5
62A
  8
0
  6
CONTINUOUS
 62
     8
 10
46.7352490439
 20
9.8143693696
 30
0.0
  0
VERTEX
  5
62B
  8
0
  6
CONTINUOUS
 62
     8
 10
46.7302306716
 20
9.7592871981
 30
0.0
  0
VERTEX
  5
62C
  8
0
  6
CONTINUOUS
 62
     8
 10
46.7228063512
 20
9.7045546607
 30
0.0
  0
VERTEX
  5
62D
  8
0
  6
CONTINUOUS
 62
     8
 10
46.7129303386
 20
9.6502740087
 30
0.0
  0
VERTEX
  5
62E
  8
0
  6
CONTINUOUS
 62
     8
 10
46.7005568897
 20
9.5965474932
 30
0.0
  0
VERTEX
  5
62F
  8
0
  6
CONTINUOUS
 62
     8
 10
46.6856402603
 20
9.5434773656
 30
0.0
  0
VERTEX
  5
630
  8
0
  6
CONTINUOUS
 62
     8
 10
46.668138834
 20
9.4911679944
 30
0.0
  0
VERTEX
  5
631
  8
0
  6
CONTINUOUS
 62
     8
 10
46.6480631416
 20
9.4397504976
 30
0.0
  0
VERTEX
  5
632
  8
0
  6
CONTINUOUS
 62
     8
 10
46.6254594439
 20
9.3893743215
 30
0.0
  0
VERTEX
  5
633
  8
0
  6
CONTINUOUS
 62
     8
 10
46.6003746985
 20
9.3401892698
 30
0.0
  0
VERTEX
  5
634
  8
0
  6
CONTINUOUS
 62
     8
 10
46.5728558629
 20
9.2923451461
 30
0.0
  0
VERTEX
  5
635
  8
0
  6
CONTINUOUS
 62
     8
 10
46.5429498949
 20
9.2459917541
 30
0.0
  0
VERTEX
  5
636
  8
0
  6
CONTINUOUS
 62
     8
 10
46.5107037518
 20
9.2012788974
 30
0.0
  0
VERTEX
  5
637
  8
0
  6
CONTINUOUS
 62
     8
 10
46.4761643914
 20
9.1583563796
 30
0.0
  0
VERTEX
  5
638
  8
0
  6
CONTINUOUS
 62
     8
 10
46.4393787713
 20
9.1173740044
 30
0.0
  0
VERTEX
  5
639
  8
0
  6
CONTINUOUS
 62
     8
 10
46.4003938489
 20
9.0784815755
 30
0.0
  0
VERTEX
  5
63A
  8
0
  6
CONTINUOUS
 62
     8
 10
46.359256582
 20
9.0418288965
 30
0.0
  0
VERTEX
  5
63B
  8
0
  6
CONTINUOUS
 62
     8
 10
46.316013928
 20
9.007565771
 30
0.0
  0
VERTEX
  5
63C
  8
0
  6
CONTINUOUS
 62
     8
 10
46.2707128446
 20
8.9758420027
 30
0.0
  0
VERTEX
  5
63D
  8
0
  6
CONTINUOUS
 62
     8
 10
46.2234002894
 20
8.9468073953
 30
0.0
  0
VERTEX
  5
63E
  8
0
  6
CONTINUOUS
 62
     8
 10
46.1741232199
 20
8.9206117524
 30
0.0
  0
VERTEX
  5
63F
  8
0
  6
CONTINUOUS
 62
     8
 10
46.1229285938
 20
8.8974048776
 30
0.0
  0
SEQEND
  5
8F7
  8
0
  6
CONTINUOUS
 62
     8
  0
POLYLINE
  5
121
  8
0
  6
CONTINUOUS
 62
     8
 66
     1
 10
0.0
 20
0.0
 30
0.0
  0
VERTEX
  5
640
  8
0
  6
CONTINUOUS
 62
     8
 10
46.1229285938
 20
8.8974048776
 30
0.0
  0
VERTEX
  5
641
  8
0
  6
CONTINUOUS
 62
     8
 10
46.1750956644
 20
8.8774019516
 30
0.0
  0
VERTEX
  5
642
  8
0
  6
CONTINUOUS
 62
     8
 10
46.2240000431
 20
8.8533775789
 30
0.0
  0
VERTEX
  5
643
  8
0
  6
CONTINUOUS
 62
     8
 10
46.2697803634
 20
8.8256248386
 30
0.0
  0
VERTEX
  5
644
  8
0
  6
CONTINUOUS
 62
     8
 10
46.312575259
 20
8.7944368102
 30
0.0
  0
VERTEX
  5
645
  8
0
  6
CONTINUOUS
 62
     8
 10
46.3525233637
 20
8.7601065729
 30
0.0
  0
VERTEX
  5
646
  8
0
  6
CONTINUOUS
 62
     8
 10
46.389763311
 20
8.722927206
 30
0.0
  0
VERTEX
  5
647
  8
0
  6
CONTINUOUS
 62
     8
 10
46.4244337346
 20
8.6831917887
 30
0.0
  0
VERTEX
  5
648
  8
0
  6
CONTINUOUS
 62
     8
 10
46.4566732683
 20
8.6411934004
 30
0.0
  0
VERTEX
  5
649
  8
0
  6
CONTINUOUS
 62
     8
 10
46.4866205456
 20
8.5972251204
 30
0.0
  0
VERTEX
  5
64A
  8
0
  6
CONTINUOUS
 62
     8
 10
46.5144142003
 20
8.5515800279
 30
0.0
  0
VERTEX
  5
64B
  8
0
  6
CONTINUOUS
 62
     8
 10
46.5401928659
 20
8.5045512022
 30
0.0
  0
VERTEX
  5
64C
  8
0
  6
CONTINUOUS
 62
     8
 10
46.5640951763
 20
8.4564317226
 30
0.0
  0
VERTEX
  5
64D
  8
0
  6
CONTINUOUS
 62
     8
 10
46.5862576572
 20
8.4075108342
 30
0.0
  0
VERTEX
  5
64E
  8
0
  6
CONTINUOUS
 62
     8
 10
46.6067564846
 20
8.357967993
 30
0.0
  0
VERTEX
  5
64F
  8
0
  6
CONTINUOUS
 62
     8
 10
46.625600043
 20
8.3078593293
 30
0.0
  0
VERTEX
  5
650
  8
0
  6
CONTINUOUS
 62
     8
 10
46.6427931144
 20
8.2572344203
 30
0.0
  0
VERTEX
  5
651
  8
0
  6
CONTINUOUS
 62
     8
 10
46.6583404811
 20
8.2061428431
 30
0.0
  0
VERTEX
  5
652
  8
0
  6
CONTINUOUS
 62
     8
 10
46.6722469252
 20
8.1546341747
 30
0.0
  0
VERTEX
  5
653
  8
0
  6
CONTINUOUS
 62
     8
 10
46.6845172291
 20
8.1027579922
 30
0.0
  0
VERTEX
  5
654
  8
0
  6
CONTINUOUS
 62
     8
 10
46.6951561748
 20
8.0505638728
 30
0.0
  0
VERTEX
  5
655
  8
0
  6
CONTINUOUS
 62
     8
 10
46.7041685445
 20
7.9981013934
 30
0.0
  0
VERTEX
  5
656
  8
0
  6
CONTINUOUS
 62
     8
 10
46.7115591204
 20
7.9454201313
 30
0.0
  0
VERTEX
  5
657
  8
0
  6
CONTINUOUS
 62
     8
 10
46.7173326848
 20
7.8925696635
 30
0.0
  0
VERTEX
  5
658
  8
0
  6
CONTINUOUS
 62
     8
 10
46.7215086713
 20
7.8395987538
 30
0.0
  0
VERTEX
  5
659
  8
0
  6
CONTINUOUS
 62
     8
 10
46.7243007526
 20
7.7865453845
 30
0.0
  0
VERTEX
  5
65A
  8
0
  6
CONTINUOUS
 62
     8
 10
46.726060295
 20
7.733439895
 30
0.0
  0
VERTEX
  5
65B
  8
0
  6
CONTINUOUS
 62
     8
 10
46.7271415856
 20
7.6803124624
 30
0.0
  0
VERTEX
  5
65C
  8
0
  6
CONTINUOUS
 62
     8
 10
46.7278989118
 20
7.6271932639
 30
0.0
  0
VERTEX
  5
65D
  8
0
  6
CONTINUOUS
 62
     8
 10
46.7286865608
 20
7.5741124769
 30
0.0
  0
VERTEX
  5
65E
  8
0
  6
CONTINUOUS
 62
     8
 10
46.7298588198
 20
7.5211002784
 30
0.0
  0
VERTEX
  5
65F
  8
0
  6
CONTINUOUS
 62
     8
 10
46.7317699761
 20
7.4681868458
 30
0.0
  0
VERTEX
  5
660
  8
0
  6
CONTINUOUS
 62
     8
 10
46.7347743169
 20
7.4154023561
 30
0.0
  0
VERTEX
  5
661
  8
0
  6
CONTINUOUS
 62
     8
 10
46.7392261296
 20
7.3627769866
 30
0.0
  0
VERTEX
  5
662
  8
0
  6
CONTINUOUS
 62
     8
 10
46.7454797013
 20
7.3103409145
 30
0.0
  0
VERTEX
  5
663
  8
0
  6
CONTINUOUS
 62
     8
 10
46.7538893193
 20
7.2581243171
 30
0.0
  0
VERTEX
  5
664
  8
0
  6
CONTINUOUS
 62
     8
 10
46.7648092708
 20
7.2061573715
 30
0.0
  0
VERTEX
  5
665
  8
0
  6
CONTINUOUS
 62
     8
 10
46.7785938431
 20
7.1544702549
 30
0.0
  0
VERTEX
  5
666
  8
0
  6
CONTINUOUS
 62
     8
 10
46.7955973236
 20
7.1030931446
 30
0.0
  0
VERTEX
  5
667
  8
0
  6
CONTINUOUS
 62
     8
 10
46.8161739993
 20
7.0520562177
 30
0.0
  0
VERTEX
  5
668
  8
0
  6
CONTINUOUS
 62
     8
 10
46.8406781576
 20
7.0013896515
 30
0.0
  0
SEQEND
  5
8F8
  8
0
  6
CONTINUOUS
 62
     8
  0
POLYLINE
  5
122
  8
0
  6
CONTINUOUS
 62
     8
 66
     1
 10
0.0
 20
0.0
 30
0.0
  0
VERTEX
  5
669
  8
0
  6
CONTINUOUS
 62
     8
 10
45.5654445995
 20
7.0013896515
 30
0.0
  0
VERTEX
  5
66A
  8
0
  6
CONTINUOUS
 62
     8
 10
45.5547774995
 20
7.0404791283
 30
0.0
  0
VERTEX
  5
66B
  8
0
  6
CONTINUOUS
 62
     8
 10
45.5449174635
 20
7.0797429685
 30
0.0
  0
VERTEX
  5
66C
  8
0
  6
CONTINUOUS
 62
     8
 10
45.5358314598
 20
7.1191681141
 30
0.0
  0
VERTEX
  5
66D
  8
0
  6
CONTINUOUS
 62
     8
 10
45.5274864571
 20
7.1587415074
 30
0.0
  0
VERTEX
  5
66E
  8
0
  6
CONTINUOUS
 62
     8
 10
45.5198494237
 20
7.1984500902
 30
0.0
  0
VERTEX
  5
66F
  8
0
  6
CONTINUOUS
 62
     8
 10
45.5128873283
 20
7.2382808046
 30
0.0
  0
VERTEX
  5
670
  8
0
  6
CONTINUOUS
 62
     8
 10
45.5065671394
 20
7.2782205927
 30
0.0
  0
VERTEX
  5
671
  8
0
  6
CONTINUOUS
 62
     8
 10
45.5008558254
 20
7.3182563966
 30
0.0
  0
VERTEX
  5
672
  8
0
  6
CONTINUOUS
 62
     8
 10
45.4957203549
 20
7.3583751582
 30
0.0
  0
VERTEX
  5
673
  8
0
  6
CONTINUOUS
 62
     8
 10
45.4911276964
 20
7.3985638197
 30
0.0
  0
VERTEX
  5
674
  8
0
  6
CONTINUOUS
 62
     8
 10
45.4870448184
 20
7.438809323
 30
0.0
  0
VERTEX
  5
675
  8
0
  6
CONTINUOUS
 62
     8
 10
45.4834386895
 20
7.4790986103
 30
0.0
  0
VERTEX
  5
676
  8
0
  6
CONTINUOUS
 62
     8
 10
45.4802762781
 20
7.5194186235
 30
0.0
  0
VERTEX
  5
677
  8
0
  6
CONTINUOUS
 62
     8
 10
45.4775245527
 20
7.5597563048
 30
0.0
  0
VERTEX
  5
678
  8
0
  6
CONTINUOUS
 62
     8
 10
45.475150482
 20
7.6000985961
 30
0.0
  0
VERTEX
  5
679
  8
0
  6
CONTINUOUS
 62
     8
 10
45.4731128444
 20
7.6404328648
 30
0.0
  0
VERTEX
  5
67A
  8
0
  6
CONTINUOUS
 62
     8
 10
45.4712463407
 20
7.6807529198
 30
0.0
  0
VERTEX
  5
67B
  8
0
  6
CONTINUOUS
 62
     8
 10
45.469289367
 20
7.7210575702
 30
0.0
  0
VERTEX
  5
67C
  8
0
  6
CONTINUOUS
 62
     8
 10
45.4669777958
 20
7.7613457558
 30
0.0
  0
VERTEX
  5
67D
  8
0
  6
CONTINUOUS
 62
     8
 10
45.4640474999
 20
7.8016164167
 30
0.0
  0
VERTEX
  5
67E
  8
0
  6
CONTINUOUS
 62
     8
 10
45.4602343518
 20
7.8418684928
 30
0.0
  0
VERTEX
  5
67F
  8
0
  6
CONTINUOUS
 62
     8
 10
45.4552742242
 20
7.8821009241
 30
0.0
  0
VERTEX
  5
680
  8
0
  6
CONTINUOUS
 62
     8
 10
45.4489029898
 20
7.9223126506
 30
0.0
  0
VERTEX
  5
681
  8
0
  6
CONTINUOUS
 62
     8
 10
45.440864074
 20
7.9624934906
 30
0.0
  0
VERTEX
  5
682
  8
0
  6
CONTINUOUS
 62
     8
 10
45.4310111709
 20
8.0025000927
 30
0.0
  0
VERTEX
  5
683
  8
0
  6
CONTINUOUS
 62
     8
 10
45.4192814771
 20
8.0420882603
 30
0.0
  0
VERTEX
  5
684
  8
0
  6
CONTINUOUS
 62
     8
 10
45.4056142586
 20
8.0810112975
 30
0.0
  0
VERTEX
  5
685
  8
0
  6
CONTINUOUS
 62
     8
 10
45.3899487816
 20
8.1190225084
 30
0.0
  0
VERTEX
  5
686
  8
0
  6
CONTINUOUS
 62
     8
 10
45.3722243122
 20
8.155875197
 30
0.0
  0
VERTEX
  5
687
  8
0
  6
CONTINUOUS
 62
     8
 10
45.3523801167
 20
8.1913226672
 30
0.0
  0
VERTEX
  5
688
  8
0
  6
CONTINUOUS
 62
     8
 10
45.3303554612
 20
8.2251182233
 30
0.0
  0
VERTEX
  5
689
  8
0
  6
CONTINUOUS
 62
     8
 10
45.3060896117
 20
8.2570151691
 30
0.0
  0
VERTEX
  5
68A
  8
0
  6
CONTINUOUS
 62
     8
 10
45.2795218345
 20
8.2867668087
 30
0.0
  0
VERTEX
  5
68B
  8
0
  6
CONTINUOUS
 62
     8
 10
45.2505913957
 20
8.3141264462
 30
0.0
  0
VERTEX
  5
68C
  8
0
  6
CONTINUOUS
 62
     8
 10
45.2192375615
 20
8.3388473857
 30
0.0
  0
VERTEX
  5
68D
  8
0
  6
CONTINUOUS
 62
     8
 10
45.185399598
 20
8.360682931
 30
0.0
  0
VERTEX
  5
68E
  8
0
  6
CONTINUOUS
 62
     8
 10
45.1490167713
 20
8.3793863864
 30
0.0
  0
VERTEX
  5
68F
  8
0
  6
CONTINUOUS
 62
     8
 10
45.1100283476
 20
8.3947110558
 30
0.0
  0
VERTEX
  5
690
  8
0
  6
CONTINUOUS
 62
     8
 10
45.0683735931
 20
8.4064102432
 30
0.0
  0
VERTEX
  5
691
  8
0
  6
CONTINUOUS
 62
     8
 10
45.0239917739
 20
8.4142372528
 30
0.0
  0
SEQEND
  5
8F9
  8
0
  6
CONTINUOUS
 62
     8
  0
POLYLINE
  5
123
  8
0
  6
CONTINUOUS
 62
     8
 66
     1
 10
0.0
 20
0.0
 30
0.0
  0
VERTEX
  5
692
  8
0
  6
CONTINUOUS
 62
     8
 10
25.0521722201
 20
4.6922422387
 30
0.0
  0
VERTEX
  5
693
  8
0
  6
CONTINUOUS
 62
     8
 10
25.053597884
 20
4.8243281469
 30
0.0
  0
VERTEX
  5
694
  8
0
  6
CONTINUOUS
 62
     8
 10
25.0384326813
 20
4.9553926183
 30
0.0
  0
VERTEX
  5
695
  8
0
  6
CONTINUOUS
 62
     8
 10
25.0077189463
 20
5.083746308
 30
0.0
  0
VERTEX
  5
696
  8
0
  6
CONTINUOUS
 62
     8
 10
24.9624990131
 20
5.2076998711
 30
0.0
  0
VERTEX
  5
697
  8
0
  6
CONTINUOUS
 62
     8
 10
24.9038152158
 20
5.3255639626
 30
0.0
  0
VERTEX
  5
698
  8
0
  6
CONTINUOUS
 62
     8
 10
24.8327098888
 20
5.4356492375
 30
0.0
  0
VERTEX
  5
699
  8
0
  6
CONTINUOUS
 62
     8
 10
24.7502249858
 20
5.5364583734
 30
0.0
  0
VERTEX
  5
69A
  8
0
  6
CONTINUOUS
 62
     8
 10
24.6574000116
 20
5.6277310684
 30
0.0
  0
VERTEX
  5
69B
  8
0
  6
CONTINUOUS
 62
     8
 10
24.5552734995
 20
5.7096974262
 30
0.0
  0
VERTEX
  5
69C
  8
0
  6
CONTINUOUS
 62
     8
 10
24.4448839807
 20
5.7825887804
 30
0.0
  0
VERTEX
  5
69D
  8
0
  6
CONTINUOUS
 62
     8
 10
24.3272699863
 20
5.8466364646
 30
0.0
  0
VERTEX
  5
69E
  8
0
  6
CONTINUOUS
 62
     8
 10
24.2034700474
 20
5.9020718127
 30
0.0
  0
VERTEX
  5
69F
  8
0
  6
CONTINUOUS
 62
     8
 10
24.0745226949
 20
5.9491261583
 30
0.0
  0
VERTEX
  5
6A0
  8
0
  6
CONTINUOUS
 62
     8
 10
23.9414407859
 20
5.9880041925
 30
0.0
  0
VERTEX
  5
6A1
  8
0
  6
CONTINUOUS
 62
     8
 10
23.8050967921
 20
6.0187649261
 30
0.0
  0
VERTEX
  5
6A2
  8
0
  6
CONTINUOUS
 62
     8
 10
23.6663154445
 20
6.0414178285
 30
0.0
  0
VERTEX
  5
6A3
  8
0
  6
CONTINUOUS
 62
     8
 10
23.5259214344
 20
6.0559723279
 30
0.0
  0
VERTEX
  5
6A4
  8
0
  6
CONTINUOUS
 62
     8
 10
23.3847394533
 20
6.0624378527
 30
0.0
  0
VERTEX
  5
6A5
  8
0
  6
CONTINUOUS
 62
     8
 10
23.2435941924
 20
6.0608238309
 30
0.0
  0
VERTEX
  5
6A6
  8
0
  6
CONTINUOUS
 62
     8
 10
23.1033103433
 20
6.0511396909
 30
0.0
  0
VERTEX
  5
6A7
  8
0
  6
CONTINUOUS
 62
     8
 10
22.9647125972
 20
6.0333948609
 30
0.0
  0
VERTEX
  5
6A8
  8
0
  6
CONTINUOUS
 62
     8
 10
22.8286256456
 20
6.0075987691
 30
0.0
  0
VERTEX
  5
6A9
  8
0
  6
CONTINUOUS
 62
     8
 10
22.6958741797
 20
5.9737608437
 30
0.0
  0
VERTEX
  5
6AA
  8
0
  6
CONTINUOUS
 62
     8
 10
22.5672828911
 20
5.9318905131
 30
0.0
  0
VERTEX
  5
6AB
  8
0
  6
CONTINUOUS
 62
     8
 10
22.443676471
 20
5.8819972055
 30
0.0
  0
VERTEX
  5
6AC
  8
0
  6
CONTINUOUS
 62
     8
 10
22.3258796109
 20
5.824090349
 30
0.0
  0
VERTEX
  5
6AD
  8
0
  6
CONTINUOUS
 62
     8
 10
22.2147170021
 20
5.758179372
 30
0.0
  0
VERTEX
  5
6AE
  8
0
  6
CONTINUOUS
 62
     8
 10
22.111013336
 20
5.6842737027
 30
0.0
  0
VERTEX
  5
6AF
  8
0
  6
CONTINUOUS
 62
     8
 10
22.0155933039
 20
5.6023827692
 30
0.0
  0
VERTEX
  5
6B0
  8
0
  6
CONTINUOUS
 62
     8
 10
21.9292815974
 20
5.5125159999
 30
0.0
  0
VERTEX
  5
6B1
  8
0
  6
CONTINUOUS
 62
     8
 10
21.8529029076
 20
5.414682823
 30
0.0
  0
VERTEX
  5
6B2
  8
0
  6
CONTINUOUS
 62
     8
 10
21.787281926
 20
5.3088926668
 30
0.0
  0
VERTEX
  5
6B3
  8
0
  6
CONTINUOUS
 62
     8
 10
21.7332433441
 20
5.1951549594
 30
0.0
  0
VERTEX
  5
6B4
  8
0
  6
CONTINUOUS
 62
     8
 10
21.691611853
 20
5.0734791291
 30
0.0
  0
VERTEX
  5
6B5
  8
0
  6
CONTINUOUS
 62
     8
 10
21.6632121443
 20
4.9438746042
 30
0.0
  0
VERTEX
  5
6B6
  8
0
  6
CONTINUOUS
 62
     8
 10
21.6488689093
 20
4.8063508129
 30
0.0
  0
VERTEX
  5
6B7
  8
0
  6
CONTINUOUS
 62
     8
 10
21.6494068394
 20
4.6609171834
 30
0.0
  0
VERTEX
  5
6B8
  8
0
  6
CONTINUOUS
 62
     8
 10
21.665650626
 20
4.507583144
 30
0.0
  0
VERTEX
  5
6B9
  8
0
  6
CONTINUOUS
 62
     8
 10
21.6984249604
 20
4.3463581229
 30
0.0
  0
VERTEX
  5
6BA
  8
0
  6
CONTINUOUS
 62
     8
 10
21.748554534
 20
4.1772515483
 30
0.0
  0
SEQEND
  5
8FA
  8
0
  6
CONTINUOUS
 62
     8
  0
POLYLINE
  5
124
  8
0
  6
CONTINUOUS
 62
     8
 66
     1
 10
0.0
 20
0.0
 30
0.0
  0
VERTEX
  5
6BB
  8
0
  6
CONTINUOUS
 62
     8
 10
21.748554534
 20
4.1772515483
 30
0.0
  0
VERTEX
  5
6BC
  8
0
  6
CONTINUOUS
 62
     8
 10
21.7668842831
 20
4.136996465
 30
0.0
  0
VERTEX
  5
6BD
  8
0
  6
CONTINUOUS
 62
     8
 10
21.7877425469
 20
4.0993138346
 30
0.0
  0
VERTEX
  5
6BE
  8
0
  6
CONTINUOUS
 62
     8
 10
21.810930255
 20
4.0640234248
 30
0.0
  0
VERTEX
  5
6BF
  8
0
  6
CONTINUOUS
 62
     8
 10
21.8362483373
 20
4.0309450034
 30
0.0
  0
VERTEX
  5
6C0
  8
0
  6
CONTINUOUS
 62
     8
 10
21.8634977235
 20
3.9998983381
 30
0.0
  0
VERTEX
  5
6C1
  8
0
  6
CONTINUOUS
 62
     8
 10
21.8924793433
 20
3.9707031966
 30
0.0
  0
VERTEX
  5
6C2
  8
0
  6
CONTINUOUS
 62
     8
 10
21.9229941264
 20
3.9431793467
 30
0.0
  0
VERTEX
  5
6C3
  8
0
  6
CONTINUOUS
 62
     8
 10
21.9548430027
 20
3.917146556
 30
0.0
  0
VERTEX
  5
6C4
  8
0
  6
CONTINUOUS
 62
     8
 10
21.9878269017
 20
3.8924245924
 30
0.0
  0
VERTEX
  5
6C5
  8
0
  6
CONTINUOUS
 62
     8
 10
22.0217467534
 20
3.8688332235
 30
0.0
  0
VERTEX
  5
6C6
  8
0
  6
CONTINUOUS
 62
     8
 10
22.0564034873
 20
3.846192217
 30
0.0
  0
VERTEX
  5
6C7
  8
0
  6
CONTINUOUS
 62
     8
 10
22.0915981231
 20
3.8243214293
 30
0.0
  0
VERTEX
  5
6C8
  8
0
  6
CONTINUOUS
 62
     8
 10
22.1271783907
 20
3.8030867862
 30
0.0
  0
VERTEX
  5
6C9
  8
0
  6
CONTINUOUS
 62
     8
 10
22.1631150387
 20
3.7824755444
 30
0.0
  0
VERTEX
  5
6CA
  8
0
  6
CONTINUOUS
 62
     8
 10
22.1993988289
 20
3.7624946994
 30
0.0
  0
VERTEX
  5
6CB
  8
0
  6
CONTINUOUS
 62
     8
 10
22.236020523
 20
3.7431512464
 30
0.0
  0
VERTEX
  5
6CC
  8
0
  6
CONTINUOUS
 62
     8
 10
22.2729708829
 20
3.7244521808
 30
0.0
  0
VERTEX
  5
6CD
  8
0
  6
CONTINUOUS
 62
     8
 10
22.3102406703
 20
3.7064044978
 30
0.0
  0
VERTEX
  5
6CE
  8
0
  6
CONTINUOUS
 62
     8
 10
22.3478206469
 20
3.689015193
 30
0.0
  0
VERTEX
  5
6CF
  8
0
  6
CONTINUOUS
 62
     8
 10
22.3857015744
 20
3.6722912614
 30
0.0
  0
VERTEX
  5
6D0
  8
0
  6
CONTINUOUS
 62
     8
 10
22.4238742147
 20
3.6562396986
 30
0.0
  0
VERTEX
  5
6D1
  8
0
  6
CONTINUOUS
 62
     8
 10
22.4623293295
 20
3.6408674998
 30
0.0
  0
VERTEX
  5
6D2
  8
0
  6
CONTINUOUS
 62
     8
 10
22.5010553219
 20
3.6261730346
 30
0.0
  0
VERTEX
  5
6D3
  8
0
  6
CONTINUOUS
 62
     8
 10
22.5400303
 20
3.6121170248
 30
0.0
  0
VERTEX
  5
6D4
  8
0
  6
CONTINUOUS
 62
     8
 10
22.5792295643
 20
3.5986499232
 30
0.0
  0
VERTEX
  5
6D5
  8
0
  6
CONTINUOUS
 62
     8
 10
22.6186284149
 20
3.5857221828
 30
0.0
  0
VERTEX
  5
6D6
  8
0
  6
CONTINUOUS
 62
     8
 10
22.6582021519
 20
3.5732842561
 30
0.0
  0
VERTEX
  5
6D7
  8
0
  6
CONTINUOUS
 62
     8
 10
22.6979260757
 20
3.561286596
 30
0.0
  0
VERTEX
  5
6D8
  8
0
  6
CONTINUOUS
 62
     8
 10
22.7377754865
 20
3.5496796552
 30
0.0
  0
VERTEX
  5
6D9
  8
0
  6
CONTINUOUS
 62
     8
 10
22.7777256844
 20
3.5384138865
 30
0.0
  0
VERTEX
  5
6DA
  8
0
  6
CONTINUOUS
 62
     8
 10
22.8177519697
 20
3.5274397425
 30
0.0
  0
VERTEX
  5
6DB
  8
0
  6
CONTINUOUS
 62
     8
 10
22.8578296426
 20
3.5167076761
 30
0.0
  0
VERTEX
  5
6DC
  8
0
  6
CONTINUOUS
 62
     8
 10
22.8979340033
 20
3.5061681399
 30
0.0
  0
VERTEX
  5
6DD
  8
0
  6
CONTINUOUS
 62
     8
 10
22.938040352
 20
3.4957715868
 30
0.0
  0
VERTEX
  5
6DE
  8
0
  6
CONTINUOUS
 62
     8
 10
22.9781239889
 20
3.4854684695
 30
0.0
  0
VERTEX
  5
6DF
  8
0
  6
CONTINUOUS
 62
     8
 10
23.0181602143
 20
3.4752092407
 30
0.0
  0
VERTEX
  5
6E0
  8
0
  6
CONTINUOUS
 62
     8
 10
23.0581243284
 20
3.4649443532
 30
0.0
  0
VERTEX
  5
6E1
  8
0
  6
CONTINUOUS
 62
     8
 10
23.0979916313
 20
3.4546242597
 30
0.0
  0
VERTEX
  5
6E2
  8
0
  6
CONTINUOUS
 62
     8
 10
23.1377374234
 20
3.4441994129
 30
0.0
  0
VERTEX
  5
6E3
  8
0
  6
CONTINUOUS
 62
     8
 10
23.1773370695
 20
3.4336202938
 30
0.0
  0
VERTEX
  5
6E4
  8
0
  6
CONTINUOUS
 62
     8
 10
23.216780915
 20
3.4228438834
 30
0.0
  0
VERTEX
  5
6E5
  8
0
  6
CONTINUOUS
 62
     8
 10
23.2560933635
 20
3.4118419414
 30
0.0
  0
VERTEX
  5
6E6
  8
0
  6
CONTINUOUS
 62
     8
 10
23.295303527
 20
3.4005882704
 30
0.0
  0
VERTEX
  5
6E7
  8
0
  6
CONTINUOUS
 62
     8
 10
23.3344405175
 20
3.3890566733
 30
0.0
  0
VERTEX
  5
6E8
  8
0
  6
CONTINUOUS
 62
     8
 10
23.373533447
 20
3.3772209528
 30
0.0
  0
VERTEX
  5
6E9
  8
0
  6
CONTINUOUS
 62
     8
 10
23.4126114276
 20
3.3650549115
 30
0.0
  0
VERTEX
  5
6EA
  8
0
  6
CONTINUOUS
 62
     8
 10
23.4517035711
 20
3.3525323522
 30
0.0
  0
VERTEX
  5
6EB
  8
0
  6
CONTINUOUS
 62
     8
 10
23.4908389896
 20
3.3396270775
 30
0.0
  0
VERTEX
  5
6EC
  8
0
  6
CONTINUOUS
 62
     8
 10
23.5300467952
 20
3.3263128903
 30
0.0
  0
VERTEX
  5
6ED
  8
0
  6
CONTINUOUS
 62
     8
 10
23.5693560997
 20
3.3125635932
 30
0.0
  0
VERTEX
  5
6EE
  8
0
  6
CONTINUOUS
 62
     8
 10
23.6087960152
 20
3.298352989
 30
0.0
  0
VERTEX
  5
6EF
  8
0
  6
CONTINUOUS
 62
     8
 10
23.6483956538
 20
3.2836548803
 30
0.0
  0
VERTEX
  5
6F0
  8
0
  6
CONTINUOUS
 62
     8
 10
23.6881841273
 20
3.2684430699
 30
0.0
  0
VERTEX
  5
6F1
  8
0
  6
CONTINUOUS
 62
     8
 10
23.7281783356
 20
3.2526818338
 30
0.0
  0
VERTEX
  5
6F2
  8
0
  6
CONTINUOUS
 62
     8
 10
23.7678633651
 20
3.235920579
 30
0.0
  0
VERTEX
  5
6F3
  8
0
  6
CONTINUOUS
 62
     8
 10
23.8059985033
 20
3.2171425153
 30
0.0
  0
VERTEX
  5
6F4
  8
0
  6
CONTINUOUS
 62
     8
 10
23.8412908486
 20
3.1952901398
 30
0.0
  0
VERTEX
  5
6F5
  8
0
  6
CONTINUOUS
 62
     8
 10
23.8724474993
 20
3.1693059491
 30
0.0
  0
VERTEX
  5
6F6
  8
0
  6
CONTINUOUS
 62
     8
 10
23.8981925345
 20
3.1381634284
 30
0.0
  0
VERTEX
  5
6F7
  8
0
  6
CONTINUOUS
 62
     8
 10
23.9178372865
 20
3.1019077325
 30
0.0
  0
VERTEX
  5
6F8
  8
0
  6
CONTINUOUS
 62
     8
 10
23.9314162795
 20
3.0619037599
 30
0.0
  0
VERTEX
  5
6F9
  8
0
  6
CONTINUOUS
 62
     8
 10
23.9390085764
 20
3.0195976866
 30
0.0
  0
VERTEX
  5
6FA
  8
0
  6
CONTINUOUS
 62
     8
 10
23.9406932401
 20
2.976435689
 30
0.0
  0
VERTEX
  5
6FB
  8
0
  6
CONTINUOUS
 62
     8
 10
23.9365566787
 20
2.93384182
 30
0.0
  0
VERTEX
  5
6FC
  8
0
  6
CONTINUOUS
 62
     8
 10
23.9268472243
 20
2.8927524302
 30
0.0
  0
VERTEX
  5
6FD
  8
0
  6
CONTINUOUS
 62
     8
 10
23.9119713283
 20
2.8536276268
 30
0.0
  0
VERTEX
  5
6FE
  8
0
  6
CONTINUOUS
 62
     8
 10
23.8923420266
 20
2.8169076854
 30
0.0
  0
VERTEX
  5
6FF
  8
0
  6
CONTINUOUS
 62
     8
 10
23.8683723622
 20
2.7830328518
 30
0.0
  0
VERTEX
  5
700
  8
0
  6
CONTINUOUS
 62
     8
 10
23.8405005962
 20
2.752338981
 30
0.0
  0
VERTEX
  5
701
  8
0
  6
CONTINUOUS
 62
     8
 10
23.8092466523
 20
2.7248238856
 30
0.0
  0
VERTEX
  5
702
  8
0
  6
CONTINUOUS
 62
     8
 10
23.7751469544
 20
2.7004170754
 30
0.0
  0
VERTEX
  5
703
  8
0
  6
CONTINUOUS
 62
     8
 10
23.7387379261
 20
2.6790480605
 30
0.0
  0
VERTEX
  5
704
  8
0
  6
CONTINUOUS
 62
     8
 10
23.7005559913
 20
2.6606463506
 30
0.0
  0
VERTEX
  5
705
  8
0
  6
CONTINUOUS
 62
     8
 10
23.6611375738
 20
2.6451414559
 30
0.0
  0
VERTEX
  5
706
  8
0
  6
CONTINUOUS
 62
     8
 10
23.6210189402
 20
2.6324628489
 30
0.0
  0
VERTEX
  5
707
  8
0
  6
CONTINUOUS
 62
     8
 10
23.5806106233
 20
2.6225101754
 30
0.0
  0
VERTEX
  5
708
  8
0
  6
CONTINUOUS
 62
     8
 10
23.5399712568
 20
2.615099602
 30
0.0
  0
VERTEX
  5
709
  8
0
  6
CONTINUOUS
 62
     8
 10
23.4990983797
 20
2.6100328026
 30
0.0
  0
VERTEX
  5
70A
  8
0
  6
CONTINUOUS
 62
     8
 10
23.4579895308
 20
2.6071114508
 30
0.0
  0
VERTEX
  5
70B
  8
0
  6
CONTINUOUS
 62
     8
 10
23.416642249
 20
2.6061372203
 30
0.0
  0
VERTEX
  5
70C
  8
0
  6
CONTINUOUS
 62
     8
 10
23.3750540734
 20
2.6069117848
 30
0.0
  0
VERTEX
  5
70D
  8
0
  6
CONTINUOUS
 62
     8
 10
23.3332225427
 20
2.6092368179
 30
0.0
  0
VERTEX
  5
70E
  8
0
  6
CONTINUOUS
 62
     8
 10
23.291145196
 20
2.6129139935
 30
0.0
  0
VERTEX
  5
70F
  8
0
  6
CONTINUOUS
 62
     8
 10
23.2488200374
 20
2.6177456552
 30
0.0
  0
VERTEX
  5
710
  8
0
  6
CONTINUOUS
 62
     8
 10
23.2063555046
 20
2.6236931675
 30
0.0
  0
VERTEX
  5
711
  8
0
  6
CONTINUOUS
 62
     8
 10
23.1641124915
 20
2.6310814251
 30
0.0
  0
VERTEX
  5
712
  8
0
  6
CONTINUOUS
 62
     8
 10
23.1224870114
 20
2.6402858928
 30
0.0
  0
VERTEX
  5
713
  8
0
  6
CONTINUOUS
 62
     8
 10
23.0818750773
 20
2.6516820357
 30
0.0
  0
VERTEX
  5
714
  8
0
  6
CONTINUOUS
 62
     8
 10
23.0426727023
 20
2.6656453188
 30
0.0
  0
VERTEX
  5
715
  8
0
  6
CONTINUOUS
 62
     8
 10
23.0052758996
 20
2.682551207
 30
0.0
  0
VERTEX
  5
716
  8
0
  6
CONTINUOUS
 62
     8
 10
22.9700806823
 20
2.7027751652
 30
0.0
  0
VERTEX
  5
717
  8
0
  6
CONTINUOUS
 62
     8
 10
22.9374812987
 20
2.7266892761
 30
0.0
  0
VERTEX
  5
718
  8
0
  6
CONTINUOUS
 62
     8
 10
22.9077234993
 20
2.7543810079
 30
0.0
  0
VERTEX
  5
719
  8
0
  6
CONTINUOUS
 62
     8
 10
22.8807943019
 20
2.7854419355
 30
0.0
  0
VERTEX
  5
71A
  8
0
  6
CONTINUOUS
 62
     8
 10
22.8566547587
 20
2.8194138678
 30
0.0
  0
VERTEX
  5
71B
  8
0
  6
CONTINUOUS
 62
     8
 10
22.8352659217
 20
2.8558386135
 30
0.0
  0
VERTEX
  5
71C
  8
0
  6
CONTINUOUS
 62
     8
 10
22.816588843
 20
2.8942579812
 30
0.0
  0
VERTEX
  5
71D
  8
0
  6
CONTINUOUS
 62
     8
 10
22.800584575
 20
2.9342137797
 30
0.0
  0
VERTEX
  5
71E
  8
0
  6
CONTINUOUS
 62
     8
 10
22.7872141695
 20
2.9752478178
 30
0.0
  0
VERTEX
  5
71F
  8
0
  6
CONTINUOUS
 62
     8
 10
22.7764386789
 20
3.0169019041
 30
0.0
  0
VERTEX
  5
720
  8
0
  6
CONTINUOUS
 62
     8
 10
22.7682191552
 20
3.0587178474
 30
0.0
  0
VERTEX
  5
721
  8
0
  6
CONTINUOUS
 62
     8
 10
22.7625166506
 20
3.1002374564
 30
0.0
  0
VERTEX
  5
722
  8
0
  6
CONTINUOUS
 62
     8
 10
22.7592922171
 20
3.1410025399
 30
0.0
  0
VERTEX
  5
723
  8
0
  6
CONTINUOUS
 62
     8
 10
22.758506907
 20
3.1805549066
 30
0.0
  0
SEQEND
  5
8FB
  8
0
  6
CONTINUOUS
 62
     8
  0
POLYLINE
  5
125
  8
0
  6
CONTINUOUS
 62
     8
 66
     1
 10
0.0
 20
0.0
 30
0.0
  0
VERTEX
  5
724
  8
0
  6
CONTINUOUS
 62
     8
 10
21.4868443648
 20
3.1805549066
 30
0.0
  0
VERTEX
  5
725
  8
0
  6
CONTINUOUS
 62
     8
 10
21.4827976352
 20
3.1293118375
 30
0.0
  0
VERTEX
  5
726
  8
0
  6
CONTINUOUS
 62
     8
 10
21.4812585806
 20
3.0779849718
 30
0.0
  0
VERTEX
  5
727
  8
0
  6
CONTINUOUS
 62
     8
 10
21.4821767494
 20
3.0266604128
 30
0.0
  0
VERTEX
  5
728
  8
0
  6
CONTINUOUS
 62
     8
 10
21.4855016903
 20
2.975424264
 30
0.0
  0
VERTEX
  5
729
  8
0
  6
CONTINUOUS
 62
     8
 10
21.4911829517
 20
2.9243626287
 30
0.0
  0
VERTEX
  5
72A
  8
0
  6
CONTINUOUS
 62
     8
 10
21.4991700823
 20
2.8735616105
 30
0.0
  0
VERTEX
  5
72B
  8
0
  6
CONTINUOUS
 62
     8
 10
21.5094126305
 20
2.8231073128
 30
0.0
  0
VERTEX
  5
72C
  8
0
  6
CONTINUOUS
 62
     8
 10
21.5218601449
 20
2.7730858389
 30
0.0
  0
VERTEX
  5
72D
  8
0
  6
CONTINUOUS
 62
     8
 10
21.5364621741
 20
2.7235832923
 30
0.0
  0
VERTEX
  5
72E
  8
0
  6
CONTINUOUS
 62
     8
 10
21.5531682666
 20
2.6746857764
 30
0.0
  0
VERTEX
  5
72F
  8
0
  6
CONTINUOUS
 62
     8
 10
21.5719279709
 20
2.6264793947
 30
0.0
  0
VERTEX
  5
730
  8
0
  6
CONTINUOUS
 62
     8
 10
21.5926908356
 20
2.5790502506
 30
0.0
  0
VERTEX
  5
731
  8
0
  6
CONTINUOUS
 62
     8
 10
21.6154042207
 20
2.5324815522
 30
0.0
  0
VERTEX
  5
732
  8
0
  6
CONTINUOUS
 62
     8
 10
21.6400041481
 20
2.4868415077
 30
0.0
  0
VERTEX
  5
733
  8
0
  6
CONTINUOUS
 62
     8
 10
21.666422979
 20
2.4421934822
 30
0.0
  0
VERTEX
  5
734
  8
0
  6
CONTINUOUS
 62
     8
 10
21.6945930726
 20
2.3986008387
 30
0.0
  0
VERTEX
  5
735
  8
0
  6
CONTINUOUS
 62
     8
 10
21.7244467883
 20
2.3561269397
 30
0.0
  0
VERTEX
  5
736
  8
0
  6
CONTINUOUS
 62
     8
 10
21.7559164854
 20
2.3148351481
 30
0.0
  0
VERTEX
  5
737
  8
0
  6
CONTINUOUS
 62
     8
 10
21.7889345232
 20
2.2747888266
 30
0.0
  0
VERTEX
  5
738
  8
0
  6
CONTINUOUS
 62
     8
 10
21.8234332609
 20
2.2360513381
 30
0.0
  0
VERTEX
  5
739
  8
0
  6
CONTINUOUS
 62
     8
 10
21.8593450581
 20
2.1986860453
 30
0.0
  0
VERTEX
  5
73A
  8
0
  6
CONTINUOUS
 62
     8
 10
21.8966022738
 20
2.1627563109
 30
0.0
  0
VERTEX
  5
73B
  8
0
  6
CONTINUOUS
 62
     8
 10
21.9351372675
 20
2.1283254978
 30
0.0
  0
VERTEX
  5
73C
  8
0
  6
CONTINUOUS
 62
     8
 10
21.9748823985
 20
2.0954569687
 30
0.0
  0
VERTEX
  5
73D
  8
0
  6
CONTINUOUS
 62
     8
 10
22.0157700481
 20
2.0642137651
 30
0.0
  0
VERTEX
  5
73E
  8
0
  6
CONTINUOUS
 62
     8
 10
22.0577351394
 20
2.0346218254
 30
0.0
  0
VERTEX
  5
73F
  8
0
  6
CONTINUOUS
 62
     8
 10
22.1007174682
 20
2.0066359582
 30
0.0
  0
VERTEX
  5
740
  8
0
  6
CONTINUOUS
 62
     8
 10
22.1446573814
 20
1.9802029283
 30
0.0
  0
VERTEX
  5
741
  8
0
  6
CONTINUOUS
 62
     8
 10
22.1894952259
 20
1.9552695004
 30
0.0
  0
VERTEX
  5
742
  8
0
  6
CONTINUOUS
 62
     8
 10
22.2351713486
 20
1.9317824392
 30
0.0
  0
VERTEX
  5
743
  8
0
  6
CONTINUOUS
 62
     8
 10
22.2816260963
 20
1.9096885096
 30
0.0
  0
VERTEX
  5
744
  8
0
  6
CONTINUOUS
 62
     8
 10
22.3287998161
 20
1.8889344761
 30
0.0
  0
VERTEX
  5
745
  8
0
  6
CONTINUOUS
 62
     8
 10
22.3766328547
 20
1.8694671036
 30
0.0
  0
VERTEX
  5
746
  8
0
  6
CONTINUOUS
 62
     8
 10
22.4250655591
 20
1.8512331568
 30
0.0
  0
VERTEX
  5
747
  8
0
  6
CONTINUOUS
 62
     8
 10
22.4740382761
 20
1.8341794003
 30
0.0
  0
VERTEX
  5
748
  8
0
  6
CONTINUOUS
 62
     8
 10
22.5234913526
 20
1.818252599
 30
0.0
  0
VERTEX
  5
749
  8
0
  6
CONTINUOUS
 62
     8
 10
22.5733651356
 20
1.8033995176
 30
0.0
  0
VERTEX
  5
74A
  8
0
  6
CONTINUOUS
 62
     8
 10
22.6235999719
 20
1.7895669208
 30
0.0
  0
VERTEX
  5
74B
  8
0
  6
CONTINUOUS
 62
     8
 10
22.6741362084
 20
1.7767015734
 30
0.0
  0
VERTEX
  5
74C
  8
0
  6
CONTINUOUS
 62
     8
 10
22.724914192
 20
1.76475024
 30
0.0
  0
VERTEX
  5
74D
  8
0
  6
CONTINUOUS
 62
     8
 10
22.7758742696
 20
1.7536596854
 30
0.0
  0
VERTEX
  5
74E
  8
0
  6
CONTINUOUS
 62
     8
 10
22.8269618112
 20
1.7433832297
 30
0.0
  0
VERTEX
  5
74F
  8
0
  6
CONTINUOUS
 62
     8
 10
22.8781527631
 20
1.7339140962
 30
0.0
  0
VERTEX
  5
750
  8
0
  6
CONTINUOUS
 62
     8
 10
22.9294345768
 20
1.7252605227
 30
0.0
  0
VERTEX
  5
751
  8
0
  6
CONTINUOUS
 62
     8
 10
22.9807947245
 20
1.7174307742
 30
0.0
  0
VERTEX
  5
752
  8
0
  6
CONTINUOUS
 62
     8
 10
23.0322206786
 20
1.7104331158
 30
0.0
  0
VERTEX
  5
753
  8
0
  6
CONTINUOUS
 62
     8
 10
23.0836999113
 20
1.7042758126
 30
0.0
  0
VERTEX
  5
754
  8
0
  6
CONTINUOUS
 62
     8
 10
23.1352198949
 20
1.6989671296
 30
0.0
  0
VERTEX
  5
755
  8
0
  6
CONTINUOUS
 62
     8
 10
23.1867681018
 20
1.6945153319
 30
0.0
  0
VERTEX
  5
756
  8
0
  6
CONTINUOUS
 62
     8
 10
23.238332004
 20
1.6909286844
 30
0.0
  0
VERTEX
  5
757
  8
0
  6
CONTINUOUS
 62
     8
 10
23.2898990741
 20
1.6882154523
 30
0.0
  0
VERTEX
  5
758
  8
0
  6
CONTINUOUS
 62
     8
 10
23.3414567841
 20
1.6863839006
 30
0.0
  0
VERTEX
  5
759
  8
0
  6
CONTINUOUS
 62
     8
 10
23.3929926065
 20
1.6854422943
 30
0.0
  0
VERTEX
  5
75A
  8
0
  6
CONTINUOUS
 62
     8
 10
23.4444940135
 20
1.6853988985
 30
0.0
  0
VERTEX
  5
75B
  8
0
  6
CONTINUOUS
 62
     8
 10
23.4959484774
 20
1.6862619783
 30
0.0
  0
VERTEX
  5
75C
  8
0
  6
CONTINUOUS
 62
     8
 10
23.5473434704
 20
1.6880397986
 30
0.0
  0
VERTEX
  5
75D
  8
0
  6
CONTINUOUS
 62
     8
 10
23.5986664649
 20
1.6907406245
 30
0.0
  0
VERTEX
  5
75E
  8
0
  6
CONTINUOUS
 62
     8
 10
23.6499049332
 20
1.6943727212
 30
0.0
  0
VERTEX
  5
75F
  8
0
  6
CONTINUOUS
 62
     8
 10
23.7010463474
 20
1.6989443535
 30
0.0
  0
VERTEX
  5
760
  8
0
  6
CONTINUOUS
 62
     8
 10
23.75207818
 20
1.7044637866
 30
0.0
  0
VERTEX
  5
761
  8
0
  6
CONTINUOUS
 62
     8
 10
23.8029879031
 20
1.7109392856
 30
0.0
  0
VERTEX
  5
762
  8
0
  6
CONTINUOUS
 62
     8
 10
23.8537629891
 20
1.7183791154
 30
0.0
  0
VERTEX
  5
763
  8
0
  6
CONTINUOUS
 62
     8
 10
23.9043909103
 20
1.7267915411
 30
0.0
  0
VERTEX
  5
764
  8
0
  6
CONTINUOUS
 62
     8
 10
23.9548558673
 20
1.7361894095
 30
0.0
  0
VERTEX
  5
765
  8
0
  6
CONTINUOUS
 62
     8
 10
24.0051001678
 20
1.7466442372
 30
0.0
  0
VERTEX
  5
766
  8
0
  6
CONTINUOUS
 62
     8
 10
24.055037137
 20
1.75826813
 30
0.0
  0
VERTEX
  5
767
  8
0
  6
CONTINUOUS
 62
     8
 10
24.1045935045
 20
1.7711592695
 30
0.0
  0
VERTEX
  5
768
  8
0
  6
CONTINUOUS
 62
     8
 10
24.1537759705
 20
1.7853315694
 30
0.0
  0
VERTEX
  5
769
  8
0
  6
CONTINUOUS
 62
     8
 10
24.2026196172
 20
1.8007690364
 30
0.0
  0
VERTEX
  5
76A
  8
0
  6
CONTINUOUS
 62
     8
 10
24.2511595602
 20
1.8174556418
 30
0.0
  0
VERTEX
  5
76B
  8
0
  6
CONTINUOUS
 62
     8
 10
24.2994309153
 20
1.835375357
 30
0.0
  0
VERTEX
  5
76C
  8
0
  6
CONTINUOUS
 62
     8
 10
24.3474680378
 20
1.8545123476
 30
0.0
  0
VERTEX
  5
76D
  8
0
  6
CONTINUOUS
 62
     8
 10
24.3952514481
 20
1.8748645427
 30
0.0
  0
VERTEX
  5
76E
  8
0
  6
CONTINUOUS
 62
     8
 10
24.4426731221
 20
1.8964525085
 30
0.0
  0
VERTEX
  5
76F
  8
0
  6
CONTINUOUS
 62
     8
 10
24.4896167902
 20
1.9192989192
 30
0.0
  0
VERTEX
  5
770
  8
0
  6
CONTINUOUS
 62
     8
 10
24.5359661829
 20
1.9434264492
 30
0.0
  0
VERTEX
  5
771
  8
0
  6
CONTINUOUS
 62
     8
 10
24.5816050305
 20
1.9688577727
 30
0.0
  0
VERTEX
  5
772
  8
0
  6
CONTINUOUS
 62
     8
 10
24.6264170635
 20
1.995615564
 30
0.0
  0
VERTEX
  5
773
  8
0
  6
CONTINUOUS
 62
     8
 10
24.6702860122
 20
2.0237224973
 30
0.0
  0
VERTEX
  5
774
  8
0
  6
CONTINUOUS
 62
     8
 10
24.7130956071
 20
2.053201247
 30
0.0
  0
VERTEX
  5
775
  8
0
  6
CONTINUOUS
 62
     8
 10
24.7547295785
 20
2.0840744872
 30
0.0
  0
VERTEX
  5
776
  8
0
  6
CONTINUOUS
 62
     8
 10
24.7950716568
 20
2.1163648922
 30
0.0
  0
VERTEX
  5
777
  8
0
  6
CONTINUOUS
 62
     8
 10
24.8340055725
 20
2.1500951363
 30
0.0
  0
VERTEX
  5
778
  8
0
  6
CONTINUOUS
 62
     8
 10
24.871415056
 20
2.1852878938
 30
0.0
  0
VERTEX
  5
779
  8
0
  6
CONTINUOUS
 62
     8
 10
24.9071838376
 20
2.2219658389
 30
0.0
  0
VERTEX
  5
77A
  8
0
  6
CONTINUOUS
 62
     8
 10
24.9411956478
 20
2.260151646
 30
0.0
  0
VERTEX
  5
77B
  8
0
  6
CONTINUOUS
 62
     8
 10
24.9733405912
 20
2.2998628041
 30
0.0
  0
VERTEX
  5
77C
  8
0
  6
CONTINUOUS
 62
     8
 10
25.0035862548
 20
2.3410537748
 30
0.0
  0
VERTEX
  5
77D
  8
0
  6
CONTINUOUS
 62
     8
 10
25.0319518686
 20
2.3836370108
 30
0.0
  0
VERTEX
  5
77E
  8
0
  6
CONTINUOUS
 62
     8
 10
25.0584576008
 20
2.4275242016
 30
0.0
  0
VERTEX
  5
77F
  8
0
  6
CONTINUOUS
 62
     8
 10
25.0831236198
 20
2.4726270369
 30
0.0
  0
VERTEX
  5
780
  8
0
  6
CONTINUOUS
 62
     8
 10
25.1059700935
 20
2.5188572062
 30
0.0
  0
VERTEX
  5
781
  8
0
  6
CONTINUOUS
 62
     8
 10
25.1270171903
 20
2.5661263991
 30
0.0
  0
VERTEX
  5
782
  8
0
  6
CONTINUOUS
 62
     8
 10
25.1462850784
 20
2.6143463052
 30
0.0
  0
VERTEX
  5
783
  8
0
  6
CONTINUOUS
 62
     8
 10
25.1637939259
 20
2.6634286139
 30
0.0
  0
VERTEX
  5
784
  8
0
  6
CONTINUOUS
 62
     8
 10
25.1795639011
 20
2.713285015
 30
0.0
  0
VERTEX
  5
785
  8
0
  6
CONTINUOUS
 62
     8
 10
25.1936151721
 20
2.7638271979
 30
0.0
  0
VERTEX
  5
786
  8
0
  6
CONTINUOUS
 62
     8
 10
25.2059679072
 20
2.8149668523
 30
0.0
  0
VERTEX
  5
787
  8
0
  6
CONTINUOUS
 62
     8
 10
25.2166422746
 20
2.8666156677
 30
0.0
  0
VERTEX
  5
788
  8
0
  6
CONTINUOUS
 62
     8
 10
25.2256527732
 20
2.9186839019
 30
0.0
  0
VERTEX
  5
789
  8
0
  6
CONTINUOUS
 62
     8
 10
25.2329524699
 20
2.9710662986
 30
0.0
  0
VERTEX
  5
78A
  8
0
  6
CONTINUOUS
 62
     8
 10
25.2384568236
 20
3.0236481038
 30
0.0
  0
VERTEX
  5
78B
  8
0
  6
CONTINUOUS
 62
     8
 10
25.2420807514
 20
3.0763144267
 30
0.0
  0
VERTEX
  5
78C
  8
0
  6
CONTINUOUS
 62
     8
 10
25.2437391704
 20
3.1289503764
 30
0.0
  0
VERTEX
  5
78D
  8
0
  6
CONTINUOUS
 62
     8
 10
25.2433469976
 20
3.1814410621
 30
0.0
  0
VERTEX
  5
78E
  8
0
  6
CONTINUOUS
 62
     8
 10
25.2408191502
 20
3.233671593
 30
0.0
  0
VERTEX
  5
78F
  8
0
  6
CONTINUOUS
 62
     8
 10
25.2360705453
 20
3.2855270782
 30
0.0
  0
VERTEX
  5
790
  8
0
  6
CONTINUOUS
 62
     8
 10
25.2290160999
 20
3.336892627
 30
0.0
  0
VERTEX
  5
791
  8
0
  6
CONTINUOUS
 62
     8
 10
25.2195707311
 20
3.3876533485
 30
0.0
  0
VERTEX
  5
792
  8
0
  6
CONTINUOUS
 62
     8
 10
25.2076493561
 20
3.4376943518
 30
0.0
  0
VERTEX
  5
793
  8
0
  6
CONTINUOUS
 62
     8
 10
25.1931668919
 20
3.4869007463
 30
0.0
  0
VERTEX
  5
794
  8
0
  6
CONTINUOUS
 62
     8
 10
25.1760382557
 20
3.535157641
 30
0.0
  0
VERTEX
  5
795
  8
0
  6
CONTINUOUS
 62
     8
 10
25.1561783644
 20
3.5823501451
 30
0.0
  0
VERTEX
  5
796
  8
0
  6
CONTINUOUS
 62
     8
 10
25.1335412475
 20
3.6283613726
 30
0.0
  0
VERTEX
  5
797
  8
0
  6
CONTINUOUS
 62
     8
 10
25.1082883052
 20
3.6730638596
 30
0.0
  0
VERTEX
  5
798
  8
0
  6
CONTINUOUS
 62
     8
 10
25.0806381928
 20
3.7163404886
 30
0.0
  0
VERTEX
  5
799
  8
0
  6
CONTINUOUS
 62
     8
 10
25.0507450349
 20
3.7581538573
 30
0.0
  0
VERTEX
  5
79A
  8
0
  6
CONTINUOUS
 62
     8
 10
25.0187398822
 20
3.7984950492
 30
0.0
  0
VERTEX
  5
79B
  8
0
  6
CONTINUOUS
 62
     8
 10
24.9847537564
 20
3.8373551834
 30
0.0
  0
VERTEX
  5
79C
  8
0
  6
CONTINUOUS
 62
     8
 10
24.9489176793
 20
3.8747253789
 30
0.0
  0
VERTEX
  5
79D
  8
0
  6
CONTINUOUS
 62
     8
 10
24.9113626726
 20
3.9105967547
 30
0.0
  0
VERTEX
  5
79E
  8
0
  6
CONTINUOUS
 62
     8
 10
24.8722197581
 20
3.9449604299
 30
0.0
  0
VERTEX
  5
79F
  8
0
  6
CONTINUOUS
 62
     8
 10
24.8316199576
 20
3.9778075236
 30
0.0
  0
VERTEX
  5
7A0
  8
0
  6
CONTINUOUS
 62
     8
 10
24.7896942928
 20
4.0091291547
 30
0.0
  0
VERTEX
  5
7A1
  8
0
  6
CONTINUOUS
 62
     8
 10
24.7465737854
 20
4.0389164424
 30
0.0
  0
VERTEX
  5
7A2
  8
0
  6
CONTINUOUS
 62
     8
 10
24.7023894572
 20
4.0671605057
 30
0.0
  0
VERTEX
  5
7A3
  8
0
  6
CONTINUOUS
 62
     8
 10
24.65727233
 20
4.0938524636
 30
0.0
  0
VERTEX
  5
7A4
  8
0
  6
CONTINUOUS
 62
     8
 10
24.6113534256
 20
4.1189834353
 30
0.0
  0
VERTEX
  5
7A5
  8
0
  6
CONTINUOUS
 62
     8
 10
24.5647637656
 20
4.1425445396
 30
0.0
  0
VERTEX
  5
7A6
  8
0
  6
CONTINUOUS
 62
     8
 10
24.5176311787
 20
4.1645319287
 30
0.0
  0
VERTEX
  5
7A7
  8
0
  6
CONTINUOUS
 62
     8
 10
24.4700370213
 20
4.1850150012
 30
0.0
  0
VERTEX
  5
7A8
  8
0
  6
CONTINUOUS
 62
     8
 10
24.4220275325
 20
4.2041185065
 30
0.0
  0
VERTEX
  5
7A9
  8
0
  6
CONTINUOUS
 62
     8
 10
24.3736480849
 20
4.2219685592
 30
0.0
  0
VERTEX
  5
7AA
  8
0
  6
CONTINUOUS
 62
     8
 10
24.3249440514
 20
4.2386912738
 30
0.0
  0
VERTEX
  5
7AB
  8
0
  6
CONTINUOUS
 62
     8
 10
24.2759608045
 20
4.2544127649
 30
0.0
  0
VERTEX
  5
7AC
  8
0
  6
CONTINUOUS
 62
     8
 10
24.2267437171
 20
4.269259147
 30
0.0
  0
VERTEX
  5
7AD
  8
0
  6
CONTINUOUS
 62
     8
 10
24.1773381618
 20
4.2833565347
 30
0.0
  0
VERTEX
  5
7AE
  8
0
  6
CONTINUOUS
 62
     8
 10
24.1277895115
 20
4.2968310426
 30
0.0
  0
VERTEX
  5
7AF
  8
0
  6
CONTINUOUS
 62
     8
 10
24.0781431388
 20
4.3098087851
 30
0.0
  0
VERTEX
  5
7B0
  8
0
  6
CONTINUOUS
 62
     8
 10
24.0284444166
 20
4.322415877
 30
0.0
  0
VERTEX
  5
7B1
  8
0
  6
CONTINUOUS
 62
     8
 10
23.9787387174
 20
4.3347784326
 30
0.0
  0
VERTEX
  5
7B2
  8
0
  6
CONTINUOUS
 62
     8
 10
23.9290714141
 20
4.3470225667
 30
0.0
  0
VERTEX
  5
7B3
  8
0
  6
CONTINUOUS
 62
     8
 10
23.8794878793
 20
4.3592743937
 30
0.0
  0
VERTEX
  5
7B4
  8
0
  6
CONTINUOUS
 62
     8
 10
23.8300334859
 20
4.3716600282
 30
0.0
  0
VERTEX
  5
7B5
  8
0
  6
CONTINUOUS
 62
     8
 10
23.7807465707
 20
4.3842948199
 30
0.0
  0
VERTEX
  5
7B6
  8
0
  6
CONTINUOUS
 62
     8
 10
23.7316041993
 20
4.3972003728
 30
0.0
  0
VERTEX
  5
7B7
  8
0
  6
CONTINUOUS
 62
     8
 10
23.6825518743
 20
4.4103499996
 30
0.0
  0
VERTEX
  5
7B8
  8
0
  6
CONTINUOUS
 62
     8
 10
23.6335348372
 20
4.4237166134
 30
0.0
  0
VERTEX
  5
7B9
  8
0
  6
CONTINUOUS
 62
     8
 10
23.5844983296
 20
4.437273127
 30
0.0
  0
VERTEX
  5
7BA
  8
0
  6
CONTINUOUS
 62
     8
 10
23.5353875929
 20
4.4509924536
 30
0.0
  0
VERTEX
  5
7BB
  8
0
  6
CONTINUOUS
 62
     8
 10
23.4861478687
 20
4.4648475061
 30
0.0
  0
VERTEX
  5
7BC
  8
0
  6
CONTINUOUS
 62
     8
 10
23.4367243983
 20
4.4788111975
 30
0.0
  0
VERTEX
  5
7BD
  8
0
  6
CONTINUOUS
 62
     8
 10
23.3870624233
 20
4.4928564408
 30
0.0
  0
VERTEX
  5
7BE
  8
0
  6
CONTINUOUS
 62
     8
 10
23.3371071852
 20
4.5069561491
 30
0.0
  0
VERTEX
  5
7BF
  8
0
  6
CONTINUOUS
 62
     8
 10
23.2868039255
 20
4.5210832353
 30
0.0
  0
VERTEX
  5
7C0
  8
0
  6
CONTINUOUS
 62
     8
 10
23.2361071319
 20
4.5352221986
 30
0.0
  0
VERTEX
  5
7C1
  8
0
  6
CONTINUOUS
 62
     8
 10
23.185310462
 20
4.5497825309
 30
0.0
  0
VERTEX
  5
7C2
  8
0
  6
CONTINUOUS
 62
     8
 10
23.1351367786
 20
4.5657115363
 30
0.0
  0
VERTEX
  5
7C3
  8
0
  6
CONTINUOUS
 62
     8
 10
23.0863365117
 20
4.583991061
 30
0.0
  0
VERTEX
  5
7C4
  8
0
  6
CONTINUOUS
 62
     8
 10
23.0396600912
 20
4.6056029515
 30
0.0
  0
VERTEX
  5
7C5
  8
0
  6
CONTINUOUS
 62
     8
 10
22.9958579471
 20
4.6315290544
 30
0.0
  0
VERTEX
  5
7C6
  8
0
  6
CONTINUOUS
 62
     8
 10
22.9556805094
 20
4.662751216
 30
0.0
  0
VERTEX
  5
7C7
  8
0
  6
CONTINUOUS
 62
     8
 10
22.9200351903
 20
4.7001174074
 30
0.0
  0
VERTEX
  5
7C8
  8
0
  6
CONTINUOUS
 62
     8
 10
22.8911535194
 20
4.7433463861
 30
0.0
  0
VERTEX
  5
7C9
  8
0
  6
CONTINUOUS
 62
     8
 10
22.8719313181
 20
4.7915903978
 30
0.0
  0
VERTEX
  5
7CA
  8
0
  6
CONTINUOUS
 62
     8
 10
22.8648667199
 20
4.8436832993
 30
0.0
  0
VERTEX
  5
7CB
  8
0
  6
CONTINUOUS
 62
     8
 10
22.8701230439
 20
4.8966375227
 30
0.0
  0
VERTEX
  5
7CC
  8
0
  6
CONTINUOUS
 62
     8
 10
22.8870241478
 20
4.9468106238
 30
0.0
  0
VERTEX
  5
7CD
  8
0
  6
CONTINUOUS
 62
     8
 10
22.9148887286
 20
4.9905675747
 30
0.0
  0
VERTEX
  5
7CE
  8
0
  6
CONTINUOUS
 62
     8
 10
22.9522920521
 20
5.0257888602
 30
0.0
  0
VERTEX
  5
7CF
  8
0
  6
CONTINUOUS
 62
     8
 10
22.9962048552
 20
5.0536258592
 30
0.0
  0
VERTEX
  5
7D0
  8
0
  6
CONTINUOUS
 62
     8
 10
23.043416978
 20
5.0756362436
 30
0.0
  0
VERTEX
  5
7D1
  8
0
  6
CONTINUOUS
 62
     8
 10
23.092021487
 20
5.0924644316
 30
0.0
  0
VERTEX
  5
7D2
  8
0
  6
CONTINUOUS
 62
     8
 10
23.1419377875
 20
5.1034776906
 30
0.0
  0
VERTEX
  5
7D3
  8
0
  6
CONTINUOUS
 62
     8
 10
23.192971249
 20
5.1087534739
 30
0.0
  0
VERTEX
  5
7D4
  8
0
  6
CONTINUOUS
 62
     8
 10
23.2443598117
 20
5.1102084829
 30
0.0
  0
VERTEX
  5
7D5
  8
0
  6
CONTINUOUS
 62
     8
 10
23.295639074
 20
5.1100640003
 30
0.0
  0
VERTEX
  5
7D6
  8
0
  6
CONTINUOUS
 62
     8
 10
23.3469529836
 20
5.1100762879
 30
0.0
  0
VERTEX
  5
7D7
  8
0
  6
CONTINUOUS
 62
     8
 10
23.3982646844
 20
5.109178172
 30
0.0
  0
VERTEX
  5
7D8
  8
0
  6
CONTINUOUS
 62
     8
 10
23.449458316
 20
5.105395149
 30
0.0
  0
VERTEX
  5
7D9
  8
0
  6
CONTINUOUS
 62
     8
 10
23.5004086719
 20
5.0967842608
 30
0.0
  0
VERTEX
  5
7DA
  8
0
  6
CONTINUOUS
 62
     8
 10
23.5506953785
 20
5.0824157062
 30
0.0
  0
VERTEX
  5
7DB
  8
0
  6
CONTINUOUS
 62
     8
 10
23.5995493273
 20
5.0625567119
 30
0.0
  0
VERTEX
  5
7DC
  8
0
  6
CONTINUOUS
 62
     8
 10
23.6461812922
 20
5.0375435584
 30
0.0
  0
VERTEX
  5
7DD
  8
0
  6
CONTINUOUS
 62
     8
 10
23.689802047
 20
5.0077125259
 30
0.0
  0
VERTEX
  5
7DE
  8
0
  6
CONTINUOUS
 62
     8
 10
23.7296223656
 20
4.9733998949
 30
0.0
  0
VERTEX
  5
7DF
  8
0
  6
CONTINUOUS
 62
     8
 10
23.7648530219
 20
4.9349419456
 30
0.0
  0
VERTEX
  5
7E0
  8
0
  6
CONTINUOUS
 62
     8
 10
23.7947047897
 20
4.8926749585
 30
0.0
  0
VERTEX
  5
7E1
  8
0
  6
CONTINUOUS
 62
     8
 10
23.818388443
 20
4.8469352139
 30
0.0
  0
VERTEX
  5
7E2
  8
0
  6
CONTINUOUS
 62
     8
 10
23.8351147556
 20
4.7980589922
 30
0.0
  0
VERTEX
  5
7E3
  8
0
  6
CONTINUOUS
 62
     8
 10
23.8440945013
 20
4.7463825737
 30
0.0
  0
VERTEX
  5
7E4
  8
0
  6
CONTINUOUS
 62
     8
 10
23.8445384541
 20
4.6922422387
 30
0.0
  0
SEQEND
  5
8FC
  8
0
  6
CONTINUOUS
 62
     8
  0
POLYLINE
  5
126
  8
0
  6
CONTINUOUS
 62
     8
 66
     1
 10
0.0
 20
0.0
 30
0.0
  0
VERTEX
  5
7E5
  8
0
  6
CONTINUOUS
 62
     8
 10
29.6524553112
 20
4.3928669095
 30
0.0
  0
VERTEX
  5
7E6
  8
0
  6
CONTINUOUS
 62
     8
 10
29.6479228724
 20
4.4885179311
 30
0.0
  0
VERTEX
  5
7E7
  8
0
  6
CONTINUOUS
 62
     8
 10
29.6374439935
 20
4.5846733919
 30
0.0
  0
VERTEX
  5
7E8
  8
0
  6
CONTINUOUS
 62
     8
 10
29.6211576117
 20
4.6808929126
 30
0.0
  0
VERTEX
  5
7E9
  8
0
  6
CONTINUOUS
 62
     8
 10
29.5992026642
 20
4.7767361144
 30
0.0
  0
VERTEX
  5
7EA
  8
0
  6
CONTINUOUS
 62
     8
 10
29.5717180882
 20
4.871762618
 30
0.0
  0
VERTEX
  5
7EB
  8
0
  6
CONTINUOUS
 62
     8
 10
29.5388428211
 20
4.9655320444
 30
0.0
  0
VERTEX
  5
7EC
  8
0
  6
CONTINUOUS
 62
     8
 10
29.5007157998
 20
5.0576040146
 30
0.0
  0
VERTEX
  5
7ED
  8
0
  6
CONTINUOUS
 62
     8
 10
29.4574759618
 20
5.1475381493
 30
0.0
  0
VERTEX
  5
7EE
  8
0
  6
CONTINUOUS
 62
     8
 10
29.4092622441
 20
5.2348940697
 30
0.0
  0
VERTEX
  5
7EF
  8
0
  6
CONTINUOUS
 62
     8
 10
29.356213584
 20
5.3192313965
 30
0.0
  0
VERTEX
  5
7F0
  8
0
  6
CONTINUOUS
 62
     8
 10
29.2984689187
 20
5.4001097508
 30
0.0
  0
VERTEX
  5
7F1
  8
0
  6
CONTINUOUS
 62
     8
 10
29.2361671854
 20
5.4770887533
 30
0.0
  0
VERTEX
  5
7F2
  8
0
  6
CONTINUOUS
 62
     8
 10
29.1694473214
 20
5.5497280251
 30
0.0
  0
VERTEX
  5
7F3
  8
0
  6
CONTINUOUS
 62
     8
 10
29.0984482638
 20
5.6175871871
 30
0.0
  0
VERTEX
  5
7F4
  8
0
  6
CONTINUOUS
 62
     8
 10
29.0233089498
 20
5.6802258602
 30
0.0
  0
VERTEX
  5
7F5
  8
0
  6
CONTINUOUS
 62
     8
 10
28.9441683167
 20
5.7372036653
 30
0.0
  0
VERTEX
  5
7F6
  8
0
  6
CONTINUOUS
 62
     8
 10
28.861228644
 20
5.7881900259
 30
0.0
  0
VERTEX
  5
7F7
  8
0
  6
CONTINUOUS
 62
     8
 10
28.7749557154
 20
5.8333111441
 30
0.0
  0
VERTEX
  5
7F8
  8
0
  6
CONTINUOUS
 62
     8
 10
28.6858838244
 20
5.8728119828
 30
0.0
  0
VERTEX
  5
7F9
  8
0
  6
CONTINUOUS
 62
     8
 10
28.5945472651
 20
5.9069375049
 30
0.0
  0
VERTEX
  5
7FA
  8
0
  6
CONTINUOUS
 62
     8
 10
28.5014803312
 20
5.9359326737
 30
0.0
  0
VERTEX
  5
7FB
  8
0
  6
CONTINUOUS
 62
     8
 10
28.4072156405
 20
5.9600436399
 30
0.0
  0
VERTEX
  5
7FC
  8
0
  6
CONTINUOUS
 62
     8
 10
28.3121454809
 20
5.9796159938
 30
0.0
  0
VERTEX
  5
7FD
  8
0
  6
CONTINUOUS
 62
     8
 10
28.2164180299
 20
5.9951683045
 30
0.0
  0
VERTEX
  5
7FE
  8
0
  6
CONTINUOUS
 62
     8
 10
28.1201570175
 20
6.0072364652
 30
0.0
  0
VERTEX
  5
7FF
  8
0
  6
CONTINUOUS
 62
     8
 10
28.0234861736
 20
6.0163563693
 30
0.0
  0
VERTEX
  5
800
  8
0
  6
CONTINUOUS
 62
     8
 10
27.9265292281
 20
6.0230639099
 30
0.0
  0
VERTEX
  5
801
  8
0
  6
CONTINUOUS
 62
     8
 10
27.829408833
 20
6.0278594605
 30
0.0
  0
VERTEX
  5
802
  8
0
  6
CONTINUOUS
 62
     8
 10
27.7322305088
 20
6.0306788332
 30
0.0
  0
VERTEX
  5
803
  8
0
  6
CONTINUOUS
 62
     8
 10
27.6350860553
 20
6.0310056722
 30
0.0
  0
VERTEX
  5
804
  8
0
  6
CONTINUOUS
 62
     8
 10
27.5380668869
 20
6.0283109292
 30
0.0
  0
VERTEX
  5
805
  8
0
  6
CONTINUOUS
 62
     8
 10
27.4412644181
 20
6.0220655557
 30
0.0
  0
VERTEX
  5
806
  8
0
  6
CONTINUOUS
 62
     8
 10
27.3447700635
 20
6.0117405031
 30
0.0
  0
VERTEX
  5
807
  8
0
  6
CONTINUOUS
 62
     8
 10
27.2486794498
 20
5.9968178215
 30
0.0
  0
VERTEX
  5
808
  8
0
  6
CONTINUOUS
 62
     8
 10
27.1531903808
 20
5.9770487843
 30
0.0
  0
VERTEX
  5
809
  8
0
  6
CONTINUOUS
 62
     8
 10
27.0586058708
 20
5.9524618787
 30
0.0
  0
VERTEX
  5
80A
  8
0
  6
CONTINUOUS
 62
     8
 10
26.9652337524
 20
5.9230982889
 30
0.0
  0
VERTEX
  5
80B
  8
0
  6
CONTINUOUS
 62
     8
 10
26.8733818586
 20
5.8889991991
 30
0.0
  0
VERTEX
  5
80C
  8
0
  6
CONTINUOUS
 62
     8
 10
26.7833580223
 20
5.8502057935
 30
0.0
  0
VERTEX
  5
80D
  8
0
  6
CONTINUOUS
 62
     8
 10
26.6954700761
 20
5.8067592564
 30
0.0
  0
VERTEX
  5
80E
  8
0
  6
CONTINUOUS
 62
     8
 10
26.6100258532
 20
5.758700772
 30
0.0
  0
VERTEX
  5
80F
  8
0
  6
CONTINUOUS
 62
     8
 10
26.5273331861
 20
5.7060715245
 30
0.0
  0
VERTEX
  5
810
  8
0
  6
CONTINUOUS
 62
     8
 10
26.4476996674
 20
5.6489130065
 30
0.0
  0
VERTEX
  5
811
  8
0
  6
CONTINUOUS
 62
     8
 10
26.3713793888
 20
5.5873353002
 30
0.0
  0
VERTEX
  5
812
  8
0
  6
CONTINUOUS
 62
     8
 10
26.2985058161
 20
5.5216031345
 30
0.0
  0
VERTEX
  5
813
  8
0
  6
CONTINUOUS
 62
     8
 10
26.2291958965
 20
5.4520024156
 30
0.0
  0
VERTEX
  5
814
  8
0
  6
CONTINUOUS
 62
     8
 10
26.1635665776
 20
5.3788190496
 30
0.0
  0
VERTEX
  5
815
  8
0
  6
CONTINUOUS
 62
     8
 10
26.1017348066
 20
5.3023389427
 30
0.0
  0
VERTEX
  5
816
  8
0
  6
CONTINUOUS
 62
     8
 10
26.0438175308
 20
5.222848001
 30
0.0
  0
VERTEX
  5
817
  8
0
  6
CONTINUOUS
 62
     8
 10
25.9899316978
 20
5.1406321306
 30
0.0
  0
VERTEX
  5
818
  8
0
  6
CONTINUOUS
 62
     8
 10
25.9401942547
 20
5.0559772377
 30
0.0
  0
VERTEX
  5
819
  8
0
  6
CONTINUOUS
 62
     8
 10
25.894722149
 20
4.9691692285
 30
0.0
  0
VERTEX
  5
81A
  8
0
  6
CONTINUOUS
 62
     8
 10
25.8536323281
 20
4.8804940091
 30
0.0
  0
VERTEX
  5
81B
  8
0
  6
CONTINUOUS
 62
     8
 10
25.8170346824
 20
4.7902341557
 30
0.0
  0
VERTEX
  5
81C
  8
0
  6
CONTINUOUS
 62
     8
 10
25.7848764572
 20
4.6985954983
 30
0.0
  0
VERTEX
  5
81D
  8
0
  6
CONTINUOUS
 62
     8
 10
25.756942065
 20
4.6057070317
 30
0.0
  0
VERTEX
  5
81E
  8
0
  6
CONTINUOUS
 62
     8
 10
25.7330088236
 20
4.5116944034
 30
0.0
  0
VERTEX
  5
81F
  8
0
  6
CONTINUOUS
 62
     8
 10
25.7128540511
 20
4.4166832605
 30
0.0
  0
VERTEX
  5
820
  8
0
  6
CONTINUOUS
 62
     8
 10
25.6962550654
 20
4.3207992505
 30
0.0
  0
VERTEX
  5
821
  8
0
  6
CONTINUOUS
 62
     8
 10
25.6829891844
 20
4.2241680206
 30
0.0
  0
VERTEX
  5
822
  8
0
  6
CONTINUOUS
 62
     8
 10
25.6728337262
 20
4.1269152182
 30
0.0
  0
VERTEX
  5
823
  8
0
  6
CONTINUOUS
 62
     8
 10
25.6655660086
 20
4.0291664906
 30
0.0
  0
VERTEX
  5
824
  8
0
  6
CONTINUOUS
 62
     8
 10
25.6609657842
 20
3.9310478764
 30
0.0
  0
VERTEX
  5
825
  8
0
  6
CONTINUOUS
 62
     8
 10
25.6589752384
 20
3.8327115301
 30
0.0
  0
VERTEX
  5
826
  8
0
  6
CONTINUOUS
 62
     8
 10
25.6597982135
 20
3.7343516743
 30
0.0
  0
VERTEX
  5
827
  8
0
  6
CONTINUOUS
 62
     8
 10
25.6636622563
 20
3.6361663427
 30
0.0
  0
VERTEX
  5
828
  8
0
  6
CONTINUOUS
 62
     8
 10
25.6707949137
 20
3.5383535694
 30
0.0
  0
VERTEX
  5
829
  8
0
  6
CONTINUOUS
 62
     8
 10
25.6814237325
 20
3.4411113881
 30
0.0
  0
VERTEX
  5
82A
  8
0
  6
CONTINUOUS
 62
     8
 10
25.6957762595
 20
3.3446378326
 30
0.0
  0
VERTEX
  5
82B
  8
0
  6
CONTINUOUS
 62
     8
 10
25.7140800416
 20
3.2491309369
 30
0.0
  0
VERTEX
  5
82C
  8
0
  6
CONTINUOUS
 62
     8
 10
25.7365626256
 20
3.1547887347
 30
0.0
  0
VERTEX
  5
82D
  8
0
  6
CONTINUOUS
 62
     8
 10
25.7634515583
 20
3.06180926
 30
0.0
  0
VERTEX
  5
82E
  8
0
  6
CONTINUOUS
 62
     8
 10
25.7949743866
 20
2.9703905466
 30
0.0
  0
VERTEX
  5
82F
  8
0
  6
CONTINUOUS
 62
     8
 10
25.8313200272
 20
2.880726016
 30
0.0
  0
VERTEX
  5
830
  8
0
  6
CONTINUOUS
 62
     8
 10
25.8724210705
 20
2.7929784856
 30
0.0
  0
VERTEX
  5
831
  8
0
  6
CONTINUOUS
 62
     8
 10
25.9181057201
 20
2.7072983096
 30
0.0
  0
VERTEX
  5
832
  8
0
  6
CONTINUOUS
 62
     8
 10
25.9682018746
 20
2.6238358055
 30
0.0
  0
VERTEX
  5
833
  8
0
  6
CONTINUOUS
 62
     8
 10
26.0225374325
 20
2.5427412911
 30
0.0
  0
VERTEX
  5
834
  8
0
  6
CONTINUOUS
 62
     8
 10
26.0809402923
 20
2.4641650839
 30
0.0
  0
VERTEX
  5
835
  8
0
  6
CONTINUOUS
 62
     8
 10
26.1432383527
 20
2.3882575016
 30
0.0
  0
VERTEX
  5
836
  8
0
  6
CONTINUOUS
 62
     8
 10
26.2092595121
 20
2.3151688618
 30
0.0
  0
VERTEX
  5
837
  8
0
  6
CONTINUOUS
 62
     8
 10
26.2788262667
 20
2.2450642491
 30
0.0
  0
VERTEX
  5
838
  8
0
  6
CONTINUOUS
 62
     8
 10
26.3517343982
 20
2.1781817675
 30
0.0
  0
VERTEX
  5
839
  8
0
  6
CONTINUOUS
 62
     8
 10
26.4277714461
 20
2.1147820505
 30
0.0
  0
VERTEX
  5
83A
  8
0
  6
CONTINUOUS
 62
     8
 10
26.5067249475
 20
2.0551257382
 30
0.0
  0
VERTEX
  5
83B
  8
0
  6
CONTINUOUS
 62
     8
 10
26.5883824394
 20
1.9994734703
 30
0.0
  0
VERTEX
  5
83C
  8
0
  6
CONTINUOUS
 62
     8
 10
26.6725314589
 20
1.948085887
 30
0.0
  0
VERTEX
  5
83D
  8
0
  6
CONTINUOUS
 62
     8
 10
26.758959543
 20
1.9012236281
 30
0.0
  0
VERTEX
  5
83E
  8
0
  6
CONTINUOUS
 62
     8
 10
26.8474542288
 20
1.8591473337
 30
0.0
  0
VERTEX
  5
83F
  8
0
  6
CONTINUOUS
 62
     8
 10
26.9378030533
 20
1.8221176436
 30
0.0
  0
VERTEX
  5
840
  8
0
  6
CONTINUOUS
 62
     8
 10
27.0297935536
 20
1.7903951978
 30
0.0
  0
VERTEX
  5
841
  8
0
  6
CONTINUOUS
 62
     8
 10
27.1232132667
 20
1.7642406364
 30
0.0
  0
VERTEX
  5
842
  8
0
  6
CONTINUOUS
 62
     8
 10
27.2178462978
 20
1.743786176
 30
0.0
  0
VERTEX
  5
843
  8
0
  6
CONTINUOUS
 62
     8
 10
27.3134514749
 20
1.7282182035
 30
0.0
  0
VERTEX
  5
844
  8
0
  6
CONTINUOUS
 62
     8
 10
27.4097763315
 20
1.7163004679
 30
0.0
  0
VERTEX
  5
845
  8
0
  6
CONTINUOUS
 62
     8
 10
27.5065683486
 20
1.7067947522
 30
0.0
  0
VERTEX
  5
846
  8
0
  6
CONTINUOUS
 62
     8
 10
27.6035861055
 20
1.6986260591
 30
0.0
  0
VERTEX
  5
847
  8
0
  6
CONTINUOUS
 62
     8
 10
27.7006788454
 20
1.6920527346
 30
0.0
  0
VERTEX
  5
848
  8
0
  6
CONTINUOUS
 62
     8
 10
27.7977400925
 20
1.6879843412
 30
0.0
  0
VERTEX
  5
849
  8
0
  6
CONTINUOUS
 62
     8
 10
27.894663671
 20
1.6873348537
 30
0.0
  0
VERTEX
  5
84A
  8
0
  6
CONTINUOUS
 62
     8
 10
27.9913434052
 20
1.6910182472
 30
0.0
  0
VERTEX
  5
84B
  8
0
  6
CONTINUOUS
 62
     8
 10
28.0876675849
 20
1.6999015021
 30
0.0
  0
VERTEX
  5
84C
  8
0
  6
CONTINUOUS
 62
     8
 10
28.1834568128
 20
1.7142768308
 30
0.0
  0
VERTEX
  5
84D
  8
0
  6
CONTINUOUS
 62
     8
 10
28.2784863762
 20
1.7340516519
 30
0.0
  0
VERTEX
  5
84E
  8
0
  6
CONTINUOUS
 62
     8
 10
28.3725307299
 20
1.7591263127
 30
0.0
  0
VERTEX
  5
84F
  8
0
  6
CONTINUOUS
 62
     8
 10
28.4653643285
 20
1.7894011603
 30
0.0
  0
VERTEX
  5
850
  8
0
  6
CONTINUOUS
 62
     8
 10
28.5567616268
 20
1.8247765419
 30
0.0
  0
VERTEX
  5
851
  8
0
  6
CONTINUOUS
 62
     8
 10
28.6464970793
 20
1.8651528048
 30
0.0
  0
VERTEX
  5
852
  8
0
  6
CONTINUOUS
 62
     8
 10
28.7343428967
 20
1.9104269033
 30
0.0
  0
VERTEX
  5
853
  8
0
  6
CONTINUOUS
 62
     8
 10
28.8200328302
 20
1.9604376457
 30
0.0
  0
VERTEX
  5
854
  8
0
  6
CONTINUOUS
 62
     8
 10
28.9032683123
 20
2.0149749788
 30
0.0
  0
VERTEX
  5
855
  8
0
  6
CONTINUOUS
 62
     8
 10
28.9837497712
 20
2.0738273304
 30
0.0
  0
VERTEX
  5
856
  8
0
  6
CONTINUOUS
 62
     8
 10
29.061177635
 20
2.1367831285
 30
0.0
  0
VERTEX
  5
857
  8
0
  6
CONTINUOUS
 62
     8
 10
29.1352523318
 20
2.203630801
 30
0.0
  0
VERTEX
  5
858
  8
0
  6
CONTINUOUS
 62
     8
 10
29.2056742898
 20
2.2741587759
 30
0.0
  0
VERTEX
  5
859
  8
0
  6
CONTINUOUS
 62
     8
 10
29.2721439372
 20
2.3481554811
 30
0.0
  0
VERTEX
  5
85A
  8
0
  6
CONTINUOUS
 62
     8
 10
29.334361702
 20
2.4254093446
 30
0.0
  0
VERTEX
  5
85B
  8
0
  6
CONTINUOUS
 62
     8
 10
29.3920280123
 20
2.5057087943
 30
0.0
  0
VERTEX
  5
85C
  8
0
  6
CONTINUOUS
 62
     8
 10
29.4448432964
 20
2.5888422581
 30
0.0
  0
VERTEX
  5
85D
  8
0
  6
CONTINUOUS
 62
     8
 10
29.4925079822
 20
2.6745981641
 30
0.0
  0
VERTEX
  5
85E
  8
0
  6
CONTINUOUS
 62
     8
 10
29.5347224981
 20
2.7627649402
 30
0.0
  0
VERTEX
  5
85F
  8
0
  6
CONTINUOUS
 62
     8
 10
29.5711872721
 20
2.8531310143
 30
0.0
  0
VERTEX
  5
860
  8
0
  6
CONTINUOUS
 62
     8
 10
29.6016027322
 20
2.9454848143
 30
0.0
  0
VERTEX
  5
861
  8
0
  6
CONTINUOUS
 62
     8
 10
29.6256693068
 20
3.0396147682
 30
0.0
  0
VERTEX
  5
862
  8
0
  6
CONTINUOUS
 62
     8
 10
29.6430874238
 20
3.1353093041
 30
0.0
  0
VERTEX
  5
863
  8
0
  6
CONTINUOUS
 62
     8
 10
29.6535575115
 20
3.2323568497
 30
0.0
  0
VERTEX
  5
864
  8
0
  6
CONTINUOUS
 62
     8
 10
29.6567799979
 20
3.3305458331
 30
0.0
  0
VERTEX
  5
865
  8
0
  6
CONTINUOUS
 62
     8
 10
29.6524553112
 20
3.4296646822
 30
0.0
  0
SEQEND
  5
8FD
  8
0
  6
CONTINUOUS
 62
     8
  0
POLYLINE
  5
127
  8
0
  6
CONTINUOUS
 62
     8
 66
     1
 10
0.0
 20
0.0
 30
0.0
  0
VERTEX
  5
866
  8
0
  6
CONTINUOUS
 62
     8
 10
28.4124778598
 20
3.4296646822
 30
0.0
  0
VERTEX
  5
867
  8
0
  6
CONTINUOUS
 62
     8
 10
28.4002636329
 20
3.393481116
 30
0.0
  0
VERTEX
  5
868
  8
0
  6
CONTINUOUS
 62
     8
 10
28.3885517312
 20
3.3561386161
 30
0.0
  0
VERTEX
  5
869
  8
0
  6
CONTINUOUS
 62
     8
 10
28.3770997852
 20
3.3178865278
 30
0.0
  0
VERTEX
  5
86A
  8
0
  6
CONTINUOUS
 62
     8
 10
28.3656654254
 20
3.2789741965
 30
0.0
  0
VERTEX
  5
86B
  8
0
  6
CONTINUOUS
 62
     8
 10
28.3540062825
 20
3.2396509678
 30
0.0
  0
VERTEX
  5
86C
  8
0
  6
CONTINUOUS
 62
     8
 10
28.3418799868
 20
3.200166187
 30
0.0
  0
VERTEX
  5
86D
  8
0
  6
CONTINUOUS
 62
     8
 10
28.3290441689
 20
3.1607691995
 30
0.0
  0
VERTEX
  5
86E
  8
0
  6
CONTINUOUS
 62
     8
 10
28.3152564594
 20
3.1217093509
 30
0.0
  0
VERTEX
  5
86F
  8
0
  6
CONTINUOUS
 62
     8
 10
28.3002744888
 20
3.0832359864
 30
0.0
  0
VERTEX
  5
870
  8
0
  6
CONTINUOUS
 62
     8
 10
28.2838558876
 20
3.0455984517
 30
0.0
  0
VERTEX
  5
871
  8
0
  6
CONTINUOUS
 62
     8
 10
28.2657582862
 20
3.009046092
 30
0.0
  0
VERTEX
  5
872
  8
0
  6
CONTINUOUS
 62
     8
 10
28.2457393154
 20
2.9738282528
 30
0.0
  0
VERTEX
  5
873
  8
0
  6
CONTINUOUS
 62
     8
 10
28.2235566054
 20
2.9401942797
 30
0.0
  0
VERTEX
  5
874
  8
0
  6
CONTINUOUS
 62
     8
 10
28.198967787
 20
2.9083935179
 30
0.0
  0
VERTEX
  5
875
  8
0
  6
CONTINUOUS
 62
     8
 10
28.1717308174
 20
2.8786753083
 30
0.0
  0
VERTEX
  5
876
  8
0
  6
CONTINUOUS
 62
     8
 10
28.1417568644
 20
2.8512868283
 30
0.0
  0
VERTEX
  5
877
  8
0
  6
CONTINUOUS
 62
     8
 10
28.1093540689
 20
2.8264696501
 30
0.0
  0
VERTEX
  5
878
  8
0
  6
CONTINUOUS
 62
     8
 10
28.0748940221
 20
2.8044644497
 30
0.0
  0
VERTEX
  5
879
  8
0
  6
CONTINUOUS
 62
     8
 10
28.0387483152
 20
2.7855119032
 30
0.0
  0
VERTEX
  5
87A
  8
0
  6
CONTINUOUS
 62
     8
 10
28.0012885394
 20
2.7698526867
 30
0.0
  0
VERTEX
  5
87B
  8
0
  6
CONTINUOUS
 62
     8
 10
27.9628729694
 20
2.7576772349
 30
0.0
  0
VERTEX
  5
87C
  8
0
  6
CONTINUOUS
 62
     8
 10
27.9237106668
 20
2.7486130274
 30
0.0
  0
VERTEX
  5
87D
  8
0
  6
CONTINUOUS
 62
     8
 10
27.8839170181
 20
2.7419341222
 30
0.0
  0
VERTEX
  5
87E
  8
0
  6
CONTINUOUS
 62
     8
 10
27.8436059609
 20
2.7369091109
 30
0.0
  0
VERTEX
  5
87F
  8
0
  6
CONTINUOUS
 62
     8
 10
27.8028922247
 20
2.7328189083
 30
0.0
  0
VERTEX
  5
880
  8
0
  6
CONTINUOUS
 62
     8
 10
27.7619218098
 20
2.7294309349
 30
0.0
  0
VERTEX
  5
881
  8
0
  6
CONTINUOUS
 62
     8
 10
27.7208816169
 20
2.7271489384
 30
0.0
  0
VERTEX
  5
882
  8
0
  6
CONTINUOUS
 62
     8
 10
27.6799613085
 20
2.7264196328
 30
0.0
  0
VERTEX
  5
883
  8
0
  6
CONTINUOUS
 62
     8
 10
27.639350547
 20
2.7276897318
 30
0.0
  0
VERTEX
  5
884
  8
0
  6
CONTINUOUS
 62
     8
 10
27.5992389947
 20
2.7314059492
 30
0.0
  0
VERTEX
  5
885
  8
0
  6
CONTINUOUS
 62
     8
 10
27.5598163141
 20
2.7380149988
 30
0.0
  0
VERTEX
  5
886
  8
0
  6
CONTINUOUS
 62
     8
 10
27.5212719124
 20
2.747962451
 30
0.0
  0
VERTEX
  5
887
  8
0
  6
CONTINUOUS
 62
     8
 10
27.4837419686
 20
2.7614554619
 30
0.0
  0
VERTEX
  5
888
  8
0
  6
CONTINUOUS
 62
     8
 10
27.4472443405
 20
2.7781712131
 30
0.0
  0
VERTEX
  5
889
  8
0
  6
CONTINUOUS
 62
     8
 10
27.4117809436
 20
2.7977154793
 30
0.0
  0
VERTEX
  5
88A
  8
0
  6
CONTINUOUS
 62
     8
 10
27.3773536934
 20
2.8196940355
 30
0.0
  0
VERTEX
  5
88B
  8
0
  6
CONTINUOUS
 62
     8
 10
27.3439645057
 20
2.8437126565
 30
0.0
  0
VERTEX
  5
88C
  8
0
  6
CONTINUOUS
 62
     8
 10
27.3116152958
 20
2.8693771172
 30
0.0
  0
VERTEX
  5
88D
  8
0
  6
CONTINUOUS
 62
     8
 10
27.2803097674
 20
2.8963007042
 30
0.0
  0
VERTEX
  5
88E
  8
0
  6
CONTINUOUS
 62
     8
 10
27.2500942767
 20
2.9242759015
 30
0.0
  0
VERTEX
  5
88F
  8
0
  6
CONTINUOUS
 62
     8
 10
27.2210587005
 20
2.9532780359
 30
0.0
  0
VERTEX
  5
890
  8
0
  6
CONTINUOUS
 62
     8
 10
27.193294877
 20
2.983290675
 30
0.0
  0
VERTEX
  5
891
  8
0
  6
CONTINUOUS
 62
     8
 10
27.1668946446
 20
3.0142973863
 30
0.0
  0
VERTEX
  5
892
  8
0
  6
CONTINUOUS
 62
     8
 10
27.1419498413
 20
3.0462817375
 30
0.0
  0
VERTEX
  5
893
  8
0
  6
CONTINUOUS
 62
     8
 10
27.1185523055
 20
3.0792272962
 30
0.0
  0
VERTEX
  5
894
  8
0
  6
CONTINUOUS
 62
     8
 10
27.0967938755
 20
3.11311763
 30
0.0
  0
VERTEX
  5
895
  8
0
  6
CONTINUOUS
 62
     8
 10
27.0767663894
 20
3.1479363064
 30
0.0
  0
VERTEX
  5
896
  8
0
  6
CONTINUOUS
 62
     8
 10
27.0585616628
 20
3.1836668855
 30
0.0
  0
VERTEX
  5
897
  8
0
  6
CONTINUOUS
 62
     8
 10
27.0422259557
 20
3.2202775061
 30
0.0
  0
VERTEX
  5
898
  8
0
  6
CONTINUOUS
 62
     8
 10
27.0276645321
 20
3.2576885791
 30
0.0
  0
VERTEX
  5
899
  8
0
  6
CONTINUOUS
 62
     8
 10
27.0147554612
 20
3.2958113093
 30
0.0
  0
VERTEX
  5
89A
  8
0
  6
CONTINUOUS
 62
     8
 10
27.0033768123
 20
3.334556902
 30
0.0
  0
VERTEX
  5
89B
  8
0
  6
CONTINUOUS
 62
     8
 10
26.9934066547
 20
3.373836562
 30
0.0
  0
VERTEX
  5
89C
  8
0
  6
CONTINUOUS
 62
     8
 10
26.9847230575
 20
3.4135614945
 30
0.0
  0
VERTEX
  5
89D
  8
0
  6
CONTINUOUS
 62
     8
 10
26.97720409
 20
3.4536429044
 30
0.0
  0
VERTEX
  5
89E
  8
0
  6
CONTINUOUS
 62
     8
 10
26.9707278215
 20
3.4939919969
 30
0.0
  0
VERTEX
  5
89F
  8
0
  6
CONTINUOUS
 62
     8
 10
26.9651723211
 20
3.5345199769
 30
0.0
  0
VERTEX
  5
8A0
  8
0
  6
CONTINUOUS
 62
     8
 10
26.9604156582
 20
3.5751380495
 30
0.0
  0
VERTEX
  5
8A1
  8
0
  6
CONTINUOUS
 62
     8
 10
26.9563436566
 20
3.6157625973
 30
0.0
  0
VERTEX
  5
8A2
  8
0
  6
CONTINUOUS
 62
     8
 10
26.9529180294
 20
3.6563606727
 30
0.0
  0
VERTEX
  5
8A3
  8
0
  6
CONTINUOUS
 62
     8
 10
26.9501434345
 20
3.6969280013
 30
0.0
  0
VERTEX
  5
8A4
  8
0
  6
CONTINUOUS
 62
     8
 10
26.9480250175
 20
3.7374606345
 30
0.0
  0
VERTEX
  5
8A5
  8
0
  6
CONTINUOUS
 62
     8
 10
26.9465679244
 20
3.7779546239
 30
0.0
  0
VERTEX
  5
8A6
  8
0
  6
CONTINUOUS
 62
     8
 10
26.9457773011
 20
3.8184060209
 30
0.0
  0
VERTEX
  5
8A7
  8
0
  6
CONTINUOUS
 62
     8
 10
26.9456582935
 20
3.8588108771
 30
0.0
  0
VERTEX
  5
8A8
  8
0
  6
CONTINUOUS
 62
     8
 10
26.9462160474
 20
3.8991652439
 30
0.0
  0
VERTEX
  5
8A9
  8
0
  6
CONTINUOUS
 62
     8
 10
26.9474557087
 20
3.9394651729
 30
0.0
  0
VERTEX
  5
8AA
  8
0
  6
CONTINUOUS
 62
     8
 10
26.9493824232
 20
3.9797067155
 30
0.0
  0
VERTEX
  5
8AB
  8
0
  6
CONTINUOUS
 62
     8
 10
26.9520013369
 20
4.0198859232
 30
0.0
  0
VERTEX
  5
8AC
  8
0
  6
CONTINUOUS
 62
     8
 10
26.9553175957
 20
4.0599988477
 30
0.0
  0
VERTEX
  5
8AD
  8
0
  6
CONTINUOUS
 62
     8
 10
26.9593363453
 20
4.1000415402
 30
0.0
  0
VERTEX
  5
8AE
  8
0
  6
CONTINUOUS
 62
     8
 10
26.9640631123
 20
4.1400099364
 30
0.0
  0
VERTEX
  5
8AF
  8
0
  6
CONTINUOUS
 62
     8
 10
26.969527542
 20
4.1798926207
 30
0.0
  0
VERTEX
  5
8B0
  8
0
  6
CONTINUOUS
 62
     8
 10
26.9757974207
 20
4.219666553
 30
0.0
  0
VERTEX
  5
8B1
  8
0
  6
CONTINUOUS
 62
     8
 10
26.9829439052
 20
4.2593076658
 30
0.0
  0
VERTEX
  5
8B2
  8
0
  6
CONTINUOUS
 62
     8
 10
26.9910381528
 20
4.2987918915
 30
0.0
  0
VERTEX
  5
8B3
  8
0
  6
CONTINUOUS
 62
     8
 10
27.0001513202
 20
4.3380951626
 30
0.0
  0
VERTEX
  5
8B4
  8
0
  6
CONTINUOUS
 62
     8
 10
27.0103545648
 20
4.3771934117
 30
0.0
  0
VERTEX
  5
8B5
  8
0
  6
CONTINUOUS
 62
     8
 10
27.0217190434
 20
4.4160625711
 30
0.0
  0
VERTEX
  5
8B6
  8
0
  6
CONTINUOUS
 62
     8
 10
27.0343159131
 20
4.4546785733
 30
0.0
  0
VERTEX
  5
8B7
  8
0
  6
CONTINUOUS
 62
     8
 10
27.0482163309
 20
4.4930173508
 30
0.0
  0
VERTEX
  5
8B8
  8
0
  6
CONTINUOUS
 62
     8
 10
27.063491454
 20
4.5310548362
 30
0.0
  0
VERTEX
  5
8B9
  8
0
  6
CONTINUOUS
 62
     8
 10
27.0802114235
 20
4.5687643459
 30
0.0
  0
VERTEX
  5
8BA
  8
0
  6
CONTINUOUS
 62
     8
 10
27.0984164336
 20
4.6060420767
 30
0.0
  0
VERTEX
  5
8BB
  8
0
  6
CONTINUOUS
 62
     8
 10
27.1181125406
 20
4.6426963126
 30
0.0
  0
VERTEX
  5
8BC
  8
0
  6
CONTINUOUS
 62
     8
 10
27.1393039419
 20
4.6785305515
 30
0.0
  0
VERTEX
  5
8BD
  8
0
  6
CONTINUOUS
 62
     8
 10
27.1619948355
 20
4.7133482916
 30
0.0
  0
VERTEX
  5
8BE
  8
0
  6
CONTINUOUS
 62
     8
 10
27.1861894188
 20
4.7469530308
 30
0.0
  0
VERTEX
  5
8BF
  8
0
  6
CONTINUOUS
 62
     8
 10
27.2118918896
 20
4.7791482671
 30
0.0
  0
VERTEX
  5
8C0
  8
0
  6
CONTINUOUS
 62
     8
 10
27.2391064455
 20
4.8097374988
 30
0.0
  0
VERTEX
  5
8C1
  8
0
  6
CONTINUOUS
 62
     8
 10
27.2678372842
 20
4.8385242237
 30
0.0
  0
VERTEX
  5
8C2
  8
0
  6
CONTINUOUS
 62
     8
 10
27.2980886035
 20
4.8653119398
 30
0.0
  0
VERTEX
  5
8C3
  8
0
  6
CONTINUOUS
 62
     8
 10
27.3298646009
 20
4.8899041454
 30
0.0
  0
VERTEX
  5
8C4
  8
0
  6
CONTINUOUS
 62
     8
 10
27.3631694742
 20
4.9121043383
 30
0.0
  0
VERTEX
  5
8C5
  8
0
  6
CONTINUOUS
 62
     8
 10
27.3979976775
 20
4.9317348071
 30
0.0
  0
VERTEX
  5
8C6
  8
0
  6
CONTINUOUS
 62
     8
 10
27.434238519
 20
4.948820617
 30
0.0
  0
VERTEX
  5
8C7
  8
0
  6
CONTINUOUS
 62
     8
 10
27.4717171378
 20
4.9635105849
 30
0.0
  0
VERTEX
  5
8C8
  8
0
  6
CONTINUOUS
 62
     8
 10
27.5102577567
 20
4.9759552944
 30
0.0
  0
VERTEX
  5
8C9
  8
0
  6
CONTINUOUS
 62
     8
 10
27.5496845988
 20
4.9863053292
 30
0.0
  0
VERTEX
  5
8CA
  8
0
  6
CONTINUOUS
 62
     8
 10
27.5898218868
 20
4.9947112729
 30
0.0
  0
VERTEX
  5
8CB
  8
0
  6
CONTINUOUS
 62
     8
 10
27.6304938438
 20
5.0013237092
 30
0.0
  0
VERTEX
  5
8CC
  8
0
  6
CONTINUOUS
 62
     8
 10
27.6715245944
 20
5.0062912887
 30
0.0
  0
VERTEX
  5
8CD
  8
0
  6
CONTINUOUS
 62
     8
 10
27.7127309559
 20
5.0096187295
 30
0.0
  0
VERTEX
  5
8CE
  8
0
  6
CONTINUOUS
 62
     8
 10
27.7539175171
 20
5.0110698969
 30
0.0
  0
VERTEX
  5
8CF
  8
0
  6
CONTINUOUS
 62
     8
 10
27.794887702
 20
5.0103857138
 30
0.0
  0
VERTEX
  5
8D0
  8
0
  6
CONTINUOUS
 62
     8
 10
27.8354449345
 20
5.0073071031
 30
0.0
  0
VERTEX
  5
8D1
  8
0
  6
CONTINUOUS
 62
     8
 10
27.8753926387
 20
5.0015749876
 30
0.0
  0
VERTEX
  5
8D2
  8
0
  6
CONTINUOUS
 62
     8
 10
27.9145342386
 20
4.9929302901
 30
0.0
  0
VERTEX
  5
8D3
  8
0
  6
CONTINUOUS
 62
     8
 10
27.9526731669
 20
4.9811139614
 30
0.0
  0
VERTEX
  5
8D4
  8
0
  6
CONTINUOUS
 62
     8
 10
27.9896484314
 20
4.9659807221
 30
0.0
  0
VERTEX
  5
8D5
  8
0
  6
CONTINUOUS
 62
     8
 10
28.0254155909
 20
4.9477580248
 30
0.0
  0
VERTEX
  5
8D6
  8
0
  6
CONTINUOUS
 62
     8
 10
28.0599540356
 20
4.9267495356
 30
0.0
  0
VERTEX
  5
8D7
  8
0
  6
CONTINUOUS
 62
     8
 10
28.0932431558
 20
4.9032589206
 30
0.0
  0
VERTEX
  5
8D8
  8
0
  6
CONTINUOUS
 62
     8
 10
28.1252623416
 20
4.8775898458
 30
0.0
  0
VERTEX
  5
8D9
  8
0
  6
CONTINUOUS
 62
     8
 10
28.1559909833
 20
4.8500459774
 30
0.0
  0
VERTEX
  5
8DA
  8
0
  6
CONTINUOUS
 62
     8
 10
28.185408471
 20
4.8209309814
 30
0.0
  0
VERTEX
  5
8DB
  8
0
  6
CONTINUOUS
 62
     8
 10
28.213494195
 20
4.7905485239
 30
0.0
  0
VERTEX
  5
8DC
  8
0
  6
CONTINUOUS
 62
     8
 10
28.2402259621
 20
4.7591990633
 30
0.0
  0
VERTEX
  5
8DD
  8
0
  6
CONTINUOUS
 62
     8
 10
28.2655109454
 20
4.7270399772
 30
0.0
  0
VERTEX
  5
8DE
  8
0
  6
CONTINUOUS
 62
     8
 10
28.2891589385
 20
4.6940313826
 30
0.0
  0
VERTEX
  5
8DF
  8
0
  6
CONTINUOUS
 62
     8
 10
28.3109726282
 20
4.6601190009
 30
0.0
  0
VERTEX
  5
8E0
  8
0
  6
CONTINUOUS
 62
     8
 10
28.3307547016
 20
4.6252485538
 30
0.0
  0
VERTEX
  5
8E1
  8
0
  6
CONTINUOUS
 62
     8
 10
28.3483078457
 20
4.589365763
 30
0.0
  0
VERTEX
  5
8E2
  8
0
  6
CONTINUOUS
 62
     8
 10
28.3634347474
 20
4.5524163501
 30
0.0
  0
VERTEX
  5
8E3
  8
0
  6
CONTINUOUS
 62
     8
 10
28.3759380938
 20
4.5143460366
 30
0.0
  0
VERTEX
  5
8E4
  8
0
  6
CONTINUOUS
 62
     8
 10
28.3856205718
 20
4.4751005443
 30
0.0
  0
VERTEX
  5
8E5
  8
0
  6
CONTINUOUS
 62
     8
 10
28.3922848685
 20
4.4346255947
 30
0.0
  0
VERTEX
  5
8E6
  8
0
  6
CONTINUOUS
 62
     8
 10
28.3957336708
 20
4.3928669095
 30
0.0
  0
SEQEND
  5
8FE
  8
0
  6
CONTINUOUS
 62
     8
  0
ENDBLK
  5
75
  8
0
  0
BLOCK
  8
0
  2
SW_NOTE_0
 70
     0
 10
0.0
 20
0.0
 30
0.0
  3
SW_NOTE_0
  1

  0
TEXT
  5
186
  8
0
  6
CONTINUOUS
 62
     0
 10
0.0
 20
0.8831501548
 30
0.0
 40
2.5
  1
Maßstab:      
 41
0.55
 11
0.0
 21
0.0
 31
0.0
 73
     1
  0
TEXT
  5
187
  8
0
  6
CONTINUOUS
 62
     0
 10
19.7052955627
 20
0.9475215793
 30
0.0
 40
3.5
  1
1:1
 41
0.7
 11
19.7052955627
 21
-0.2888886374
 31
0.0
 73
     1
  0
ENDBLK
  5
185
  8
0
  0
BLOCK
  8
0
  2
SW_NOTE_0_1
 70
     0
 10
0.0
 20
0.0
 30
0.0
  3
SW_NOTE_0_1
  1

  0
TEXT
  5
198
  8
0
  6
CONTINUOUS
 62
     0
 10
0.0
 20
0.8831501548
 30
0.0
 40
2.5
  1
Breuer & Schmitz
 41
0.65625
 11
0.0
 21
0.0
 31
0.0
 73
     1
  0
TEXT
  5
199
  8
0
  6
CONTINUOUS
 62
     0
 10
0.6718747318
 20
-2.6168499532
 30
0.0
 40
2.5
  1
GmbH & Co. KG
 41
0.6192307692
 11
0.6718747318
 21
-3.500000108
 31
0.0
 73
     1
  0
TEXT
  5
19A
  8
0
  6
CONTINUOUS
 62
     0
 10
1.2413188815
 20
-6.1168500613
 30
0.0
 40
2.5
  1
Solingen - Wald
 41
0.6533333333
 11
1.2413188815
 21
-7.0000002161
 31
0.0
 73
     1
  0
TEXT
  5
19B
  8
0
  6
CONTINUOUS
 62
     0
 10
-0.7673613727
 20
-9.6168501693
 30
0.0
 40
2.5
  1
Baubeschlagfabrik
 41
0.7
 11
-0.7673613727
 21
-10.5000003241
 31
0.0
 73
     1
  0
ENDBLK
  5
197
  8
0
  0
BLOCK
  8
0
  2
SW_NOTE_0_2
 70
     0
 10
0.0
 20
0.0
 30
0.0
  3
SW_NOTE_0_2
  1

  0
TEXT
  5
1A0
  8
0
  6
CONTINUOUS
 62
     0
 10
0.0
 20
0.5608003483
 30
0.0
 40
1.5875
  1
Diese Zeichung ist unser Eigentum und darf weder
 41
0.6489583333
 11
0.0
 21
0.0
 31
0.0
 73
     1
  0
TEXT
  5
1A1
  8
0
  6
CONTINUOUS
 62
     0
 10
0.0
 20
-1.5558662928
 30
0.0
 40
1.5875
  1
verwertet, vervielfältigt noch Dritten zugänglich 
 41
0.665
 11
0.0
 21
-2.1166666411
 31
0.0
 73
     1
  0
TEXT
  5
1A2
  8
0
  6
CONTINUOUS
 62
     0
 10
0.0
 20
-3.6725329339
 30
0.0
 40
1.5875
  1
gemacht werden.
 41
0.7
 11
0.0
 21
-4.2333332822
 31
0.0
 73
     1
  0
TEXT
  5
1A3
  8
0
  6
CONTINUOUS
 62
     0
 10
0.0
 20
-7.905866216
 30
0.0
 40
1.5875
  1
This drawing is our property and cannot either be 
 41
0.637
 11
0.0
 21
-8.4666665643
 31
0.0
 73
     1
  0
TEXT
  5
1A4
  8
0
  6
CONTINUOUS
 62
     0
 10
0.0
 20
-10.0225328571
 30
0.0
 40
1.5875
  1
utilized for an other purpose or copied nor made 
 41
0.6357142857
 11
0.0
 21
-10.5833332054
 31
0.0
 73
     1
  0
TEXT
  5
1A5
  8
0
  6
CONTINUOUS
 62
     0
 10
0.0
 20
-12.1391994982
 30
0.0
 40
1.5875
  1
available to a third.
 41
0.65
 11
0.0
 21
-12.6999998465
 31
0.0
 73
     1
  0
ENDBLK
  5
19F
  8
0
  0
BLOCK
  8
0
  2
_D
 70
     0
 10
0.0
 20
0.0
 30
0.0
  3
_D
  1

  0
SOLID
  5
1F7
  8
0
  6
CONTINUOUS
 62
     7
 10
64.883414248
 20
226.2227969543
 30
0.0
 11
64.383414248
 21
222.9227969543
 31
0.0
 12
65.383414248
 22
222.9227969543
 32
0.0
 13
65.383414248
 23
222.9227969543
 33
0.0
  0
SOLID
  5
1F8
  8
0
  6
CONTINUOUS
 62
     7
 10
64.883414248
 20
151.2227969543
 30
0.0
 11
65.383414248
 21
154.5227969543
 31
0.0
 12
64.383414248
 22
154.5227969543
 32
0.0
 13
64.383414248
 23
154.5227969543
 33
0.0
  0
LINE
  5
1F9
  8
0
  6
CONTINUOUS
 62
     7
 10
82.883414248
 20
226.2227969543
 30
0.0
 11
63.883414248
 21
226.2227969543
 31
0.0
  0
LINE
  5
1FA
  8
0
  6
CONTINUOUS
 62
     7
 10
82.883414248
 20
151.2227969543
 30
0.0
 11
63.883414248
 21
151.2227969543
 31
0.0
  0
LINE
  5
1FB
  8
0
  6
CONTINUOUS
 62
     7
 10
64.883414248
 20
226.2227969543
 30
0.0
 11
64.883414248
 21
151.2227969543
 31
0.0
  0
TEXT
  5
1FC
  8
0
  6
CONTINUOUS
 62
     7
 10
63.9487468262
 20
186.7629203313
 30
0.0
 40
2.6458333333
  1
75
 50
90.0
 41
0.7
 11
64.8834140734
 21
186.7629203313
 31
0.0
 73
     1
  0
ENDBLK
  5
1F6
  8
0
  0
BLOCK
  8
0
  2
_D_1
 70
     0
 10
0.0
 20
0.0
 30
0.0
  3
_D_1
  1

  0
SOLID
  5
201
  8
0
  6
CONTINUOUS
 62
     7
 10
81.883414248
 20
238.7227969543
 30
0.0
 11
85.183414248
 21
238.2227969543
 31
0.0
 12
85.183414248
 22
239.2227969543
 32
0.0
 13
85.183414248
 23
239.2227969543
 33
0.0
  0
SOLID
  5
202
  8
0
  6
CONTINUOUS
 62
     7
 10
156.883414248
 20
238.7227969543
 30
0.0
 11
153.583414248
 21
239.2227969543
 31
0.0
 12
153.583414248
 22
238.2227969543
 32
0.0
 13
153.583414248
 23
238.2227969543
 33
0.0
  0
LINE
  5
203
  8
0
  6
CONTINUOUS
 62
     7
 10
81.883414248
 20
225.2227969543
 30
0.0
 11
81.883414248
 21
239.7227969543
 31
0.0
  0
LINE
  5
204
  8
0
  6
CONTINUOUS
 62
     7
 10
156.883414248
 20
225.1227969543
 30
0.0
 11
156.883414248
 21
239.7227969543
 31
0.0
  0
LINE
  5
205
  8
0
  6
CONTINUOUS
 62
     7
 10
81.883414248
 20
238.7227969543
 30
0.0
 11
156.883414248
 21
238.7227969543
 31
0.0
  0
TEXT
  5
206
  8
0
  6
CONTINUOUS
 62
     7
 10
117.423537625
 20
239.6574643761
 30
0.0
 40
2.6458333333
  1
75
 50
0.0
 41
0.7
 11
117.423537625
 21
238.7227971289
 31
0.0
 73
     1
  0
ENDBLK
  5
200
  8
0
  0
BLOCK
  8
0
  2
_D_2
 70
     0
 10
0.0
 20
0.0
 30
0.0
  3
_D_2
  1

  0
SOLID
  5
20B
  8
0
  6
CONTINUOUS
 62
     7
 10
71.883414248
 20
217.2227969543
 30
0.0
 11
71.383414248
 21
213.9227969543
 31
0.0
 12
72.383414248
 22
213.9227969543
 32
0.0
 13
72.383414248
 23
213.9227969543
 33
0.0
  0
SOLID
  5
20C
  8
0
  6
CONTINUOUS
 62
     7
 10
71.883414248
 20
188.7227969543
 30
0.0
 11
72.383414248
 21
192.0227969543
 31
0.0
 12
71.383414248
 22
192.0227969543
 32
0.0
 13
71.383414248
 23
192.0227969543
 33
0.0
  0
LINE
  5
20D
  8
0
  6
CONTINUOUS
 62
     7
 10
97.383414248
 20
217.2227969543
 30
0.0
 11
70.883414248
 21
217.2227969543
 31
0.0
  0
LINE
  5
20E
  8
0
  6
CONTINUOUS
 62
     7
 10
87.383414248
 20
188.7227969543
 30
0.0
 11
70.883414248
 21
188.7227969543
 31
0.0
  0
LINE
  5
20F
  8
0
  6
CONTINUOUS
 62
     7
 10
71.883414248
 20
217.2227969543
 30
0.0
 11
71.883414248
 21
188.7227969543
 31
0.0
  0
TEXT
  5
210
  8
0
  6
CONTINUOUS
 62
     7
 10
70.9487468262
 20
199.5430127476
 30
0.0
 40
2.6458333333
  1
28,5
 50
90.0
 41
0.7
 11
71.8834140734
 21
199.5430127476
 31
0.0
 73
     1
  0
ENDBLK
  5
20A
  8
0
  0
BLOCK
  8
0
  2
_D_3
 70
     0
 10
0.0
 20
0.0
 30
0.0
  3
_D_3
  1

  0
SOLID
  5
215
  8
0
  6
CONTINUOUS
 62
     7
 10
71.883414248
 20
188.7227969543
 30
0.0
 11
71.383414248
 21
185.4227969543
 31
0.0
 12
72.383414248
 22
185.4227969543
 32
0.0
 13
72.383414248
 23
185.4227969543
 33
0.0
  0
SOLID
  5
216
  8
0
  6
CONTINUOUS
 62
     7
 10
71.883414248
 20
160.2227969543
 30
0.0
 11
72.383414248
 21
163.5227969543
 31
0.0
 12
71.383414248
 22
163.5227969543
 32
0.0
 13
71.383414248
 23
163.5227969543
 33
0.0
  0
LINE
  5
217
  8
0
  6
CONTINUOUS
 62
     7
 10
87.383414248
 20
188.7227969543
 30
0.0
 11
70.883414248
 21
188.7227969543
 31
0.0
  0
LINE
  5
218
  8
0
  6
CONTINUOUS
 62
     7
 10
97.383414248
 20
160.2227969543
 30
0.0
 11
70.883414248
 21
160.2227969543
 31
0.0
  0
LINE
  5
219
  8
0
  6
CONTINUOUS
 62
     7
 10
71.883414248
 20
188.7227969543
 30
0.0
 11
71.883414248
 21
160.2227969543
 31
0.0
  0
TEXT
  5
21A
  8
0
  6
CONTINUOUS
 62
     7
 10
70.9487468262
 20
171.0430127476
 30
0.0
 40
2.6458333333
  1
28,5
 50
90.0
 41
0.7
 11
71.8834140734
 21
171.0430127476
 31
0.0
 73
     1
  0
ENDBLK
  5
214
  8
0
  0
BLOCK
  8
0
  2
_D_4
 70
     0
 10
0.0
 20
0.0
 30
0.0
  3
_D_4
  1

  0
SOLID
  5
220
  8
0
  6
CONTINUOUS
 62
     7
 10
98.383414248
 20
138.6227969543
 30
0.0
 11
101.683414248
 21
138.1227969543
 31
0.0
 12
101.683414248
 22
139.1227969543
 32
0.0
 13
101.683414248
 23
139.1227969543
 33
0.0
  0
SOLID
  5
221
  8
0
  6
CONTINUOUS
 62
     7
 10
81.883414248
 20
138.6227969543
 30
0.0
 11
78.583414248
 21
139.1227969543
 31
0.0
 12
78.583414248
 22
138.1227969543
 32
0.0
 13
78.583414248
 23
138.1227969543
 33
0.0
  0
LINE
  5
222
  8
0
  6
CONTINUOUS
 62
     7
 10
98.383414248
 20
159.2227969543
 30
0.0
 11
98.383414248
 21
137.6227969543
 31
0.0
  0
LINE
  5
223
  8
0
  6
CONTINUOUS
 62
     7
 10
81.883414248
 20
152.2227969543
 30
0.0
 11
81.883414248
 21
137.6227969543
 31
0.0
  0
LINE
  5
224
  8
0
  6
CONTINUOUS
 62
     7
 10
98.383414248
 20
138.6227969543
 30
0.0
 11
104.633414248
 21
138.6227969543
 31
0.0
  0
LINE
  5
225
  8
0
  6
CONTINUOUS
 62
     7
 10
98.383414248
 20
138.6227969543
 30
0.0
 11
81.883414248
 21
138.6227969543
 31
0.0
  0
LINE
  5
226
  8
0
  6
CONTINUOUS
 62
     7
 10
81.883414248
 20
138.6227969543
 30
0.0
 11
75.633414248
 21
138.6227969543
 31
0.0
  0
TEXT
  5
227
  8
0
  6
CONTINUOUS
 62
     7
 10
86.7036300413
 20
139.5574643761
 30
0.0
 40
2.6458333333
  1
16,5
 50
0.0
 41
0.7
 11
86.7036300413
 21
138.6227971289
 31
0.0
 73
     1
  0
ENDBLK
  5
21F
  8
0
  0
BLOCK
  8
0
  2
_D_5
 70
     0
 10
0.0
 20
0.0
 30
0.0
  3
_D_5
  1

  0
SOLID
  5
22C
  8
0
  6
CONTINUOUS
 62
     7
 10
88.383414248
 20
144.8440146479
 30
0.0
 11
91.683414248
 21
144.3440146479
 31
0.0
 12
91.683414248
 22
145.3440146479
 32
0.0
 13
91.683414248
 23
145.3440146479
 33
0.0
  0
SOLID
  5
22D
  8
0
  6
CONTINUOUS
 62
     7
 10
81.883414248
 20
144.8440146479
 30
0.0
 11
78.583414248
 21
145.3440146479
 31
0.0
 12
78.583414248
 22
144.3440146479
 32
0.0
 13
78.583414248
 23
144.3440146479
 33
0.0
  0
LINE
  5
22E
  8
0
  6
CONTINUOUS
 62
     7
 10
88.383414248
 20
187.7227969543
 30
0.0
 11
88.383414248
 21
143.8440146479
 31
0.0
  0
LINE
  5
22F
  8
0
  6
CONTINUOUS
 62
     7
 10
81.883414248
 20
152.2227969543
 30
0.0
 11
81.883414248
 21
143.8440146479
 31
0.0
  0
LINE
  5
230
  8
0
  6
CONTINUOUS
 62
     7
 10
88.383414248
 20
144.8440146479
 30
0.0
 11
94.633414248
 21
144.8440146479
 31
0.0
  0
LINE
  5
231
  8
0
  6
CONTINUOUS
 62
     7
 10
88.383414248
 20
144.8440146479
 30
0.0
 11
81.883414248
 21
144.8440146479
 31
0.0
  0
LINE
  5
232
  8
0
  6
CONTINUOUS
 62
     7
 10
81.883414248
 20
144.8440146479
 30
0.0
 11
75.633414248
 21
144.8440146479
 31
0.0
  0
TEXT
  5
233
  8
0
  6
CONTINUOUS
 62
     7
 10
82.6835683528
 20
145.7786820697
 30
0.0
 40
2.6458333333
  1
6,5
 50
0.0
 41
0.7
 11
82.6835683528
 21
144.8440148225
 31
0.0
 73
     1
  0
ENDBLK
  5
22B
  8
0
  0
BLOCK
  8
0
  2
_D_6
 70
     0
 10
0.0
 20
0.0
 30
0.0
  3
_D_6
  1

  0
SOLID
  5
238
  8
0
  6
CONTINUOUS
 62
     7
 10
137.633414248
 20
144.8440146479
 30
0.0
 11
134.333414248
 21
145.3440146479
 31
0.0
 12
134.333414248
 22
144.3440146479
 32
0.0
 13
134.333414248
 23
144.3440146479
 33
0.0
  0
SOLID
  5
239
  8
0
  6
CONTINUOUS
 62
     7
 10
143.133414248
 20
144.8440146479
 30
0.0
 11
146.433414248
 21
144.3440146479
 31
0.0
 12
146.433414248
 22
145.3440146479
 32
0.0
 13
146.433414248
 23
145.3440146479
 33
0.0
  0
LINE
  5
23A
  8
0
  6
CONTINUOUS
 62
     7
 10
137.633414248
 20
159.1227969543
 30
0.0
 11
137.633414248
 21
143.8440146479
 31
0.0
  0
LINE
  5
23B
  8
0
  6
CONTINUOUS
 62
     7
 10
143.133414248
 20
159.1227969543
 30
0.0
 11
143.133414248
 21
143.8440146479
 31
0.0
  0
LINE
  5
23C
  8
0
  6
CONTINUOUS
 62
     7
 10
137.633414248
 20
144.8440146479
 30
0.0
 11
131.383414248
 21
144.8440146479
 31
0.0
  0
LINE
  5
23D
  8
0
  6
CONTINUOUS
 62
     7
 10
137.633414248
 20
144.8440146479
 30
0.0
 11
143.133414248
 21
144.8440146479
 31
0.0
  0
LINE
  5
23E
  8
0
  6
CONTINUOUS
 62
     7
 10
143.133414248
 20
144.8440146479
 30
0.0
 11
160.1405375811
 21
144.8440146479
 31
0.0
  0
TEXT
  5
23F
  8
0
  6
CONTINUOUS
 62
     7
 10
151.4938072475
 20
145.7786818369
 30
0.0
 40
2.6458333333
  1
%%c
 41
0.7
 11
151.4938072475
 21
144.8440145897
 31
0.0
 73
     1
  0
TEXT
  5
240
  8
0
  6
CONTINUOUS
 62
     7
 10
155.2408462564
 20
145.7786818369
 30
0.0
 40
2.6458333333
  1
5,5
 41
0.7
 11
155.2408462564
 21
144.8440145897
 31
0.0
 73
     1
  0
ENDBLK
  5
237
  8
0
  0
BLOCK
  8
0
  2
_D_7
 70
     0
 10
0.0
 20
0.0
 30
0.0
  3
_D_7
  1

  0
SOLID
  5
245
  8
0
  6
CONTINUOUS
 62
     7
 10
135.883414248
 20
138.6227969543
 30
0.0
 11
132.583414248
 21
139.1227969543
 31
0.0
 12
132.583414248
 22
138.1227969543
 32
0.0
 13
132.583414248
 23
138.1227969543
 33
0.0
  0
SOLID
  5
246
  8
0
  6
CONTINUOUS
 62
     7
 10
144.883414248
 20
138.6227969543
 30
0.0
 11
148.183414248
 21
138.1227969543
 31
0.0
 12
148.183414248
 22
139.1227969543
 32
0.0
 13
148.183414248
 23
139.1227969543
 33
0.0
  0
LINE
  5
247
  8
0
  6
CONTINUOUS
 62
     7
 10
135.883414248
 20
159.1227969543
 30
0.0
 11
135.883414248
 21
137.6227969543
 31
0.0
  0
LINE
  5
248
  8
0
  6
CONTINUOUS
 62
     7
 10
144.883414248
 20
159.1227969543
 30
0.0
 11
144.883414248
 21
137.6227969543
 31
0.0
  0
LINE
  5
249
  8
0
  6
CONTINUOUS
 62
     7
 10
135.883414248
 20
138.6227969543
 30
0.0
 11
129.633414248
 21
138.6227969543
 31
0.0
  0
LINE
  5
24A
  8
0
  6
CONTINUOUS
 62
     7
 10
135.883414248
 20
138.6227969543
 30
0.0
 11
144.883414248
 21
138.6227969543
 31
0.0
  0
LINE
  5
24B
  8
0
  6
CONTINUOUS
 62
     7
 10
144.883414248
 20
138.6227969543
 30
0.0
 11
162.2180067177
 21
138.6227969543
 31
0.0
  0
TEXT
  5
24C
  8
0
  6
CONTINUOUS
 62
     7
 10
149.416338111
 20
139.5574641433
 30
0.0
 40
2.6458333333
  1
%%c
 50
0.0
 41
0.7
 11
149.416338111
 21
138.6227968961
 31
0.0
 73
     1
  0
TEXT
  5
24D
  8
0
  6
CONTINUOUS
 62
     7
 10
153.1633771198
 20
139.5574641433
 30
0.0
 40
2.6458333333
  1
9
 50
0.0
 41
0.7
 11
153.1633771198
 21
138.6227968961
 31
0.0
 73
     1
  0
TEXT
  5
24E
  8
0
  6
CONTINUOUS
 62
     7
 10
155.1232537428
 20
139.5574641433
 30
0.0
 40
2.6458333333
  1
x90°
 50
0.0
 41
0.7
 11
155.1232537428
 21
138.6227968961
 31
0.0
 73
     1
  0
ENDBLK
  5
244
  8
0
  0
BLOCK
  8
0
  2
SW_NOTE_0_3
 70
     0
 10
0.0
 20
0.0
 30
0.0
  3
SW_NOTE_0_3
  1

  0
TEXT
  5
252
  8
0
  6
CONTINUOUS
 62
     0
 10
18.8357594904
 20
12.2156679796
 30
0.0
 40
3.5
  1
alternativ R10
 41
0.7
 11
18.8357594904
 21
10.9792577629
 31
0.0
 73
     1
  0
LINE
  5
253
  8
0
  6
CONTINUOUS
 62
     0
 10
18.2233854649
 20
13.6850544893
 30
0.0
 11
0.0
 21
0.0
 31
0.0
  0
SOLID
  5
254
  8
0
  6
CONTINUOUS
 62
     0
 10
0.0
 20
0.0
 30
0.0
 11
2.9390279787
 21
1.5818073652
 31
0.0
 12
2.3385362108
 22
2.381438303
 32
0.0
 13
2.3385362108
 23
2.381438303
 33
0.0
  0
ENDBLK
  5
251
  8
0
  0
BLOCK
  8
0
  2
SW_CENTERMARKSYMBOL_0
 70
     0
 10
0.0
 20
0.0
 30
0.0
  3
SW_CENTERMARKSYMBOL_0
  1

  0
LINE
  5
259
  8
0
  6
CONTINUOUS
 62
     0
 10
0.0
 20
0.0
 30
0.0
 11
0.0
 21
2.5
 31
0.0
  0
LINE
  5
25A
  8
0
  6
CONTINUOUS
 62
     0
 10
0.0
 20
0.0
 30
0.0
 11
-2.5
 21
0.0
 31
0.0
  0
LINE
  5
25B
  8
0
  6
CONTINUOUS
 62
     0
 10
0.0
 20
0.0
 30
0.0
 11
0.0
 21
-2.5
 31
0.0
  0
LINE
  5
25C
  8
0
  6
CONTINUOUS
 62
     0
 10
0.0
 20
0.0
 30
0.0
 11
2.5
 21
0.0
 31
0.0
  0
LINE
  5
25D
  8
0
  6
CONTINUOUS
 62
     0
 10
0.0
 20
5.0
 30
0.0
 11
0.0
 21
5.25
 31
0.0
  0
LINE
  5
25E
  8
0
  6
CONTINUOUS
 62
     0
 10
-5.0
 20
0.0
 30
0.0
 11
-5.25
 21
0.0
 31
0.0
  0
LINE
  5
25F
  8
0
  6
CONTINUOUS
 62
     0
 10
0.0
 20
-5.0
 30
0.0
 11
0.0
 21
-5.25
 31
0.0
  0
LINE
  5
260
  8
0
  6
CONTINUOUS
 62
     0
 10
5.0
 20
0.0
 30
0.0
 11
5.25
 21
0.0
 31
0.0
  0
ENDBLK
  5
258
  8
0
  0
BLOCK
  8
0
  2
SW_CENTERMARKSYMBOL_1
 70
     0
 10
0.0
 20
0.0
 30
0.0
  3
SW_CENTERMARKSYMBOL_1
  1

  0
LINE
  5
265
  8
0
  6
CONTINUOUS
 62
     0
 10
0.0
 20
0.0
 30
0.0
 11
0.0
 21
2.5
 31
0.0
  0
LINE
  5
266
  8
0
  6
CONTINUOUS
 62
     0
 10
0.0
 20
0.0
 30
0.0
 11
-2.5
 21
0.0
 31
0.0
  0
LINE
  5
267
  8
0
  6
CONTINUOUS
 62
     0
 10
0.0
 20
0.0
 30
0.0
 11
0.0
 21
-2.5
 31
0.0
  0
LINE
  5
268
  8
0
  6
CONTINUOUS
 62
     0
 10
0.0
 20
0.0
 30
0.0
 11
2.5
 21
0.0
 31
0.0
  0
LINE
  5
269
  8
0
  6
CONTINUOUS
 62
     0
 10
0.0
 20
5.0
 30
0.0
 11
0.0
 21
5.25
 31
0.0
  0
LINE
  5
26A
  8
0
  6
CONTINUOUS
 62
     0
 10
-5.0
 20
0.0
 30
0.0
 11
-5.25
 21
0.0
 31
0.0
  0
LINE
  5
26B
  8
0
  6
CONTINUOUS
 62
     0
 10
0.0
 20
-5.0
 30
0.0
 11
0.0
 21
-5.25
 31
0.0
  0
LINE
  5
26C
  8
0
  6
CONTINUOUS
 62
     0
 10
5.0
 20
0.0
 30
0.0
 11
5.25
 21
0.0
 31
0.0
  0
ENDBLK
  5
264
  8
0
  0
BLOCK
  8
0
  2
SW_CENTERMARKSYMBOL_2
 70
     0
 10
0.0
 20
0.0
 30
0.0
  3
SW_CENTERMARKSYMBOL_2
  1

  0
LINE
  5
271
  8
0
  6
CONTINUOUS
 62
     0
 10
0.0
 20
0.0
 30
0.0
 11
0.0
 21
2.5
 31
0.0
  0
LINE
  5
272
  8
0
  6
CONTINUOUS
 62
     0
 10
0.0
 20
0.0
 30
0.0
 11
-2.5
 21
0.0
 31
0.0
  0
LINE
  5
273
  8
0
  6
CONTINUOUS
 62
     0
 10
0.0
 20
0.0
 30
0.0
 11
0.0
 21
-2.5
 31
0.0
  0
LINE
  5
274
  8
0
  6
CONTINUOUS
 62
     0
 10
0.0
 20
0.0
 30
0.0
 11
2.5
 21
0.0
 31
0.0
  0
LINE
  5
275
  8
0
  6
CONTINUOUS
 62
     0
 10
0.0
 20
5.0
 30
0.0
 11
0.0
 21
5.25
 31
0.0
  0
LINE
  5
276
  8
0
  6
CONTINUOUS
 62
     0
 10
-5.0
 20
0.0
 30
0.0
 11
-5.25
 21
0.0
 31
0.0
  0
LINE
  5
277
  8
0
  6
CONTINUOUS
 62
     0
 10
0.0
 20
-5.0
 30
0.0
 11
0.0
 21
-5.25
 31
0.0
  0
LINE
  5
278
  8
0
  6
CONTINUOUS
 62
     0
 10
5.0
 20
0.0
 30
0.0
 11
5.25
 21
0.0
 31
0.0
  0
ENDBLK
  5
270
  8
0
  0
BLOCK
  8
0
  2
SW_CENTERMARKSYMBOL_3
 70
     0
 10
0.0
 20
0.0
 30
0.0
  3
SW_CENTERMARKSYMBOL_3
  1

  0
LINE
  5
27D
  8
0
  6
CONTINUOUS
 62
     0
 10
0.0
 20
0.0
 30
0.0
 11
0.0
 21
2.5
 31
0.0
  0
LINE
  5
27E
  8
0
  6
CONTINUOUS
 62
     0
 10
0.0
 20
0.0
 30
0.0
 11
-2.5
 21
0.0
 31
0.0
  0
LINE
  5
27F
  8
0
  6
CONTINUOUS
 62
     0
 10
0.0
 20
0.0
 30
0.0
 11
0.0
 21
-2.5
 31
0.0
  0
LINE
  5
280
  8
0
  6
CONTINUOUS
 62
     0
 10
0.0
 20
0.0
 30
0.0
 11
2.5
 21
0.0
 31
0.0
  0
LINE
  5
281
  8
0
  6
CONTINUOUS
 62
     0
 10
0.0
 20
5.0
 30
0.0
 11
0.0
 21
5.25
 31
0.0
  0
LINE
  5
282
  8
0
  6
CONTINUOUS
 62
     0
 10
-5.0
 20
0.0
 30
0.0
 11
-5.25
 21
0.0
 31
0.0
  0
LINE
  5
283
  8
0
  6
CONTINUOUS
 62
     0
 10
0.0
 20
-5.0
 30
0.0
 11
0.0
 21
-5.25
 31
0.0
  0
LINE
  5
284
  8
0
  6
CONTINUOUS
 62
     0
 10
5.0
 20
0.0
 30
0.0
 11
5.25
 21
0.0
 31
0.0
  0
ENDBLK
  5
27C
  8
0
  0
BLOCK
  8
0
  2
SW_CENTERMARKSYMBOL_4
 70
     0
 10
0.0
 20
0.0
 30
0.0
  3
SW_CENTERMARKSYMBOL_4
  1

  0
LINE
  5
289
  8
0
  6
CONTINUOUS
 62
     0
 10
0.0
 20
0.0
 30
0.0
 11
0.0
 21
2.5
 31
0.0
  0
LINE
  5
28A
  8
0
  6
CONTINUOUS
 62
     0
 10
0.0
 20
0.0
 30
0.0
 11
-2.5
 21
0.0
 31
0.0
  0
LINE
  5
28B
  8
0
  6
CONTINUOUS
 62
     0
 10
0.0
 20
0.0
 30
0.0
 11
0.0
 21
-2.5
 31
0.0
  0
LINE
  5
28C
  8
0
  6
CONTINUOUS
 62
     0
 10
0.0
 20
0.0
 30
0.0
 11
2.5
 21
0.0
 31
0.0
  0
LINE
  5
28D
  8
0
  6
CONTINUOUS
 62
     0
 10
0.0
 20
5.0
 30
0.0
 11
0.0
 21
5.25
 31
0.0
  0
LINE
  5
28E
  8
0
  6
CONTINUOUS
 62
     0
 10
-5.0
 20
0.0
 30
0.0
 11
-5.25
 21
0.0
 31
0.0
  0
LINE
  5
28F
  8
0
  6
CONTINUOUS
 62
     0
 10
0.0
 20
-5.0
 30
0.0
 11
0.0
 21
-5.25
 31
0.0
  0
LINE
  5
290
  8
0
  6
CONTINUOUS
 62
     0
 10
5.0
 20
0.0
 30
0.0
 11
5.25
 21
0.0
 31
0.0
  0
ENDBLK
  5
288
  8
0
  0
BLOCK
  8
0
  2
SW_CENTERMARKSYMBOL_5
 70
     0
 10
0.0
 20
0.0
 30
0.0
  3
SW_CENTERMARKSYMBOL_5
  1

  0
LINE
  5
295
  8
0
  6
CONTINUOUS
 62
     0
 10
0.0
 20
0.0
 30
0.0
 11
0.0
 21
2.5
 31
0.0
  0
LINE
  5
296
  8
0
  6
CONTINUOUS
 62
     0
 10
0.0
 20
0.0
 30
0.0
 11
-2.5
 21
0.0
 31
0.0
  0
LINE
  5
297
  8
0
  6
CONTINUOUS
 62
     0
 10
0.0
 20
0.0
 30
0.0
 11
0.0
 21
-2.5
 31
0.0
  0
LINE
  5
298
  8
0
  6
CONTINUOUS
 62
     0
 10
0.0
 20
0.0
 30
0.0
 11
2.5
 21
0.0
 31
0.0
  0
LINE
  5
299
  8
0
  6
CONTINUOUS
 62
     0
 10
0.0
 20
5.0
 30
0.0
 11
0.0
 21
5.25
 31
0.0
  0
LINE
  5
29A
  8
0
  6
CONTINUOUS
 62
     0
 10
-5.0
 20
0.0
 30
0.0
 11
-5.25
 21
0.0
 31
0.0
  0
LINE
  5
29B
  8
0
  6
CONTINUOUS
 62
     0
 10
0.0
 20
-5.0
 30
0.0
 11
0.0
 21
-5.25
 31
0.0
  0
LINE
  5
29C
  8
0
  6
CONTINUOUS
 62
     0
 10
5.0
 20
0.0
 30
0.0
 11
5.25
 21
0.0
 31
0.0
  0
ENDBLK
  5
294
  8
0
  0
BLOCK
  8
0
  2
_D_8
 70
     0
 10
0.0
 20
0.0
 30
0.0
  3
_D_8
  1

  0
SOLID
  5
2C8
  8
0
  6
CONTINUOUS
 62
     7
 10
81.883414248
 20
76.2567113311
 30
0.0
 11
85.183414248
 21
75.7567113311
 31
0.0
 12
85.183414248
 22
76.7567113311
 32
0.0
 13
85.183414248
 23
76.7567113311
 33
0.0
  0
SOLID
  5
2C9
  8
0
  6
CONTINUOUS
 62
     7
 10
119.383414248
 20
76.2567113311
 30
0.0
 11
116.083414248
 21
76.7567113311
 31
0.0
 12
116.083414248
 22
75.7567113311
 32
0.0
 13
116.083414248
 23
75.7567113311
 33
0.0
  0
LINE
  5
2CA
  8
0
  6
CONTINUOUS
 62
     7
 10
81.883414248
 20
66.3712548836
 30
0.0
 11
81.883414248
 21
77.2567113311
 31
0.0
  0
LINE
  5
2CB
  8
0
  6
CONTINUOUS
 62
     7
 10
119.383414248
 20
72.8712548836
 30
0.0
 11
119.383414248
 21
77.2567113311
 31
0.0
  0
LINE
  5
2CC
  8
0
  6
CONTINUOUS
 62
     7
 10
81.883414248
 20
76.2567113311
 30
0.0
 11
119.383414248
 21
76.2567113311
 31
0.0
  0
TEXT
  5
2CD
  8
0
  6
CONTINUOUS
 62
     7
 10
97.2036300413
 20
77.1913787529
 30
0.05
 40
2.6458333333
  1
37,5
 41
0.7
 11
97.2036300413
 21
76.2567115057
 31
0.05
 73
     1
  0
ENDBLK
  5
2C7
  8
0
  0
BLOCK
  8
0
  2
_D_9
 70
     0
 10
0.0
 20
0.0
 30
0.0
  3
_D_9
  1

  0
SOLID
  5
2D2
  8
0
  6
CONTINUOUS
 62
     7
 10
119.383414248
 20
76.2567113311
 30
0.0
 11
122.683414248
 21
75.7567113311
 31
0.0
 12
122.683414248
 22
76.7567113311
 32
0.0
 13
122.683414248
 23
76.7567113311
 33
0.0
  0
SOLID
  5
2D3
  8
0
  6
CONTINUOUS
 62
     7
 10
156.883414248
 20
76.2567113311
 30
0.0
 11
153.583414248
 21
76.7567113311
 31
0.0
 12
153.583414248
 22
75.7567113311
 32
0.0
 13
153.583414248
 23
75.7567113311
 33
0.0
  0
LINE
  5
2D4
  8
0
  6
CONTINUOUS
 62
     7
 10
119.383414248
 20
72.8712548836
 30
0.0
 11
119.383414248
 21
77.2567113311
 31
0.0
  0
LINE
  5
2D5
  8
0
  6
CONTINUOUS
 62
     7
 10
156.883414248
 20
66.3712548836
 30
0.0
 11
156.883414248
 21
77.2567113311
 31
0.0
  0
LINE
  5
2D6
  8
0
  6
CONTINUOUS
 62
     7
 10
119.383414248
 20
76.2567113311
 30
0.0
 11
156.883414248
 21
76.2567113311
 31
0.0
  0
TEXT
  5
2D7
  8
0
  6
CONTINUOUS
 62
     7
 10
134.7036300413
 20
77.1913787529
 30
0.05
 40
2.6458333333
  1
37,5
 41
0.7
 11
134.7036300413
 21
76.2567115057
 31
0.05
 73
     1
  0
ENDBLK
  5
2D1
  8
0
  0
BLOCK
  8
0
  2
_D_10
 70
     0
 10
0.0
 20
0.0
 30
0.0
  3
_D_10
  1

  0
SOLID
  5
2DC
  8
0
  6
CONTINUOUS
 62
     7
 10
111.383414248
 20
44.5406225665
 30
0.0
 11
108.083414248
 21
45.0406225665
 31
0.0
 12
108.083414248
 22
44.0406225665
 32
0.0
 13
108.083414248
 23
44.0406225665
 33
0.0
  0
SOLID
  5
2DD
  8
0
  6
CONTINUOUS
 62
     7
 10
127.383414248
 20
44.5406225665
 30
0.0
 11
130.683414248
 21
44.0406225665
 31
0.0
 12
130.683414248
 22
45.0406225665
 32
0.0
 13
130.683414248
 23
45.0406225665
 33
0.0
  0
LINE
  5
2DE
  8
0
  6
CONTINUOUS
 62
     7
 10
111.383414248
 20
60.3712548836
 30
0.0
 11
111.383414248
 21
43.5406225665
 31
0.0
  0
LINE
  5
2DF
  8
0
  6
CONTINUOUS
 62
     7
 10
127.383414248
 20
60.3712548836
 30
0.0
 11
127.383414248
 21
43.5406225665
 31
0.0
  0
LINE
  5
2E0
  8
0
  6
CONTINUOUS
 62
     7
 10
111.383414248
 20
44.5406225665
 30
0.0
 11
105.133414248
 21
44.5406225665
 31
0.0
  0
LINE
  5
2E1
  8
0
  6
CONTINUOUS
 62
     7
 10
111.383414248
 20
44.5406225665
 30
0.0
 11
127.383414248
 21
44.5406225665
 31
0.0
  0
LINE
  5
2E2
  8
0
  6
CONTINUOUS
 62
     7
 10
127.383414248
 20
44.5406225665
 30
0.0
 11
133.633414248
 21
44.5406225665
 31
0.0
  0
TEXT
  5
2E3
  8
0
  6
CONTINUOUS
 62
     7
 10
115.5500181206
 20
45.4752897554
 30
0.05
 40
2.6458333333
  1
%%c
 41
0.7
 11
115.5500181206
 21
44.5406225083
 31
0.05
 73
     1
  0
TEXT
  5
2E4
  8
0
  6
CONTINUOUS
 62
     7
 10
119.2970571294
 20
45.4752897554
 30
0.05
 40
2.6458333333
  1
16
 41
0.7
 11
119.2970571294
 21
44.5406225083
 31
0.05
 73
     1
  0
ENDBLK
  5
2DB
  8
0
  0
BLOCK
  8
0
  2
_D_11
 70
     0
 10
0.0
 20
0.0
 30
0.0
  3
_D_11
  1

  0
SOLID
  5
2E9
  8
0
  6
CONTINUOUS
 62
     7
 10
71.883414248
 20
62.3712548836
 30
0.0
 11
71.383414248
 21
59.0712548836
 31
0.0
 12
72.383414248
 22
59.0712548836
 32
0.0
 13
72.383414248
 23
59.0712548836
 33
0.0
  0
SOLID
  5
2EA
  8
0
  6
CONTINUOUS
 62
     7
 10
71.883414248
 20
65.3712548836
 30
0.0
 11
72.383414248
 21
68.6712548836
 31
0.0
 12
71.383414248
 22
68.6712548836
 32
0.0
 13
71.383414248
 23
68.6712548836
 33
0.0
  0
LINE
  5
2EB
  8
0
  6
CONTINUOUS
 62
     7
 10
80.883414248
 20
62.3712548836
 30
0.0
 11
70.883414248
 21
62.3712548836
 31
0.0
  0
LINE
  5
2EC
  8
0
  6
CONTINUOUS
 62
     7
 10
80.883414248
 20
65.3712548836
 30
0.0
 11
70.883414248
 21
65.3712548836
 31
0.0
  0
LINE
  5
2ED
  8
0
  6
CONTINUOUS
 62
     7
 10
71.883414248
 20
62.3712548836
 30
0.0
 11
71.883414248
 21
56.4316815693
 31
0.0
  0
LINE
  5
2EE
  8
0
  6
CONTINUOUS
 62
     7
 10
71.883414248
 20
62.3712548836
 30
0.0
 11
71.883414248
 21
65.3712548836
 31
0.0
  0
LINE
  5
2EF
  8
0
  6
CONTINUOUS
 62
     7
 10
71.883414248
 20
65.3712548836
 30
0.0
 11
71.883414248
 21
71.6212548836
 31
0.0
  0
TEXT
  5
2F0
  8
0
  6
CONTINUOUS
 62
     7
 10
70.9487468262
 20
56.4316815693
 30
0.05
 40
2.6458333333
  1
3
 50
90.0
 41
0.7
 11
71.8834140734
 21
56.4316815693
 31
0.05
 73
     1
  0
ENDBLK
  5
2E8
  8
0
  0
BLOCK
  8
0
  2
_D_12
 70
     0
 10
0.0
 20
0.0
 30
0.0
  3
_D_12
  1

  0
SOLID
  5
2F5
  8
0
  6
CONTINUOUS
 62
     7
 10
160.2424665387
 20
62.3712548836
 30
0.0
 11
160.7424665387
 21
65.6712548836
 31
0.0
 12
159.7424665387
 22
65.6712548836
 32
0.0
 13
159.7424665387
 23
65.6712548836
 33
0.0
  0
SOLID
  5
2F6
  8
0
  6
CONTINUOUS
 62
     7
 10
160.2424665387
 20
61.3712548836
 30
0.0
 11
159.7424665387
 21
58.0712548836
 31
0.0
 12
160.7424665387
 22
58.0712548836
 32
0.0
 13
160.7424665387
 23
58.0712548836
 33
0.0
  0
LINE
  5
2F7
  8
0
  6
CONTINUOUS
 62
     7
 10
157.883414248
 20
62.3712548836
 30
0.0
 11
161.2424665387
 21
62.3712548836
 31
0.0
  0
LINE
  5
2F8
  8
0
  6
CONTINUOUS
 62
     7
 10
130.883414248
 20
61.3712548836
 30
0.0
 11
161.2424665387
 21
61.3712548836
 31
0.0
  0
LINE
  5
2F9
  8
0
  6
CONTINUOUS
 62
     7
 10
160.2424665387
 20
62.3712548836
 30
0.0
 11
160.2424665387
 21
68.6212548836
 31
0.0
  0
LINE
  5
2FA
  8
0
  6
CONTINUOUS
 62
     7
 10
160.2424665387
 20
62.3712548836
 30
0.0
 11
160.2424665387
 21
61.3712548836
 31
0.0
  0
LINE
  5
2FB
  8
0
  6
CONTINUOUS
 62
     7
 10
160.2424665387
 20
61.3712548836
 30
0.0
 11
160.2424665387
 21
54.8703084631
 31
0.0
  0
TEXT
  5
2FC
  8
0
  6
CONTINUOUS
 62
     7
 10
159.3077991169
 20
54.8703084631
 30
0.05
 40
2.6458333333
  1
1
 50
90.0
 41
0.7
 11
160.2424663641
 21
54.8703084631
 31
0.05
 73
     1
  0
ENDBLK
  5
2F4
  8
0
  0
BLOCK
  8
0
  2
SW_CENTERMARKSYMBOL_6
 70
     0
 10
0.0
 20
0.0
 30
0.0
  3
SW_CENTERMARKSYMBOL_6
  1

  0
LINE
  5
300
  8
0
  6
CONTINUOUS
 62
     0
 10
0.0
 20
0.0
 30
0.0
 11
0.0
 21
2.5
 31
0.0
  0
LINE
  5
301
  8
0
  6
CONTINUOUS
 62
     0
 10
0.0
 20
0.0
 30
0.0
 11
-2.5
 21
0.0
 31
0.0
  0
LINE
  5
302
  8
0
  6
CONTINUOUS
 62
     0
 10
0.0
 20
0.0
 30
0.0
 11
0.0
 21
-2.5
 31
0.0
  0
LINE
  5
303
  8
0
  6
CONTINUOUS
 62
     0
 10
0.0
 20
0.0
 30
0.0
 11
2.5
 21
0.0
 31
0.0
  0
LINE
  5
304
  8
0
  6
CONTINUOUS
 62
     0
 10
0.0
 20
5.0
 30
0.0
 11
0.0
 21
10.5
 31
0.0
  0
LINE
  5
305
  8
0
  6
CONTINUOUS
 62
     0
 10
-5.0
 20
0.0
 30
0.0
 11
-10.5
 21
0.0
 31
0.0
  0
LINE
  5
306
  8
0
  6
CONTINUOUS
 62
     0
 10
0.0
 20
-5.0
 30
0.0
 11
0.0
 21
-10.5
 31
0.0
  0
LINE
  5
307
  8
0
  6
CONTINUOUS
 62
     0
 10
5.0
 20
0.0
 30
0.0
 11
10.5
 21
0.0
 31
0.0
  0
ENDBLK
  5
2FF
  8
0
  0
BLOCK
  8
0
  2
_D_13
 70
     0
 10
0.0
 20
0.0
 30
0.0
  3
_D_13
  1

  0
SOLID
  5
380
  8
0
  6
CONTINUOUS
 62
     7
 10
284.762440645
 20
200.20427998
 30
0.0
 11
288.062440645
 21
199.70427998
 31
0.0
 12
288.062440645
 22
200.70427998
 32
0.0
 13
288.062440645
 23
200.70427998
 33
0.0
  0
SOLID
  5
381
  8
0
  6
CONTINUOUS
 62
     7
 10
311.762440645
 20
200.2042799799
 30
0.0
 11
308.462440645
 21
200.7042799799
 31
0.0
 12
308.462440645
 22
199.7042799799
 32
0.0
 13
308.462440645
 23
199.7042799799
 33
0.0
  0
LINE
  5
382
  8
0
  6
CONTINUOUS
 62
     7
 10
311.762440645
 20
193.6727969543
 30
0.0
 11
311.762440645
 21
201.2042799799
 31
0.0
  0
LINE
  5
383
  8
0
  6
CONTINUOUS
 62
     7
 10
284.762440645
 20
200.20427998
 30
0.0
 11
311.762440645
 21
200.2042799799
 31
0.0
  0
TEXT
  5
384
  8
0
  6
CONTINUOUS
 62
     7
 10
296.302564022
 20
201.1389474017
 30
0.5
 40
2.6458333333
  1
27
 50
360.0
 41
0.7
 11
296.302564022
 21
200.2042801546
 31
0.5
 73
     1
  0
ENDBLK
  5
37F
  8
0
  0
BLOCK
  8
0
  2
_D_14
 70
     0
 10
0.0
 20
0.0
 30
0.0
  3
_D_14
  1

  0
SOLID
  5
389
  8
0
  6
CONTINUOUS
 62
     7
 10
274.262440645
 20
206.3813963848
 30
0.0
 11
270.962440645
 21
206.8813963848
 31
0.0
 12
270.962440645
 22
205.8813963848
 32
0.0
 13
270.962440645
 23
205.8813963848
 33
0.0
  0
SOLID
  5
38A
  8
0
  6
CONTINUOUS
 62
     7
 10
284.762440645
 20
206.3813963848
 30
0.0
 11
288.062440645
 21
205.8813963848
 31
0.0
 12
288.062440645
 22
206.8813963848
 32
0.0
 13
288.062440645
 23
206.8813963848
 33
0.0
  0
LINE
  5
38B
  8
0
  6
CONTINUOUS
 62
     7
 10
274.262440645
 20
200.0727969543
 30
0.0
 11
274.262440645
 21
207.3813963848
 31
0.0
  0
LINE
  5
38C
  8
0
  6
CONTINUOUS
 62
     7
 10
284.762440645
 20
185.6727969543
 30
0.0
 11
284.762440645
 21
207.3813963848
 31
0.0
  0
LINE
  5
38D
  8
0
  6
CONTINUOUS
 62
     7
 10
274.262440645
 20
206.3813963848
 30
0.0
 11
268.012440645
 21
206.3813963848
 31
0.0
  0
LINE
  5
38E
  8
0
  6
CONTINUOUS
 62
     7
 10
274.262440645
 20
206.3813963848
 30
0.0
 11
284.762440645
 21
206.3813963848
 31
0.0
  0
LINE
  5
38F
  8
0
  6
CONTINUOUS
 62
     7
 10
284.762440645
 20
206.3813963848
 30
0.0
 11
291.012440645
 21
206.3813963848
 31
0.0
  0
TEXT
  5
390
  8
0
  6
CONTINUOUS
 62
     7
 10
276.0826564384
 20
207.3160638066
 30
0.5
 40
2.6458333333
  1
10,5
 50
0.0
 41
0.7
 11
276.0826564384
 21
206.3813965594
 31
0.5
 73
     1
  0
ENDBLK
  5
388
  8
0
  0
BLOCK
  8
0
  2
_D_15
 70
     0
 10
0.0
 20
0.0
 30
0.0
  3
_D_15
  1

  0
SOLID
  5
395
  8
0
  6
CONTINUOUS
 62
     7
 10
323.14527966
 20
189.6727969543
 30
0.0
 11
323.64527966
 21
192.9727969543
 31
0.0
 12
322.64527966
 22
192.9727969543
 32
0.0
 13
322.64527966
 23
192.9727969543
 33
0.0
  0
SOLID
  5
396
  8
0
  6
CONTINUOUS
 62
     7
 10
323.14527966
 20
187.6727969543
 30
0.0
 11
322.64527966
 21
184.3727969543
 31
0.0
 12
323.64527966
 22
184.3727969543
 32
0.0
 13
323.64527966
 23
184.3727969543
 33
0.0
  0
LINE
  5
397
  8
0
  6
CONTINUOUS
 62
     7
 10
315.762440645
 20
189.6727969543
 30
0.0
 11
324.14527966
 21
189.6727969543
 31
0.0
  0
LINE
  5
398
  8
0
  6
CONTINUOUS
 62
     7
 10
315.762440645
 20
187.6727969543
 30
0.0
 11
324.14527966
 21
187.6727969543
 31
0.0
  0
LINE
  5
399
  8
0
  6
CONTINUOUS
 62
     7
 10
323.14527966
 20
189.6727969543
 30
0.0
 11
323.14527966
 21
201.1842182915
 31
0.0
  0
LINE
  5
39A
  8
0
  6
CONTINUOUS
 62
     7
 10
323.14527966
 20
189.6727969543
 30
0.0
 11
323.14527966
 21
187.6727969543
 31
0.0
  0
LINE
  5
39B
  8
0
  6
CONTINUOUS
 62
     7
 10
323.14527966
 20
187.6727969543
 30
0.0
 11
323.14527966
 21
181.4227969543
 31
0.0
  0
TEXT
  5
39C
  8
0
  6
CONTINUOUS
 62
     7
 10
322.2106122383
 20
199.2243416684
 30
0.5
 40
2.6458333333
  1
2
 50
90.0
 41
0.7
 11
323.1452794854
 21
199.2243416684
 31
0.5
 73
     1
  0
ENDBLK
  5
394
  8
0
  0
BLOCK
  8
0
  2
SW_CENTERMARKSYMBOL_7
 70
     0
 10
0.0
 20
0.0
 30
0.0
  3
SW_CENTERMARKSYMBOL_7
  1

  0
LINE
  5
3A0
  8
0
  6
CONTINUOUS
 62
     0
 10
0.0
 20
0.0
 30
0.0
 11
0.0
 21
2.5
 31
0.0
  0
LINE
  5
3A1
  8
0
  6
CONTINUOUS
 62
     0
 10
0.0
 20
0.0
 30
0.0
 11
-2.5
 21
0.0
 31
0.0
  0
LINE
  5
3A2
  8
0
  6
CONTINUOUS
 62
     0
 10
0.0
 20
0.0
 30
0.0
 11
0.0
 21
-2.5
 31
0.0
  0
LINE
  5
3A3
  8
0
  6
CONTINUOUS
 62
     0
 10
0.0
 20
0.0
 30
0.0
 11
2.5
 21
0.0
 31
0.0
  0
LINE
  5
3A4
  8
0
  6
CONTINUOUS
 62
     0
 10
0.0
 20
5.0
 30
0.0
 11
0.0
 21
10.4
 31
0.0
  0
LINE
  5
3A5
  8
0
  6
CONTINUOUS
 62
     0
 10
-5.0
 20
0.0
 30
0.0
 11
-10.4
 21
0.0
 31
0.0
  0
LINE
  5
3A6
  8
0
  6
CONTINUOUS
 62
     0
 10
0.0
 20
-5.0
 30
0.0
 11
0.0
 21
-10.4
 31
0.0
  0
LINE
  5
3A7
  8
0
  6
CONTINUOUS
 62
     0
 10
5.0
 20
0.0
 30
0.0
 11
10.4
 21
0.0
 31
0.0
  0
ENDBLK
  5
39F
  8
0
  0
ENDSEC
  0
SECTION
  2
ENTITIES
  0
LINE
  5
12A
  8
0
  6
CONTINUOUS
 62
     7
 10
227.8
 20
60.25
 30
0.0
 11
227.8
 21
5.0
 31
0.0
  0
LINE
  5
12B
  8
0
  6
CONTINUOUS
 62
     7
 10
235.42
 20
43.25
 30
0.0
 11
235.42
 21
5.0
 31
0.0
  0
LINE
  5
12C
  8
0
  6
CONTINUOUS
 62
     7
 10
260.82
 20
5.0
 30
0.0
 11
260.82
 21
43.25
 31
0.0
  0
LINE
  5
12D
  8
0
  6
CONTINUOUS
 62
     7
 10
410.0
 20
287.0
 30
0.0
 11
410.0
 21
60.25
 31
0.0
  0
LINE
  5
12E
  8
0
  6
CONTINUOUS
 62
     7
 10
281.14
 20
22.0
 30
0.0
 11
415.0
 21
22.0
 31
0.0
  0
LINE
  5
12F
  8
0
  6
CONTINUOUS
 62
     7
 10
415.0
 20
43.25
 30
0.0
 11
227.8
 21
43.25
 31
0.0
  0
LINE
  5
130
  8
0
  6
CONTINUOUS
 62
     7
 10
227.8
 20
60.25
 30
0.0
 11
415.0
 21
60.25
 31
0.0
  0
LINE
  5
131
  8
0
  6
CONTINUOUS
 62
     7
 10
281.14
 20
38.9447711707
 30
0.0
 11
227.8
 21
38.9447711707
 31
0.0
  0
LINE
  5
132
  8
0
  6
CONTINUOUS
 62
     7
 10
281.14
 20
5.0
 30
0.0
 11
281.14
 21
60.25
 31
0.0
  0
LINE
  5
133
  8
0
  6
CONTINUOUS
 62
     7
 10
324.32
 20
60.25
 30
0.0
 11
324.32
 21
5.0
 31
0.0
  0
LINE
  5
134
  8
0
  6
CONTINUOUS
 62
     7
 10
273.52
 20
43.25
 30
0.0
 11
273.52
 21
5.0
 31
0.0
  0
LINE
  5
135
  8
0
  6
CONTINUOUS
 62
     7
 10
290.5491845626
 20
22.0
 30
0.0
 11
290.5491845626
 21
43.25
 31
0.0
  0
LINE
  5
136
  8
0
  6
CONTINUOUS
 62
     7
 10
281.14
 20
13.5
 30
0.0
 11
227.8
 21
13.5
 31
0.0
  0
LINE
  5
137
  8
0
  6
CONTINUOUS
 62
     7
 10
306.6969257405
 20
43.25
 30
0.0
 11
306.6969257405
 21
22.0
 31
0.0
  0
LINE
  5
138
  8
0
  6
CONTINUOUS
 62
     7
 10
368.48
 20
5.0
 30
0.0
 11
368.48
 21
9.25
 31
0.0
  0
LINE
  5
139
  8
0
  6
CONTINUOUS
 62
     7
 10
376.28
 20
53.875
 30
0.0
 11
376.28
 21
60.25
 31
0.0
  0
LINE
  5
13A
  8
0
  6
CONTINUOUS
 62
     7
 10
227.8
 20
9.23
 30
0.0
 11
281.14
 21
9.23
 31
0.0
  0
LINE
  5
13B
  8
0
  6
CONTINUOUS
 62
     7
 10
399.68
 20
9.25
 30
0.0
 11
399.68
 21
22.0
 31
0.0
  0
LINE
  5
13C
  8
0
  6
CONTINUOUS
 62
     7
 10
415.0
 20
53.875
 30
0.0
 11
324.32
 21
53.875
 31
0.0
  0
LINE
  5
13D
  8
0
  6
CONTINUOUS
 62
     7
 10
415.0
 20
5.0
 30
0.0
 11
415.0
 21
60.25
 31
0.0
  0
LINE
  5
13E
  8
0
  6
CONTINUOUS
 62
     7
 10
227.8
 20
5.0
 30
0.0
 11
415.0
 21
5.0
 31
0.0
  0
LINE
  5
13F
  8
0
  6
CONTINUOUS
 62
     7
 10
281.14
 20
17.75
 30
0.0
 11
227.8
 21
17.75
 31
0.0
  0
LINE
  5
140
  8
0
  6
CONTINUOUS
 62
     7
 10
281.14
 20
22.0
 30
0.0
 11
227.8
 21
22.0
 31
0.0
  0
LINE
  5
141
  8
0
  6
CONTINUOUS
 62
     7
 10
324.32
 20
26.25
 30
0.0
 11
227.8
 21
26.25
 31
0.0
  0
LINE
  5
142
  8
0
  6
CONTINUOUS
 62
     7
 10
324.32
 20
30.5
 30
0.0
 11
227.8
 21
30.5
 31
0.0
  0
LINE
  5
143
  8
0
  6
CONTINUOUS
 62
     7
 10
324.32
 20
34.75
 30
0.0
 11
227.8
 21
34.75
 31
0.0
  0
LINE
  5
144
  8
0
  6
CONTINUOUS
 62
     7
 10
324.32
 20
38.9447711707
 30
0.0
 11
281.14
 21
38.9447711707
 31
0.0
  0
LINE
  5
145
  8
0
  6
CONTINUOUS
 62
     7
 10
415.0
 20
13.5
 30
0.0
 11
399.68
 21
13.5
 31
0.0
  0
LINE
  5
146
  8
0
  6
CONTINUOUS
 62
     7
 10
324.32
 20
9.23
 30
0.0
 11
415.0
 21
9.23
 31
0.0
  0
LINE
  5
147
  8
0
  6
CONTINUOUS
 62
     7
 10
222.8
 20
5.0
 30
0.0
 11
227.8
 21
5.0
 31
0.0
  0
LINE
  5
148
  8
0
  6
CONTINUOUS
 62
     7
 10
415.0
 20
292.0
 30
0.0
 11
5.0
 21
292.0
 31
0.0
  0
LINE
  5
149
  8
0
  6
CONTINUOUS
 62
     7
 10
410.0
 20
287.0
 30
0.0
 11
10.0
 21
287.0
 31
0.0
  0
LINE
  5
14A
  8
0
  6
CONTINUOUS
 62
     7
 10
5.0
 20
292.0
 30
0.0
 11
5.0
 21
5.0
 31
0.0
  0
LINE
  5
14B
  8
0
  6
CONTINUOUS
 62
     7
 10
10.0
 20
287.0
 30
0.0
 11
10.0
 21
10.0
 31
0.0
  0
LINE
  5
14C
  8
0
  6
CONTINUOUS
 62
     7
 10
10.0
 20
48.5
 30
0.0
 11
5.0
 21
48.5
 31
0.0
  0
LINE
  5
14D
  8
0
  6
CONTINUOUS
 62
     7
 10
5.0
 20
98.5
 30
0.0
 11
10.0
 21
98.5
 31
0.0
  0
LINE
  5
14E
  8
0
  6
CONTINUOUS
 62
     7
 10
5.0
 20
198.5
 30
0.0
 11
10.0
 21
198.5
 31
0.0
  0
LINE
  5
14F
  8
0
  6
CONTINUOUS
 62
     7
 10
5.0
 20
148.5
 30
0.0
 11
15.0
 21
148.5
 31
0.0
  0
LINE
  5
150
  8
0
  6
CONTINUOUS
 62
     7
 10
5.0
 20
5.0
 30
0.0
 11
227.8
 21
5.0
 31
0.0
  0
LINE
  5
151
  8
0
  6
CONTINUOUS
 62
     7
 10
10.0
 20
10.0
 30
0.0
 11
227.8
 21
10.0
 31
0.0
  0
LINE
  5
152
  8
0
  6
CONTINUOUS
 62
     7
 10
60.0
 20
5.0
 30
0.0
 11
60.0
 21
10.0
 31
0.0
  0
LINE
  5
153
  8
0
  6
CONTINUOUS
 62
     7
 10
110.0
 20
10.0
 30
0.0
 11
110.0
 21
5.0
 31
0.0
  0
LINE
  5
154
  8
0
  6
CONTINUOUS
 62
     7
 10
160.0
 20
5.0
 30
0.0
 11
160.0
 21
10.0
 31
0.0
  0
LINE
  5
155
  8
0
  6
CONTINUOUS
 62
     7
 10
10.0
 20
248.5
 30
0.0
 11
5.0
 21
248.5
 31
0.0
  0
LINE
  5
156
  8
0
  6
CONTINUOUS
 62
     7
 10
60.0
 20
287.0
 30
0.0
 11
60.0
 21
292.0
 31
0.0
  0
LINE
  5
157
  8
0
  6
CONTINUOUS
 62
     7
 10
110.0
 20
292.0
 30
0.0
 11
110.0
 21
287.0
 31
0.0
  0
LINE
  5
158
  8
0
  6
CONTINUOUS
 62
     7
 10
160.0
 20
287.0
 30
0.0
 11
160.0
 21
292.0
 31
0.0
  0
LINE
  5
159
  8
0
  6
CONTINUOUS
 62
     7
 10
260.0
 20
287.0
 30
0.0
 11
260.0
 21
292.0
 31
0.0
  0
LINE
  5
15A
  8
0
  6
CONTINUOUS
 62
     7
 10
415.0
 20
60.25
 30
0.0
 11
415.0
 21
292.0
 31
0.0
  0
LINE
  5
15B
  8
0
  6
CONTINUOUS
 62
     7
 10
210.0
 20
5.0
 30
0.0
 11
210.0
 21
15.0
 31
0.0
  0
LINE
  5
15C
  8
0
  6
CONTINUOUS
 62
     7
 10
410.0
 20
198.5
 30
0.0
 11
415.0
 21
198.5
 31
0.0
  0
LINE
  5
15D
  8
0
  6
CONTINUOUS
 62
     7
 10
410.0
 20
98.5
 30
0.0
 11
415.0
 21
98.5
 31
0.0
  0
LINE
  5
15E
  8
0
  6
CONTINUOUS
 62
     7
 10
415.0
 20
148.5
 30
0.0
 11
405.0
 21
148.5
 31
0.0
  0
LINE
  5
15F
  8
0
  6
CONTINUOUS
 62
     7
 10
310.0
 20
292.0
 30
0.0
 11
310.0
 21
287.0
 31
0.0
  0
LINE
  5
160
  8
0
  6
CONTINUOUS
 62
     7
 10
360.0
 20
287.0
 30
0.0
 11
360.0
 21
292.0
 31
0.0
  0
LINE
  5
161
  8
0
  6
CONTINUOUS
 62
     7
 10
210.0
 20
292.0
 30
0.0
 11
210.0
 21
282.0
 31
0.0
  0
LINE
  5
162
  8
0
  6
CONTINUOUS
 62
     7
 10
415.0
 20
248.5
 30
0.0
 11
410.0
 21
248.5
 31
0.0
  0
INSERT
  5
163
  8
0
  6
CONTINUOUS
 62
     7
  2
BREUER_UND_SCHMITZ_LOGO
 10
282.531794755
 20
46.2964514764
 30
0.0
 41
0.8
 42
0.8
 43
0.8
  0
TEXT
  5
164
  8
0
  6
CONTINUOUS
 62
     7
 10
292.7696019842
 20
35.4759265973
 30
0.0
 40
2.1166666667
  1
10.1.21
 41
0.7
 11
292.7696019842
 21
34.7281927996
 31
0.0
 73
     1
  0
TEXT
  5
165
  8
0
  6
CONTINUOUS
 62
     7
 10
309.0934893453
 20
36.3868066109
 30
0.0
 40
2.1166666667
  1
Hammad
 41
0.7
 11
309.0934893453
 21
35.6390728132
 31
0.0
 73
     1
  0
TEXT
  5
166
  8
0
  6
CONTINUOUS
 62
     7
 10
6.6666666667
 20
122.9348266002
 30
0.0
 40
1.8520833333
  1
D
 41
0.7
 11
6.6666666667
 21
122.2805595272
 31
0.0
 73
     1
  0
TEXT
  5
167
  8
0
  6
CONTINUOUS
 62
     7
 10
6.6666666667
 20
72.9348266002
 30
0.0
 40
1.8520833333
  1
E
 41
0.7
 11
6.6666666667
 21
72.2805595272
 31
0.0
 73
     1
  0
TEXT
  5
168
  8
0
  6
CONTINUOUS
 62
     7
 10
6.6666666667
 20
22.9348266002
 30
0.0
 40
1.8520833333
  1
F
 41
0.7
 11
6.6666666667
 21
22.2805595272
 31
0.0
 73
     1
  0
TEXT
  5
169
  8
0
  6
CONTINUOUS
 62
     7
 10
6.6666666667
 20
172.9348266002
 30
0.0
 40
1.8520833333
  1
C
 41
0.7
 11
6.6666666667
 21
172.2805595272
 31
0.0
 73
     1
  0
TEXT
  5
16A
  8
0
  6
CONTINUOUS
 62
     7
 10
34.5833333333
 20
6.9348306002
 30
0.0
 40
1.8520833333
  1
1
 41
0.7
 11
34.5833333333
 21
6.2805635272
 31
0.0
 73
     1
  0
TEXT
  5
16B
  8
0
  6
CONTINUOUS
 62
     7
 10
84.1666666667
 20
6.9348306002
 30
0.0
 40
1.8520833333
  1
2
 41
0.7
 11
84.1666666667
 21
6.2805635272
 31
0.0
 73
     1
  0
TEXT
  5
16C
  8
0
  6
CONTINUOUS
 62
     7
 10
134.1666666667
 20
6.9348306002
 30
0.0
 40
1.8520833333
  1
3
 41
0.7
 11
134.1666666667
 21
6.2805635272
 31
0.0
 73
     1
  0
TEXT
  5
16D
  8
0
  6
CONTINUOUS
 62
     7
 10
184.1666666667
 20
6.9348306002
 30
0.0
 40
1.8520833333
  1
4
 41
0.7
 11
184.1666666667
 21
6.2805635272
 31
0.0
 73
     1
  0
TEXT
  5
16E
  8
0
  6
CONTINUOUS
 62
     7
 10
6.6666666667
 20
222.9348266002
 30
0.0
 40
1.8520833333
  1
B
 41
0.7
 11
6.6666666667
 21
222.2805595272
 31
0.0
 73
     1
  0
TEXT
  5
16F
  8
0
  6
CONTINUOUS
 62
     7
 10
6.6666666667
 20
272.9348266002
 30
0.0
 40
1.8520833333
  1
A
 41
0.7
 11
6.6666666667
 21
272.2805595272
 31
0.0
 73
     1
  0
TEXT
  5
170
  8
0
  6
CONTINUOUS
 62
     7
 10
134.1666666667
 20
288.9348306002
 30
0.0
 40
1.8520833333
  1
3
 41
0.7
 11
134.1666666667
 21
288.2805635272
 31
0.0
 73
     1
  0
TEXT
  5
171
  8
0
  6
CONTINUOUS
 62
     7
 10
84.1666666667
 20
288.9348306002
 30
0.0
 40
1.8520833333
  1
2
 41
0.7
 11
84.1666666667
 21
288.2805635272
 31
0.0
 73
     1
  0
TEXT
  5
172
  8
0
  6
CONTINUOUS
 62
     7
 10
34.5833333333
 20
288.9348306002
 30
0.0
 40
1.8520833333
  1
1
 41
0.7
 11
34.5833333333
 21
288.2805635272
 31
0.0
 73
     1
  0
TEXT
  5
173
  8
0
  6
CONTINUOUS
 62
     7
 10
234.1666666667
 20
288.9348306002
 30
0.0
 40
1.8520833333
  1
5
 41
0.7
 11
234.1666666667
 21
288.2805635272
 31
0.0
 73
     1
  0
TEXT
  5
174
  8
0
  6
CONTINUOUS
 62
     7
 10
411.6666666667
 20
172.9348266002
 30
0.0
 40
1.8520833333
  1
C
 41
0.7
 11
411.6666666667
 21
172.2805595272
 31
0.0
 73
     1
  0
TEXT
  5
175
  8
0
  6
CONTINUOUS
 62
     7
 10
411.6666666667
 20
122.9348266002
 30
0.0
 40
1.8520833333
  1
D
 41
0.7
 11
411.6666666667
 21
122.2805595272
 31
0.0
 73
     1
  0
TEXT
  5
176
  8
0
  6
CONTINUOUS
 62
     7
 10
184.1666666667
 20
288.9348306002
 30
0.0
 40
1.8520833333
  1
4
 41
0.7
 11
184.1666666667
 21
288.2805635272
 31
0.0
 73
     1
  0
TEXT
  5
177
  8
0
  6
CONTINUOUS
 62
     7
 10
284.1666666667
 20
288.9348306002
 30
0.0
 40
1.8520833333
  1
6
 41
0.7
 11
284.1666666667
 21
288.2805635272
 31
0.0
 73
     1
  0
TEXT
  5
178
  8
0
  6
CONTINUOUS
 62
     7
 10
334.1666666667
 20
288.9348306002
 30
0.0
 40
1.8520833333
  1
7
 41
0.7
 11
334.1666666667
 21
288.2805635272
 31
0.0
 73
     1
  0
TEXT
  5
179
  8
0
  6
CONTINUOUS
 62
     7
 10
384.1666666667
 20
288.9348306002
 30
0.0
 40
1.8520833333
  1
8
 41
0.7
 11
384.1666666667
 21
288.2805635272
 31
0.0
 73
     1
  0
TEXT
  5
17A
  8
0
  6
CONTINUOUS
 62
     7
 10
411.6666666667
 20
272.9348266002
 30
0.0
 40
1.8520833333
  1
A
 41
0.7
 11
411.6666666667
 21
272.2805595272
 31
0.0
 73
     1
  0
TEXT
  5
17B
  8
0
  6
CONTINUOUS
 62
     7
 10
411.6666666667
 20
222.9348266002
 30
0.0
 40
1.8520833333
  1
B
 41
0.7
 11
411.6666666667
 21
222.2805595272
 31
0.0
 73
     1
  0
TEXT
  5
17C
  8
0
  6
CONTINUOUS
 62
     7
 10
325.8260642912
 20
31.8991350896
 30
0.0
 40
3.5
  1
RD BB 807
 41
0.6222222222
 11
325.8260642912
 21
30.6627248729
 31
0.0
 73
     1
  0
TEXT
  5
17D
  8
0
  6
CONTINUOUS
 62
     7
 10
228.6542475233
 20
5.8405442472
 30
0.0
 40
2.0
  1
Zust.
 41
0.7
 11
228.6542475233
 21
5.1340241233
 31
0.0
 73
     1
  0
TEXT
  5
17E
  8
0
  6
CONTINUOUS
 62
     7
 10
242.3236265502
 20
5.8405442472
 30
0.0
 40
2.0
  1
Änderung
 41
0.7
 11
242.3236265502
 21
5.1340241233
 31
0.0
 73
     1
  0
TEXT
  5
17F
  8
0
  6
CONTINUOUS
 62
     7
 10
273.7487245318
 20
5.8293213552
 30
0.0
 40
2.0
  1
Name
 41
0.7
 11
273.7487245318
 21
5.1228012314
 31
0.0
 73
     1
  0
TEXT
  5
180
  8
0
  6
CONTINUOUS
 62
     7
 10
281.9346052427
 20
36.0024961334
 30
0.0
 40
2.0
  1
Bearb.
 41
0.7
 11
281.9346052427
 21
35.2959760096
 31
0.0
 73
     1
  0
TEXT
  5
181
  8
0
  6
CONTINUOUS
 62
     7
 10
282.5538425523
 20
31.8123005822
 30
0.0
 40
2.0
  1
Gepr.
 41
0.7
 11
282.5538425523
 21
31.1057804584
 31
0.0
 73
     1
  0
TEXT
  5
182
  8
0
  6
CONTINUOUS
 62
     7
 10
282.568021583
 20
27.5024931334
 30
0.0
 40
2.0
  1
Norm
 41
0.7
 11
282.568021583
 21
26.7959730096
 31
0.0
 73
     1
  0
INSERT
  5
188
  8
0
  6
CONTINUOUS
 62
     7
  2
SW_NOTE_0
 10
326.1421941634
 20
54.7004161895
 30
0.0
  0
TEXT
  5
189
  8
0
  6
CONTINUOUS
 62
     7
 10
293.8208978724
 20
40.2378571451
 30
0.0
 40
2.0
  1
Datum
 41
0.7
 11
293.8208978724
 21
39.5313370213
 31
0.0
 73
     1
  0
TEXT
  5
18A
  8
0
  6
CONTINUOUS
 62
     7
 10
310.9758605414
 20
40.2399684874
 30
0.0
 40
2.0
  1
Name
 41
0.7
 11
310.9758605414
 21
39.5334483635
 31
0.0
 73
     1
  0
TEXT
  5
18B
  8
0
  6
CONTINUOUS
 62
     7
 10
400.679992
 20
18.8834825574
 30
0.0
 40
2.5
  1
Blatt
 41
0.7
 11
400.679992
 21
18.0003324026
 31
0.0
 73
     1
  0
TEXT
  5
18C
  8
0
  6
CONTINUOUS
 62
     7
 10
401.6114022462
 20
14.9434680153
 30
0.0
 40
2.0
  1
1 (A3)
 41
0.7
 11
401.6114022462
 21
14.2369478915
 31
0.0
 73
     1
  0
TEXT
  5
18D
  8
0
  6
CONTINUOUS
 62
     7
 10
401.6114022462
 20
10.7163935227
 30
0.0
 40
2.0
  1
1 von 1
 41
0.6
 11
401.6114022462
 21
10.0098733989
 31
0.0
 73
     1
  0
TEXT
  5
18E
  8
0
  6
CONTINUOUS
 62
     7
 10
325.769379396
 20
6.0126746831
 30
0.0
 40
2.0
  1
Ers. für:
 41
0.7
 11
325.769379396
 21
5.3061545592
 31
0.0
 73
     1
  0
TEXT
  5
18F
  8
0
  6
CONTINUOUS
 62
     7
 10
369.3744127484
 20
6.1456631557
 30
0.0
 40
2.0
  1
Ers. durch: 
 41
0.6416666667
 11
369.3744127484
 21
5.4391430318
 31
0.0
 73
     1
  0
TEXT
  5
190
  8
0
  6
CONTINUOUS
 62
     7
 10
325.8260642912
 20
38.8860690348
 30
0.0
 40
2.5
  1
Benennung:
 41
0.7
 11
325.8260642912
 21
38.00291888
 31
0.0
 73
     1
  0
TEXT
  5
191
  8
0
  6
CONTINUOUS
 62
     7
 10
326.3720674831
 20
17.4450861174
 30
0.0
 40
2.5
  1
ZEICHNUNGSNR.   ZK 10883
 41
0.6416666667
 11
326.3720674831
 21
16.5619359626
 31
0.0
 73
     1
  0
TEXT
  5
192
  8
0
  6
CONTINUOUS
 62
     7
 10
326.4245832263
 20
11.7244404863
 30
0.0
 40
2.5
  1
TEILENUMMER   AR002/SCH028
 41
0.6596153846
 11
326.4245832263
 21
10.8412903315
 31
0.0
 73
     1
  0
TEXT
  5
193
  8
0
  6
CONTINUOUS
 62
     7
 10
325.8260642912
 20
25.5459479208
 30
0.0
 40
3.5
  1
3x3" (75x75mm)
 41
0.7
 11
325.8260642912
 21
24.3095377041
 31
0.0
 73
     1
  0
TEXT
  5
194
  8
0
  6
CONTINUOUS
 62
     7
 10
263.2346620132
 20
5.8293213552
 30
0.0
 40
2.0
  1
Datum
 41
0.7
 11
263.2346620132
 21
5.1228012314
 31
0.0
 73
     1
  0
INSERT
  5
19C
  8
0
  6
CONTINUOUS
 62
     7
  2
SW_NOTE_0_1
 10
290.4226877706
 20
16.7269093507
 30
0.0
  0
INSERT
  5
1A6
  8
0
  6
CONTINUOUS
 62
     7
  2
SW_NOTE_0_2
 10
230.3638616607
 20
56.9426173561
 30
0.0
  0
TEXT
  5
1A7
  8
0
  6
CONTINUOUS
 62
     7
 10
380.8494930471
 20
55.6933776061
 30
0.0
 40
3.5
  1
ISO2768-m-K
 41
0.7
 11
380.8494930471
 21
54.4569673894
 31
0.0
 73
     1
  0
TEXT
  5
1A8
  8
0
  6
CONTINUOUS
 62
     7
 10
326.1548865668
 20
50.1794325104
 30
0.0
 40
2.5
  1
Material:
 41
0.7
 11
326.1548865668
 21
49.2962823556
 31
0.0
 73
     1
  0
ARC
  5
1A9
  8
0
  6
CENTERX2
 62
     7
 10
91.883414248
 20
216.2227969543
 30
0.0
 40
10.00000000000001
 50
90.0
 51
180.0
  0
ARC
  5
1AA
  8
0
  6
CENTERX2
 62
     7
 10
91.883414248
 20
161.2227969543
 30
0.0
 40
10.00000000000001
 50
180.0
 51
270.0
  0
ARC
  5
1AB
  8
0
  6
CENTERX2
 62
     7
 10
146.883414248
 20
161.1227969543
 30
0.0
 40
10.0
 50
270.0
 51
0.0
  0
ARC
  5
1AC
  8
0
  6
CENTERX2
 62
     7
 10
146.883414248
 20
216.1227969543
 30
0.0
 40
10.0
 50
0.0
 51
90.0
  0
LINE
  5
1AD
  8
0
  6
CONTINUOUS
 62
     7
 10
127.383414628
 20
186.7227968593
 30
0.0
 11
127.383414628
 21
190.7227970493
 31
0.0
  0
LINE
  5
1AE
  8
0
  6
CONTINUOUS
 62
     7
 10
111.383413868
 20
190.7227970493
 30
0.0
 11
111.383413868
 21
186.7227968593
 31
0.0
  0
LINE
  5
1AF
  8
0
  6
CONTINUOUS
 62
     7
 10
127.383414628
 20
148.6227961556
 30
0.0
 11
127.383414628
 21
151.1227974967
 31
0.0
  0
LINE
  5
1B0
  8
0
  6
CONTINUOUS
 62
     7
 10
111.383413868
 20
151.1227974967
 30
0.0
 11
111.383413868
 21
148.6227961556
 31
0.0
  0
LINE
  5
1B1
  8
0
  6
CONTINUOUS
 62
     7
 10
111.383413868
 20
228.7227960602
 30
0.0
 11
111.383413868
 21
226.2227984444
 31
0.0
  0
LINE
  5
1B2
  8
0
  6
CONTINUOUS
 62
     7
 10
127.383414628
 20
226.2227984444
 30
0.0
 11
127.383414628
 21
228.7227960602
 31
0.0
  0
LINE
  5
1B3
  8
0
  6
CONTINUOUS
 62
     7
 10
114.3834143598
 20
186.7227968593
 30
0.0
 11
114.3834143598
 21
186.6227970292
 31
0.0
  0
LINE
  5
1B4
  8
0
  6
CONTINUOUS
 62
     7
 10
124.3834141362
 20
186.6227970292
 30
0.0
 11
124.3834141362
 21
186.7227968593
 31
0.0
  0
LINE
  5
1B5
  8
0
  6
CONTINUOUS
 62
     7
 10
127.2834138665
 20
190.7227970493
 30
0.0
 11
127.2834138665
 21
226.2227984444
 31
0.0
  0
LINE
  5
1B6
  8
0
  6
CONTINUOUS
 62
     7
 10
111.4834146295
 20
226.0779926852
 30
0.0
 11
111.4834146295
 21
190.8442091496
 31
0.0
  0
LINE
  5
1B7
  8
0
  6
CONTINUOUS
 62
     7
 10
111.4834146295
 20
186.6227970292
 30
0.0
 11
111.4834146295
 21
151.1227974967
 31
0.0
  0
LINE
  5
1B8
  8
0
  6
CONTINUOUS
 62
     7
 10
127.2834138665
 20
151.2676032559
 30
0.0
 11
127.2834138665
 21
186.5013849289
 31
0.0
  0
LINE
  5
1B9
  8
0
  6
CONTINUOUS
 62
     7
 10
126.5216939803
 20
186.7227968593
 30
0.0
 11
127.383414628
 21
186.7227968593
 31
0.0
  0
LINE
  5
1BA
  8
0
  6
CONTINUOUS
 62
     7
 10
111.383413868
 20
186.7227968593
 30
0.0
 11
126.5216939803
 21
186.7227968593
 31
0.0
  0
LINE
  5
1BB
  8
0
  6
CONTINUOUS
 62
     7
 10
126.5216939803
 20
190.7227970493
 30
0.0
 11
127.383414628
 21
190.7227970493
 31
0.0
  0
LINE
  5
1BC
  8
0
  6
CONTINUOUS
 62
     7
 10
111.383413868
 20
190.7227970493
 30
0.0
 11
126.5216939803
 21
190.7227970493
 31
0.0
  0
LINE
  5
1BD
  8
0
  6
CONTINUOUS
 62
     7
 10
112.6835928019
 20
148.6227961556
 30
0.0
 11
111.383413868
 21
148.6227961556
 31
0.0
  0
LINE
  5
1BE
  8
0
  6
CONTINUOUS
 62
     7
 10
127.383414628
 20
148.6227961556
 30
0.0
 11
112.6835928019
 21
148.6227961556
 31
0.0
  0
LINE
  5
1BF
  8
0
  6
CONTINUOUS
 62
     7
 10
112.6835928019
 20
151.1227974967
 30
0.0
 11
111.383413868
 21
151.1227974967
 31
0.0
  0
LINE
  5
1C0
  8
0
  6
CONTINUOUS
 62
     7
 10
127.383414628
 20
151.1227974967
 30
0.0
 11
112.6835928019
 21
151.1227974967
 31
0.0
  0
LINE
  5
1C1
  8
0
  6
CONTINUOUS
 62
     7
 10
111.383413868
 20
226.2227984444
 30
0.0
 11
127.383414628
 21
226.2227984444
 31
0.0
  0
LINE
  5
1C2
  8
0
  6
CONTINUOUS
 62
     7
 10
111.383413868
 20
228.7227960602
 30
0.0
 11
127.383414628
 21
228.7227960602
 31
0.0
  0
LINE
  5
1C3
  8
0
  6
CONTINUOUS
 62
     7
 10
111.4937150571
 20
190.8442091496
 30
0.0
 11
111.5095577855
 21
190.7227970493
 31
0.0
  0
LINE
  5
1C4
  8
0
  6
CONTINUOUS
 62
     7
 10
111.5095577855
 20
226.2227984444
 30
0.0
 11
111.4961188007
 21
226.0779926852
 31
0.0
  0
LINE
  5
1C5
  8
0
  6
CONTINUOUS
 62
     7
 10
109.1582476813
 20
226.2227984444
 30
0.0
 11
110.872658873
 21
226.2227984444
 31
0.0
  0
LINE
  5
1C6
  8
0
  6
CONTINUOUS
 62
     7
 10
110.872658873
 20
226.2227984444
 30
0.0
 11
110.872658873
 21
190.6796560922
 31
0.0
  0
ARC
  5
1C7
  8
0
  6
CONTINUOUS
 62
     7
 10
111.6049997557
 20
187.3234873156
 30
0.0
 40
3.435140757751877
 50
102.3094152634
 51
135.420013956
  0
LINE
  5
1C8
  8
0
  6
CONTINUOUS
 62
     7
 10
109.1582476813
 20
226.2227984444
 30
0.0
 11
109.1582476813
 21
189.7346273596
 31
0.0
  0
CIRCLE
  5
1C9
  8
0
  6
CONTINUOUS
 62
     7
 10
98.383414248
 20
160.2227969543
 30
0.0
 40
4.5
  0
CIRCLE
  5
1CA
  8
0
  6
CONTINUOUS
 62
     7
 10
88.383414248
 20
188.7227969543
 30
0.0
 40
4.5
  0
CIRCLE
  5
1CB
  8
0
  6
CONTINUOUS
 62
     7
 10
98.383414248
 20
217.2227969543
 30
0.0
 40
4.5
  0
ARC
  5
1CC
  8
0
  6
CONTINUOUS
 62
     7
 10
83.883414248
 20
224.2227969543
 30
0.0
 40
2.000000000000014
 50
90.0
 51
180.0
  0
LINE
  5
1CD
  8
0
  6
CONTINUOUS
 62
     7
 10
109.1582476813
 20
226.2227984444
 30
0.0
 11
83.8834130857
 21
226.2227984444
 31
0.0
  0
ARC
  5
1CE
  8
0
  6
CONTINUOUS
 62
     7
 10
110.883414248
 20
188.7227969543
 30
0.0
 40
2.0
 50
149.6078770472
 51
180.0
  0
LINE
  5
1CF
  8
0
  6
CONTINUOUS
 62
     7
 10
108.8834143896
 20
188.7227969543
 30
0.0
 11
108.8834143896
 21
153.222795792
 31
0.0
  0
ARC
  5
1D0
  8
0
  6
CONTINUOUS
 62
     7
 10
106.883414248
 20
153.2227969543
 30
0.0
 40
2.0
 50
270.0
 51
0.0
  0
LINE
  5
1D1
  8
0
  6
CONTINUOUS
 62
     7
 10
106.8834140617
 20
151.2227954642
 30
0.0
 11
83.8834130857
 21
151.2227954642
 31
0.0
  0
ARC
  5
1D2
  8
0
  6
CONTINUOUS
 62
     7
 10
83.883414248
 20
153.2227969543
 30
0.0
 40
2.000000000000014
 50
180.0
 51
270.0
  0
LINE
  5
1D3
  8
0
  6
CONTINUOUS
 62
     7
 10
81.8834127579
 20
224.2227981166
 30
0.0
 11
81.8834127579
 21
153.222795792
 31
0.0
  0
CIRCLE
  5
1D4
  8
0
  6
CONTINUOUS
 62
     7
 10
98.383414248
 20
160.2227969543
 30
0.0
 40
2.75
  0
CIRCLE
  5
1D5
  8
0
  6
CONTINUOUS
 62
     7
 10
98.383414248
 20
217.2227969543
 30
0.0
 40
2.75
  0
CIRCLE
  5
1D6
  8
0
  6
CONTINUOUS
 62
     7
 10
88.383414248
 20
188.7227969543
 30
0.0
 40
2.75
  0
ARC
  5
1D7
  8
0
  6
CONTINUOUS
 62
     7
 10
111.2463077336
 20
189.0831199017
 30
0.0
 40
1.639677187309923
 50
90.0126076549
 51
103.1722626676
  0
LINE
  5
1D8
  8
0
  6
CONTINUOUS
 62
     7
 10
111.383413868
 20
226.2227984444
 30
0.0
 11
110.872658873
 21
226.2227984444
 31
0.0
  0
LINE
  5
1D9
  8
0
  6
CONTINUOUS
 62
     7
 10
111.383413868
 20
190.7227970493
 30
0.0
 11
111.2459469307
 21
190.7227970493
 31
0.0
  0
LINE
  5
1DA
  8
0
  6
CONTINUOUS
 62
     7
 10
127.2731134389
 20
186.5013849289
 30
0.0
 11
127.2572707105
 21
186.6227970292
 31
0.0
  0
LINE
  5
1DB
  8
0
  6
CONTINUOUS
 62
     7
 10
127.2572707105
 20
151.1227974967
 30
0.0
 11
127.2707096953
 21
151.2676032559
 31
0.0
  0
LINE
  5
1DC
  8
0
  6
CONTINUOUS
 62
     7
 10
127.2572707105
 20
186.6227970292
 30
0.0
 11
111.4834146295
 21
186.6227970292
 31
0.0
  0
CIRCLE
  5
1DD
  8
0
  6
CONTINUOUS
 62
     7
 10
140.383414248
 20
217.1227969543
 30
0.0
 40
4.5
  0
CIRCLE
  5
1DE
  8
0
  6
CONTINUOUS
 62
     7
 10
150.383414248
 20
188.6227969543
 30
0.0
 40
4.5
  0
CIRCLE
  5
1DF
  8
0
  6
CONTINUOUS
 62
     7
 10
140.383414248
 20
160.1227969543
 30
0.0
 40
4.5
  0
ARC
  5
1E0
  8
0
  6
CONTINUOUS
 62
     7
 10
154.883414248
 20
153.1227969543
 30
0.0
 40
2.0
 50
270.0
 51
0.0
  0
LINE
  5
1E1
  8
0
  6
CONTINUOUS
 62
     7
 10
129.6085808147
 20
151.1227974967
 30
0.0
 11
154.8834154103
 21
151.1227974967
 31
0.0
  0
LINE
  5
1E2
  8
0
  6
CONTINUOUS
 62
     7
 10
129.6085808147
 20
151.1227974967
 30
0.0
 11
129.6085808147
 21
187.6109666024
 31
0.0
  0
ARC
  5
1E3
  8
0
  6
CONTINUOUS
 62
     7
 10
127.883414248
 20
188.6227969543
 30
0.0
 40
2.000000000000005
 50
329.6078770472
 51
0.0
  0
LINE
  5
1E4
  8
0
  6
CONTINUOUS
 62
     7
 10
129.8834141064
 20
188.6227969568
 30
0.0
 11
129.8834141064
 21
224.1227964238
 31
0.0
  0
ARC
  5
1E5
  8
0
  6
CONTINUOUS
 62
     7
 10
131.883414248
 20
224.1227969543
 30
0.0
 40
2.0
 50
90.0
 51
180.0
  0
LINE
  5
1E6
  8
0
  6
CONTINUOUS
 62
     7
 10
131.8834144343
 20
226.1227967517
 30
0.0
 11
154.8834154103
 21
226.1227967517
 31
0.0
  0
ARC
  5
1E7
  8
0
  6
CONTINUOUS
 62
     7
 10
154.883414248
 20
224.1227969543
 30
0.0
 40
2.0
 50
0.0
 51
90.0
  0
LINE
  5
1E8
  8
0
  6
CONTINUOUS
 62
     7
 10
156.8834157381
 20
153.1227978245
 30
0.0
 11
156.8834157381
 21
224.1227964238
 31
0.0
  0
LINE
  5
1E9
  8
0
  6
CONTINUOUS
 62
     7
 10
129.6085808147
 20
151.1227974967
 30
0.0
 11
127.894169623
 21
151.1227974967
 31
0.0
  0
LINE
  5
1EA
  8
0
  6
CONTINUOUS
 62
     7
 10
127.894169623
 20
151.1227974967
 30
0.0
 11
127.894169623
 21
186.6659377535
 31
0.0
  0
ARC
  5
1EB
  8
0
  6
CONTINUOUS
 62
     7
 10
127.1618280562
 20
190.0221074742
 30
0.0
 40
3.435141826001705
 50
282.3094230549
 51
315.4200121323
  0
CIRCLE
  5
1EC
  8
0
  6
CONTINUOUS
 62
     7
 10
150.383414248
 20
188.6227969543
 30
0.0
 40
2.75
  0
CIRCLE
  5
1ED
  8
0
  6
CONTINUOUS
 62
     7
 10
140.383414248
 20
160.1227969543
 30
0.0
 40
2.749999999999972
  0
CIRCLE
  5
1EE
  8
0
  6
CONTINUOUS
 62
     7
 10
140.383414248
 20
217.1227969543
 30
0.0
 40
2.75
  0
ARC
  5
1EF
  8
0
  6
CONTINUOUS
 62
     7
 10
127.5205242531
 20
188.2624525888
 30
0.0
 40
1.639655598555206
 50
270.0124858419
 51
283.1723139486
  0
LINE
  5
1F0
  8
0
  6
CONTINUOUS
 62
     7
 10
127.383414628
 20
151.1227974967
 30
0.0
 11
127.894169623
 21
151.1227974967
 31
0.0
  0
LINE
  5
1F1
  8
0
  6
CONTINUOUS
 62
     7
 10
127.2572707105
 20
186.6227970292
 30
0.0
 11
127.5208815653
 21
186.6227970292
 31
0.0
  0
DIMENSION
  5
1F2
  8
0
  6
CONTINUOUS
 62
     7
  2
_D
 10
64.883414248
 20
151.2227969543
 30
0.0
 11
64.883414248
 21
188.7227969543
 31
0.0
 70
   160
  1
<>
  3
SLDDIMSTYLE0
 13
83.883414248
 23
226.2227969543
 33
0.0
 14
83.883414248
 24
151.2227969543
 34
0.0
 50
90.0
  0
DIMENSION
  5
1FD
  8
0
  6
CONTINUOUS
 62
     7
  2
_D_1
 10
156.883414248
 20
238.7227969543
 30
0.0
 11
119.383414248
 21
238.7227969543
 31
0.0
 70
   160
  1
<>
  3
SLDDIMSTYLE0
 13
81.883414248
 23
224.2227969543
 33
0.0
 14
156.883414248
 24
224.1227969543
 34
0.0
  0
DIMENSION
  5
207
  8
0
  6
CONTINUOUS
 62
     7
  2
_D_2
 10
71.883414248
 20
188.7227969543
 30
0.0
 11
71.883414248
 21
202.9727969543
 31
0.0
 70
   160
  1
<>
  3
SLDDIMSTYLE0
 13
98.383414248
 23
217.2227969543
 33
0.0
 14
88.383414248
 24
188.7227969543
 34
0.0
 50
90.0
  0
DIMENSION
  5
211
  8
0
  6
CONTINUOUS
 62
     7
  2
_D_3
 10
71.883414248
 20
160.2227969543
 30
0.0
 11
71.883414248
 21
174.4727969543
 31
0.0
 70
   160
  1
<>
  3
SLDDIMSTYLE0
 13
88.383414248
 23
188.7227969543
 33
0.0
 14
98.383414248
 24
160.2227969543
 34
0.0
 50
90.0
  0
DIMENSION
  5
21B
  8
0
  6
CONTINUOUS
 62
     7
  2
_D_4
 10
81.883414248
 20
138.6227969543
 30
0.0
 11
90.133414248
 21
138.6227969543
 31
0.0
 70
   160
  1
<>
  3
SLDDIMSTYLE1
 13
98.383414248
 23
160.2227969543
 33
0.0
 14
81.883414248
 24
153.2227969543
 34
0.0
  0
DIMENSION
  5
228
  8
0
  6
CONTINUOUS
 62
     7
  2
_D_5
 10
81.883414248
 20
144.8440146479
 30
0.0
 11
85.133414248
 21
144.8440146479
 31
0.0
 70
   160
  1
<>
  3
SLDDIMSTYLE1
 13
88.383414248
 23
188.7227969543
 33
0.0
 14
81.883414248
 24
153.2227969543
 34
0.0
  0
DIMENSION
  5
234
  8
0
  6
CONTINUOUS
 62
     7
  2
_D_6
 10
143.133414248
 20
144.8440146479
 30
0.0
 11
155.8171724143
 21
144.8440146479
 31
0.0
 70
   160
  1
%%c<>
  3
SLDDIMSTYLE1
 13
137.633414248
 23
160.1227969543
 33
0.0
 14
143.133414248
 24
160.1227969543
 34
0.0
  0
DIMENSION
  5
241
  8
0
  6
CONTINUOUS
 62
     7
  2
_D_7
 10
144.883414248
 20
138.6227969543
 30
0.0
 11
155.8171724143
 21
138.6227969543
 31
0.0
 70
   160
  1
%%c<>x90°
  3
SLDDIMSTYLE1
 13
135.883414248
 23
160.1227969543
 33
0.0
 14
144.883414248
 24
160.1227969543
 34
0.0
 50
0.0
  0
INSERT
  5
255
  8
0
  6
CONTINUOUS
 62
     7
  2
SW_NOTE_0_3
 10
156.3968068428
 20
225.430330072
 30
0.0
  0
INSERT
  5
261
  8
0
  6
CONTINUOUS
 62
     7
  2
SW_CENTERMARKSYMBOL_0
 10
140.383414248
 20
217.1227969543
 30
0.0
  0
INSERT
  5
26D
  8
0
  6
CONTINUOUS
 62
     7
  2
SW_CENTERMARKSYMBOL_1
 10
150.383414248
 20
188.6227969543
 30
0.0
  0
INSERT
  5
279
  8
0
  6
CONTINUOUS
 62
     7
  2
SW_CENTERMARKSYMBOL_2
 10
140.383414248
 20
160.1227969543
 30
0.0
  0
INSERT
  5
285
  8
0
  6
CONTINUOUS
 62
     7
  2
SW_CENTERMARKSYMBOL_3
 10
98.383414248
 20
160.2227969543
 30
0.0
  0
INSERT
  5
291
  8
0
  6
CONTINUOUS
 62
     7
  2
SW_CENTERMARKSYMBOL_4
 10
98.383414248
 20
217.2227969543
 30
0.0
  0
INSERT
  5
29D
  8
0
  6
CONTINUOUS
 62
     7
  2
SW_CENTERMARKSYMBOL_5
 10
88.383414248
 20
188.7227969543
 30
0.0
  0
LINE
  5
29E
  8
0
  6
CENTERX2
 62
     7
 10
119.383414248
 20
153.1227969543
 30
0.0
 11
119.383414248
 21
146.6227969543
 31
0.0
  0
LINE
  5
29F
  8
0
  6
CENTERX2
 62
     7
 10
119.383414248
 20
163.4661726273
 30
0.0
 11
119.383414248
 21
226.2227969543
 31
0.0
  0
LINE
  5
2A0
  8
0
  6
CENTERX2
 62
     7
 10
119.383414248
 20
226.2227969543
 30
0.0
 11
119.383414248
 21
230.7227969543
 31
0.0
  0
LINE
  5
2A1
  8
0
  6
CENTERX2
 62
     7
 10
80.0343108058
 20
188.6227969543
 30
0.0
 11
161.2028901208
 21
188.6227969543
 31
0.0
  0
CIRCLE
  5
2A2
  8
0
  6
CONTINUOUS
 62
     7
 10
119.383414248
 20
61.3712548836
 30
0.0
 40
7.999999999999997
  0
LINE
  5
2A3
  8
0
  6
CONTINUOUS
 62
     7
 10
109.5868507121
 20
65.4677619784
 30
0.0
 11
110.872658873
 21
62.7572827832
 31
0.0
  0
LINE
  5
2A4
  8
0
  6
CONTINUOUS
 62
     7
 10
111.5697836224
 20
63.0879875132
 30
0.0
 11
110.872658873
 21
62.7572827832
 31
0.0
  0
LINE
  5
2A5
  8
0
  6
CONTINUOUS
 62
     7
 10
114.8581909668
 20
67.9684022068
 30
0.0
 11
109.5868507121
 21
65.4677619784
 31
0.0
  0
LINE
  5
2A6
  8
0
  6
CONTINUOUS
 62
     7
 10
83.8834130857
 20
65.3712550736
 30
0.0
 11
83.8834130857
 21
62.3712549311
 31
0.0
  0
LINE
  5
2A7
  8
0
  6
CONTINUOUS
 62
     7
 10
81.8834127579
 20
62.3712549311
 30
0.0
 11
81.8834127579
 21
65.3712550736
 31
0.0
  0
LINE
  5
2A8
  8
0
  6
CONTINUOUS
 62
     7
 10
83.8834130857
 20
62.3712549311
 30
0.0
 11
81.8834127579
 21
62.3712549311
 31
0.0
  0
LINE
  5
2A9
  8
0
  6
CONTINUOUS
 62
     7
 10
81.8834127579
 20
65.3712550736
 30
0.0
 11
83.8834130857
 21
65.3712550736
 31
0.0
  0
LINE
  5
2AA
  8
0
  6
CONTINUOUS
 62
     7
 10
109.1582476813
 20
62.3712549311
 30
0.0
 11
109.1582476813
 21
65.3712550736
 31
0.0
  0
LINE
  5
2AB
  8
0
  6
CONTINUOUS
 62
     7
 10
109.1582476813
 20
62.3712549311
 30
0.0
 11
83.8834130857
 21
62.3712549311
 31
0.0
  0
LINE
  5
2AC
  8
0
  6
CONTINUOUS
 62
     7
 10
109.1582476813
 20
65.3712550736
 30
0.0
 11
83.8834130857
 21
65.3712550736
 31
0.0
  0
ARC
  5
2AD
  8
0
  6
CONTINUOUS
 62
     7
 10
109.1582477864
 20
66.3712548836
 30
0.0
 40
4.000000000000007
 50
270.0
 51
295.3789222827
  0
ARC
  5
2AE
  8
0
  6
CONTINUOUS
 62
     7
 10
109.1582477864
 20
66.3712548836
 30
0.0
 40
1.000000000000014
 50
270.0
 51
295.3789222827
  0
LINE
  5
2AF
  8
0
  6
CONTINUOUS
 62
     7
 10
131.8834144343
 20
65.3712550736
 30
0.0
 11
131.8834144343
 21
62.3712549311
 31
0.0
  0
LINE
  5
2B0
  8
0
  6
CONTINUOUS
 62
     7
 10
131.8834144343
 20
65.3712550736
 30
0.0
 11
154.8834154103
 21
65.3712550736
 31
0.0
  0
LINE
  5
2B1
  8
0
  6
CONTINUOUS
 62
     7
 10
154.8834154103
 20
62.3712549311
 30
0.0
 11
154.8834154103
 21
65.3712550736
 31
0.0
  0
LINE
  5
2B2
  8
0
  6
CONTINUOUS
 62
     7
 10
131.8834144343
 20
62.3712549311
 30
0.0
 11
154.8834154103
 21
62.3712549311
 31
0.0
  0
LINE
  5
2B3
  8
0
  6
CONTINUOUS
 62
     7
 10
156.8834157381
 20
65.3712550736
 30
0.0
 11
156.8834157381
 21
62.3712549311
 31
0.0
  0
LINE
  5
2B4
  8
0
  6
CONTINUOUS
 62
     7
 10
156.8834157381
 20
62.3712549311
 30
0.0
 11
154.8834154103
 21
62.3712549311
 31
0.0
  0
LINE
  5
2B5
  8
0
  6
CONTINUOUS
 62
     7
 10
154.8834154103
 20
65.3712550736
 30
0.0
 11
156.8834157381
 21
65.3712550736
 31
0.0
  0
LINE
  5
2B6
  8
0
  6
CONTINUOUS
 62
     7
 10
129.8834141064
 20
62.3712549311
 30
0.0
 11
129.8834141064
 21
65.3712550736
 31
0.0
  0
LINE
  5
2B7
  8
0
  6
CONTINUOUS
 62
     7
 10
131.8834144343
 20
62.3712549311
 30
0.0
 11
129.8834141064
 21
62.3712549311
 31
0.0
  0
LINE
  5
2B8
  8
0
  6
CONTINUOUS
 62
     7
 10
129.8834141064
 20
65.3712550736
 30
0.0
 11
131.8834144343
 21
65.3712550736
 31
0.0
  0
LINE
  5
2B9
  8
0
  6
CONTINUOUS
 62
     7
 10
129.6085808147
 20
62.3712549311
 30
0.0
 11
129.6085808147
 21
65.3712550736
 31
0.0
  0
LINE
  5
2BA
  8
0
  6
CONTINUOUS
 62
     7
 10
129.8834141064
 20
62.3712549311
 30
0.0
 11
129.6085808147
 21
62.3712549311
 31
0.0
  0
LINE
  5
2BB
  8
0
  6
CONTINUOUS
 62
     7
 10
129.6085808147
 20
65.3712550736
 30
0.0
 11
129.8834141064
 21
65.3712550736
 31
0.0
  0
POLYLINE
  5
2BC
  8
0
  6
CONTINUOUS
 62
     7
 66
     1
 10
0.0
 20
0.0
 30
0.0
 70
   128
  0
VERTEX
  5
3A9
  8
0
  6
CONTINUOUS
 62
     7
 10
129.1799777839
 20
65.4677619784
 30
0.0
  0
VERTEX
  5
3AA
  8
0
  6
CONTINUOUS
 62
     7
 10
129.4417604525
 20
65.3852677531
 30
0.0
  0
VERTEX
  5
3AB
  8
0
  6
CONTINUOUS
 62
     7
 10
129.6085808147
 20
65.3712550736
 30
0.0
  0
SEQEND
  5
8E7
  8
0
  6
CONTINUOUS
 62
     7
  0
ARC
  5
2BD
  8
0
  6
CONTINUOUS
 62
     7
 10
129.6085796995
 20
66.3712505223
 30
0.0
 40
3.999995591158623
 50
244.6210649002
 51
270.0000159744
  0
LINE
  5
2BE
  8
0
  6
CONTINUOUS
 62
     7
 10
129.1799777839
 20
65.4677619784
 30
0.0
 11
127.894169623
 21
62.7572827832
 31
0.0
  0
POLYLINE
  5
2BF
  8
0
  6
CONTINUOUS
 62
     7
 66
     1
 10
0.0
 20
0.0
 30
0.0
 70
   128
  0
VERTEX
  5
3AC
  8
0
  6
CONTINUOUS
 62
     7
 10
127.894169623
 20
62.7572827832
 30
0.0
  0
VERTEX
  5
3AD
  8
0
  6
CONTINUOUS
 62
     7
 10
127.8480626363
 20
62.7791551267
 30
0.0
  0
VERTEX
  5
3AE
  8
0
  6
CONTINUOUS
 62
     7
 10
127.8017349262
 20
62.8011323604
 30
0.0
  0
VERTEX
  5
3AF
  8
0
  6
CONTINUOUS
 62
     7
 10
127.7552162949
 20
62.8231998159
 30
0.0
  0
VERTEX
  5
3B0
  8
0
  6
CONTINUOUS
 62
     7
 10
127.7085402701
 20
62.8453424758
 30
0.0
  0
VERTEX
  5
3B1
  8
0
  6
CONTINUOUS
 62
     7
 10
127.6617366541
 20
62.8675453224
 30
0.0
  0
VERTEX
  5
3B2
  8
0
  6
CONTINUOUS
 62
     7
 10
127.6148380432
 20
62.8897933382
 30
0.0
  0
VERTEX
  5
3B3
  8
0
  6
CONTINUOUS
 62
     7
 10
127.5678751711
 20
62.9120715055
 30
0.0
  0
VERTEX
  5
3B4
  8
0
  6
CONTINUOUS
 62
     7
 10
127.5208815653
 20
62.9343648068
 30
0.0
  0
SEQEND
  5
8E8
  8
0
  6
CONTINUOUS
 62
     7
  0
LINE
  5
2C0
  8
0
  6
CONTINUOUS
 62
     7
 10
127.5208815653
 20
62.9343648068
 30
0.0
 11
128.8066897262
 21
65.6448436527
 31
0.0
  0
POLYLINE
  5
2C1
  8
0
  6
CONTINUOUS
 62
     7
 66
     1
 10
0.0
 20
0.0
 30
0.0
 70
   128
  0
VERTEX
  5
3B5
  8
0
  6
CONTINUOUS
 62
     7
 10
128.8066897262
 20
65.6448436527
 30
0.0
  0
VERTEX
  5
3B6
  8
0
  6
CONTINUOUS
 62
     7
 10
128.8536842633
 20
65.6225505843
 30
0.0
  0
VERTEX
  5
3B7
  8
0
  6
CONTINUOUS
 62
     7
 10
128.9006462041
 20
65.600272417
 30
0.0
  0
VERTEX
  5
3B8
  8
0
  6
CONTINUOUS
 62
     7
 10
128.947544815
 20
65.5780245176
 30
0.0
  0
VERTEX
  5
3B9
  8
0
  6
CONTINUOUS
 62
     7
 10
128.994348431
 20
65.5558213218
 30
0.0
  0
VERTEX
  5
3BA
  8
0
  6
CONTINUOUS
 62
     7
 10
129.0410253871
 20
65.5336786619
 30
0.0
  0
VERTEX
  5
3BB
  8
0
  6
CONTINUOUS
 62
     7
 10
129.0875430871
 20
65.5116114392
 30
0.0
  0
VERTEX
  5
3BC
  8
0
  6
CONTINUOUS
 62
     7
 10
129.1338707972
 20
65.4896340891
 30
0.0
  0
VERTEX
  5
3BD
  8
0
  6
CONTINUOUS
 62
     7
 10
129.1799777839
 20
65.4677619784
 30
0.0
  0
SEQEND
  5
8E9
  8
0
  6
CONTINUOUS
 62
     7
  0
LINE
  5
2C2
  8
0
  6
CONTINUOUS
 62
     7
 10
127.1970448736
 20
63.0879875132
 30
0.0
 11
127.5208815653
 21
62.9343648068
 31
0.0
  0
LINE
  5
2C3
  8
0
  6
CONTINUOUS
 62
     7
 10
123.9086375292
 20
67.9684022068
 30
0.0
 11
128.8066897262
 21
65.6448436527
 31
0.0
  0
DIMENSION
  5
2C4
  8
0
  6
CONTINUOUS
 62
     7
  2
_D_8
 10
119.383414248
 20
76.2567113311
 30
0.0
 11
100.633414248
 21
76.2567113311
 31
0.0
 70
   160
  1
<>
  3
SLDDIMSTYLE0
 13
81.883414248
 23
65.3712548836
 33
0.0
 14
119.383414248
 24
71.8712548836
 34
0.0
  0
DIMENSION
  5
2CE
  8
0
  6
CONTINUOUS
 62
     7
  2
_D_9
 10
156.883414248
 20
76.2567113311
 30
0.0
 11
138.133414248
 21
76.2567113311
 31
0.0
 70
   160
  1
<>
  3
SLDDIMSTYLE0
 13
119.383414248
 23
71.8712548836
 33
0.0
 14
156.883414248
 24
65.3712548836
 34
0.0
  0
DIMENSION
  5
2D8
  8
0
  6
CONTINUOUS
 62
     7
  2
_D_10
 10
127.383414248
 20
44.5406225665
 30
0.0
 11
119.383414248
 21
44.5406225665
 31
0.0
 70
   160
  1
%%c<>
  3
SLDDIMSTYLE1
 13
111.383414248
 23
61.3712548836
 33
0.0
 14
127.383414248
 24
61.3712548836
 34
0.0
  0
DIMENSION
  5
2E5
  8
0
  6
CONTINUOUS
 62
     7
  2
_D_11
 10
71.883414248
 20
65.3712548836
 30
0.0
 11
71.883414248
 21
57.4116198808
 31
0.0
 70
   160
  1
<>
  3
SLDDIMSTYLE1
 13
81.883414248
 23
62.3712548836
 33
0.0
 14
81.883414248
 24
65.3712548836
 34
0.0
 50
90.0
  0
DIMENSION
  5
2F1
  8
0
  6
CONTINUOUS
 62
     7
  2
_D_12
 10
160.2424665387
 20
61.3712548836
 30
0.0
 11
160.2424665387
 21
55.8502467746
 31
0.0
 70
   160
  1
<>
  3
SLDDIMSTYLE1
 13
156.883414248
 23
62.3712548836
 33
0.0
 14
129.883414248
 24
61.3712548836
 34
0.0
 50
90.0
  0
INSERT
  5
308
  8
0
  6
CONTINUOUS
 62
     7
  2
SW_CENTERMARKSYMBOL_6
 10
119.383414248
 20
61.3712548836
 30
0.0
  0
LINE
  5
309
  8
0
  6
CONTINUOUS
 62
     7
 10
311.7624421352
 20
185.7616444034
 30
0.0
 11
310.673591935
 21
184.6727967643
 31
0.0
  0
LINE
  5
30A
  8
0
  6
CONTINUOUS
 62
     7
 10
286.7328247734
 20
187.6727969068
 30
0.0
 11
284.7624405035
 21
185.7024127533
 31
0.0
  0
LINE
  5
30B
  8
0
  6
CONTINUOUS
 62
     7
 10
291.2229534918
 20
187.6727969068
 30
0.0
 11
288.222953
 21
184.6727967643
 31
0.0
  0
LINE
  5
30C
  8
0
  6
CONTINUOUS
 62
     7
 10
295.7130812787
 20
187.6727969068
 30
0.0
 11
292.713080787
 21
184.6727967643
 31
0.0
  0
LINE
  5
30D
  8
0
  6
CONTINUOUS
 62
     7
 10
300.2032090657
 20
187.6727969068
 30
0.0
 11
297.203208574
 21
184.6727967643
 31
0.0
  0
LINE
  5
30E
  8
0
  6
CONTINUOUS
 62
     7
 10
302.5124401533
 20
185.4919005566
 30
0.0
 11
301.693336361
 21
184.6727967643
 31
0.0
  0
LINE
  5
30F
  8
0
  6
CONTINUOUS
 62
     7
 10
274.7486194634
 20
193.6491039963
 30
0.0
 11
269.2861336031
 21
188.1866181359
 31
0.0
  0
LINE
  5
310
  8
0
  6
CONTINUOUS
 62
     7
 10
277.7979744346
 20
192.2083307439
 30
0.0
 11
270.7269068555
 21
185.1372631648
 31
0.0
  0
LINE
  5
311
  8
0
  6
CONTINUOUS
 62
     7
 10
279.238747687
 20
189.1589757727
 30
0.0
 11
273.7762618267
 21
183.6964899124
 31
0.0
  0
LINE
  5
312
  8
0
  6
CONTINUOUS
 62
     7
 10
287.2426968747
 20
192.6727971443
 30
0.0
 11
284.7624405035
 21
190.1925408895
 31
0.0
  0
LINE
  5
313
  8
0
  6
CONTINUOUS
 62
     7
 10
291.7328246617
 20
192.6727971443
 30
0.0
 11
288.7328251013
 21
189.6727970018
 31
0.0
  0
LINE
  5
314
  8
0
  6
CONTINUOUS
 62
     7
 10
296.2229524487
 20
192.6727971443
 30
0.0
 11
293.2229519569
 21
189.6727970018
 31
0.0
  0
LINE
  5
315
  8
0
  6
CONTINUOUS
 62
     7
 10
300.7130802357
 20
192.6727971443
 30
0.0
 11
297.7130816066
 21
189.6727970018
 31
0.0
  0
LINE
  5
316
  8
0
  6
CONTINUOUS
 62
     7
 10
309.6933376723
 20
192.6727971443
 30
0.0
 11
308.2270261579
 21
191.2064856299
 31
0.0
  0
LINE
  5
317
  8
0
  6
CONTINUOUS
 62
     7
 10
311.7624421352
 20
190.2517724232
 30
0.0
 11
311.1834649676
 21
189.6727970018
 31
0.0
  0
LINE
  5
318
  8
0
  6
CONTINUOUS
 62
     7
 10
266.3315639579
 20
187.623417369
 30
0.0
 11
273.2130610597
 21
180.7419202671
 31
0.0
  0
LINE
  5
319
  8
0
  6
CONTINUOUS
 62
     7
 10
274.7486194634
 20
183.6964899124
 30
0.0
 11
277.2096484181
 21
181.2354611614
 31
0.0
  0
LINE
  5
31A
  8
0
  6
CONTINUOUS
 62
     7
 10
266.8251048521
 20
191.6200047274
 30
0.0
 11
269.2861336031
 21
189.1589757727
 31
0.0
  0
LINE
  5
31B
  8
0
  6
CONTINUOUS
 62
     7
 10
277.7979744346
 20
185.1372631648
 30
0.0
 11
279.9192948946
 21
183.0159427048
 31
0.0
  0
LINE
  5
31C
  8
0
  6
CONTINUOUS
 62
     7
 10
268.6055863955
 20
194.3296512039
 30
0.0
 11
270.7269068555
 21
192.2083307439
 31
0.0
  0
LINE
  5
31D
  8
0
  6
CONTINUOUS
 62
     7
 10
279.238747687
 20
188.1866181359
 30
0.0
 11
281.699776438
 21
185.7255891812
 31
0.0
  0
LINE
  5
31E
  8
0
  6
CONTINUOUS
 62
     7
 10
271.3152328719
 20
196.1101327472
 30
0.0
 11
273.7762618267
 21
193.6491039963
 31
0.0
  0
LINE
  5
31F
  8
0
  6
CONTINUOUS
 62
     7
 10
275.3118202304
 20
196.6036736415
 30
0.0
 11
282.1933173322
 21
189.7221765396
 31
0.0
  0
LINE
  5
320
  8
0
  6
CONTINUOUS
 62
     7
 10
284.7624405035
 20
196.1333091752
 30
0.0
 11
288.222953
 21
192.6727971443
 31
0.0
  0
LINE
  5
321
  8
0
  6
CONTINUOUS
 62
     7
 10
284.7624405035
 20
205.1135647492
 30
0.0
 11
288.4217254097
 21
201.4542799799
 31
0.0
  0
LINE
  5
322
  8
0
  6
CONTINUOUS
 62
     7
 10
284.7624405035
 20
209.6036925362
 30
0.0
 11
286.7347367091
 21
207.6313963848
 31
0.0
  0
LINE
  5
323
  8
0
  6
CONTINUOUS
 62
     7
 10
284.7624405035
 20
214.0938221858
 30
0.0
 11
295.3226254777
 21
203.5336374411
 31
0.0
  0
LINE
  5
324
  8
0
  6
CONTINUOUS
 62
     7
 10
311.7624421352
 20
191.5839495053
 30
0.0
 11
313.6735942894
 21
189.6727970018
 31
0.0
  0
LINE
  5
325
  8
0
  6
CONTINUOUS
 62
     7
 10
284.7624405035
 20
218.5839499728
 30
0.0
 11
299.1978580317
 21
204.1485316663
 31
0.0
  0
LINE
  5
326
  8
0
  6
CONTINUOUS
 62
     7
 10
284.7624405035
 20
223.0740758971
 30
0.0
 11
307.1322378096
 21
200.7042799799
 31
0.0
  0
LINE
  5
327
  8
0
  6
CONTINUOUS
 62
     7
 10
284.7624405035
 20
227.5642055468
 30
0.0
 11
310.8723660703
 21
201.4542799799
 31
0.0
  0
LINE
  5
328
  8
0
  6
CONTINUOUS
 62
     7
 10
284.7624405035
 20
232.0543351964
 30
0.0
 11
314.7624407643
 21
202.0543340043
 31
0.0
  0
LINE
  5
329
  8
0
  6
CONTINUOUS
 62
     7
 10
284.7624405035
 20
236.5444611208
 30
0.0
 11
314.7624407643
 21
206.5444617913
 31
0.0
  0
LINE
  5
32A
  8
0
  6
CONTINUOUS
 62
     7
 10
286.1242334106
 20
239.6727960006
 30
0.0
 11
314.7624407643
 21
211.0345895783
 31
0.0
  0
LINE
  5
32B
  8
0
  6
CONTINUOUS
 62
     7
 10
290.6143621289
 20
239.6727960006
 30
0.0
 11
314.7624407643
 21
215.5247173653
 31
0.0
  0
LINE
  5
32C
  8
0
  6
CONTINUOUS
 62
     7
 10
295.1044899159
 20
239.6727960006
 30
0.0
 11
314.7624407643
 21
220.0148451523
 31
0.0
  0
LINE
  5
32D
  8
0
  6
CONTINUOUS
 62
     7
 10
299.5946177029
 20
239.6727960006
 30
0.0
 11
314.7624407643
 21
224.5049748019
 31
0.0
  0
LINE
  5
32E
  8
0
  6
CONTINUOUS
 62
     7
 10
304.0847454899
 20
239.6727960006
 30
0.0
 11
314.7624407643
 21
228.9951007263
 31
0.0
  0
LINE
  5
32F
  8
0
  6
CONTINUOUS
 62
     7
 10
308.5748751395
 20
239.6727960006
 30
0.0
 11
314.7624407643
 21
233.4852303759
 31
0.0
  0
LINE
  5
330
  8
0
  6
CONTINUOUS
 62
     7
 10
313.0650010639
 20
239.6727960006
 30
0.0
 11
314.7624407643
 21
237.9753600256
 31
0.0
  0
LINE
  5
331
  8
0
  6
CONTINUOUS
 62
     7
 10
284.7624405035
 20
137.7616460816
 30
0.0
 11
284.8512877458
 21
137.672797908
 31
0.0
  0
LINE
  5
332
  8
0
  6
CONTINUOUS
 62
     7
 10
284.7624405035
 20
142.251772006
 30
0.0
 11
289.3414164641
 21
137.672797908
 31
0.0
  0
LINE
  5
333
  8
0
  6
CONTINUOUS
 62
     7
 10
284.7624405035
 20
146.7419016556
 30
0.0
 11
293.8315433198
 21
137.672797908
 31
0.0
  0
LINE
  5
334
  8
0
  6
CONTINUOUS
 62
     7
 10
284.7624405035
 20
151.2320275799
 30
0.0
 11
298.3216729694
 21
137.672797908
 31
0.0
  0
LINE
  5
335
  8
0
  6
CONTINUOUS
 62
     7
 10
284.7624405035
 20
155.7221572296
 30
0.0
 11
302.8118007564
 21
137.672797908
 31
0.0
  0
LINE
  5
336
  8
0
  6
CONTINUOUS
 62
     7
 10
284.7624405035
 20
160.2122850166
 30
0.0
 11
307.3019285434
 21
137.672797908
 31
0.0
  0
LINE
  5
337
  8
0
  6
CONTINUOUS
 62
     7
 10
284.7624405035
 20
164.7024128036
 30
0.0
 11
311.792058193
 21
137.672797908
 31
0.0
  0
LINE
  5
338
  8
0
  6
CONTINUOUS
 62
     7
 10
284.7624405035
 20
169.1925405906
 30
0.0
 11
314.7624407643
 21
139.1925412611
 31
0.0
  0
LINE
  5
339
  8
0
  6
CONTINUOUS
 62
     7
 10
284.7624405035
 20
173.6826693089
 30
0.0
 11
314.7624407643
 21
143.6826671855
 31
0.0
  0
LINE
  5
33A
  8
0
  6
CONTINUOUS
 62
     7
 10
284.7624405035
 20
178.1727970959
 30
0.0
 11
314.7624407643
 21
148.1727968351
 31
0.0
  0
LINE
  5
33B
  8
0
  6
CONTINUOUS
 62
     7
 10
284.7624405035
 20
182.6629248829
 30
0.0
 11
314.7624407643
 21
152.6629264847
 31
0.0
  0
LINE
  5
33C
  8
0
  6
CONTINUOUS
 62
     7
 10
287.2426968747
 20
184.6727967643
 30
0.0
 11
314.7624407643
 21
157.1530524091
 31
0.0
  0
LINE
  5
33D
  8
0
  6
CONTINUOUS
 62
     7
 10
291.7328246617
 20
184.6727967643
 30
0.0
 11
314.7624407643
 21
161.6431820587
 31
0.0
  0
LINE
  5
33E
  8
0
  6
CONTINUOUS
 62
     7
 10
296.2229524487
 20
184.6727967643
 30
0.0
 11
314.7624407643
 21
166.1333098457
 31
0.0
  0
LINE
  5
33F
  8
0
  6
CONTINUOUS
 62
     7
 10
300.7130802357
 20
184.6727967643
 30
0.0
 11
314.7624407643
 21
170.6234376327
 31
0.0
  0
LINE
  5
340
  8
0
  6
CONTINUOUS
 62
     7
 10
305.2032098853
 20
184.6727967643
 30
0.0
 11
314.7624407643
 21
175.1135654197
 31
0.0
  0
LINE
  5
341
  8
0
  6
CONTINUOUS
 62
     7
 10
309.6933376723
 20
184.6727967643
 30
0.0
 11
314.7624407643
 21
179.6036932067
 31
0.0
  0
LINE
  5
342
  8
0
  6
CONTINUOUS
 62
     7
 10
311.7624421352
 20
187.0938214854
 30
0.0
 11
314.7624407643
 21
184.0938214594
 31
0.0
  0
LINE
  5
343
  8
0
  6
CONTINUOUS
 62
     7
 10
299.1519830221
 20
199.7042799799
 30
0.0
 11
306.1834660106
 21
192.6727971443
 31
0.0
  0
LINE
  5
344
  8
0
  6
CONTINUOUS
 62
     7
 10
301.2022558124
 20
202.1441337775
 30
0.0
 11
302.6421095324
 21
200.7042799799
 31
0.0
  0
LINE
  5
345
  8
0
  6
CONTINUOUS
 62
     7
 10
286.4315975835
 20
198.9542799799
 30
0.0
 11
292.713080787
 21
192.6727971443
 31
0.0
  0
LINE
  5
346
  8
0
  6
CONTINUOUS
 62
     7
 10
290.1717254752
 20
199.7042799799
 30
0.0
 11
297.203208574
 21
192.6727971443
 31
0.0
  0
LINE
  5
347
  8
0
  6
CONTINUOUS
 62
     7
 10
294.661853332
 20
199.7042799799
 30
0.0
 11
301.693336361
 21
192.6727971443
 31
0.0
  0
LINE
  5
348
  8
0
  6
CONTINUOUS
 62
     7
 10
308.8822379182
 20
198.9542799799
 30
0.0
 11
314.7624407643
 21
193.074077499
 31
0.0
  0
LINE
  5
349
  8
0
  6
CONTINUOUS
 62
     7
 10
312.262440645
 20
200.0642054052
 30
0.0
 11
314.7624407643
 21
197.564205286
 31
0.0
  0
LINE
  5
34A
  8
0
  6
CONTINUOUS
 62
     7
 10
303.6421094784
 20
199.7042799799
 30
0.0
 11
310.673591935
 21
192.6727971443
 31
0.0
  0
LINE
  5
34B
  8
0
  6
CONTINUOUS
 62
     7
 10
289.062440645
 20
200.8135647686
 30
0.0
 11
289.1717254377
 21
200.7042799799
 31
0.0
  0
LINE
  5
34C
  8
0
  6
CONTINUOUS
 62
     7
 10
289.062440645
 20
205.3036925129
 30
0.0
 11
293.6618533045
 21
200.7042799799
 31
0.0
  0
LINE
  5
34D
  8
0
  6
CONTINUOUS
 62
     7
 10
284.7624405035
 20
137.672797908
 30
0.0
 11
314.7624407643
 21
137.672797908
 31
0.0
  0
LINE
  5
34E
  8
0
  6
CONTINUOUS
 62
     7
 10
284.7624405035
 20
184.6727967643
 30
0.0
 11
284.7624405035
 21
137.672797908
 31
0.0
  0
LINE
  5
34F
  8
0
  6
CONTINUOUS
 62
     7
 10
311.7624421352
 20
184.6727967643
 30
0.0
 11
284.7624405035
 21
184.6727967643
 31
0.0
  0
LINE
  5
350
  8
0
  6
CONTINUOUS
 62
     7
 10
311.7624421352
 20
187.6727969068
 30
0.0
 11
311.7624421352
 21
184.6727967643
 31
0.0
  0
LINE
  5
351
  8
0
  6
CONTINUOUS
 62
     7
 10
314.7624407643
 20
187.6727969068
 30
0.0
 11
311.7624421352
 21
187.6727969068
 31
0.0
  0
LINE
  5
352
  8
0
  6
CONTINUOUS
 62
     7
 10
314.7624407643
 20
137.672797908
 30
0.0
 11
314.7624407643
 21
187.6727969068
 31
0.0
  0
LINE
  5
353
  8
0
  6
CONTINUOUS
 62
     7
 10
311.7624421352
 20
189.6727970018
 30
0.0
 11
314.7624407643
 21
189.6727970018
 31
0.0
  0
LINE
  5
354
  8
0
  6
CONTINUOUS
 62
     7
 10
311.7624421352
 20
192.6727971443
 30
0.0
 11
311.7624421352
 21
189.6727970018
 31
0.0
  0
LINE
  5
355
  8
0
  6
CONTINUOUS
 62
     7
 10
284.7624405035
 20
192.6727971443
 30
0.0
 11
311.7624421352
 21
192.6727971443
 31
0.0
  0
LINE
  5
356
  8
0
  6
CONTINUOUS
 62
     7
 10
314.7624407643
 20
239.6727960006
 30
0.0
 11
284.7624405035
 21
239.6727960006
 31
0.0
  0
LINE
  5
357
  8
0
  6
CONTINUOUS
 62
     7
 10
314.7624407643
 20
189.6727970018
 30
0.0
 11
314.7624407643
 21
239.6727960006
 31
0.0
  0
LINE
  5
358
  8
0
  6
CONTINUOUS
 62
     7
 10
284.7624405035
 20
239.6727960006
 30
0.0
 11
284.7624405035
 21
192.6727971443
 31
0.0
  0
CIRCLE
  5
359
  8
0
  6
CONTINUOUS
 62
     7
 10
274.262440645
 20
188.6727969543
 30
0.0
 40
8.000000000000009
  0
CIRCLE
  5
35A
  8
0
  6
CONTINUOUS
 62
     7
 10
274.262440645
 20
188.6727969543
 30
0.0
 40
5.000000000000035
  0
LINE
  5
35B
  8
0
  6
CONTINUOUS
 62
     7
 10
300.7635523313
 20
189.6727970018
 30
0.0
 11
302.5142599576
 21
191.4227969394
 31
0.0
  0
LINE
  5
35C
  8
0
  6
CONTINUOUS
 62
     7
 10
284.7624405035
 20
192.6727971443
 30
0.0
 11
284.7624405035
 21
189.6727970018
 31
0.0
  0
LINE
  5
35D
  8
0
  6
CONTINUOUS
 62
     7
 10
302.5142599576
 20
191.4227969394
 30
0.0
 11
302.5142599576
 21
192.6727971443
 31
0.0
  0
LINE
  5
35E
  8
0
  6
CONTINUOUS
 62
     7
 10
300.7635523313
 20
189.6727970018
 30
0.0
 11
284.7624405035
 21
189.6727970018
 31
0.0
  0
LINE
  5
35F
  8
0
  6
CONTINUOUS
 62
     7
 10
302.5142599576
 20
192.6727971443
 30
0.0
 11
284.7624405035
 21
192.6727971443
 31
0.0
  0
POLYLINE
  5
360
  8
0
  6
CONTINUOUS
 62
     7
 66
     1
 10
0.0
 20
0.0
 30
0.0
 70
   128
  0
VERTEX
  5
3BE
  8
0
  6
CONTINUOUS
 62
     7
 10
308.0106203192
 20
191.4227969394
 30
0.0
  0
VERTEX
  5
3BF
  8
0
  6
CONTINUOUS
 62
     7
 10
309.522864663
 20
189.9111985843
 30
0.0
  0
VERTEX
  5
3C0
  8
0
  6
CONTINUOUS
 62
     7
 10
309.7613279455
 20
189.6727970018
 30
0.0
  0
SEQEND
  5
8EA
  8
0
  6
CONTINUOUS
 62
     7
  0
LINE
  5
361
  8
0
  6
CONTINUOUS
 62
     7
 10
308.0106203192
 20
192.6727971443
 30
0.0
 11
308.0106203192
 21
191.4227969394
 31
0.0
  0
LINE
  5
362
  8
0
  6
CONTINUOUS
 62
     7
 10
311.7624421352
 20
189.6727970018
 30
0.0
 11
309.7613279455
 21
189.6727970018
 31
0.0
  0
LINE
  5
363
  8
0
  6
CONTINUOUS
 62
     7
 10
311.7624421352
 20
192.6727971443
 30
0.0
 11
308.0106203192
 21
192.6727971443
 31
0.0
  0
LINE
  5
364
  8
0
  6
CONTINUOUS
 62
     7
 10
302.5142599576
 20
191.4227969394
 30
0.0
 11
308.0106203192
 21
191.4227969394
 31
0.0
  0
LINE
  5
365
  8
0
  6
CONTINUOUS
 62
     7
 10
300.7635523313
 20
189.6727970018
 30
0.0
 11
309.7613279455
 21
189.6727970018
 31
0.0
  0
LINE
  5
366
  8
0
  6
CONTINUOUS
 62
     7
 10
284.4876072117
 20
189.6727970018
 30
0.0
 11
284.4876072117
 21
192.6727971443
 31
0.0
  0
LINE
  5
367
  8
0
  6
CONTINUOUS
 62
     7
 10
284.7624405035
 20
189.6727970018
 30
0.0
 11
284.4876072117
 21
189.6727970018
 31
0.0
  0
LINE
  5
368
  8
0
  6
CONTINUOUS
 62
     7
 10
284.4876072117
 20
192.6727971443
 30
0.0
 11
284.7624405035
 21
192.6727971443
 31
0.0
  0
POLYLINE
  5
369
  8
0
  6
CONTINUOUS
 62
     7
 66
     1
 10
0.0
 20
0.0
 30
0.0
 70
   128
  0
VERTEX
  5
3C1
  8
0
  6
CONTINUOUS
 62
     7
 10
284.059004181
 20
192.7693040491
 30
0.0
  0
VERTEX
  5
3C2
  8
0
  6
CONTINUOUS
 62
     7
 10
284.3207868495
 20
192.6868098238
 30
0.0
  0
VERTEX
  5
3C3
  8
0
  6
CONTINUOUS
 62
     7
 10
284.4876072117
 20
192.6727971443
 30
0.0
  0
SEQEND
  5
8EB
  8
0
  6
CONTINUOUS
 62
     7
  0
ARC
  5
36A
  8
0
  6
CONTINUOUS
 62
     7
 10
284.4876060965
 20
193.672792593
 30
0.0
 40
3.999995591158597
 50
244.6210649002
 51
270.0000159744
  0
LINE
  5
36B
  8
0
  6
CONTINUOUS
 62
     7
 10
284.059004181
 20
192.7693040491
 30
0.0
 11
282.7731960201
 21
190.0588248539
 31
0.0
  0
POLYLINE
  5
36C
  8
0
  6
CONTINUOUS
 62
     7
 66
     1
 10
0.0
 20
0.0
 30
0.0
 70
   128
  0
VERTEX
  5
3C4
  8
0
  6
CONTINUOUS
 62
     7
 10
282.7731960201
 20
190.0588248539
 30
0.0
  0
VERTEX
  5
3C5
  8
0
  6
CONTINUOUS
 62
     7
 10
282.7270890334
 20
190.0806971974
 30
0.0
  0
VERTEX
  5
3C6
  8
0
  6
CONTINUOUS
 62
     7
 10
282.6807613232
 20
190.1026744311
 30
0.0
  0
VERTEX
  5
3C7
  8
0
  6
CONTINUOUS
 62
     7
 10
282.6342426919
 20
190.1247418867
 30
0.0
  0
VERTEX
  5
3C8
  8
0
  6
CONTINUOUS
 62
     7
 10
282.5875666671
 20
190.1468845465
 30
0.0
  0
VERTEX
  5
3C9
  8
0
  6
CONTINUOUS
 62
     7
 10
282.5407630512
 20
190.1690873931
 30
0.0
  0
VERTEX
  5
3CA
  8
0
  6
CONTINUOUS
 62
     7
 10
282.4938644403
 20
190.1913354089
 30
0.0
  0
VERTEX
  5
3CB
  8
0
  6
CONTINUOUS
 62
     7
 10
282.4469015681
 20
190.2136135762
 30
0.0
  0
VERTEX
  5
3CC
  8
0
  6
CONTINUOUS
 62
     7
 10
282.3999079623
 20
190.2359068775
 30
0.0
  0
SEQEND
  5
8EC
  8
0
  6
CONTINUOUS
 62
     7
  0
LINE
  5
36D
  8
0
  6
CONTINUOUS
 62
     7
 10
282.3999079623
 20
190.2359068775
 30
0.0
 11
283.6857161232
 21
192.9463857235
 31
0.0
  0
POLYLINE
  5
36E
  8
0
  6
CONTINUOUS
 62
     7
 66
     1
 10
0.0
 20
0.0
 30
0.0
 70
   128
  0
VERTEX
  5
3CD
  8
0
  6
CONTINUOUS
 62
     7
 10
283.6857161232
 20
192.9463857235
 30
0.0
  0
VERTEX
  5
3CE
  8
0
  6
CONTINUOUS
 62
     7
 10
283.7327106603
 20
192.924092655
 30
0.0
  0
VERTEX
  5
3CF
  8
0
  6
CONTINUOUS
 62
     7
 10
283.7796726012
 20
192.9018144877
 30
0.0
  0
VERTEX
  5
3D0
  8
0
  6
CONTINUOUS
 62
     7
 10
283.8265712121
 20
192.8795665884
 30
0.0
  0
VERTEX
  5
3D1
  8
0
  6
CONTINUOUS
 62
     7
 10
283.873374828
 20
192.8573633925
 30
0.0
  0
VERTEX
  5
3D2
  8
0
  6
CONTINUOUS
 62
     7
 10
283.9200517842
 20
192.8352207326
 30
0.0
  0
VERTEX
  5
3D3
  8
0
  6
CONTINUOUS
 62
     7
 10
283.9665694841
 20
192.8131535099
 30
0.0
  0
VERTEX
  5
3D4
  8
0
  6
CONTINUOUS
 62
     7
 10
284.0128971943
 20
192.7911761598
 30
0.0
  0
VERTEX
  5
3D5
  8
0
  6
CONTINUOUS
 62
     7
 10
284.059004181
 20
192.7693040491
 30
0.0
  0
SEQEND
  5
8ED
  8
0
  6
CONTINUOUS
 62
     7
  0
LINE
  5
36F
  8
0
  6
CONTINUOUS
 62
     7
 10
282.0760712707
 20
190.3895295839
 30
0.0
 11
282.3999079623
 21
190.2359068775
 31
0.0
  0
LINE
  5
370
  8
0
  6
CONTINUOUS
 62
     7
 10
278.7876639263
 20
195.2699442775
 30
0.0
 11
283.6857161232
 21
192.9463857235
 31
0.0
  0
LINE
  5
371
  8
0
  6
CONTINUOUS
 62
     7
 10
308.0124419861
 20
185.9227969692
 30
0.0
 11
302.5124401533
 21
185.9227969692
 31
0.0
  0
LINE
  5
372
  8
0
  6
CONTINUOUS
 62
     7
 10
302.5124401533
 20
185.9227969692
 30
0.0
 11
300.7624403321
 21
187.6727969068
 31
0.0
  0
LINE
  5
373
  8
0
  6
CONTINUOUS
 62
     7
 10
309.7624418073
 20
187.6727969068
 30
0.0
 11
300.7624403321
 21
187.6727969068
 31
0.0
  0
LINE
  5
374
  8
0
  6
CONTINUOUS
 62
     7
 10
309.7624418073
 20
187.6727969068
 30
0.0
 11
308.0124419861
 21
185.9227969692
 31
0.0
  0
LINE
  5
375
  8
0
  6
CONTINUOUS
 62
     7
 10
302.5124401533
 20
184.6727967643
 30
0.0
 11
302.5124401533
 21
185.9227969692
 31
0.0
  0
LINE
  5
376
  8
0
  6
CONTINUOUS
 62
     7
 10
308.0124419861
 20
185.9227969692
 30
0.0
 11
308.0124419861
 21
184.6727967643
 31
0.0
  0
LINE
  5
377
  8
0
  6
CONTINUOUS
 62
     7
 10
284.7624405035
 20
184.6727967643
 30
0.0
 11
284.7624405035
 21
187.6727969068
 31
0.0
  0
LINE
  5
378
  8
0
  6
CONTINUOUS
 62
     7
 10
284.7624405035
 20
187.6727969068
 30
0.0
 11
300.7624403321
 21
187.6727969068
 31
0.0
  0
LINE
  5
379
  8
0
  6
CONTINUOUS
 62
     7
 10
284.7624405035
 20
184.6727967643
 30
0.0
 11
302.5124401533
 21
184.6727967643
 31
0.0
  0
LINE
  5
37A
  8
0
  6
CONTINUOUS
 62
     7
 10
309.7624418073
 20
187.6727969068
 30
0.0
 11
311.7624421352
 21
187.6727969068
 31
0.0
  0
LINE
  5
37B
  8
0
  6
CONTINUOUS
 62
     7
 10
308.0124419861
 20
184.6727967643
 30
0.0
 11
311.7624421352
 21
184.6727967643
 31
0.0
  0
DIMENSION
  5
37C
  8
0
  6
CONTINUOUS
 62
     7
  2
_D_13
 10
311.762440645
 20
200.20427998
 30
0.0
 11
298.262440645
 21
200.20427998
 31
0.0
 70
   160
  1
<>
  3
SLDDIMSTYLE0
 13
284.762440645
 23
192.6727969543
 33
0.0
 14
311.762440645
 24
192.6727969543
 34
0.0
 50
0.0
  0
DIMENSION
  5
385
  8
0
  6
CONTINUOUS
 62
     7
  2
_D_14
 10
284.762440645
 20
206.3813963848
 30
0.0
 11
279.512440645
 21
206.3813963848
 31
0.0
 70
   160
  1
<>
  3
SLDDIMSTYLE1
 13
274.262440645
 23
199.0727969543
 33
0.0
 14
284.762440645
 24
184.6727969543
 34
0.0
  0
DIMENSION
  5
391
  8
0
  6
CONTINUOUS
 62
     7
  2
_D_15
 10
323.14527966
 20
187.6727969543
 30
0.0
 11
323.14527966
 21
200.20427998
 31
0.0
 70
   160
  1
<>
  3
SLDDIMSTYLE1
 13
314.762440645
 23
189.6727969543
 33
0.0
 14
314.762440645
 24
187.6727969543
 34
0.0
 50
90.0
  0
INSERT
  5
3A8
  8
0
  6
CONTINUOUS
 62
     7
  2
SW_CENTERMARKSYMBOL_7
 10
274.262440645
 20
188.6727969543
 30
0.0
  0
ENDSEC
  0
EOF
