  0
SECTION
  2
HEADER
  9
$ACADVER
  1
AC1009
  9
$DWGCODEPAGE
  3
ansi_1252
  9
$INSBASE
 10
0.0
 20
0.0
 30
0.0
  9
$EXTMIN
 10
0.0
 20
0.0
 30
0.0
  9
$EXTMAX
 10
420.0
 20
297.0
 30
0.0
  9
$LIMMIN
 10
0.0
 20
0.0
  9
$LIMMAX
 10
420.0
 20
297.0
  9
$ORTHOMODE
 70
     0
  9
$REGENMODE
 70
     1
  9
$FILLMODE
 70
     1
  9
$QTEXTMODE
 70
     0
  9
$MIRRTEXT
 70
     1
  9
$DRAGMODE
 70
     2
  9
$LTSCALE
 40
1.0
  9
$OSMODE
 70
    37
  9
$ATTMODE
 70
     1
  9
$TEXTSIZE
 40
3.5
  9
$TRACEWID
 40
1.0
  9
$TEXTSTYLE
  7
STANDARD
  9
$CLAYER
  8
0
  9
$CELTYPE
  6
BYLAYER
  9
$CECOLOR
 62
   256
  9
$DIMSCALE
 40
1.0
  9
$DIMASZ
 40
3.3
  9
$DIMEXO
 40
1.0
  9
$DIMDLI
 40
3.75
  9
$DIMRND
 40
0.0
  9
$DIMDLE
 40
0.0
  9
$DIMEXE
 40
1.0
  9
$DIMTP
 40
0.0
  9
$DIMTM
 40
0.0
  9
$DIMTXT
 40
3.5
  9
$DIMCEN
 40
2.5
  9
$DIMTSZ
 40
0.0
  9
$DIMTOL
 70
     0
  9
$DIMLIM
 70
     0
  9
$DIMTIH
 70
     1
  9
$DIMTOH
 70
     1
  9
$DIMSE1
 70
     0
  9
$DIMSE2
 70
     0
  9
$DIMTAD
 70
     1
  9
$DIMZIN
 70
     0
  9
$DIMBLK
  1

  9
$DIMASO
 70
     1
  9
$DIMSHO
 70
     1
  9
$DIMPOST
  1

  9
$DIMAPOST
  1

  9
$DIMALT
 70
     0
  9
$DIMALTD
 70
     3
  9
$DIMALTF
 40
0.0393700787
  9
$DIMLFAC
 40
1.0
  9
$DIMTOFL
 70
     1
  9
$DIMTVP
 40
0.0
  9
$DIMTIX
 70
     0
  9
$DIMSOXD
 70
     0
  9
$DIMSAH
 70
     0
  9
$DIMBLK1
  1

  9
$DIMBLK2
  1

  9
$DIMSTYLE
  2
ISO-25
  9
$DIMCLRD
 70
     0
  9
$DIMCLRE
 70
     0
  9
$DIMCLRT
 70
     0
  9
$DIMTFAC
 40
1.0
  9
$DIMGAP
 40
1.524
  9
$LUNITS
 70
     2
  9
$LUPREC
 70
     2
  9
$SKETCHINC
 40
1.0
  9
$FILLETRAD
 40
0.0
  9
$AUNITS
 70
     0
  9
$AUPREC
 70
     2
  9
$MENU
  1
.
  9
$ELEVATION
 40
0.0
  9
$PELEVATION
 40
0.0
  9
$THICKNESS
 40
0.0
  9
$LIMCHECK
 70
     0
  9
$CHAMFERA
 40
0.0
  9
$CHAMFERB
 40
0.0
  9
$SKPOLY
 70
     0
  9
$TDCREATE
 40
2460354.366789561
  9
$TDUPDATE
 40
2460354.366800186
  9
$TDINDWG
 40
0.0000000116
  9
$TDUSRTIMER
 40
0.0000000116
  9
$USRTIMER
 70
     1
  9
$ANGBASE
 50
0.0
  9
$ANGDIR
 70
     0
  9
$PDMODE
 70
     0
  9
$PDSIZE
 40
-1.0
  9
$PLINEWID
 40
0.0
  9
$COORDS
 70
     1
  9
$SPLFRAME
 70
     0
  9
$SPLINETYPE
 70
     6
  9
$SPLINESEGS
 70
     8
  9
$ATTDIA
 70
     0
  9
$ATTREQ
 70
     1
  9
$HANDLING
 70
     1
  9
$HANDSEED
  5
843
  9
$SURFTAB1
 70
     6
  9
$SURFTAB2
 70
     6
  9
$SURFTYPE
 70
     6
  9
$SURFU
 70
     6
  9
$SURFV
 70
     6
  9
$UCSNAME
  2

  9
$UCSORG
 10
0.0
 20
0.0
 30
0.0
  9
$UCSXDIR
 10
1.0
 20
0.0
 30
0.0
  9
$UCSYDIR
 10
0.0
 20
1.0
 30
0.0
  9
$PUCSNAME
  2

  9
$PUCSORG
 10
0.0
 20
0.0
 30
0.0
  9
$PUCSXDIR
 10
1.0
 20
0.0
 30
0.0
  9
$PUCSYDIR
 10
0.0
 20
1.0
 30
0.0
  9
$USERI1
 70
     0
  9
$USERI2
 70
     0
  9
$USERI3
 70
     0
  9
$USERI4
 70
     0
  9
$USERI5
 70
     0
  9
$USERR1
 40
0.0
  9
$USERR2
 40
0.0
  9
$USERR3
 40
0.0
  9
$USERR4
 40
0.0
  9
$USERR5
 40
0.0
  9
$WORLDVIEW
 70
     1
  9
$SHADEDGE
 70
     3
  9
$SHADEDIF
 70
    70
  9
$TILEMODE
 70
     1
  9
$MAXACTVP
 70
    64
  9
$PLIMCHECK
 70
     0
  9
$PEXTMIN
 10
1.0000000000E+20
 20
1.0000000000E+20
 30
1.0000000000E+20
  9
$PEXTMAX
 10
-1.0000000000E+20
 20
-1.0000000000E+20
 30
-1.0000000000E+20
  9
$PLIMMIN
 10
0.0
 20
0.0
  9
$PLIMMAX
 10
420.0
 20
297.0
  9
$UNITMODE
 70
     0
  9
$VISRETAIN
 70
     1
  9
$PLINEGEN
 70
     0
  9
$PSLTSCALE
 70
     1
  0
ENDSEC
  0
SECTION
  2
TABLES
  0
TABLE
  2
VPORT
 70
     1
  0
VPORT
  2
*ACTIVE
 70
     0
 10
0.0
 20
0.0
 11
1.0
 21
1.0
 12
210.0
 22
148.5
 13
0.0
 23
0.0
 14
10.0
 24
10.0
 15
10.0
 25
10.0
 16
0.0
 26
0.0
 36
1.0
 17
0.0
 27
0.0
 37
0.0
 40
297.0
 41
1.4141414141
 42
50.0
 43
0.0
 44
0.0
 50
0.0
 51
0.0
 71
     0
 72
  2000
 73
     1
 74
     3
 75
     0
 76
     0
 77
     0
 78
     0
  0
ENDTAB
  0
TABLE
  2
LTYPE
 70
     6
  0
LTYPE
  2
CONTINUOUS
 70
     0
  3
Solid line
 72
    65
 73
     0
 40
0.0
  0
LTYPE
  2
HIDDEN
 70
     0
  3
Hidden __ __ __ __ __ __ __ __ __ __ __ __ __ __
 72
    65
 73
     2
 40
1.905
 49
1.27
 49
-0.635
  0
LTYPE
  2
PHANTOM
 70
     0
  3
Phantom ______  __  __  ______  __  __  ______
 72
    65
 73
     6
 40
12.7
 49
6.35
 49
-1.27
 49
1.27
 49
-1.27
 49
1.27
 49
-1.27
  0
LTYPE
  2
CENTER
 70
     0
  3
Center ____ _ ____ _ ____ _ ____ _ ____ _ ____
 72
    65
 73
     4
 40
10.16
 49
6.35
 49
-1.27
 49
1.27
 49
-1.27
  0
LTYPE
  2
CENTERX2
 70
     0
  3
Center (2x) ________  __  ________  __  _____
 72
    65
 73
     4
 40
20.32
 49
12.7
 49
-2.54
 49
2.54
 49
-2.54
  0
LTYPE
  2
DOT2
 70
     0
  3
Dot (.5x) ........................................
 72
    65
 73
     2
 40
0.635
 49
0.0
 49
-0.635
  0
ENDTAB
  0
TABLE
  2
LAYER
 70
     1
  0
LAYER
  2
0
 70
     0
 62
     7
  6
CONTINUOUS
  0
ENDTAB
  0
TABLE
  2
STYLE
 70
     1
  0
STYLE
  2
STANDARD
 70
     0
 40
0.0
 41
1.0
 50
0.0
 71
     0
 42
3.5
  3
txt
  4

  0
ENDTAB
  0
TABLE
  2
VIEW
 70
     0
  0
ENDTAB
  0
TABLE
  2
UCS
 70
     0
  0
ENDTAB
  0
TABLE
  2
APPID
 70
     1
  0
APPID
  2
ACAD
 70
     0
  0
ENDTAB
  0
TABLE
  2
DIMSTYLE
 70
     8
  0
DIMSTYLE
  2
ISO-25
 70
     0
  3

  4

  5

  6

  7

 40
1.0
 41
2.5
 42
0.625
 43
3.75
 44
1.25
 45
0.0
 46
0.0
 47
0.0
 48
0.0
140
2.5
141
2.5
142
0.0
143
0.0393700787
144
1.0
145
0.0
146
1.0
147
0.625
 71
     0
 72
     0
 73
     0
 74
     0
 75
     0
 76
     0
 77
     1
 78
     8
170
     0
171
     3
172
     1
173
     0
174
     0
175
     0
176
     0
177
     0
178
     0
  0
DIMSTYLE
  2
SLDDIMSTYLE0
 70
     0
  3

  4

  5

  6

  7

 40
1.0
 41
3.3
 42
0.0625
 43
0.38
 44
0.0
 45
0.000000001
 46
0.0
 47
0.0
 48
0.0
140
3.5
141
0.0
142
0.0
143
25.4
144
1.0
145
0.0
146
1.0
147
0.875
 71
     0
 72
     0
 73
     0
 74
     0
 75
     0
 76
     0
 77
     1
 78
    12
170
     0
171
     2
172
     0
173
     1
174
     0
175
     0
176
     0
177
     0
178
     0
  0
DIMSTYLE
  2
SLDDIMSTYLE1
 70
     0
  3

  4

  5

  6

  7

 40
1.0
 41
3.3
 42
0.0625
 43
0.38
 44
0.0
 45
0.000000001
 46
0.0
 47
0.0
 48
0.0
140
3.5
141
0.09
142
0.0
143
25.4
144
1.0
145
0.0
146
1.0
147
0.875
 71
     0
 72
     0
 73
     0
 74
     0
 75
     0
 76
     0
 77
     1
 78
    12
170
     0
171
     2
172
     0
173
     1
174
     0
175
     0
176
     0
177
     0
178
     0
  0
DIMSTYLE
  2
SLDDIMSTYLE2
 70
     0
  3

  4

  5

  6

  7

 40
1.0
 41
3.3
 42
0.0625
 43
0.38
 44
0.0
 45
0.000000001
 46
0.0
 47
0.0
 48
0.0
140
3.5
141
0.09
142
0.0
143
25.4
144
1.0
145
0.0
146
1.0
147
0.875
 71
     0
 72
     0
 73
     0
 74
     0
 75
     0
 76
     0
 77
     1
 78
    12
170
     0
171
     2
172
     0
173
     1
174
     0
175
     0
176
     0
177
     0
178
     0
  0
DIMSTYLE
  2
SLDDIMSTYLE3
 70
     0
  3

  4

  5

  6

  7

 40
1.0
 41
3.3
 42
0.0625
 43
0.38
 44
0.0
 45
0.000000001
 46
0.0
 47
0.0
 48
0.0
140
3.5
141
0.09
142
0.0
143
25.4
144
1.0
145
0.0
146
1.0
147
0.875
 71
     0
 72
     0
 73
     0
 74
     0
 75
     0
 76
     0
 77
     1
 78
    12
170
     0
171
     2
172
     1
173
     1
174
     0
175
     0
176
     0
177
     0
178
     0
  0
DIMSTYLE
  2
SLDDIMSTYLE4
 70
     0
  3

  4

  5

  6

  7

 40
1.0
 41
3.3
 42
0.0625
 43
0.38
 44
0.0
 45
0.000000001
 46
0.0
 47
0.0
 48
0.0
140
3.5
141
0.09
142
0.0
143
25.4
144
1.0
145
0.0
146
1.0
147
0.875
 71
     0
 72
     0
 73
     0
 74
     0
 75
     0
 76
     0
 77
     1
 78
    12
170
     0
171
     2
172
     1
173
     1
174
     0
175
     0
176
     0
177
     0
178
     0
  0
DIMSTYLE
  2
SLDDIMSTYLE5
 70
     0
  3

  4

  5

  6
NONE
  7

 40
1.0
 41
3.3
 42
0.0625
 43
0.38
 44
0.0
 45
0.000000001
 46
0.0
 47
0.0
 48
0.0
140
3.5
141
0.0
142
0.0
143
25.4
144
1.0
145
0.0
146
1.0
147
0.875
 71
     0
 72
     0
 73
     0
 74
     0
 75
     0
 76
     0
 77
     1
 78
    12
170
     0
171
     2
172
     1
173
     1
174
     0
175
     0
176
     0
177
     0
178
     0
  0
DIMSTYLE
  2
SLDDIMSTYLE6
 70
     0
  3

  4

  5

  6
NONE
  7

 40
1.0
 41
3.3
 42
0.0625
 43
0.38
 44
0.0
 45
0.000000001
 46
0.0
 47
0.0
 48
0.0
140
3.5
141
0.0
142
0.0
143
25.4
144
1.0
145
0.0
146
1.0
147
0.875
 71
     0
 72
     0
 73
     0
 74
     0
 75
     0
 76
     0
 77
     1
 78
    12
170
     0
171
     2
172
     1
173
     1
174
     0
175
     0
176
     0
177
     0
178
     0
  0
ENDTAB
  0
ENDSEC
  0
SECTION
  2
BLOCKS
  0
BLOCK
  8
0
  2
$MODEL_SPACE
 70
     0
 10
0.0
 20
0.0
 30
0.0
  3
$MODEL_SPACE
  1

  0
ENDBLK
  5
21
  8
0
  0
BLOCK
 67
     1
  8
0
  2
$PAPER_SPACE
 70
     0
 10
0.0
 20
0.0
 30
0.0
  3
$PAPER_SPACE
  1

  0
ENDBLK
  5
1D
 67
     1
  8
0
  0
BLOCK
  8
0
  2
BREUER_UND_SCHMITZ_LOGO
 70
     0
 10
0.0
 20
0.0
 30
0.0
  3
BREUER_UND_SCHMITZ_LOGO
  1

  0
ENDBLK
  5
65
  8
0
  0
BLOCK
  8
0
  2
_D
 70
     0
 10
0.0
 20
0.0
 30
0.0
  3
_D
  1

  0
SOLID
  5
146
  8
0
  6
CONTINUOUS
 62
     8
 10
130.5824466755
 20
238.3522760912
 30
0.0
 11
133.269452444
 21
240.3321750785
 31
0.0
 12
132.5623456628
 22
241.0392818597
 32
0.0
 13
132.5623456628
 23
241.0392818597
 33
0.0
  0
LINE
  5
147
  8
0
  6
CONTINUOUS
 62
     8
 10
130.5824466755
 20
238.3522760912
 30
0.0
 11
160.9338322314
 21
268.7036616472
 31
0.0
  0
LINE
  5
148
  8
0
  6
CONTINUOUS
 62
     8
 10
130.5824466755
 20
238.3522760912
 30
0.0
 11
123.5113788636
 21
231.2812082793
 31
0.0
  0
TEXT
  5
149
  8
0
  6
CONTINUOUS
 62
     8
 10
139.0862452741
 20
248.5952620971
 30
0.0
 40
3.5
  1
alternativ 
 50
45.0
 41
0.7
 11
139.9605193226
 21
247.7209880486
 31
0.0
 73
     1
  0
TEXT
  5
14A
  8
0
  6
CONTINUOUS
 62
     8
 10
153.8289310261
 20
263.3379478492
 30
0.0
 40
3.5
  1
R10
 50
45.0
 41
0.7
 11
154.7032050747
 21
262.4636738006
 31
0.0
 73
     1
  0
ENDBLK
  5
145
  8
0
  0
BLOCK
  8
0
  2
_D_1
 70
     0
 10
0.0
 20
0.0
 30
0.0
  3
_D_1
  1

  0
SOLID
  5
150
  8
0
  6
CONTINUOUS
 62
     7
 10
169.8605227211
 20
241.2812082793
 30
0.0
 11
169.3605227211
 21
237.9812082793
 31
0.0
 12
170.3605227211
 22
237.9812082793
 32
0.0
 13
170.3605227211
 23
237.9812082793
 33
0.0
  0
SOLID
  5
151
  8
0
  6
CONTINUOUS
 62
     7
 10
169.8605227211
 20
139.6812082793
 30
0.0
 11
170.3605227211
 21
142.9812082793
 31
0.0
 12
169.3605227211
 22
142.9812082793
 32
0.0
 13
169.3605227211
 23
142.9812082793
 33
0.0
  0
LINE
  5
152
  8
0
  6
CONTINUOUS
 62
     7
 10
134.5113788636
 20
241.2812082793
 30
0.0
 11
170.8605227211
 21
241.2812082793
 31
0.0
  0
LINE
  5
153
  8
0
  6
CONTINUOUS
 62
     7
 10
134.5113788636
 20
139.6812082793
 30
0.0
 11
170.8605227211
 21
139.6812082793
 31
0.0
  0
LINE
  5
154
  8
0
  6
CONTINUOUS
 62
     7
 10
169.8605227211
 20
241.2812082793
 30
0.0
 11
169.8605227211
 21
139.6812082793
 31
0.0
  0
TEXT
  5
155
  8
0
  6
CONTINUOUS
 62
     7
 10
168.6241122715
 20
184.4655834284
 30
10.95
 40
3.5
  1
101,6
 50
90.0
 41
0.7
 11
169.8605224883
 21
184.4655834284
 31
10.95
 73
     1
  0
ENDBLK
  5
14F
  8
0
  0
BLOCK
  8
0
  2
_D_2
 70
     0
 10
0.0
 20
0.0
 30
0.0
  3
_D_2
  1

  0
SOLID
  5
15B
  8
0
  6
CONTINUOUS
 62
     7
 10
72.6113788636
 20
254.2812082793
 30
0.0
 11
75.9113788636
 21
253.7812082793
 31
0.0
 12
75.9113788636
 22
254.7812082793
 32
0.0
 13
75.9113788636
 23
254.7812082793
 33
0.0
  0
SOLID
  5
15C
  8
0
  6
CONTINUOUS
 62
     7
 10
133.5113788636
 20
254.2812082793
 30
0.0
 11
130.2113788636
 21
254.7812082793
 31
0.0
 12
130.2113788636
 22
253.7812082793
 32
0.0
 13
130.2113788636
 23
253.7812082793
 33
0.0
  0
LINE
  5
15D
  8
0
  6
CONTINUOUS
 62
     7
 10
72.6113788636
 20
242.2812082793
 30
0.0
 11
72.6113788636
 21
255.2812082793
 31
0.0
  0
LINE
  5
15E
  8
0
  6
CONTINUOUS
 62
     7
 10
133.5113788636
 20
242.2812082793
 30
0.0
 11
133.5113788636
 21
255.2812082793
 31
0.0
  0
LINE
  5
15F
  8
0
  6
CONTINUOUS
 62
     7
 10
72.6113788636
 20
254.2812082793
 30
0.0
 11
133.5113788636
 21
254.2812082793
 31
0.0
  0
TEXT
  5
160
  8
0
  6
CONTINUOUS
 62
     7
 10
100.3877678188
 20
255.5176187289
 30
10.95
 40
3.5
  1
61
 50
360.0
 41
0.7
 11
100.3877678188
 21
254.2812085122
 31
10.95
 73
     1
  0
ENDBLK
  5
15A
  8
0
  0
BLOCK
  8
0
  2
_D_3
 70
     0
 10
0.0
 20
0.0
 30
0.0
  3
_D_3
  1

  0
SOLID
  5
166
  8
0
  6
CONTINUOUS
 62
     7
 10
72.6113788636
 20
121.5541055294
 30
0.0
 11
69.3113788636
 21
122.0541055294
 31
0.0
 12
69.3113788636
 22
121.0541055294
 32
0.0
 13
69.3113788636
 23
121.0541055294
 33
0.0
  0
SOLID
  5
167
  8
0
  6
CONTINUOUS
 62
     7
 10
84.1113788636
 20
121.5541055294
 30
0.0
 11
87.4113788636
 21
121.0541055294
 31
0.0
 12
87.4113788636
 22
122.0541055294
 32
0.0
 13
87.4113788636
 23
122.0541055294
 33
0.0
  0
LINE
  5
168
  8
0
  6
CONTINUOUS
 62
     7
 10
72.6113788636
 20
138.6812082793
 30
0.0
 11
72.6113788636
 21
120.5541055294
 31
0.0
  0
LINE
  5
169
  8
0
  6
CONTINUOUS
 62
     7
 10
84.1113788636
 20
145.2312082793
 30
0.0
 11
84.1113788636
 21
120.5541055294
 31
0.0
  0
LINE
  5
16A
  8
0
  6
CONTINUOUS
 62
     7
 10
72.6113788636
 20
121.5541055294
 30
0.0
 11
66.3613788636
 21
121.5541055294
 31
0.0
  0
LINE
  5
16B
  8
0
  6
CONTINUOUS
 62
     7
 10
72.6113788636
 20
121.5541055294
 30
0.0
 11
84.1113788636
 21
121.5541055294
 31
0.0
  0
LINE
  5
16C
  8
0
  6
CONTINUOUS
 62
     7
 10
84.1113788636
 20
121.5541055294
 30
0.0
 11
90.3613788636
 21
121.5541055294
 31
0.0
  0
TEXT
  5
16D
  8
0
  6
CONTINUOUS
 62
     7
 10
73.6825595351
 20
122.790515979
 30
10.95
 40
3.5
  1
11,5
 50
360.0
 41
0.7
 11
73.6825595351
 21
121.5541057623
 31
10.95
 73
     1
  0
ENDBLK
  5
165
  8
0
  0
BLOCK
  8
0
  2
_D_4
 70
     0
 10
0.0
 20
0.0
 30
0.0
  3
_D_4
  1

  0
SOLID
  5
172
  8
0
  6
CONTINUOUS
 62
     7
 10
119.0113788636
 20
131.5541055294
 30
0.0
 11
115.7113788636
 21
132.0541055294
 31
0.0
 12
115.7113788636
 22
131.0541055294
 32
0.0
 13
115.7113788636
 23
131.0541055294
 33
0.0
  0
SOLID
  5
173
  8
0
  6
CONTINUOUS
 62
     7
 10
125.0113788636
 20
131.5541055294
 30
0.0
 11
128.3113788636
 21
131.0541055294
 31
0.0
 12
128.3113788636
 22
132.0541055294
 32
0.0
 13
128.3113788636
 23
132.0541055294
 33
0.0
  0
LINE
  5
174
  8
0
  6
CONTINUOUS
 62
     7
 10
119.0113788636
 20
152.7312082793
 30
0.0
 11
119.0113788636
 21
130.5541055294
 31
0.0
  0
LINE
  5
175
  8
0
  6
CONTINUOUS
 62
     7
 10
125.0113788636
 20
152.7312082793
 30
0.0
 11
125.0113788636
 21
130.5541055294
 31
0.0
  0
LINE
  5
176
  8
0
  6
CONTINUOUS
 62
     7
 10
119.0113788636
 20
131.5541055294
 30
0.0
 11
112.7613788636
 21
131.5541055294
 31
0.0
  0
LINE
  5
177
  8
0
  6
CONTINUOUS
 62
     7
 10
119.0113788636
 20
131.5541055294
 30
0.0
 11
125.0113788636
 21
131.5541055294
 31
0.0
  0
LINE
  5
178
  8
0
  6
CONTINUOUS
 62
     7
 10
125.0113788636
 20
131.5541055294
 30
0.0
 11
136.6191820889
 21
131.5541055294
 31
0.0
  0
TEXT
  5
179
  8
0
  6
CONTINUOUS
 62
     7
 10
128.8426194988
 20
132.7905157461
 30
10.95
 40
3.5
  1
%%c
 41
0.7
 11
128.8426194988
 21
131.5541055294
 31
10.95
 73
     1
  0
TEXT
  5
17A
  8
0
  6
CONTINUOUS
 62
     7
 10
133.9455710441
 20
132.8002380553
 30
10.95
 40
3.5
  1
6
 41
0.7
 11
133.9455710441
 21
131.5638278386
 31
10.95
 73
     1
  0
ENDBLK
  5
171
  8
0
  0
BLOCK
  8
0
  2
_D_5
 70
     0
 10
0.0
 20
0.0
 30
0.0
  3
_D_5
  1

  0
SOLID
  5
17F
  8
0
  6
CONTINUOUS
 62
     7
 10
117.0113788636
 20
122.6812082793
 30
0.0
 11
113.7113788636
 21
123.1812082793
 31
0.0
 12
113.7113788636
 22
122.1812082793
 32
0.0
 13
113.7113788636
 23
122.1812082793
 33
0.0
  0
SOLID
  5
180
  8
0
  6
CONTINUOUS
 62
     7
 10
127.0113788636
 20
122.6812082793
 30
0.0
 11
130.3113788636
 21
122.1812082793
 31
0.0
 12
130.3113788636
 22
123.1812082793
 32
0.0
 13
130.3113788636
 23
123.1812082793
 33
0.0
  0
LINE
  5
181
  8
0
  6
CONTINUOUS
 62
     7
 10
117.0113788636
 20
152.7312082793
 30
0.0
 11
117.0113788636
 21
121.6812082793
 31
0.0
  0
LINE
  5
182
  8
0
  6
CONTINUOUS
 62
     7
 10
127.0113788636
 20
152.7312082793
 30
0.0
 11
127.0113788636
 21
121.6812082793
 31
0.0
  0
LINE
  5
183
  8
0
  6
CONTINUOUS
 62
     7
 10
117.0113788636
 20
122.6812082793
 30
0.0
 11
110.7613788636
 21
122.6812082793
 31
0.0
  0
LINE
  5
184
  8
0
  6
CONTINUOUS
 62
     7
 10
117.0113788636
 20
122.6812082793
 30
0.0
 11
127.0113788636
 21
122.6812082793
 31
0.0
  0
LINE
  5
185
  8
0
  6
CONTINUOUS
 62
     7
 10
127.0113788636
 20
122.6812082793
 30
0.0
 11
149.8849551848
 21
122.6812082793
 31
0.0
  0
TEXT
  5
186
  8
0
  6
CONTINUOUS
 62
     7
 10
129.5326977691
 20
123.9176184961
 30
10.95
 40
3.5
  1
%%c
 41
0.7
 11
129.5326977691
 21
122.6812082793
 31
10.95
 73
     1
  0
TEXT
  5
187
  8
0
  6
CONTINUOUS
 62
     7
 10
134.6356493144
 20
123.9273408052
 30
10.95
 40
3.5
  1
10
 41
0.7
 11
134.6356493144
 21
122.6909305885
 31
10.95
 73
     1
  0
TEXT
  5
188
  8
0
  6
CONTINUOUS
 62
     7
 10
139.9828709385
 20
123.9273408052
 30
10.95
 40
3.5
  1
x90
 41
0.7
 11
139.9828709385
 21
122.6909305885
 31
10.95
 73
     1
  0
TEXT
  5
189
  8
0
  6
CONTINUOUS
 62
     7
 10
147.7363437137
 20
123.9176184961
 30
10.95
 40
3.5
  1
%%d
 41
0.7
 11
147.7363437137
 21
122.6812082793
 31
10.95
 73
     1
  0
ENDBLK
  5
17E
  8
0
  0
BLOCK
  8
0
  2
_D_6
 70
     0
 10
0.0
 20
0.0
 30
0.0
  3
_D_6
  1

  0
SOLID
  5
18E
  8
0
  6
CONTINUOUS
 62
     7
 10
141.9619230456
 20
202.7312082793
 30
0.0
 11
141.4619230456
 21
199.4312082793
 31
0.0
 12
142.4619230456
 22
199.4312082793
 32
0.0
 13
142.4619230456
 23
199.4312082793
 33
0.0
  0
SOLID
  5
18F
  8
0
  6
CONTINUOUS
 62
     7
 10
141.9619230456
 20
178.2312082793
 30
0.0
 11
142.4619230456
 21
181.5312082793
 31
0.0
 12
141.4619230456
 22
181.5312082793
 32
0.0
 13
141.4619230456
 23
181.5312082793
 33
0.0
  0
LINE
  5
190
  8
0
  6
CONTINUOUS
 62
     7
 10
130.5113788636
 20
202.7312082793
 30
0.0
 11
142.9619230456
 21
202.7312082793
 31
0.0
  0
LINE
  5
191
  8
0
  6
CONTINUOUS
 62
     7
 10
135.5113788636
 20
178.2312082793
 30
0.0
 11
142.9619230456
 21
178.2312082793
 31
0.0
  0
LINE
  5
192
  8
0
  6
CONTINUOUS
 62
     7
 10
141.9619230456
 20
202.7312082793
 30
0.0
 11
141.9619230456
 21
178.2312082793
 31
0.0
  0
TEXT
  5
193
  8
0
  6
CONTINUOUS
 62
     7
 10
140.7255125961
 20
185.8023889508
 30
10.95
 40
3.5
  1
24,5
 50
90.0
 41
0.7
 11
141.9619228128
 21
185.8023889508
 31
10.95
 73
     1
  0
ENDBLK
  5
18D
  8
0
  0
BLOCK
  8
0
  2
_D_7
 70
     0
 10
0.0
 20
0.0
 30
0.0
  3
_D_7
  1

  0
SOLID
  5
198
  8
0
  6
CONTINUOUS
 62
     7
 10
150.5113788636
 20
227.2312082793
 30
0.0
 11
150.0113788636
 21
223.9312082793
 31
0.0
 12
151.0113788636
 22
223.9312082793
 32
0.0
 13
151.0113788636
 23
223.9312082793
 33
0.0
  0
SOLID
  5
199
  8
0
  6
CONTINUOUS
 62
     7
 10
150.5113788636
 20
153.7312082793
 30
0.0
 11
151.0113788636
 21
157.0312082793
 31
0.0
 12
150.0113788636
 22
157.0312082793
 32
0.0
 13
150.0113788636
 23
157.0312082793
 33
0.0
  0
LINE
  5
19A
  8
0
  6
CONTINUOUS
 62
     7
 10
135.5113788636
 20
227.2312082793
 30
0.0
 11
151.5113788636
 21
227.2312082793
 31
0.0
  0
LINE
  5
19B
  8
0
  6
CONTINUOUS
 62
     7
 10
130.5113788636
 20
153.7312082793
 30
0.0
 11
151.5113788636
 21
153.7312082793
 31
0.0
  0
LINE
  5
19C
  8
0
  6
CONTINUOUS
 62
     7
 10
150.5113788636
 20
227.2312082793
 30
0.0
 11
150.5113788636
 21
153.7312082793
 31
0.0
  0
TEXT
  5
19D
  8
0
  6
CONTINUOUS
 62
     7
 10
149.2749684141
 20
185.8023889508
 30
10.95
 40
3.5
  1
73,5
 50
90.0
 41
0.7
 11
150.5113786308
 21
185.8023889508
 31
10.95
 73
     1
  0
ENDBLK
  5
197
  8
0
  0
BLOCK
  8
0
  2
_D_8
 70
     0
 10
0.0
 20
0.0
 30
0.0
  3
_D_8
  1

  0
SOLID
  5
1A2
  8
0
  6
CONTINUOUS
 62
     7
 10
79.1113788636
 20
165.2100486857
 30
0.0
 11
82.4113788636
 21
164.7100486857
 31
0.0
 12
82.4113788636
 22
165.7100486857
 32
0.0
 13
82.4113788636
 23
165.7100486857
 33
0.0
  0
SOLID
  5
1A3
  8
0
  6
CONTINUOUS
 62
     7
 10
72.6113788636
 20
165.2100486857
 30
0.0
 11
69.3113788636
 21
165.7100486857
 31
0.0
 12
69.3113788636
 22
164.7100486857
 32
0.0
 13
69.3113788636
 23
164.7100486857
 33
0.0
  0
LINE
  5
1A4
  8
0
  6
CONTINUOUS
 62
     7
 10
79.1113788636
 20
169.7312082793
 30
0.0
 11
79.1113788636
 21
164.2100486857
 31
0.0
  0
LINE
  5
1A5
  8
0
  6
CONTINUOUS
 62
     7
 10
79.1113788636
 20
165.2100486857
 30
0.0
 11
85.3613788636
 21
165.2100486857
 31
0.0
  0
LINE
  5
1A6
  8
0
  6
CONTINUOUS
 62
     7
 10
79.1113788636
 20
165.2100486857
 30
0.0
 11
72.6113788636
 21
165.2100486857
 31
0.0
  0
LINE
  5
1A7
  8
0
  6
CONTINUOUS
 62
     7
 10
72.6113788636
 20
165.2100486857
 30
0.0
 11
66.3613788636
 21
165.2100486857
 31
0.0
  0
TEXT
  5
1A8
  8
0
  6
CONTINUOUS
 62
     7
 10
72.5193650575
 20
166.4464591352
 30
10.95
 40
3.5
  1
6,5
 50
0.0
 41
0.7
 11
72.5193650575
 21
165.2100489185
 31
10.95
 73
     1
  0
ENDBLK
  5
1A1
  8
0
  0
BLOCK
  8
0
  2
SW_CENTERMARKSYMBOL_0
 70
     0
 10
0.0
 20
0.0
 30
0.0
  3
SW_CENTERMARKSYMBOL_0
  1

  0
LINE
  5
1AC
  8
0
  6
CONTINUOUS
 62
     0
 10
0.0
 20
0.0
 30
0.0
 11
0.0
 21
2.5
 31
0.0
  0
LINE
  5
1AD
  8
0
  6
CONTINUOUS
 62
     0
 10
0.0
 20
0.0
 30
0.0
 11
-2.5
 21
0.0
 31
0.0
  0
LINE
  5
1AE
  8
0
  6
CONTINUOUS
 62
     0
 10
0.0
 20
0.0
 30
0.0
 11
0.0
 21
-2.5
 31
0.0
  0
LINE
  5
1AF
  8
0
  6
CONTINUOUS
 62
     0
 10
0.0
 20
0.0
 30
0.0
 11
2.5
 21
0.0
 31
0.0
  0
LINE
  5
1B0
  8
0
  6
CONTINUOUS
 62
     0
 10
0.0
 20
5.0
 30
0.0
 11
0.0
 21
7.5
 31
0.0
  0
LINE
  5
1B1
  8
0
  6
CONTINUOUS
 62
     0
 10
-5.0
 20
0.0
 30
0.0
 11
-7.5
 21
0.0
 31
0.0
  0
LINE
  5
1B2
  8
0
  6
CONTINUOUS
 62
     0
 10
0.0
 20
-5.0
 30
0.0
 11
0.0
 21
-7.5
 31
0.0
  0
LINE
  5
1B3
  8
0
  6
CONTINUOUS
 62
     0
 10
5.0
 20
0.0
 30
0.0
 11
7.5
 21
0.0
 31
0.0
  0
ENDBLK
  5
1AB
  8
0
  0
BLOCK
  8
0
  2
SW_CENTERMARKSYMBOL_1
 70
     0
 10
0.0
 20
0.0
 30
0.0
  3
SW_CENTERMARKSYMBOL_1
  1

  0
LINE
  5
1B8
  8
0
  6
CONTINUOUS
 62
     0
 10
0.0
 20
0.0
 30
0.0
 11
0.0
 21
2.5
 31
0.0
  0
LINE
  5
1B9
  8
0
  6
CONTINUOUS
 62
     0
 10
0.0
 20
0.0
 30
0.0
 11
-2.5
 21
0.0
 31
0.0
  0
LINE
  5
1BA
  8
0
  6
CONTINUOUS
 62
     0
 10
0.0
 20
0.0
 30
0.0
 11
0.0
 21
-2.5
 31
0.0
  0
LINE
  5
1BB
  8
0
  6
CONTINUOUS
 62
     0
 10
0.0
 20
0.0
 30
0.0
 11
2.5
 21
0.0
 31
0.0
  0
LINE
  5
1BC
  8
0
  6
CONTINUOUS
 62
     0
 10
0.0
 20
5.0
 30
0.0
 11
0.0
 21
7.5
 31
0.0
  0
LINE
  5
1BD
  8
0
  6
CONTINUOUS
 62
     0
 10
-5.0
 20
0.0
 30
0.0
 11
-7.5
 21
0.0
 31
0.0
  0
LINE
  5
1BE
  8
0
  6
CONTINUOUS
 62
     0
 10
0.0
 20
-5.0
 30
0.0
 11
0.0
 21
-7.5
 31
0.0
  0
LINE
  5
1BF
  8
0
  6
CONTINUOUS
 62
     0
 10
5.0
 20
0.0
 30
0.0
 11
7.5
 21
0.0
 31
0.0
  0
ENDBLK
  5
1B7
  8
0
  0
BLOCK
  8
0
  2
SW_CENTERMARKSYMBOL_2
 70
     0
 10
0.0
 20
0.0
 30
0.0
  3
SW_CENTERMARKSYMBOL_2
  1

  0
LINE
  5
1C4
  8
0
  6
CONTINUOUS
 62
     0
 10
0.0
 20
0.0
 30
0.0
 11
0.0
 21
2.5
 31
0.0
  0
LINE
  5
1C5
  8
0
  6
CONTINUOUS
 62
     0
 10
0.0
 20
0.0
 30
0.0
 11
-2.5
 21
0.0
 31
0.0
  0
LINE
  5
1C6
  8
0
  6
CONTINUOUS
 62
     0
 10
0.0
 20
0.0
 30
0.0
 11
0.0
 21
-2.5
 31
0.0
  0
LINE
  5
1C7
  8
0
  6
CONTINUOUS
 62
     0
 10
0.0
 20
0.0
 30
0.0
 11
2.5
 21
0.0
 31
0.0
  0
LINE
  5
1C8
  8
0
  6
CONTINUOUS
 62
     0
 10
0.0
 20
5.0
 30
0.0
 11
0.0
 21
7.5
 31
0.0
  0
LINE
  5
1C9
  8
0
  6
CONTINUOUS
 62
     0
 10
-5.0
 20
0.0
 30
0.0
 11
-7.5
 21
0.0
 31
0.0
  0
LINE
  5
1CA
  8
0
  6
CONTINUOUS
 62
     0
 10
0.0
 20
-5.0
 30
0.0
 11
0.0
 21
-7.5
 31
0.0
  0
LINE
  5
1CB
  8
0
  6
CONTINUOUS
 62
     0
 10
5.0
 20
0.0
 30
0.0
 11
7.5
 21
0.0
 31
0.0
  0
ENDBLK
  5
1C3
  8
0
  0
BLOCK
  8
0
  2
SW_CENTERMARKSYMBOL_3
 70
     0
 10
0.0
 20
0.0
 30
0.0
  3
SW_CENTERMARKSYMBOL_3
  1

  0
LINE
  5
1D0
  8
0
  6
CONTINUOUS
 62
     0
 10
0.0
 20
0.0
 30
0.0
 11
0.0
 21
2.5
 31
0.0
  0
LINE
  5
1D1
  8
0
  6
CONTINUOUS
 62
     0
 10
0.0
 20
0.0
 30
0.0
 11
-2.5
 21
0.0
 31
0.0
  0
LINE
  5
1D2
  8
0
  6
CONTINUOUS
 62
     0
 10
0.0
 20
0.0
 30
0.0
 11
0.0
 21
-2.5
 31
0.0
  0
LINE
  5
1D3
  8
0
  6
CONTINUOUS
 62
     0
 10
0.0
 20
0.0
 30
0.0
 11
2.5
 21
0.0
 31
0.0
  0
LINE
  5
1D4
  8
0
  6
CONTINUOUS
 62
     0
 10
0.0
 20
5.0
 30
0.0
 11
0.0
 21
7.5
 31
0.0
  0
LINE
  5
1D5
  8
0
  6
CONTINUOUS
 62
     0
 10
-5.0
 20
0.0
 30
0.0
 11
-7.5
 21
0.0
 31
0.0
  0
LINE
  5
1D6
  8
0
  6
CONTINUOUS
 62
     0
 10
0.0
 20
-5.0
 30
0.0
 11
0.0
 21
-7.5
 31
0.0
  0
LINE
  5
1D7
  8
0
  6
CONTINUOUS
 62
     0
 10
5.0
 20
0.0
 30
0.0
 11
7.5
 21
0.0
 31
0.0
  0
ENDBLK
  5
1CF
  8
0
  0
BLOCK
  8
0
  2
SW_CENTERMARKSYMBOL_4
 70
     0
 10
0.0
 20
0.0
 30
0.0
  3
SW_CENTERMARKSYMBOL_4
  1

  0
LINE
  5
1DC
  8
0
  6
CONTINUOUS
 62
     0
 10
0.0
 20
0.0
 30
0.0
 11
0.0
 21
2.5
 31
0.0
  0
LINE
  5
1DD
  8
0
  6
CONTINUOUS
 62
     0
 10
0.0
 20
0.0
 30
0.0
 11
-2.5
 21
0.0
 31
0.0
  0
LINE
  5
1DE
  8
0
  6
CONTINUOUS
 62
     0
 10
0.0
 20
0.0
 30
0.0
 11
0.0
 21
-2.5
 31
0.0
  0
LINE
  5
1DF
  8
0
  6
CONTINUOUS
 62
     0
 10
0.0
 20
0.0
 30
0.0
 11
2.5
 21
0.0
 31
0.0
  0
LINE
  5
1E0
  8
0
  6
CONTINUOUS
 62
     0
 10
0.0
 20
5.0
 30
0.0
 11
0.0
 21
7.5
 31
0.0
  0
LINE
  5
1E1
  8
0
  6
CONTINUOUS
 62
     0
 10
-5.0
 20
0.0
 30
0.0
 11
-7.5
 21
0.0
 31
0.0
  0
LINE
  5
1E2
  8
0
  6
CONTINUOUS
 62
     0
 10
0.0
 20
-5.0
 30
0.0
 11
0.0
 21
-7.5
 31
0.0
  0
LINE
  5
1E3
  8
0
  6
CONTINUOUS
 62
     0
 10
5.0
 20
0.0
 30
0.0
 11
7.5
 21
0.0
 31
0.0
  0
ENDBLK
  5
1DB
  8
0
  0
BLOCK
  8
0
  2
SW_CENTERMARKSYMBOL_5
 70
     0
 10
0.0
 20
0.0
 30
0.0
  3
SW_CENTERMARKSYMBOL_5
  1

  0
LINE
  5
1E8
  8
0
  6
CONTINUOUS
 62
     0
 10
0.0
 20
0.0
 30
0.0
 11
0.0
 21
2.5
 31
0.0
  0
LINE
  5
1E9
  8
0
  6
CONTINUOUS
 62
     0
 10
0.0
 20
0.0
 30
0.0
 11
-2.5
 21
0.0
 31
0.0
  0
LINE
  5
1EA
  8
0
  6
CONTINUOUS
 62
     0
 10
0.0
 20
0.0
 30
0.0
 11
0.0
 21
-2.5
 31
0.0
  0
LINE
  5
1EB
  8
0
  6
CONTINUOUS
 62
     0
 10
0.0
 20
0.0
 30
0.0
 11
2.5
 21
0.0
 31
0.0
  0
LINE
  5
1EC
  8
0
  6
CONTINUOUS
 62
     0
 10
0.0
 20
5.0
 30
0.0
 11
0.0
 21
7.5
 31
0.0
  0
LINE
  5
1ED
  8
0
  6
CONTINUOUS
 62
     0
 10
-5.0
 20
0.0
 30
0.0
 11
-7.5
 21
0.0
 31
0.0
  0
LINE
  5
1EE
  8
0
  6
CONTINUOUS
 62
     0
 10
0.0
 20
-5.0
 30
0.0
 11
0.0
 21
-7.5
 31
0.0
  0
LINE
  5
1EF
  8
0
  6
CONTINUOUS
 62
     0
 10
5.0
 20
0.0
 30
0.0
 11
7.5
 21
0.0
 31
0.0
  0
ENDBLK
  5
1E7
  8
0
  0
BLOCK
  8
0
  2
SW_CENTERMARKSYMBOL_6
 70
     0
 10
0.0
 20
0.0
 30
0.0
  3
SW_CENTERMARKSYMBOL_6
  1

  0
LINE
  5
1F4
  8
0
  6
CONTINUOUS
 62
     0
 10
0.0
 20
0.0
 30
0.0
 11
0.0
 21
2.5
 31
0.0
  0
LINE
  5
1F5
  8
0
  6
CONTINUOUS
 62
     0
 10
0.0
 20
0.0
 30
0.0
 11
-2.5
 21
0.0
 31
0.0
  0
LINE
  5
1F6
  8
0
  6
CONTINUOUS
 62
     0
 10
0.0
 20
0.0
 30
0.0
 11
0.0
 21
-2.5
 31
0.0
  0
LINE
  5
1F7
  8
0
  6
CONTINUOUS
 62
     0
 10
0.0
 20
0.0
 30
0.0
 11
2.5
 21
0.0
 31
0.0
  0
LINE
  5
1F8
  8
0
  6
CONTINUOUS
 62
     0
 10
0.0
 20
5.0
 30
0.0
 11
0.0
 21
7.5
 31
0.0
  0
LINE
  5
1F9
  8
0
  6
CONTINUOUS
 62
     0
 10
-5.0
 20
0.0
 30
0.0
 11
-7.5
 21
0.0
 31
0.0
  0
LINE
  5
1FA
  8
0
  6
CONTINUOUS
 62
     0
 10
0.0
 20
-5.0
 30
0.0
 11
0.0
 21
-7.5
 31
0.0
  0
LINE
  5
1FB
  8
0
  6
CONTINUOUS
 62
     0
 10
5.0
 20
0.0
 30
0.0
 11
7.5
 21
0.0
 31
0.0
  0
ENDBLK
  5
1F3
  8
0
  0
BLOCK
  8
0
  2
SW_CENTERMARKSYMBOL_7
 70
     0
 10
0.0
 20
0.0
 30
0.0
  3
SW_CENTERMARKSYMBOL_7
  1

  0
LINE
  5
200
  8
0
  6
CONTINUOUS
 62
     0
 10
0.0
 20
0.0
 30
0.0
 11
0.0
 21
2.5
 31
0.0
  0
LINE
  5
201
  8
0
  6
CONTINUOUS
 62
     0
 10
0.0
 20
0.0
 30
0.0
 11
-2.5
 21
0.0
 31
0.0
  0
LINE
  5
202
  8
0
  6
CONTINUOUS
 62
     0
 10
0.0
 20
0.0
 30
0.0
 11
0.0
 21
-2.5
 31
0.0
  0
LINE
  5
203
  8
0
  6
CONTINUOUS
 62
     0
 10
0.0
 20
0.0
 30
0.0
 11
2.5
 21
0.0
 31
0.0
  0
LINE
  5
204
  8
0
  6
CONTINUOUS
 62
     0
 10
0.0
 20
5.0
 30
0.0
 11
0.0
 21
7.5
 31
0.0
  0
LINE
  5
205
  8
0
  6
CONTINUOUS
 62
     0
 10
-5.0
 20
0.0
 30
0.0
 11
-7.5
 21
0.0
 31
0.0
  0
LINE
  5
206
  8
0
  6
CONTINUOUS
 62
     0
 10
0.0
 20
-5.0
 30
0.0
 11
0.0
 21
-7.5
 31
0.0
  0
LINE
  5
207
  8
0
  6
CONTINUOUS
 62
     0
 10
5.0
 20
0.0
 30
0.0
 11
7.5
 21
0.0
 31
0.0
  0
ENDBLK
  5
1FF
  8
0
  0
BLOCK
  8
0
  2
_D_9
 70
     0
 10
0.0
 20
0.0
 30
0.0
  3
_D_9
  1

  0
SOLID
  5
316
  8
0
  6
CONTINUOUS
 62
     7
 10
258.5095343445
 20
147.355902629
 30
0.0
 11
261.8095343445
 21
146.855902629
 31
0.0
 12
261.8095343445
 22
147.855902629
 32
0.0
 13
261.8095343445
 23
147.855902629
 33
0.0
  0
SOLID
  5
317
  8
0
  6
CONTINUOUS
 62
     7
 10
289.0095343445
 20
147.355902629
 30
0.0
 11
285.7095343445
 21
147.855902629
 31
0.0
 12
285.7095343445
 22
146.855902629
 32
0.0
 13
285.7095343445
 23
146.855902629
 33
0.0
  0
LINE
  5
318
  8
0
  6
CONTINUOUS
 62
     7
 10
258.5095343445
 20
199.5312082793
 30
0.0
 11
258.5095343445
 21
146.355902629
 31
0.0
  0
LINE
  5
319
  8
0
  6
CONTINUOUS
 62
     7
 10
289.0095343445
 20
188.0312082793
 30
0.0
 11
289.0095343445
 21
146.355902629
 31
0.0
  0
LINE
  5
31A
  8
0
  6
CONTINUOUS
 62
     7
 10
258.5095343445
 20
147.355902629
 30
0.0
 11
289.0095343445
 21
147.355902629
 31
0.0
  0
TEXT
  5
31B
  8
0
  6
CONTINUOUS
 62
     7
 10
269.0807150159
 20
148.5923130786
 30
0.0
 40
3.5
  1
30,5
 50
0.0
 41
0.7
 11
269.0807150159
 21
147.3559028619
 31
0.0
 73
     1
  0
ENDBLK
  5
315
  8
0
  0
BLOCK
  8
0
  2
_D_10
 70
     0
 10
0.0
 20
0.0
 30
0.0
  3
_D_10
  1

  0
SOLID
  5
320
  8
0
  6
CONTINUOUS
 62
     7
 10
263.0095343445
 20
154.7608121912
 30
0.0
 11
266.3095343445
 21
154.2608121912
 31
0.0
 12
266.3095343445
 22
155.2608121912
 32
0.0
 13
266.3095343445
 23
155.2608121912
 33
0.0
  0
SOLID
  5
321
  8
0
  6
CONTINUOUS
 62
     7
 10
289.0095343445
 20
154.7608121912
 30
0.0
 11
285.7095343445
 21
155.2608121912
 31
0.0
 12
285.7095343445
 22
154.2608121912
 32
0.0
 13
285.7095343445
 23
154.2608121912
 33
0.0
  0
LINE
  5
322
  8
0
  6
CONTINUOUS
 62
     7
 10
263.0095343445
 20
188.0312082793
 30
0.0
 11
263.0095343445
 21
153.7608121912
 31
0.0
  0
LINE
  5
323
  8
0
  6
CONTINUOUS
 62
     7
 10
289.0095343445
 20
188.0312082793
 30
0.0
 11
289.0095343445
 21
153.7608121912
 31
0.0
  0
LINE
  5
324
  8
0
  6
CONTINUOUS
 62
     7
 10
263.0095343445
 20
154.7608121912
 30
0.0
 11
289.0095343445
 21
154.7608121912
 31
0.0
  0
TEXT
  5
325
  8
0
  6
CONTINUOUS
 62
     7
 10
273.3359232996
 20
155.9972226407
 30
0.0
 40
3.5
  1
26
 50
0.0
 41
0.7
 11
273.3359232996
 21
154.760812424
 31
0.0
 73
     1
  0
ENDBLK
  5
31F
  8
0
  0
BLOCK
  8
0
  2
_D_11
 70
     0
 10
0.0
 20
0.0
 30
0.0
  3
_D_11
  1

  0
SOLID
  5
32A
  8
0
  6
CONTINUOUS
 62
     7
 10
240.7460330734
 20
210.5312082793
 30
0.0
 11
241.2460330734
 21
213.8312082793
 31
0.0
 12
240.2460330734
 22
213.8312082793
 32
0.0
 13
240.2460330734
 23
213.8312082793
 33
0.0
  0
SOLID
  5
32B
  8
0
  6
CONTINUOUS
 62
     7
 10
240.7460330734
 20
189.0312082793
 30
0.0
 11
240.2460330734
 21
185.7312082793
 31
0.0
 12
241.2460330734
 22
185.7312082793
 32
0.0
 13
241.2460330734
 23
185.7312082793
 33
0.0
  0
LINE
  5
32C
  8
0
  6
CONTINUOUS
 62
     7
 10
247.5095343445
 20
210.5312082793
 30
0.0
 11
239.7460330734
 21
210.5312082793
 31
0.0
  0
LINE
  5
32D
  8
0
  6
CONTINUOUS
 62
     7
 10
262.0095343445
 20
189.0312082793
 30
0.0
 11
239.7460330734
 21
189.0312082793
 31
0.0
  0
LINE
  5
32E
  8
0
  6
CONTINUOUS
 62
     7
 10
240.7460330734
 20
210.5312082793
 30
0.0
 11
240.7460330734
 21
216.7812082793
 31
0.0
  0
LINE
  5
32F
  8
0
  6
CONTINUOUS
 62
     7
 10
240.7460330734
 20
210.5312082793
 30
0.0
 11
240.7460330734
 21
189.0312082793
 31
0.0
  0
LINE
  5
330
  8
0
  6
CONTINUOUS
 62
     7
 10
240.7460330734
 20
189.0312082793
 30
0.0
 11
240.7460330734
 21
182.7812082793
 31
0.0
  0
TEXT
  5
331
  8
0
  6
CONTINUOUS
 62
     7
 10
239.5096226238
 20
195.1023889508
 30
0.0
 40
3.5
  1
21,5
 50
90.0
 41
0.7
 11
240.7460328406
 21
195.1023889508
 31
0.0
 73
     1
  0
ENDBLK
  5
329
  8
0
  0
BLOCK
  8
0
  2
_D_12
 70
     0
 10
0.0
 20
0.0
 30
0.0
  3
_D_12
  1

  0
SOLID
  5
337
  8
0
  6
CONTINUOUS
 62
     7
 10
325.3691980801
 20
195.9312082793
 30
0.0
 11
325.8691980801
 21
199.2312082793
 31
0.0
 12
324.8691980801
 22
199.2312082793
 32
0.0
 13
324.8691980801
 23
199.2312082793
 33
0.0
  0
SOLID
  5
338
  8
0
  6
CONTINUOUS
 62
     7
 10
325.3691980801
 20
189.0312082793
 30
0.0
 11
324.8691980801
 21
185.7312082793
 31
0.0
 12
325.8691980801
 22
185.7312082793
 32
0.0
 13
325.8691980801
 23
185.7312082793
 33
0.0
  0
LINE
  5
339
  8
0
  6
CONTINUOUS
 62
     7
 10
290.0095343445
 20
195.9312082793
 30
0.0
 11
326.3691980801
 21
195.9312082793
 31
0.0
  0
LINE
  5
33A
  8
0
  6
CONTINUOUS
 62
     7
 10
290.0095343445
 20
189.0312082793
 30
0.0
 11
326.3691980801
 21
189.0312082793
 31
0.0
  0
LINE
  5
33B
  8
0
  6
CONTINUOUS
 62
     7
 10
325.3691980801
 20
195.9312082793
 30
0.0
 11
325.3691980801
 21
202.1812082793
 31
0.0
  0
LINE
  5
33C
  8
0
  6
CONTINUOUS
 62
     7
 10
325.3691980801
 20
195.9312082793
 30
0.0
 11
325.3691980801
 21
189.0312082793
 31
0.0
  0
LINE
  5
33D
  8
0
  6
CONTINUOUS
 62
     7
 10
325.3691980801
 20
189.0312082793
 30
0.0
 11
325.3691980801
 21
182.7812082793
 31
0.0
  0
TEXT
  5
33E
  8
0
  6
CONTINUOUS
 62
     7
 10
324.1327876305
 20
191.1444027569
 30
0.0
 40
3.5
  1
7
 50
90.0
 41
0.7
 11
325.3691978472
 21
191.1444027569
 31
0.0
 73
     1
  0
ENDBLK
  5
336
  8
0
  0
BLOCK
  8
0
  2
_D_13
 70
     0
 10
0.0
 20
0.0
 30
0.0
  3
_D_13
  1

  0
SOLID
  5
343
  8
0
  6
CONTINUOUS
 62
     7
 10
258.5095343445
 20
239.9312082793
 30
0.0
 11
261.8095343445
 21
239.4312082793
 31
0.0
 12
261.8095343445
 22
240.4312082793
 32
0.0
 13
261.8095343445
 23
240.4312082793
 33
0.0
  0
SOLID
  5
344
  8
0
  6
CONTINUOUS
 62
     7
 10
289.0095343445
 20
239.9312082793
 30
0.0
 11
285.7095343445
 21
240.4312082793
 31
0.0
 12
285.7095343445
 22
239.4312082793
 32
0.0
 13
285.7095343445
 23
239.4312082793
 33
0.0
  0
LINE
  5
345
  8
0
  6
CONTINUOUS
 62
     7
 10
258.5095343445
 20
221.5312082793
 30
0.0
 11
258.5095343445
 21
240.9312082793
 31
0.0
  0
LINE
  5
346
  8
0
  6
CONTINUOUS
 62
     7
 10
289.0095343445
 20
196.9312082793
 30
0.0
 11
289.0095343445
 21
240.9312082793
 31
0.0
  0
LINE
  5
347
  8
0
  6
CONTINUOUS
 62
     7
 10
258.5095343445
 20
239.9312082793
 30
0.0
 11
289.0095343445
 21
239.9312082793
 31
0.0
  0
TEXT
  5
348
  8
0
  6
CONTINUOUS
 62
     7
 10
269.0807150159
 20
241.1676187289
 30
0.0
 40
3.5
  1
30,5
 50
0.0
 41
0.7
 11
269.0807150159
 21
239.9312085122
 31
0.0
 73
     1
  0
ENDBLK
  5
342
  8
0
  0
BLOCK
  8
0
  2
_D_14
 70
     0
 10
0.0
 20
0.0
 30
0.0
  3
_D_14
  1

  0
SOLID
  5
34D
  8
0
  6
CONTINUOUS
 62
     7
 10
267.0095343445
 20
230.8617070977
 30
0.0
 11
270.3095343445
 21
230.3617070977
 31
0.0
 12
270.3095343445
 22
231.3617070977
 32
0.0
 13
270.3095343445
 23
231.3617070977
 33
0.0
  0
SOLID
  5
34E
  8
0
  6
CONTINUOUS
 62
     7
 10
289.0095343445
 20
230.8617070977
 30
0.0
 11
285.7095343445
 21
231.3617070977
 31
0.0
 12
285.7095343445
 22
230.3617070977
 32
0.0
 13
285.7095343445
 23
230.3617070977
 33
0.0
  0
LINE
  5
34F
  8
0
  6
CONTINUOUS
 62
     7
 10
267.0095343445
 20
223.9312082793
 30
0.0
 11
267.0095343445
 21
231.8617070977
 31
0.0
  0
LINE
  5
350
  8
0
  6
CONTINUOUS
 62
     7
 10
289.0095343445
 20
196.9312082793
 30
0.0
 11
289.0095343445
 21
231.8617070977
 31
0.0
  0
LINE
  5
351
  8
0
  6
CONTINUOUS
 62
     7
 10
267.0095343445
 20
230.8617070977
 30
0.0
 11
289.0095343445
 21
230.8617070977
 31
0.0
  0
TEXT
  5
352
  8
0
  6
CONTINUOUS
 62
     7
 10
275.3359232996
 20
232.0981175472
 30
0.0
 40
3.5
  1
22
 50
0.0
 41
0.7
 11
275.3359232996
 21
230.8617073305
 31
0.0
 73
     1
  0
ENDBLK
  5
34C
  8
0
  0
BLOCK
  8
0
  2
_NONE
 70
     0
 10
0.0
 20
0.0
 30
0.0
  3
_NONE
  1

  0
ENDBLK
  5
357
  8
0
  0
BLOCK
  8
0
  2
_D_15
 70
     0
 10
0.0
 20
0.0
 30
0.0
  3
_D_15
  1

  0
SOLID
  5
35B
  8
0
  6
CONTINUOUS
 62
     7
 10
253.2062334856
 20
215.8345091382
 30
0.0
 11
251.2263344982
 21
218.5215149068
 31
0.0
 12
250.5192277171
 22
217.8144081256
 32
0.0
 13
250.5192277171
 23
217.8144081256
 33
0.0
  0
LINE
  5
35C
  8
0
  6
CONTINUOUS
 62
     7
 10
253.2062334856
 20
215.8345091382
 30
0.0
 11
242.5202185
 21
226.5205241238
 31
0.0
  0
LINE
  5
35D
  8
0
  6
CONTINUOUS
 62
     7
 10
253.2062334856
 20
215.8345091382
 30
0.0
 11
263.8128352034
 21
205.2279074204
 31
0.0
  0
TEXT
  5
35E
  8
0
  6
CONTINUOUS
 62
     7
 10
243.3706576671
 20
227.3709632908
 30
0.0
 40
3.5
  1
%%c
 50
-45.0
 41
0.7
 11
242.4963836186
 21
226.4966892423
 31
0.0
 73
     1
  0
TEXT
  5
35F
  8
0
  6
CONTINUOUS
 62
     7
 10
246.9858640196
 20
223.7695063599
 30
0.0
 40
3.5
  1
15
 50
-45.0
 41
0.7
 11
246.111589971
 21
222.8952323113
 31
0.0
 73
     1
  0
ENDBLK
  5
35A
  8
0
  0
BLOCK
  8
0
  2
_D_16
 70
     0
 10
0.0
 20
0.0
 30
0.0
  3
_D_16
  1

  0
SOLID
  5
364
  8
0
  6
CONTINUOUS
 62
     7
 10
319.0693539354
 20
189.0312082793
 30
0.0
 11
318.5693539354
 21
185.7312082793
 31
0.0
 12
319.5693539354
 22
185.7312082793
 32
0.0
 13
319.5693539354
 23
185.7312082793
 33
0.0
  0
SOLID
  5
365
  8
0
  6
CONTINUOUS
 62
     7
 10
319.0693539354
 20
192.0312082793
 30
0.0
 11
319.5693539354
 21
195.3312082793
 31
0.0
 12
318.5693539354
 22
195.3312082793
 32
0.0
 13
318.5693539354
 23
195.3312082793
 33
0.0
  0
LINE
  5
366
  8
0
  6
CONTINUOUS
 62
     7
 10
290.0095343445
 20
189.0312082793
 30
0.0
 11
320.0693539354
 21
189.0312082793
 31
0.0
  0
LINE
  5
367
  8
0
  6
CONTINUOUS
 62
     7
 10
299.0095343445
 20
192.0312082793
 30
0.0
 11
320.0693539354
 21
192.0312082793
 31
0.0
  0
LINE
  5
368
  8
0
  6
CONTINUOUS
 62
     7
 10
319.0693539354
 20
189.0312082793
 30
0.0
 11
319.0693539354
 21
182.7812082793
 31
0.0
  0
LINE
  5
369
  8
0
  6
CONTINUOUS
 62
     7
 10
319.0693539354
 20
189.0312082793
 30
0.0
 11
319.0693539354
 21
192.0312082793
 31
0.0
  0
LINE
  5
36A
  8
0
  6
CONTINUOUS
 62
     7
 10
319.0693539354
 20
192.0312082793
 30
0.0
 11
319.0693539354
 21
198.2812082793
 31
0.0
  0
TEXT
  5
36B
  8
0
  6
CONTINUOUS
 62
     7
 10
317.8329434859
 20
189.1944027569
 30
0.0
 40
3.5
  1
3
 50
90.0
 41
0.7
 11
319.0693537026
 21
189.1944027569
 31
0.0
 73
     1
  0
ENDBLK
  5
363
  8
0
  0
BLOCK
  8
0
  2
SW_CENTERMARKSYMBOL_8
 70
     0
 10
0.0
 20
0.0
 30
0.0
  3
SW_CENTERMARKSYMBOL_8
  1

  0
LINE
  5
36F
  8
0
  6
CONTINUOUS
 62
     0
 10
0.0
 20
0.0
 30
0.0
 11
0.0
 21
-2.5
 31
0.0
  0
LINE
  5
370
  8
0
  6
CONTINUOUS
 62
     0
 10
0.0
 20
0.0
 30
0.0
 11
2.5
 21
0.0
 31
0.0
  0
LINE
  5
371
  8
0
  6
CONTINUOUS
 62
     0
 10
0.0
 20
0.0
 30
0.0
 11
0.0
 21
2.5
 31
0.0
  0
LINE
  5
372
  8
0
  6
CONTINUOUS
 62
     0
 10
0.0
 20
0.0
 30
0.0
 11
-2.5
 21
0.0
 31
0.0
  0
LINE
  5
373
  8
0
  6
CONTINUOUS
 62
     0
 10
0.0
 20
-5.0
 30
0.0
 11
0.0
 21
-10.0
 31
0.0
  0
LINE
  5
374
  8
0
  6
CONTINUOUS
 62
     0
 10
5.0
 20
0.0
 30
0.0
 11
10.0
 21
0.0
 31
0.0
  0
LINE
  5
375
  8
0
  6
CONTINUOUS
 62
     0
 10
0.0
 20
5.0
 30
0.0
 11
0.0
 21
10.0
 31
0.0
  0
LINE
  5
376
  8
0
  6
CONTINUOUS
 62
     0
 10
-5.0
 20
0.0
 30
0.0
 11
-10.0
 21
0.0
 31
0.0
  0
ENDBLK
  5
36E
  8
0
  0
BLOCK
  8
0
  2
_D_17
 70
     0
 10
0.0
 20
0.0
 30
0.0
  3
_D_17
  1

  0
SOLID
  5
3A1
  8
0
  6
CONTINUOUS
 62
     7
 10
97.6580668494
 20
71.4286287335
 30
0.0
 11
100.2520012713
 21
73.5289868493
 31
0.0
 12
99.5133882558
 22
74.2031165203
 32
0.0
 13
99.5133882558
 23
74.2031165203
 33
0.0
  0
LINE
  5
3A2
  8
0
  6
CONTINUOUS
 62
     7
 10
97.6580668494
 20
71.4286287335
 30
0.0
 11
108.226825975
 21
83.0083342183
 31
0.0
  0
LINE
  5
3A3
  8
0
  6
CONTINUOUS
 62
     7
 10
97.6580668494
 20
71.4286287335
 30
0.0
 11
87.5461217849
 21
60.3494335004
 31
0.0
  0
TEXT
  5
3A4
  8
0
  6
CONTINUOUS
 62
     7
 10
100.2903119226
 20
76.1035905226
 30
-1.5
 40
3.5
  1
%%c
 50
47.613399425
 41
0.7
 11
101.2035406012
 21
75.27008971
 31
-1.5
 73
     1
  0
TEXT
  5
3A5
  8
0
  6
CONTINUOUS
 62
     7
 10
103.7231819447
 20
79.8792510487
 30
-1.5
 40
3.5
  1
15
 50
47.613399425
 41
0.7
 11
104.6364106233
 21
79.0457502362
 31
-1.5
 73
     1
  0
ENDBLK
  5
3A0
  8
0
  0
BLOCK
  8
0
  2
SW_CENTERMARKSYMBOL_9
 70
     0
 10
0.0
 20
0.0
 30
0.0
  3
SW_CENTERMARKSYMBOL_9
  1

  0
LINE
  5
3A9
  8
0
  6
CONTINUOUS
 62
     0
 10
0.0
 20
0.0
 30
0.0
 11
0.0
 21
2.5
 31
0.0
  0
LINE
  5
3AA
  8
0
  6
CONTINUOUS
 62
     0
 10
0.0
 20
0.0
 30
0.0
 11
-2.5
 21
0.0
 31
0.0
  0
LINE
  5
3AB
  8
0
  6
CONTINUOUS
 62
     0
 10
0.0
 20
0.0
 30
0.0
 11
0.0
 21
-2.5
 31
0.0
  0
LINE
  5
3AC
  8
0
  6
CONTINUOUS
 62
     0
 10
0.0
 20
0.0
 30
0.0
 11
2.5
 21
0.0
 31
0.0
  0
LINE
  5
3AD
  8
0
  6
CONTINUOUS
 62
     0
 10
0.0
 20
5.0
 30
0.0
 11
0.0
 21
10.0
 31
0.0
  0
LINE
  5
3AE
  8
0
  6
CONTINUOUS
 62
     0
 10
-5.0
 20
0.0
 30
0.0
 11
-10.0
 21
0.0
 31
0.0
  0
LINE
  5
3AF
  8
0
  6
CONTINUOUS
 62
     0
 10
0.0
 20
-5.0
 30
0.0
 11
0.0
 21
-10.0
 31
0.0
  0
LINE
  5
3B0
  8
0
  6
CONTINUOUS
 62
     0
 10
5.0
 20
0.0
 30
0.0
 11
10.0
 21
0.0
 31
0.0
  0
ENDBLK
  5
3A8
  8
0
  0
ENDSEC
  0
SECTION
  2
ENTITIES
  0
LINE
  5
68
  8
0
  6
CONTINUOUS
 62
     7
 10
227.8
 20
60.25
 30
0.0
 11
227.8
 21
5.0
 31
0.0
  0
LINE
  5
69
  8
0
  6
CONTINUOUS
 62
     7
 10
235.42
 20
43.25
 30
0.0
 11
235.42
 21
5.0
 31
0.0
  0
LINE
  5
6A
  8
0
  6
CONTINUOUS
 62
     7
 10
260.82
 20
5.0
 30
0.0
 11
260.82
 21
43.25
 31
0.0
  0
LINE
  5
6B
  8
0
  6
CONTINUOUS
 62
     7
 10
410.0
 20
287.0
 30
0.0
 11
410.0
 21
60.25
 31
0.0
  0
LINE
  5
6C
  8
0
  6
CONTINUOUS
 62
     7
 10
281.14
 20
22.0
 30
0.0
 11
415.0
 21
22.0
 31
0.0
  0
LINE
  5
6D
  8
0
  6
CONTINUOUS
 62
     7
 10
415.0
 20
43.25
 30
0.0
 11
227.8
 21
43.25
 31
0.0
  0
LINE
  5
6E
  8
0
  6
CONTINUOUS
 62
     7
 10
227.8
 20
60.25
 30
0.0
 11
415.0
 21
60.25
 31
0.0
  0
LINE
  5
6F
  8
0
  6
CONTINUOUS
 62
     7
 10
281.14
 20
38.9447711707
 30
0.0
 11
227.8
 21
38.9447711707
 31
0.0
  0
LINE
  5
70
  8
0
  6
CONTINUOUS
 62
     7
 10
281.14
 20
5.0
 30
0.0
 11
281.14
 21
60.25
 31
0.0
  0
LINE
  5
71
  8
0
  6
CONTINUOUS
 62
     7
 10
324.32
 20
60.25
 30
0.0
 11
324.32
 21
5.0
 31
0.0
  0
LINE
  5
72
  8
0
  6
CONTINUOUS
 62
     7
 10
273.52
 20
43.25
 30
0.0
 11
273.52
 21
5.0
 31
0.0
  0
LINE
  5
73
  8
0
  6
CONTINUOUS
 62
     7
 10
290.5491845626
 20
22.0
 30
0.0
 11
290.5491845626
 21
43.25
 31
0.0
  0
LINE
  5
74
  8
0
  6
CONTINUOUS
 62
     7
 10
281.14
 20
13.5
 30
0.0
 11
227.8
 21
13.5
 31
0.0
  0
LINE
  5
75
  8
0
  6
CONTINUOUS
 62
     7
 10
306.6969257405
 20
43.25
 30
0.0
 11
306.6969257405
 21
22.0
 31
0.0
  0
LINE
  5
76
  8
0
  6
CONTINUOUS
 62
     7
 10
368.48
 20
5.0
 30
0.0
 11
368.48
 21
9.25
 31
0.0
  0
LINE
  5
77
  8
0
  6
CONTINUOUS
 62
     7
 10
376.28
 20
53.875
 30
0.0
 11
376.28
 21
60.25
 31
0.0
  0
LINE
  5
78
  8
0
  6
CONTINUOUS
 62
     7
 10
227.8
 20
9.23
 30
0.0
 11
281.14
 21
9.23
 31
0.0
  0
LINE
  5
79
  8
0
  6
CONTINUOUS
 62
     7
 10
399.68
 20
9.25
 30
0.0
 11
399.68
 21
22.0
 31
0.0
  0
LINE
  5
7A
  8
0
  6
CONTINUOUS
 62
     7
 10
415.0
 20
53.875
 30
0.0
 11
324.32
 21
53.875
 31
0.0
  0
LINE
  5
7B
  8
0
  6
CONTINUOUS
 62
     7
 10
415.0
 20
5.0
 30
0.0
 11
415.0
 21
60.25
 31
0.0
  0
LINE
  5
7C
  8
0
  6
CONTINUOUS
 62
     7
 10
227.8
 20
5.0
 30
0.0
 11
415.0
 21
5.0
 31
0.0
  0
LINE
  5
7D
  8
0
  6
CONTINUOUS
 62
     7
 10
281.14
 20
17.75
 30
0.0
 11
227.8
 21
17.75
 31
0.0
  0
LINE
  5
7E
  8
0
  6
CONTINUOUS
 62
     7
 10
281.14
 20
22.0
 30
0.0
 11
227.8
 21
22.0
 31
0.0
  0
LINE
  5
7F
  8
0
  6
CONTINUOUS
 62
     7
 10
324.32
 20
26.25
 30
0.0
 11
227.8
 21
26.25
 31
0.0
  0
LINE
  5
80
  8
0
  6
CONTINUOUS
 62
     7
 10
324.32
 20
30.5
 30
0.0
 11
227.8
 21
30.5
 31
0.0
  0
LINE
  5
81
  8
0
  6
CONTINUOUS
 62
     7
 10
324.32
 20
34.75
 30
0.0
 11
227.8
 21
34.75
 31
0.0
  0
LINE
  5
82
  8
0
  6
CONTINUOUS
 62
     7
 10
324.32
 20
38.9447711707
 30
0.0
 11
281.14
 21
38.9447711707
 31
0.0
  0
LINE
  5
83
  8
0
  6
CONTINUOUS
 62
     7
 10
415.0
 20
13.5
 30
0.0
 11
399.68
 21
13.5
 31
0.0
  0
LINE
  5
84
  8
0
  6
CONTINUOUS
 62
     7
 10
324.32
 20
9.23
 30
0.0
 11
415.0
 21
9.23
 31
0.0
  0
LINE
  5
85
  8
0
  6
CONTINUOUS
 62
     7
 10
222.8
 20
5.0
 30
0.0
 11
227.8
 21
5.0
 31
0.0
  0
LINE
  5
86
  8
0
  6
CONTINUOUS
 62
     7
 10
415.0
 20
292.0
 30
0.0
 11
5.0
 21
292.0
 31
0.0
  0
LINE
  5
87
  8
0
  6
CONTINUOUS
 62
     7
 10
410.0
 20
287.0
 30
0.0
 11
10.0
 21
287.0
 31
0.0
  0
LINE
  5
88
  8
0
  6
CONTINUOUS
 62
     7
 10
5.0
 20
292.0
 30
0.0
 11
5.0
 21
5.0
 31
0.0
  0
LINE
  5
89
  8
0
  6
CONTINUOUS
 62
     7
 10
10.0
 20
287.0
 30
0.0
 11
10.0
 21
10.0
 31
0.0
  0
LINE
  5
8A
  8
0
  6
CONTINUOUS
 62
     7
 10
10.0
 20
48.5
 30
0.0
 11
5.0
 21
48.5
 31
0.0
  0
LINE
  5
8B
  8
0
  6
CONTINUOUS
 62
     7
 10
5.0
 20
98.5
 30
0.0
 11
10.0
 21
98.5
 31
0.0
  0
LINE
  5
8C
  8
0
  6
CONTINUOUS
 62
     7
 10
5.0
 20
198.5
 30
0.0
 11
10.0
 21
198.5
 31
0.0
  0
LINE
  5
8D
  8
0
  6
CONTINUOUS
 62
     7
 10
5.0
 20
148.5
 30
0.0
 11
15.0
 21
148.5
 31
0.0
  0
LINE
  5
8E
  8
0
  6
CONTINUOUS
 62
     7
 10
5.0
 20
5.0
 30
0.0
 11
227.8
 21
5.0
 31
0.0
  0
LINE
  5
8F
  8
0
  6
CONTINUOUS
 62
     7
 10
10.0
 20
10.0
 30
0.0
 11
227.8
 21
10.0
 31
0.0
  0
LINE
  5
90
  8
0
  6
CONTINUOUS
 62
     7
 10
60.0
 20
5.0
 30
0.0
 11
60.0
 21
10.0
 31
0.0
  0
LINE
  5
91
  8
0
  6
CONTINUOUS
 62
     7
 10
110.0
 20
10.0
 30
0.0
 11
110.0
 21
5.0
 31
0.0
  0
LINE
  5
92
  8
0
  6
CONTINUOUS
 62
     7
 10
160.0
 20
5.0
 30
0.0
 11
160.0
 21
10.0
 31
0.0
  0
LINE
  5
93
  8
0
  6
CONTINUOUS
 62
     7
 10
10.0
 20
248.5
 30
0.0
 11
5.0
 21
248.5
 31
0.0
  0
LINE
  5
94
  8
0
  6
CONTINUOUS
 62
     7
 10
60.0
 20
287.0
 30
0.0
 11
60.0
 21
292.0
 31
0.0
  0
LINE
  5
95
  8
0
  6
CONTINUOUS
 62
     7
 10
110.0
 20
292.0
 30
0.0
 11
110.0
 21
287.0
 31
0.0
  0
LINE
  5
96
  8
0
  6
CONTINUOUS
 62
     7
 10
160.0
 20
287.0
 30
0.0
 11
160.0
 21
292.0
 31
0.0
  0
LINE
  5
97
  8
0
  6
CONTINUOUS
 62
     7
 10
260.0
 20
287.0
 30
0.0
 11
260.0
 21
292.0
 31
0.0
  0
LINE
  5
98
  8
0
  6
CONTINUOUS
 62
     7
 10
415.0
 20
60.25
 30
0.0
 11
415.0
 21
292.0
 31
0.0
  0
LINE
  5
99
  8
0
  6
CONTINUOUS
 62
     7
 10
210.0
 20
5.0
 30
0.0
 11
210.0
 21
15.0
 31
0.0
  0
LINE
  5
9A
  8
0
  6
CONTINUOUS
 62
     7
 10
410.0
 20
198.5
 30
0.0
 11
415.0
 21
198.5
 31
0.0
  0
LINE
  5
9B
  8
0
  6
CONTINUOUS
 62
     7
 10
410.0
 20
98.5
 30
0.0
 11
415.0
 21
98.5
 31
0.0
  0
LINE
  5
9C
  8
0
  6
CONTINUOUS
 62
     7
 10
415.0
 20
148.5
 30
0.0
 11
405.0
 21
148.5
 31
0.0
  0
LINE
  5
9D
  8
0
  6
CONTINUOUS
 62
     7
 10
310.0
 20
292.0
 30
0.0
 11
310.0
 21
287.0
 31
0.0
  0
LINE
  5
9E
  8
0
  6
CONTINUOUS
 62
     7
 10
360.0
 20
287.0
 30
0.0
 11
360.0
 21
292.0
 31
0.0
  0
LINE
  5
9F
  8
0
  6
CONTINUOUS
 62
     7
 10
210.0
 20
292.0
 30
0.0
 11
210.0
 21
282.0
 31
0.0
  0
LINE
  5
A0
  8
0
  6
CONTINUOUS
 62
     7
 10
415.0
 20
248.5
 30
0.0
 11
410.0
 21
248.5
 31
0.0
  0
INSERT
  5
A1
  8
0
  6
CONTINUOUS
 62
     7
  2
BREUER_UND_SCHMITZ_LOGO
 10
282.4372143974
 20
45.4433801663
 30
0.0
 41
0.8
 42
0.8
 43
0.8
  0
INSERT
  5
A2
  8
0
  6
CONTINUOUS
 62
     7
  2
BREUER_UND_SCHMITZ_LOGO
 10
282.448799642
 20
45.1133739104
 30
0.0
 41
0.8
 42
0.8
 43
0.8
  0
INSERT
  5
A3
  8
0
  6
CONTINUOUS
 62
     7
  2
BREUER_UND_SCHMITZ_LOGO
 10
284.9149951426
 20
48.1871668266
 30
0.0
 41
0.8
 42
0.8
 43
0.8
  0
INSERT
  5
A4
  8
0
  6
CONTINUOUS
 62
     7
  2
BREUER_UND_SCHMITZ_LOGO
 10
289.4206360273
 20
47.9574119531
 30
0.0
 41
0.8
 42
0.8
 43
0.8
  0
INSERT
  5
A5
  8
0
  6
CONTINUOUS
 62
     7
  2
BREUER_UND_SCHMITZ_LOGO
 10
282.4906684449
 20
50.4208312903
 30
0.0
 41
0.8
 42
0.8
 43
0.8
  0
INSERT
  5
A6
  8
0
  6
CONTINUOUS
 62
     7
  2
BREUER_UND_SCHMITZ_LOGO
 10
281.9837156316
 20
43.860177212
 30
0.0
 41
0.8
 42
0.8
 43
0.8
  0
INSERT
  5
A7
  8
0
  6
CONTINUOUS
 62
     7
  2
BREUER_UND_SCHMITZ_LOGO
 10
282.7870601545
 20
45.38662914
 30
0.0
 41
0.8
 42
0.8
 43
0.8
  0
INSERT
  5
A8
  8
0
  6
CONTINUOUS
 62
     7
  2
BREUER_UND_SCHMITZ_LOGO
 10
283.2976644742
 20
45.8972334596
 30
0.0
 41
0.8
 42
0.8
 43
0.8
  0
INSERT
  5
A9
  8
0
  6
CONTINUOUS
 62
     7
  2
BREUER_UND_SCHMITZ_LOGO
 10
282.7870601545
 20
45.38662914
 30
0.0
 41
0.8
 42
0.8
 43
0.8
  0
INSERT
  5
AA
  8
0
  6
CONTINUOUS
 62
     7
  2
BREUER_UND_SCHMITZ_LOGO
 10
283.1053282554
 20
46.7891995601
 30
0.0
 41
0.8
 42
0.8
 43
0.8
  0
INSERT
  5
AB
  8
0
  6
CONTINUOUS
 62
     7
  2
BREUER_UND_SCHMITZ_LOGO
 10
283.4692147983
 20
46.4728621372
 30
0.0
 41
0.8
 42
0.8
 43
0.8
  0
INSERT
  5
AC
  8
0
  6
CONTINUOUS
 62
     7
  2
BREUER_UND_SCHMITZ_LOGO
 10
282.3311722725
 20
45.3348196114
 30
0.0
 41
0.8
 42
0.8
 43
0.8
  0
TEXT
  5
AD
  8
0
  6
CONTINUOUS
 62
     7
 10
362.0312911013
 20
64.723572954
 30
0.0
 40
3.5
  1
gezeichnet DIN links
 41
0.665
 11
362.0312911013
 21
63.4871627373
 31
0.0
 73
     1
  0
TEXT
  5
AE
  8
0
  6
CONTINUOUS
 62
     7
 10
6.6666666667
 20
122.9348266002
 30
0.0
 40
1.8520833333
  1
D
 41
0.7
 11
6.6666666667
 21
122.2805595272
 31
0.0
 73
     1
  0
TEXT
  5
AF
  8
0
  6
CONTINUOUS
 62
     7
 10
6.6666666667
 20
72.9348266002
 30
0.0
 40
1.8520833333
  1
E
 41
0.7
 11
6.6666666667
 21
72.2805595272
 31
0.0
 73
     1
  0
TEXT
  5
B0
  8
0
  6
CONTINUOUS
 62
     7
 10
6.6666666667
 20
22.9348266002
 30
0.0
 40
1.8520833333
  1
F
 41
0.7
 11
6.6666666667
 21
22.2805595272
 31
0.0
 73
     1
  0
TEXT
  5
B1
  8
0
  6
CONTINUOUS
 62
     7
 10
6.6666666667
 20
172.9348266002
 30
0.0
 40
1.8520833333
  1
C
 41
0.7
 11
6.6666666667
 21
172.2805595272
 31
0.0
 73
     1
  0
TEXT
  5
B2
  8
0
  6
CONTINUOUS
 62
     7
 10
34.5833333333
 20
6.9348306002
 30
0.0
 40
1.8520833333
  1
1
 41
0.7
 11
34.5833333333
 21
6.2805635272
 31
0.0
 73
     1
  0
TEXT
  5
B3
  8
0
  6
CONTINUOUS
 62
     7
 10
84.1666666667
 20
6.9348306002
 30
0.0
 40
1.8520833333
  1
2
 41
0.7
 11
84.1666666667
 21
6.2805635272
 31
0.0
 73
     1
  0
TEXT
  5
B4
  8
0
  6
CONTINUOUS
 62
     7
 10
134.1666666667
 20
6.9348306002
 30
0.0
 40
1.8520833333
  1
3
 41
0.7
 11
134.1666666667
 21
6.2805635272
 31
0.0
 73
     1
  0
TEXT
  5
B5
  8
0
  6
CONTINUOUS
 62
     7
 10
184.1666666667
 20
6.9348306002
 30
0.0
 40
1.8520833333
  1
4
 41
0.7
 11
184.1666666667
 21
6.2805635272
 31
0.0
 73
     1
  0
TEXT
  5
B6
  8
0
  6
CONTINUOUS
 62
     7
 10
6.6666666667
 20
222.9348266002
 30
0.0
 40
1.8520833333
  1
B
 41
0.7
 11
6.6666666667
 21
222.2805595272
 31
0.0
 73
     1
  0
TEXT
  5
B7
  8
0
  6
CONTINUOUS
 62
     7
 10
6.6666666667
 20
272.9348266002
 30
0.0
 40
1.8520833333
  1
A
 41
0.7
 11
6.6666666667
 21
272.2805595272
 31
0.0
 73
     1
  0
TEXT
  5
B8
  8
0
  6
CONTINUOUS
 62
     7
 10
134.1666666667
 20
288.9348306002
 30
0.0
 40
1.8520833333
  1
3
 41
0.7
 11
134.1666666667
 21
288.2805635272
 31
0.0
 73
     1
  0
TEXT
  5
B9
  8
0
  6
CONTINUOUS
 62
     7
 10
84.1666666667
 20
288.9348306002
 30
0.0
 40
1.8520833333
  1
2
 41
0.7
 11
84.1666666667
 21
288.2805635272
 31
0.0
 73
     1
  0
TEXT
  5
BA
  8
0
  6
CONTINUOUS
 62
     7
 10
34.5833333333
 20
288.9348306002
 30
0.0
 40
1.8520833333
  1
1
 41
0.7
 11
34.5833333333
 21
288.2805635272
 31
0.0
 73
     1
  0
TEXT
  5
BB
  8
0
  6
CONTINUOUS
 62
     7
 10
234.1666666667
 20
288.9348306002
 30
0.0
 40
1.8520833333
  1
5
 41
0.7
 11
234.1666666667
 21
288.2805635272
 31
0.0
 73
     1
  0
TEXT
  5
BC
  8
0
  6
CONTINUOUS
 62
     7
 10
411.6666666667
 20
172.9348266002
 30
0.0
 40
1.8520833333
  1
C
 41
0.7
 11
411.6666666667
 21
172.2805595272
 31
0.0
 73
     1
  0
TEXT
  5
BD
  8
0
  6
CONTINUOUS
 62
     7
 10
411.6666666667
 20
122.9348266002
 30
0.0
 40
1.8520833333
  1
D
 41
0.7
 11
411.6666666667
 21
122.2805595272
 31
0.0
 73
     1
  0
TEXT
  5
BE
  8
0
  6
CONTINUOUS
 62
     7
 10
184.1666666667
 20
288.9348306002
 30
0.0
 40
1.8520833333
  1
4
 41
0.7
 11
184.1666666667
 21
288.2805635272
 31
0.0
 73
     1
  0
TEXT
  5
BF
  8
0
  6
CONTINUOUS
 62
     7
 10
284.1666666667
 20
288.9348306002
 30
0.0
 40
1.8520833333
  1
6
 41
0.7
 11
284.1666666667
 21
288.2805635272
 31
0.0
 73
     1
  0
TEXT
  5
C0
  8
0
  6
CONTINUOUS
 62
     7
 10
334.1666666667
 20
288.9348306002
 30
0.0
 40
1.8520833333
  1
7
 41
0.7
 11
334.1666666667
 21
288.2805635272
 31
0.0
 73
     1
  0
TEXT
  5
C1
  8
0
  6
CONTINUOUS
 62
     7
 10
384.1666666667
 20
288.9348306002
 30
0.0
 40
1.8520833333
  1
8
 41
0.7
 11
384.1666666667
 21
288.2805635272
 31
0.0
 73
     1
  0
TEXT
  5
C2
  8
0
  6
CONTINUOUS
 62
     7
 10
411.6666666667
 20
272.9348266002
 30
0.0
 40
1.8520833333
  1
A
 41
0.7
 11
411.6666666667
 21
272.2805595272
 31
0.0
 73
     1
  0
TEXT
  5
C3
  8
0
  6
CONTINUOUS
 62
     7
 10
411.6666666667
 20
222.9348266002
 30
0.0
 40
1.8520833333
  1
B
 41
0.7
 11
411.6666666667
 21
222.2805595272
 31
0.0
 73
     1
  0
TEXT
  5
C4
  8
0
  6
CONTINUOUS
 62
     7
 10
308.8964459604
 20
36.0024960752
 30
0.0
 40
2.0
  1
M.Temburg
 41
0.7
 11
308.8964459604
 21
35.2959759514
 31
0.0
 73
     1
  0
TEXT
  5
C5
  8
0
  6
CONTINUOUS
 62
     7
 10
292.1304345557
 20
36.1435491418
 30
0.0
 40
2.0
  1
16.10.2017
 41
0.7
 11
292.1304345557
 21
35.437029018
 31
0.0
 73
     1
  0
TEXT
  5
C6
  8
0
  6
CONTINUOUS
 62
     7
 10
325.8260642912
 20
31.8991350896
 30
0.0
 40
3.5
  1
RD 805
 41
0.7
 11
325.8260642912
 21
30.6627248729
 31
0.0
 73
     1
  0
TEXT
  5
C7
  8
0
  6
CONTINUOUS
 62
     7
 10
228.6542475233
 20
5.8405442472
 30
0.0
 40
2.0
  1
Zust.
 41
0.7
 11
228.6542475233
 21
5.1340241233
 31
0.0
 73
     1
  0
TEXT
  5
C8
  8
0
  6
CONTINUOUS
 62
     7
 10
242.3236265502
 20
5.8405442472
 30
0.0
 40
2.0
  1
Änderung
 41
0.7
 11
242.3236265502
 21
5.1340241233
 31
0.0
 73
     1
  0
TEXT
  5
C9
  8
0
  6
CONTINUOUS
 62
     7
 10
273.7487245318
 20
5.8293213552
 30
0.0
 40
2.0
  1
Name
 41
0.7
 11
273.7487245318
 21
5.1228012314
 31
0.0
 73
     1
  0
TEXT
  5
CA
  8
0
  6
CONTINUOUS
 62
     7
 10
281.9346052427
 20
36.0024961334
 30
0.0
 40
2.0
  1
Bearb.
 41
0.7
 11
281.9346052427
 21
35.2959760096
 31
0.0
 73
     1
  0
TEXT
  5
CB
  8
0
  6
CONTINUOUS
 62
     7
 10
282.5538425523
 20
31.8123005822
 30
0.0
 40
2.0
  1
Gepr.
 41
0.7
 11
282.5538425523
 21
31.1057804584
 31
0.0
 73
     1
  0
TEXT
  5
CC
  8
0
  6
CONTINUOUS
 62
     7
 10
282.568021583
 20
27.5024931334
 30
0.0
 40
2.0
  1
Norm
 41
0.7
 11
282.568021583
 21
26.7959730096
 31
0.0
 73
     1
  0
TEXT
  5
CD
  8
0
  6
CONTINUOUS
 62
     7
 10
326.1421941634
 20
55.5835663443
 30
0.0
 40
2.5
  1
Maßstab:      
 41
0.55
 11
326.1421941634
 21
54.7004161895
 31
0.0
 73
     1
  0
TEXT
  5
CE
  8
0
  6
CONTINUOUS
 62
     7
 10
345.8474897262
 20
55.6479377687
 30
0.0
 40
3.5
  1
1:1
 41
0.7
 11
345.8474897262
 21
54.411527552
 31
0.0
 73
     1
  0
TEXT
  5
CF
  8
0
  6
CONTINUOUS
 62
     7
 10
293.8208978724
 20
40.2378571451
 30
0.0
 40
2.0
  1
Datum
 41
0.7
 11
293.8208978724
 21
39.5313370213
 31
0.0
 73
     1
  0
TEXT
  5
D0
  8
0
  6
CONTINUOUS
 62
     7
 10
310.9758605414
 20
40.2399684874
 30
0.0
 40
2.0
  1
Name
 41
0.7
 11
310.9758605414
 21
39.5334483635
 31
0.0
 73
     1
  0
TEXT
  5
D1
  8
0
  6
CONTINUOUS
 62
     7
 10
400.679992
 20
18.8834825574
 30
0.0
 40
2.5
  1
Blatt
 41
0.7
 11
400.679992
 21
18.0003324026
 31
0.0
 73
     1
  0
TEXT
  5
D2
  8
0
  6
CONTINUOUS
 62
     7
 10
401.6114022462
 20
14.9434680153
 30
0.0
 40
2.0
  1
1 (A3)
 41
0.7
 11
401.6114022462
 21
14.2369478915
 31
0.0
 73
     1
  0
TEXT
  5
D3
  8
0
  6
CONTINUOUS
 62
     7
 10
401.6114022462
 20
10.7163935227
 30
0.0
 40
2.0
  1
1 von 1
 41
0.6
 11
401.6114022462
 21
10.0098733989
 31
0.0
 73
     1
  0
TEXT
  5
D4
  8
0
  6
CONTINUOUS
 62
     7
 10
325.769379396
 20
6.0126746831
 30
0.0
 40
2.0
  1
Ers. für:
 41
0.7
 11
325.769379396
 21
5.3061545592
 31
0.0
 73
     1
  0
TEXT
  5
D5
  8
0
  6
CONTINUOUS
 62
     7
 10
369.3744127484
 20
6.1456631557
 30
0.0
 40
2.0
  1
Ers. durch: 
 41
0.6416666667
 11
369.3744127484
 21
5.4391430318
 31
0.0
 73
     1
  0
TEXT
  5
D6
  8
0
  6
CONTINUOUS
 62
     7
 10
325.8260642912
 20
38.8860690348
 30
0.0
 40
2.5
  1
Benennung:
 41
0.7
 11
325.8260642912
 21
38.00291888
 31
0.0
 73
     1
  0
TEXT
  5
D7
  8
0
  6
CONTINUOUS
 62
     7
 10
326.3720674831
 20
17.4450861174
 30
0.0
 40
2.5
  1
ZEICHNUNGSNR.   ZK 10482-1
 41
0.6461538462
 11
326.3720674831
 21
16.5619359626
 31
0.0
 73
     1
  0
TEXT
  5
D8
  8
0
  6
CONTINUOUS
 62
     7
 10
326.4245832263
 20
11.7244404863
 30
0.0
 40
2.5
  1
TEILENUMMER   
 41
0.625
 11
326.4245832263
 21
10.8412903315
 31
0.0
 73
     1
  0
TEXT
  5
D9
  8
0
  6
CONTINUOUS
 62
     7
 10
325.8260642912
 20
25.5459479208
 30
0.0
 40
3.5
  1
4"
 41
0.7
 11
325.8260642912
 21
24.3095377041
 31
0.0
 73
     1
  0
TEXT
  5
DA
  8
0
  6
CONTINUOUS
 62
     7
 10
263.2346620132
 20
5.8293213552
 30
0.0
 40
2.0
  1
Datum
 41
0.7
 11
263.2346620132
 21
5.1228012314
 31
0.0
 73
     1
  0
TEXT
  5
DB
  8
0
  6
CONTINUOUS
 62
     7
 10
290.4226877706
 20
17.6100595055
 30
0.0
 40
2.5
  1
Breuer & Schmitz
 41
0.65625
 11
290.4226877706
 21
16.7269093507
 31
0.0
 73
     1
  0
TEXT
  5
DC
  8
0
  6
CONTINUOUS
 62
     7
 10
291.0945625024
 20
14.1100593975
 30
0.0
 40
2.5
  1
GmbH & Co. KG
 41
0.6192307692
 11
291.0945625024
 21
13.2269092427
 31
0.0
 73
     1
  0
TEXT
  5
DD
  8
0
  6
CONTINUOUS
 62
     7
 10
291.6640066521
 20
10.6100592895
 30
0.0
 40
2.5
  1
Solingen - Wald
 41
0.6533333333
 11
291.6640066521
 21
9.7269091347
 31
0.0
 73
     1
  0
TEXT
  5
DE
  8
0
  6
CONTINUOUS
 62
     7
 10
289.6553263979
 20
7.1100591814
 30
0.0
 40
2.5
  1
Baubeschlagfabrik
 41
0.7
 11
289.6553263979
 21
6.2269090266
 31
0.0
 73
     1
  0
TEXT
  5
DF
  8
0
  6
CONTINUOUS
 62
     7
 10
230.3638616607
 20
57.5034177044
 30
0.0
 40
1.5875
  1
Diese Zeichung ist unser Eigentum und darf weder
 41
0.6489583333
 11
230.3638616607
 21
56.9426173561
 31
0.0
 73
     1
  0
TEXT
  5
E0
  8
0
  6
CONTINUOUS
 62
     7
 10
230.3638616607
 20
55.3867510633
 30
0.0
 40
1.5875
  1
verwertet, vervielfältigt noch Dritten zugänglich 
 41
0.665
 11
230.3638616607
 21
54.825950715
 31
0.0
 73
     1
  0
TEXT
  5
E1
  8
0
  6
CONTINUOUS
 62
     7
 10
230.3638616607
 20
53.2700844222
 30
0.0
 40
1.5875
  1
gemacht werden.
 41
0.7
 11
230.3638616607
 21
52.709284074
 31
0.0
 73
     1
  0
TEXT
  5
E2
  8
0
  6
CONTINUOUS
 62
     7
 10
230.3638616607
 20
49.0367511401
 30
0.0
 40
1.5875
  1
This drawing is our property and cannot either be 
 41
0.637
 11
230.3638616607
 21
48.4759507918
 31
0.0
 73
     1
  0
TEXT
  5
E3
  8
0
  6
CONTINUOUS
 62
     7
 10
230.3638616607
 20
46.920084499
 30
0.0
 40
1.5875
  1
utilized for an other purpose or copied nor made 
 41
0.6357142857
 11
230.3638616607
 21
46.3592841507
 31
0.0
 73
     1
  0
TEXT
  5
E4
  8
0
  6
CONTINUOUS
 62
     7
 10
230.3638616607
 20
44.8034178579
 30
0.0
 40
1.5875
  1
available to a third.
 41
0.65
 11
230.3638616607
 21
44.2426175096
 31
0.0
 73
     1
  0
TEXT
  5
E5
  8
0
  6
CONTINUOUS
 62
     7
 10
380.8494930471
 20
55.6933776061
 30
0.0
 40
3.5
  1
ISO2768-m-K
 41
0.7
 11
380.8494930471
 21
54.4569673894
 31
0.0
 73
     1
  0
TEXT
  5
E6
  8
0
  6
CONTINUOUS
 62
     7
 10
326.1548865668
 20
50.1794325104
 30
0.0
 40
2.5
  1
Material:
 41
0.7
 11
326.1548865668
 21
49.2962823556
 31
0.0
 73
     1
  0
LINE
  5
E7
  8
0
  6
CONTINUOUS
 62
     7
 10
110.5613788636
 20
160.4812082793
 30
0.0
 11
110.5613788636
 21
161.4812082793
 31
0.0
  0
LINE
  5
E8
  8
0
  6
CONTINUOUS
 62
     7
 10
95.5613788636
 20
161.4812082793
 30
0.0
 11
95.5613788636
 21
160.4812082793
 31
0.0
  0
LINE
  5
E9
  8
0
  6
CONTINUOUS
 62
     7
 10
110.5613788636
 20
161.4812082793
 30
0.0
 11
110.0613788636
 21
161.9812082793
 31
0.0
  0
LINE
  5
EA
  8
0
  6
CONTINUOUS
 62
     7
 10
96.0613788636
 20
161.9812082793
 30
0.0
 11
95.5613788636
 21
161.4812082793
 31
0.0
  0
LINE
  5
EB
  8
0
  6
CONTINUOUS
 62
     7
 10
110.5613788636
 20
217.4812082793
 30
0.0
 11
110.5613788636
 21
218.4812082793
 31
0.0
  0
LINE
  5
EC
  8
0
  6
CONTINUOUS
 62
     7
 10
95.5613788636
 20
218.4812082793
 30
0.0
 11
95.5613788636
 21
217.4812082793
 31
0.0
  0
LINE
  5
ED
  8
0
  6
CONTINUOUS
 62
     7
 10
110.5613788636
 20
218.4812082793
 30
0.0
 11
110.0613788636
 21
218.9812082793
 31
0.0
  0
LINE
  5
EE
  8
0
  6
CONTINUOUS
 62
     7
 10
96.0613788636
 20
218.9812082793
 30
0.0
 11
95.5613788636
 21
218.4812082793
 31
0.0
  0
LINE
  5
EF
  8
0
  6
CONTINUOUS
 62
     7
 10
95.5613788636
 20
163.4812082793
 30
0.0
 11
95.5613788636
 21
162.4812082793
 31
0.0
  0
LINE
  5
F0
  8
0
  6
CONTINUOUS
 62
     7
 10
110.5613788636
 20
162.4812082793
 30
0.0
 11
110.5613788636
 21
163.4812082793
 31
0.0
  0
LINE
  5
F1
  8
0
  6
CONTINUOUS
 62
     7
 10
95.5613788636
 20
162.4812082793
 30
0.0
 11
96.0613788636
 21
161.9812082793
 31
0.0
  0
LINE
  5
F2
  8
0
  6
CONTINUOUS
 62
     7
 10
110.0613788636
 20
161.9812082793
 30
0.0
 11
110.5613788636
 21
162.4812082793
 31
0.0
  0
LINE
  5
F3
  8
0
  6
CONTINUOUS
 62
     7
 10
95.5613788636
 20
220.4812082793
 30
0.0
 11
95.5613788636
 21
219.4812082793
 31
0.0
  0
LINE
  5
F4
  8
0
  6
CONTINUOUS
 62
     7
 10
110.5613788636
 20
219.4812082793
 30
0.0
 11
110.5613788636
 21
220.4812082793
 31
0.0
  0
LINE
  5
F5
  8
0
  6
CONTINUOUS
 62
     7
 10
95.5613788636
 20
219.4812082793
 30
0.0
 11
96.0613788636
 21
218.9812082793
 31
0.0
  0
LINE
  5
F6
  8
0
  6
CONTINUOUS
 62
     7
 10
110.0613788636
 20
218.9812082793
 30
0.0
 11
110.5613788636
 21
219.4812082793
 31
0.0
  0
LINE
  5
F7
  8
0
  6
CONTINUOUS
 62
     7
 10
110.5613788636
 20
241.2812082793
 30
0.0
 11
110.5613788636
 21
243.4681941073
 31
0.0
  0
LINE
  5
F8
  8
0
  6
CONTINUOUS
 62
     7
 10
95.5613788636
 20
243.4681941073
 30
0.0
 11
95.5613788636
 21
241.2812082793
 31
0.0
  0
ARC
  5
F9
  8
0
  6
CONTINUOUS
 62
     7
 10
103.0613788636
 20
209.2812082793
 30
0.0
 40
34.99999999999999
 50
77.6263748838
 51
102.3736251162
  0
LINE
  5
FA
  8
0
  6
CONTINUOUS
 62
     7
 10
95.5613788636
 20
160.4812082793
 30
0.0
 11
95.5613788636
 21
139.6812082793
 31
0.0
  0
LINE
  5
FB
  8
0
  6
CONTINUOUS
 62
     7
 10
95.5613788636
 20
241.2812082793
 30
0.0
 11
95.5613788636
 21
220.4812082793
 31
0.0
  0
LINE
  5
FC
  8
0
  6
CONTINUOUS
 62
     7
 10
110.5613788636
 20
163.4812082793
 30
0.0
 11
110.5613788636
 21
217.4812082793
 31
0.0
  0
LINE
  5
FD
  8
0
  6
CONTINUOUS
 62
     7
 10
95.5613788636
 20
160.4812082793
 30
0.0
 11
109.5490764078
 21
160.4812082793
 31
0.0
  0
LINE
  5
FE
  8
0
  6
CONTINUOUS
 62
     7
 10
110.5613788636
 20
161.4812082793
 30
0.0
 11
95.5613788636
 21
161.4812082793
 31
0.0
  0
LINE
  5
FF
  8
0
  6
CONTINUOUS
 62
     7
 10
96.0613788636
 20
161.9812082793
 30
0.0
 11
110.0613788636
 21
161.9812082793
 31
0.0
  0
LINE
  5
100
  8
0
  6
CONTINUOUS
 62
     7
 10
95.5613788636
 20
217.4812082793
 30
0.0
 11
110.5613788636
 21
217.4812082793
 31
0.0
  0
LINE
  5
101
  8
0
  6
CONTINUOUS
 62
     7
 10
110.5613788636
 20
218.4812082793
 30
0.0
 11
95.5613788636
 21
218.4812082793
 31
0.0
  0
LINE
  5
102
  8
0
  6
CONTINUOUS
 62
     7
 10
96.0613788636
 20
218.9812082793
 30
0.0
 11
110.0613788636
 21
218.9812082793
 31
0.0
  0
LINE
  5
103
  8
0
  6
CONTINUOUS
 62
     7
 10
110.5613788636
 20
163.4812082793
 30
0.0
 11
95.5613788636
 21
163.4812082793
 31
0.0
  0
LINE
  5
104
  8
0
  6
CONTINUOUS
 62
     7
 10
95.5613788636
 20
162.4812082793
 30
0.0
 11
110.5613788636
 21
162.4812082793
 31
0.0
  0
LINE
  5
105
  8
0
  6
CONTINUOUS
 62
     7
 10
95.5613788636
 20
219.4812082793
 30
0.0
 11
110.5613788636
 21
219.4812082793
 31
0.0
  0
LINE
  5
106
  8
0
  6
CONTINUOUS
 62
     7
 10
109.5490764078
 20
220.4812082793
 30
0.0
 11
95.5613788636
 21
220.4812082793
 31
0.0
  0
LINE
  5
107
  8
0
  6
CONTINUOUS
 62
     7
 10
105.5005182457
 20
243.4681941073
 30
0.0
 11
95.5613788636
 21
243.4681941073
 31
0.0
  0
LINE
  5
108
  8
0
  6
CONTINUOUS
 62
     7
 10
110.5613788636
 20
243.4681941073
 30
0.0
 11
105.5005182457
 21
243.4681941073
 31
0.0
  0
LINE
  5
109
  8
0
  6
CONTINUOUS
 62
     7
 10
105.5005182457
 20
241.2812082793
 30
0.0
 11
95.5613788636
 21
241.2812082793
 31
0.0
  0
LINE
  5
10A
  8
0
  6
CONTINUOUS
 62
     7
 10
109.5490764078
 20
241.2812082793
 30
0.0
 11
105.5005182457
 21
241.2812082793
 31
0.0
  0
LINE
  5
10B
  8
0
  6
CONTINUOUS
 62
     7
 10
115.5613788636
 20
241.2812082793
 30
0.0
 11
115.5613788636
 21
139.6812082793
 31
0.0
  0
LINE
  5
10C
  8
0
  6
CONTINUOUS
 62
     7
 10
115.5613788636
 20
241.2812082793
 30
0.0
 11
133.5113788636
 21
241.2812082793
 31
0.0
  0
LINE
  5
10D
  8
0
  6
CONTINUOUS
 62
     7
 10
133.5113788636
 20
241.2812082793
 30
0.0
 11
133.5113788636
 21
139.6812082793
 31
0.0
  0
LINE
  5
10E
  8
0
  6
CONTINUOUS
 62
     7
 10
115.5613788636
 20
139.6812082793
 30
0.0
 11
133.5113788636
 21
139.6812082793
 31
0.0
  0
CIRCLE
  5
10F
  8
0
  6
CONTINUOUS
 62
     7
 10
122.0113788636
 20
153.7312082793
 30
0.0
 40
5.0
  0
CIRCLE
  5
110
  8
0
  6
CONTINUOUS
 62
     7
 10
127.0113788636
 20
178.2312082793
 30
0.0
 40
4.999999999999972
  0
CIRCLE
  5
111
  8
0
  6
CONTINUOUS
 62
     7
 10
122.0113788636
 20
202.7312082793
 30
0.0
 40
5.0
  0
CIRCLE
  5
112
  8
0
  6
CONTINUOUS
 62
     7
 10
127.0113788636
 20
227.2312082793
 30
0.0
 40
5.0
  0
LINE
  5
113
  8
0
  6
CONTINUOUS
 62
     7
 10
111.5613788636
 20
241.2812082793
 30
0.0
 11
111.5613788636
 21
139.6812082793
 31
0.0
  0
LINE
  5
114
  8
0
  6
CONTINUOUS
 62
     7
 10
111.5613788636
 20
241.2812082793
 30
0.0
 11
115.5613788636
 21
241.2812082793
 31
0.0
  0
LINE
  5
115
  8
0
  6
CONTINUOUS
 62
     7
 10
115.5613788636
 20
139.6812082793
 30
0.0
 11
111.5613788636
 21
139.6812082793
 31
0.0
  0
CIRCLE
  5
116
  8
0
  6
CONTINUOUS
 62
     7
 10
122.0113788636
 20
153.7312082793
 30
0.0
 40
3.0
  0
CIRCLE
  5
117
  8
0
  6
CONTINUOUS
 62
     7
 10
127.0113788636
 20
178.2312082793
 30
0.0
 40
2.999999999999972
  0
CIRCLE
  5
118
  8
0
  6
CONTINUOUS
 62
     7
 10
122.0113788636
 20
202.7312082793
 30
0.0
 40
3.0
  0
CIRCLE
  5
119
  8
0
  6
CONTINUOUS
 62
     7
 10
127.0113788636
 20
227.2312082793
 30
0.0
 40
3.0
  0
LINE
  5
11A
  8
0
  6
CONTINUOUS
 62
     7
 10
111.4817758286
 20
241.2812082793
 30
0.0
 11
111.4817758286
 21
139.6812082793
 31
0.0
  0
LINE
  5
11B
  8
0
  6
CONTINUOUS
 62
     7
 10
111.4817758286
 20
241.2812082793
 30
0.0
 11
111.5613788636
 21
241.2812082793
 31
0.0
  0
LINE
  5
11C
  8
0
  6
CONTINUOUS
 62
     7
 10
111.5613788636
 20
139.6812082793
 30
0.0
 11
111.4817758286
 21
139.6812082793
 31
0.0
  0
LINE
  5
11D
  8
0
  6
CONTINUOUS
 62
     7
 10
111.1980399214
 20
220.4812082793
 30
0.0
 11
109.5490764078
 21
220.4812082793
 31
0.0
  0
LINE
  5
11E
  8
0
  6
CONTINUOUS
 62
     7
 10
109.5490764078
 20
241.2812082793
 30
0.0
 11
111.4817758286
 21
241.2812082793
 31
0.0
  0
LINE
  5
11F
  8
0
  6
CONTINUOUS
 62
     7
 10
109.2234897391
 20
139.6812082793
 30
0.0
 11
111.4817758286
 21
139.6812082793
 31
0.0
  0
LINE
  5
120
  8
0
  6
CONTINUOUS
 62
     7
 10
109.5490764078
 20
160.4812082793
 30
0.0
 11
111.1980399214
 21
160.4812082793
 31
0.0
  0
LINE
  5
121
  8
0
  6
CONTINUOUS
 62
     7
 10
111.1980399214
 20
160.4812082793
 30
0.0
 11
111.1980399214
 21
220.4812082793
 31
0.0
  0
LINE
  5
122
  8
0
  6
CONTINUOUS
 62
     7
 10
109.2234897391
 20
160.4812082793
 30
0.0
 11
95.5613788636
 21
160.4812082793
 31
0.0
  0
LINE
  5
123
  8
0
  6
CONTINUOUS
 62
     7
 10
109.2234897391
 20
139.6812082793
 30
0.0
 11
109.2234897391
 21
160.4812082793
 31
0.0
  0
LINE
  5
124
  8
0
  6
CONTINUOUS
 62
     7
 10
95.5613788636
 20
139.6812082793
 30
0.0
 11
109.2234897391
 21
139.6812082793
 31
0.0
  0
LINE
  5
125
  8
0
  6
CONTINUOUS
 62
     7
 10
109.2234897391
 20
220.4812082793
 30
0.0
 11
109.2234897391
 21
241.2812082793
 31
0.0
  0
LINE
  5
126
  8
0
  6
CONTINUOUS
 62
     7
 10
109.2234897391
 20
241.2812082793
 30
0.0
 11
95.5613788636
 21
241.2812082793
 31
0.0
  0
LINE
  5
127
  8
0
  6
CONTINUOUS
 62
     7
 10
95.5613788636
 20
220.4812082793
 30
0.0
 11
109.2234897391
 21
220.4812082793
 31
0.0
  0
LINE
  5
128
  8
0
  6
CONTINUOUS
 62
     7
 10
95.5613788636
 20
217.4812082793
 30
0.0
 11
95.5613788636
 21
163.4812082793
 31
0.0
  0
LINE
  5
129
  8
0
  6
CONTINUOUS
 62
     7
 10
95.5613788636
 20
161.9812082793
 30
0.0
 11
95.5613788636
 21
162.4812082793
 31
0.0
  0
LINE
  5
12A
  8
0
  6
CONTINUOUS
 62
     7
 10
95.5613788636
 20
218.4812082793
 30
0.0
 11
95.5613788636
 21
218.9812082793
 31
0.0
  0
LINE
  5
12B
  8
0
  6
CONTINUOUS
 62
     7
 10
95.5613788636
 20
160.4812082793
 30
0.0
 11
95.5613788636
 21
161.9812082793
 31
0.0
  0
LINE
  5
12C
  8
0
  6
CONTINUOUS
 62
     7
 10
95.5613788636
 20
218.9812082793
 30
0.0
 11
95.5613788636
 21
219.4812082793
 31
0.0
  0
LINE
  5
12D
  8
0
  6
CONTINUOUS
 62
     7
 10
94.5613788636
 20
241.2812082793
 30
0.0
 11
94.5613788636
 21
139.6812082793
 31
0.0
  0
LINE
  5
12E
  8
0
  6
CONTINUOUS
 62
     7
 10
95.5613788636
 20
241.2812082793
 30
0.0
 11
94.5613788636
 21
241.2812082793
 31
0.0
  0
LINE
  5
12F
  8
0
  6
CONTINUOUS
 62
     7
 10
94.5613788636
 20
139.6812082793
 30
0.0
 11
95.5613788636
 21
139.6812082793
 31
0.0
  0
LINE
  5
130
  8
0
  6
CONTINUOUS
 62
     7
 10
72.6113788636
 20
241.2812082793
 30
0.0
 11
72.6113788636
 21
139.6812082793
 31
0.0
  0
LINE
  5
131
  8
0
  6
CONTINUOUS
 62
     7
 10
94.5613788636
 20
241.2812082793
 30
0.0
 11
72.6113788636
 21
241.2812082793
 31
0.0
  0
LINE
  5
132
  8
0
  6
CONTINUOUS
 62
     7
 10
94.5613788636
 20
139.6812082793
 30
0.0
 11
72.6113788636
 21
139.6812082793
 31
0.0
  0
CIRCLE
  5
133
  8
0
  6
CONTINUOUS
 62
     7
 10
84.1113788636
 20
153.7312082793
 30
0.0
 40
5.0
  0
CIRCLE
  5
134
  8
0
  6
CONTINUOUS
 62
     7
 10
79.1113788636
 20
178.2312082793
 30
0.0
 40
5.000000000000028
  0
CIRCLE
  5
135
  8
0
  6
CONTINUOUS
 62
     7
 10
84.1113788636
 20
202.7312082793
 30
0.0
 40
5.0
  0
CIRCLE
  5
136
  8
0
  6
CONTINUOUS
 62
     7
 10
79.1113788636
 20
227.2312082793
 30
0.0
 40
5.0
  0
CIRCLE
  5
137
  8
0
  6
CONTINUOUS
 62
     7
 10
79.1113788636
 20
178.2312082793
 30
0.0
 40
3.0
  0
CIRCLE
  5
138
  8
0
  6
CONTINUOUS
 62
     7
 10
79.1113788636
 20
227.2312082793
 30
0.0
 40
3.0
  0
CIRCLE
  5
139
  8
0
  6
CONTINUOUS
 62
     7
 10
84.1113788636
 20
153.7312082793
 30
0.0
 40
3.0
  0
CIRCLE
  5
13A
  8
0
  6
CONTINUOUS
 62
     7
 10
84.1113788636
 20
202.7312082793
 30
0.0
 40
3.0
  0
LINE
  5
13B
  8
0
  6
CONTINUOUS
 62
     7
 10
96.0613788636
 20
161.9812082793
 30
0.0
 11
95.5613788636
 21
161.9812082793
 31
0.0
  0
LINE
  5
13C
  8
0
  6
CONTINUOUS
 62
     7
 10
95.5613788636
 20
218.9812082793
 30
0.0
 11
96.0613788636
 21
218.9812082793
 31
0.0
  0
ARC
  5
13D
  8
0
  6
CONTINUOUS
 62
     7
 10
82.6113788636
 20
231.2812082793
 30
0.0
 40
10.0
 50
93.1469408863
 51
180.0
  0
ARC
  5
13E
  8
0
  6
CONTINUOUS
 62
     7
 10
83.5863788636
 20
150.6562082793
 30
0.0
 40
10.97499999999995
 50
180.0
 51
270.0
  0
ARC
  5
13F
  8
0
  6
CONTINUOUS
 62
     7
 10
123.5113788636
 20
149.6812082793
 30
0.0
 40
10.00000000000001
 50
270.0
 51
0.0
  0
ARC
  5
140
  8
0
  6
CONTINUOUS
 62
     7
 10
123.5113788636
 20
231.2812082793
 30
0.0
 40
10.00000000000001
 50
0.0
 51
84.116850127
  0
DIMENSION
  5
141
  8
0
  6
CONTINUOUS
 62
     8
  2
_D
 10
123.5113788636
 20
231.2812082793
 30
0.0
 11
150.5113888636
 21
258.2812182793
 31
0.0
 70
   164
  1
alternativ <>
  3
SLDDIMSTYLE0
 15
130.5824466755
 25
238.3522760912
 35
0.0
 40
0.0
  0
DIMENSION
  5
14B
  8
0
  6
CONTINUOUS
 62
     7
  2
_D_1
 10
169.8605227211
 20
139.6812082793
 30
0.0
 11
169.8605227211
 21
190.4812082793
 31
0.0
 70
   160
  1
<>
  3
SLDDIMSTYLE1
 13
133.5113788636
 23
241.2812082793
 33
0.0
 14
133.5113788636
 24
139.6812082793
 34
0.0
 50
90.0
  0
DIMENSION
  5
156
  8
0
  6
CONTINUOUS
 62
     7
  2
_D_2
 10
133.5113788636
 20
254.2812082793
 30
0.0
 11
103.0613788636
 21
254.2812082793
 31
0.0
 70
   160
  1
<>
  3
SLDDIMSTYLE2
 13
72.6113788636
 23
241.2812082793
 33
0.0
 14
133.5113788636
 24
241.2812082793
 34
0.0
  0
DIMENSION
  5
161
  8
0
  6
CONTINUOUS
 62
     7
  2
_D_3
 10
84.1113788636
 20
121.5541055294
 30
0.0
 11
78.3613788636
 21
121.5541055294
 31
0.0
 70
   160
  1
<>
  3
SLDDIMSTYLE3
 13
72.6113788636
 23
139.6812082793
 33
0.0
 14
84.1113788636
 24
146.2312082793
 34
0.0
  0
DIMENSION
  5
16E
  8
0
  6
CONTINUOUS
 62
     7
  2
_D_4
 10
125.0113788636
 20
131.5541055294
 30
0.0
 11
132.7309007939
 21
131.5541055294
 31
0.0
 70
   160
  1
%%c<>
  3
SLDDIMSTYLE3
 13
119.0113788636
 23
153.7312082793
 33
0.0
 14
125.0113788636
 24
153.7312082793
 34
0.0
  0
DIMENSION
  5
17B
  8
0
  6
CONTINUOUS
 62
     7
  2
_D_5
 10
127.0113788636
 20
122.6812082793
 30
0.0
 11
139.7088264769
 21
122.6812082793
 31
0.0
 70
   160
  1
%%c<>x90%%d
  3
SLDDIMSTYLE3
 13
117.0113788636
 23
153.7312082793
 33
0.0
 14
127.0113788636
 24
153.7312082793
 34
0.0
  0
DIMENSION
  5
18A
  8
0
  6
CONTINUOUS
 62
     7
  2
_D_6
 10
141.9619230456
 20
178.2312082793
 30
0.0
 11
141.9619230456
 21
190.4812082793
 31
0.0
 70
   160
  1
<>
  3
SLDDIMSTYLE3
 13
129.5113788636
 23
202.7312082793
 33
0.0
 14
134.5113788636
 24
178.2312082793
 34
0.0
 50
90.0
  0
DIMENSION
  5
194
  8
0
  6
CONTINUOUS
 62
     7
  2
_D_7
 10
150.5113788636
 20
153.7312082793
 30
0.0
 11
150.5113788636
 21
190.4812082793
 31
0.0
 70
   160
  1
<>
  3
SLDDIMSTYLE1
 13
134.5113788636
 23
227.2312082793
 33
0.0
 14
129.5113788636
 24
153.7312082793
 34
0.0
 50
90.0
  0
DIMENSION
  5
19E
  8
0
  6
CONTINUOUS
 62
     7
  2
_D_8
 10
72.6113788636
 20
165.2100486857
 30
0.0
 11
75.8613788636
 21
165.2100486857
 31
0.0
 70
   160
  1
<>
  3
SLDDIMSTYLE3
 13
79.1113788636
 23
170.7312082793
 33
0.0
 14
72.6113788636
 24
139.6812082793
 34
0.0
  0
INSERT
  5
1B4
  8
0
  6
CONTINUOUS
 62
     7
  2
SW_CENTERMARKSYMBOL_0
 10
127.0113788636
 20
227.2312082793
 30
0.0
  0
INSERT
  5
1C0
  8
0
  6
CONTINUOUS
 62
     7
  2
SW_CENTERMARKSYMBOL_1
 10
122.0113788636
 20
202.7312082793
 30
0.0
  0
INSERT
  5
1CC
  8
0
  6
CONTINUOUS
 62
     7
  2
SW_CENTERMARKSYMBOL_2
 10
127.0113788636
 20
178.2312082793
 30
0.0
  0
INSERT
  5
1D8
  8
0
  6
CONTINUOUS
 62
     7
  2
SW_CENTERMARKSYMBOL_3
 10
122.0113788636
 20
153.7312082793
 30
0.0
  0
INSERT
  5
1E4
  8
0
  6
CONTINUOUS
 62
     7
  2
SW_CENTERMARKSYMBOL_4
 10
84.1113788636
 20
153.7312082793
 30
0.0
  0
INSERT
  5
1F0
  8
0
  6
CONTINUOUS
 62
     7
  2
SW_CENTERMARKSYMBOL_5
 10
79.1113788636
 20
178.2312082793
 30
0.0
  0
INSERT
  5
1FC
  8
0
  6
CONTINUOUS
 62
     7
  2
SW_CENTERMARKSYMBOL_6
 10
84.1113788636
 20
202.7312082793
 30
0.0
  0
INSERT
  5
208
  8
0
  6
CONTINUOUS
 62
     7
  2
SW_CENTERMARKSYMBOL_7
 10
79.1113788636
 20
227.2312082793
 30
0.0
  0
LINE
  5
209
  8
0
  6
CENTERX2
 62
     7
 10
103.0613788636
 20
164.4812082793
 30
0.0
 11
103.0613788636
 21
161.9812082793
 31
0.0
  0
LINE
  5
20A
  8
0
  6
CENTERX2
 62
     7
 10
103.0613788636
 20
216.4812082793
 30
0.0
 11
103.0613788636
 21
218.9812082793
 31
0.0
  0
LINE
  5
20B
  8
0
  6
CENTERX2
 62
     7
 10
103.0613788636
 20
247.4156743881
 30
0.0
 11
103.0613788636
 21
136.4042085392
 31
0.0
  0
LINE
  5
20C
  8
0
  6
CENTERX2
 62
     7
 10
103.0613788636
 20
221.4812082793
 30
0.0
 11
103.0613788636
 21
218.9812082793
 31
0.0
  0
LINE
  5
20D
  8
0
  6
CENTERX2
 62
     7
 10
103.0613788636
 20
159.4812082793
 30
0.0
 11
103.0613788636
 21
161.9812082793
 31
0.0
  0
LINE
  5
20E
  8
0
  6
CENTERX2
 62
     7
 10
70.9834518662
 20
190.4812082793
 30
0.0
 11
135.5531386073
 21
190.4812082793
 31
0.0
  0
LINE
  5
20F
  8
0
  6
CONTINUOUS
 62
     7
 10
286.4009430103
 20
189.0312082793
 30
0.0
 11
288.9595343445
 21
191.5897996135
 31
0.0
  0
LINE
  5
210
  8
0
  6
CONTINUOUS
 62
     7
 10
251.1973945901
 20
212.1993246461
 30
0.0
 11
253.6658528933
 21
214.6677829493
 31
0.0
  0
LINE
  5
211
  8
0
  6
CONTINUOUS
 62
     7
 10
258.5193954792
 20
215.0311974747
 30
0.0
 11
261.0691230072
 21
217.5809250026
 31
0.0
  0
LINE
  5
212
  8
0
  6
CONTINUOUS
 62
     7
 10
251.4598176212
 20
207.9716196166
 30
0.0
 11
254.0095451491
 21
210.5213471446
 31
0.0
  0
LINE
  5
213
  8
0
  6
CONTINUOUS
 62
     7
 10
261.6915148598
 20
213.7131887947
 30
0.0
 11
263.8128352034
 21
215.8345091382
 31
0.0
  0
LINE
  5
214
  8
0
  6
CONTINUOUS
 62
     7
 10
253.2062334856
 20
205.2279074204
 30
0.0
 11
255.3275538291
 21
207.349227764
 31
0.0
  0
LINE
  5
215
  8
0
  6
CONTINUOUS
 62
     7
 10
263.0095235398
 20
210.5410694141
 30
0.0
 11
265.5592510677
 21
213.090796942
 31
0.0
  0
LINE
  5
216
  8
0
  6
CONTINUOUS
 62
     7
 10
255.9499456818
 20
203.4814915561
 30
0.0
 11
258.4996732097
 21
206.031219084
 31
0.0
  0
LINE
  5
217
  8
0
  6
CONTINUOUS
 62
     7
 10
263.3532157956
 20
206.3946336094
 30
0.0
 11
266.0095343445
 21
209.0509521583
 31
0.0
  0
LINE
  5
218
  8
0
  6
CONTINUOUS
 62
     7
 10
260.1776507112
 20
203.219068525
 30
0.0
 11
261.9820809141
 21
205.0234987279
 31
0.0
  0
LINE
  5
219
  8
0
  6
CONTINUOUS
 62
     7
 10
263.0095343445
 20
201.5608240977
 30
0.0
 11
266.0095343445
 21
204.5608240977
 31
0.0
  0
LINE
  5
21A
  8
0
  6
CONTINUOUS
 62
     7
 10
263.0095343445
 20
197.0706960372
 30
0.0
 11
266.0095343445
 21
200.0706960372
 31
0.0
  0
LINE
  5
21B
  8
0
  6
CONTINUOUS
 62
     7
 10
263.032466829
 20
192.6035004612
 30
0.0
 11
266.0095343445
 21
195.5805679767
 31
0.0
  0
LINE
  5
21C
  8
0
  6
CONTINUOUS
 62
     7
 10
264.6908794941
 20
189.7717850658
 30
0.0
 11
266.951961405
 21
192.0328669767
 31
0.0
  0
LINE
  5
21D
  8
0
  6
CONTINUOUS
 62
     7
 10
268.4404307682
 20
189.0312082793
 30
0.0
 11
271.4404307682
 21
192.0312082793
 31
0.0
  0
LINE
  5
21E
  8
0
  6
CONTINUOUS
 62
     7
 10
272.9305588287
 20
189.0312082793
 30
0.0
 11
275.9305588287
 21
192.0312082793
 31
0.0
  0
LINE
  5
21F
  8
0
  6
CONTINUOUS
 62
     7
 10
277.4206868893
 20
189.0312082793
 30
0.0
 11
278.9401106169
 21
190.5506320069
 31
0.0
  0
LINE
  5
220
  8
0
  6
CONTINUOUS
 62
     7
 10
267.0095343445
 20
201.0706960372
 30
0.0
 11
269.5835712353
 21
203.644732928
 31
0.0
  0
LINE
  5
221
  8
0
  6
CONTINUOUS
 62
     7
 10
267.0237104817
 20
196.5947441139
 30
0.0
 11
270.0095343445
 21
199.5805679767
 31
0.0
  0
LINE
  5
222
  8
0
  6
CONTINUOUS
 62
     7
 10
268.6329063452
 20
193.7138119169
 30
0.0
 11
270.8613438697
 21
195.9422494414
 31
0.0
  0
LINE
  5
223
  8
0
  6
CONTINUOUS
 62
     7
 10
272.3404307682
 20
192.9312082793
 30
0.0
 11
275.3404307682
 21
195.9312082793
 31
0.0
  0
LINE
  5
224
  8
0
  6
CONTINUOUS
 62
     7
 10
276.8305588287
 20
192.9312082793
 30
0.0
 11
279.4595343445
 21
195.5601837951
 31
0.0
  0
LINE
  5
225
  8
0
  6
CONTINUOUS
 62
     7
 10
286.6351746471
 20
193.7555679767
 30
0.0
 11
288.8108149498
 21
195.9312082793
 31
0.0
  0
LINE
  5
226
  8
0
  6
CONTINUOUS
 62
     7
 10
255.3282612029
 20
211.8400631984
 30
0.0
 11
255.9109169236
 21
212.422718919
 31
0.0
  0
LINE
  5
227
  8
0
  6
CONTINUOUS
 62
     7
 10
256.0770870172
 20
208.0987609521
 30
0.0
 11
258.1559809539
 21
210.1776548887
 31
0.0
  0
LINE
  5
228
  8
0
  6
CONTINUOUS
 62
     7
 10
259.8183892635
 20
207.3499351378
 30
0.0
 11
260.4010449841
 21
207.9325908585
 31
0.0
  0
LINE
  5
229
  8
0
  6
CONTINUOUS
 62
     7
 10
253.0095343445
 20
201.0062082793
 30
0.0
 11
263.0095343445
 21
201.0062082793
 31
0.0
  0
LINE
  5
22A
  8
0
  6
CONTINUOUS
 62
     7
 10
253.0095343445
 20
197.8312082793
 30
0.0
 11
263.0095343445
 21
197.8312082793
 31
0.0
  0
LINE
  5
22B
  8
0
  6
CONTINUOUS
 62
     7
 10
253.0095343445
 20
194.6562082793
 30
0.0
 11
263.0095343445
 21
194.6562082793
 31
0.0
  0
LINE
  5
22C
  8
0
  6
CONTINUOUS
 62
     7
 10
289.0095343445
 20
191.4812082793
 30
0.0
 11
298.0095343445
 21
191.4812082793
 31
0.0
  0
LINE
  5
22D
  8
0
  6
CONTINUOUS
 62
     7
 10
253.0095343445
 20
191.4812082793
 30
0.0
 11
263.0095343445
 21
191.4812082793
 31
0.0
  0
LINE
  5
22E
  8
0
  6
CONTINUOUS
 62
     7
 10
253.0095343445
 20
188.3062082793
 30
0.0
 11
298.0095343445
 21
188.3062082793
 31
0.0
  0
LINE
  5
22F
  8
0
  6
CONTINUOUS
 62
     7
 10
253.0095343445
 20
185.1312082793
 30
0.0
 11
298.0095343445
 21
185.1312082793
 31
0.0
  0
LINE
  5
230
  8
0
  6
CONTINUOUS
 62
     7
 10
253.0095343445
 20
181.9562082793
 30
0.0
 11
298.0095343445
 21
181.9562082793
 31
0.0
  0
LINE
  5
231
  8
0
  6
CONTINUOUS
 62
     7
 10
253.0095343445
 20
178.7812082793
 30
0.0
 11
298.0095343445
 21
178.7812082793
 31
0.0
  0
LINE
  5
232
  8
0
  6
CONTINUOUS
 62
     7
 10
253.0095343445
 20
175.6062082793
 30
0.0
 11
298.0095343445
 21
175.6062082793
 31
0.0
  0
LINE
  5
233
  8
0
  6
CONTINUOUS
 62
     7
 10
253.0095343445
 20
172.4312082793
 30
0.0
 11
298.0095343445
 21
172.4312082793
 31
0.0
  0
LINE
  5
234
  8
0
  6
CONTINUOUS
 62
     7
 10
253.0095343445
 20
169.2562082793
 30
0.0
 11
298.0095343445
 21
169.2562082793
 31
0.0
  0
LINE
  5
235
  8
0
  6
CONTINUOUS
 62
     7
 10
253.0095343445
 20
166.0812082793
 30
0.0
 11
298.0095343445
 21
166.0812082793
 31
0.0
  0
LINE
  5
236
  8
0
  6
CONTINUOUS
 62
     7
 10
253.0095343445
 20
162.9062082793
 30
0.0
 11
298.0095343445
 21
162.9062082793
 31
0.0
  0
LINE
  5
237
  8
0
  6
CONTINUOUS
 62
     7
 10
257.2095344297
 20
161.0312082793
 30
0.0
 11
256.9220344755
 21
161.3187082335
 31
0.0
  0
LINE
  5
238
  8
0
  6
CONTINUOUS
 62
     7
 10
253.7470344629
 20
164.4937082462
 30
0.0
 11
253.0095343445
 21
165.2312083646
 31
0.0
  0
LINE
  5
239
  8
0
  6
CONTINUOUS
 62
     7
 10
269.9095344084
 20
161.0312082793
 30
0.0
 11
269.6220344901
 21
161.3187081976
 31
0.0
  0
LINE
  5
23A
  8
0
  6
CONTINUOUS
 62
     7
 10
266.4470344775
 20
164.4937082102
 30
0.0
 11
263.2720344649
 21
167.6687082229
 31
0.0
  0
LINE
  5
23B
  8
0
  6
CONTINUOUS
 62
     7
 10
260.0970344522
 20
170.8437082355
 30
0.0
 11
256.9220344396
 21
174.0187082481
 31
0.0
  0
LINE
  5
23C
  8
0
  6
CONTINUOUS
 62
     7
 10
253.747034427
 20
177.1937082608
 30
0.0
 11
253.0095343445
 21
177.9312083433
 31
0.0
  0
LINE
  5
23D
  8
0
  6
CONTINUOUS
 62
     7
 10
282.6095343871
 20
161.0312082793
 30
0.0
 11
282.3220345047
 21
161.3187081617
 31
0.0
  0
LINE
  5
23E
  8
0
  6
CONTINUOUS
 62
     7
 10
279.1470344921
 20
164.4937081743
 30
0.0
 11
275.9720344795
 21
167.668708187
 31
0.0
  0
LINE
  5
23F
  8
0
  6
CONTINUOUS
 62
     7
 10
272.7970344668
 20
170.8437081996
 30
0.0
 11
269.6220344542
 21
174.0187082122
 31
0.0
  0
LINE
  5
240
  8
0
  6
CONTINUOUS
 62
     7
 10
266.4470344416
 20
177.1937082249
 30
0.0
 11
263.2720344289
 21
180.3687082375
 31
0.0
  0
LINE
  5
241
  8
0
  6
CONTINUOUS
 62
     7
 10
260.0970344163
 20
183.5437082501
 30
0.0
 11
256.9220344037
 21
186.7187082628
 31
0.0
  0
LINE
  5
242
  8
0
  6
CONTINUOUS
 62
     7
 10
253.747034391
 20
189.8937082754
 30
0.0
 11
253.0095343445
 21
190.631208322
 31
0.0
  0
LINE
  5
243
  8
0
  6
CONTINUOUS
 62
     7
 10
260.0970343804
 20
196.2437082647
 30
0.0
 11
256.9220343678
 21
199.4187082774
 31
0.0
  0
LINE
  5
244
  8
0
  6
CONTINUOUS
 62
     7
 10
295.3095343658
 20
161.0312082793
 30
0.0
 11
295.0220345193
 21
161.3187081258
 31
0.0
  0
LINE
  5
245
  8
0
  6
CONTINUOUS
 62
     7
 10
291.8470345067
 20
164.4937081384
 30
0.0
 11
288.6720344941
 21
167.668708151
 31
0.0
  0
LINE
  5
246
  8
0
  6
CONTINUOUS
 62
     7
 10
285.4970344814
 20
170.8437081637
 30
0.0
 11
282.3220344688
 21
174.0187081763
 31
0.0
  0
LINE
  5
247
  8
0
  6
CONTINUOUS
 62
     7
 10
279.1470344562
 20
177.1937081889
 30
0.0
 11
275.9720344435
 21
180.3687082016
 31
0.0
  0
LINE
  5
248
  8
0
  6
CONTINUOUS
 62
     7
 10
272.7970344309
 20
183.5437082142
 30
0.0
 11
269.6220344183
 21
186.7187082268
 31
0.0
  0
LINE
  5
249
  8
0
  6
CONTINUOUS
 62
     7
 10
298.0095343445
 20
171.0312082793
 30
0.0
 11
295.0220344834
 21
174.0187081404
 31
0.0
  0
LINE
  5
24A
  8
0
  6
CONTINUOUS
 62
     7
 10
291.8470344708
 20
177.193708153
 30
0.0
 11
288.6720344582
 21
180.3687081656
 31
0.0
  0
LINE
  5
24B
  8
0
  6
CONTINUOUS
 62
     7
 10
285.4970344455
 20
183.5437081783
 30
0.0
 11
282.3220344329
 21
186.7187081909
 31
0.0
  0
LINE
  5
24C
  8
0
  6
CONTINUOUS
 62
     7
 10
298.0095343445
 20
183.731208258
 30
0.0
 11
295.0220344475
 21
186.718708155
 31
0.0
  0
LINE
  5
24D
  8
0
  6
CONTINUOUS
 62
     7
 10
291.8470344349
 20
189.8937081676
 30
0.0
 11
289.7095343232
 21
192.0312082793
 31
0.0
  0
LINE
  5
24E
  8
0
  6
CONTINUOUS
 62
     7
 10
258.0032844297
 20
161.0312082793
 30
0.0
 11
257.7157844755
 21
161.3187082335
 31
0.0
  0
LINE
  5
24F
  8
0
  6
CONTINUOUS
 62
     7
 10
254.5407844629
 20
164.4937082462
 30
0.0
 11
253.0095343445
 21
166.0249583646
 31
0.0
  0
LINE
  5
250
  8
0
  6
CONTINUOUS
 62
     7
 10
270.7032844084
 20
161.0312082793
 30
0.0
 11
270.4157844901
 21
161.3187081976
 31
0.0
  0
LINE
  5
251
  8
0
  6
CONTINUOUS
 62
     7
 10
267.2407844775
 20
164.4937082102
 30
0.0
 11
264.0657844649
 21
167.6687082229
 31
0.0
  0
LINE
  5
252
  8
0
  6
CONTINUOUS
 62
     7
 10
260.8907844522
 20
170.8437082355
 30
0.0
 11
257.7157844396
 21
174.0187082481
 31
0.0
  0
LINE
  5
253
  8
0
  6
CONTINUOUS
 62
     7
 10
254.540784427
 20
177.1937082608
 30
0.0
 11
253.0095343445
 21
178.7249583433
 31
0.0
  0
LINE
  5
254
  8
0
  6
CONTINUOUS
 62
     7
 10
283.4032843871
 20
161.0312082793
 30
0.0
 11
283.1157845047
 21
161.3187081617
 31
0.0
  0
LINE
  5
255
  8
0
  6
CONTINUOUS
 62
     7
 10
279.9407844921
 20
164.4937081743
 30
0.0
 11
276.7657844795
 21
167.668708187
 31
0.0
  0
LINE
  5
256
  8
0
  6
CONTINUOUS
 62
     7
 10
273.5907844668
 20
170.8437081996
 30
0.0
 11
270.4157844542
 21
174.0187082122
 31
0.0
  0
LINE
  5
257
  8
0
  6
CONTINUOUS
 62
     7
 10
267.2407844416
 20
177.1937082249
 30
0.0
 11
264.0657844289
 21
180.3687082375
 31
0.0
  0
LINE
  5
258
  8
0
  6
CONTINUOUS
 62
     7
 10
260.8907844163
 20
183.5437082501
 30
0.0
 11
257.7157844037
 21
186.7187082628
 31
0.0
  0
LINE
  5
259
  8
0
  6
CONTINUOUS
 62
     7
 10
254.540784391
 20
189.8937082754
 30
0.0
 11
253.0095343445
 21
191.424958322
 31
0.0
  0
LINE
  5
25A
  8
0
  6
CONTINUOUS
 62
     7
 10
260.8907843804
 20
196.2437082647
 30
0.0
 11
257.7157843678
 21
199.4187082774
 31
0.0
  0
LINE
  5
25B
  8
0
  6
CONTINUOUS
 62
     7
 10
296.1032843658
 20
161.0312082793
 30
0.0
 11
295.8157845193
 21
161.3187081258
 31
0.0
  0
LINE
  5
25C
  8
0
  6
CONTINUOUS
 62
     7
 10
292.6407845067
 20
164.4937081384
 30
0.0
 11
289.4657844941
 21
167.668708151
 31
0.0
  0
LINE
  5
25D
  8
0
  6
CONTINUOUS
 62
     7
 10
286.2907844814
 20
170.8437081637
 30
0.0
 11
283.1157844688
 21
174.0187081763
 31
0.0
  0
LINE
  5
25E
  8
0
  6
CONTINUOUS
 62
     7
 10
279.9407844562
 20
177.1937081889
 30
0.0
 11
276.7657844435
 21
180.3687082016
 31
0.0
  0
LINE
  5
25F
  8
0
  6
CONTINUOUS
 62
     7
 10
273.5907844309
 20
183.5437082142
 30
0.0
 11
270.4157844183
 21
186.7187082268
 31
0.0
  0
LINE
  5
260
  8
0
  6
CONTINUOUS
 62
     7
 10
298.0095343445
 20
171.8249582793
 30
0.0
 11
295.8157844834
 21
174.0187081404
 31
0.0
  0
LINE
  5
261
  8
0
  6
CONTINUOUS
 62
     7
 10
292.6407844708
 20
177.193708153
 30
0.0
 11
289.4657844582
 21
180.3687081656
 31
0.0
  0
LINE
  5
262
  8
0
  6
CONTINUOUS
 62
     7
 10
286.2907844455
 20
183.5437081783
 30
0.0
 11
283.1157844329
 21
186.7187081909
 31
0.0
  0
LINE
  5
263
  8
0
  6
CONTINUOUS
 62
     7
 10
298.0095343445
 20
184.524958258
 30
0.0
 11
295.8157844475
 21
186.718708155
 31
0.0
  0
LINE
  5
264
  8
0
  6
CONTINUOUS
 62
     7
 10
292.6407844349
 20
189.8937081676
 30
0.0
 11
290.5032843232
 21
192.0312082793
 31
0.0
  0
LINE
  5
265
  8
0
  6
CONTINUOUS
 62
     7
 10
258.7970344297
 20
161.0312082793
 30
0.0
 11
258.5095344755
 21
161.3187082335
 31
0.0
  0
LINE
  5
266
  8
0
  6
CONTINUOUS
 62
     7
 10
255.3345344629
 20
164.4937082462
 30
0.0
 11
253.0095343445
 21
166.8187083646
 31
0.0
  0
LINE
  5
267
  8
0
  6
CONTINUOUS
 62
     7
 10
271.4970344084
 20
161.0312082793
 30
0.0
 11
271.2095344901
 21
161.3187081976
 31
0.0
  0
LINE
  5
268
  8
0
  6
CONTINUOUS
 62
     7
 10
268.0345344775
 20
164.4937082102
 30
0.0
 11
264.8595344649
 21
167.6687082229
 31
0.0
  0
LINE
  5
269
  8
0
  6
CONTINUOUS
 62
     7
 10
261.6845344522
 20
170.8437082355
 30
0.0
 11
258.5095344396
 21
174.0187082481
 31
0.0
  0
LINE
  5
26A
  8
0
  6
CONTINUOUS
 62
     7
 10
255.334534427
 20
177.1937082608
 30
0.0
 11
253.0095343445
 21
179.5187083433
 31
0.0
  0
LINE
  5
26B
  8
0
  6
CONTINUOUS
 62
     7
 10
284.1970343871
 20
161.0312082793
 30
0.0
 11
283.9095345047
 21
161.3187081617
 31
0.0
  0
LINE
  5
26C
  8
0
  6
CONTINUOUS
 62
     7
 10
280.7345344921
 20
164.4937081743
 30
0.0
 11
277.5595344795
 21
167.668708187
 31
0.0
  0
LINE
  5
26D
  8
0
  6
CONTINUOUS
 62
     7
 10
274.3845344668
 20
170.8437081996
 30
0.0
 11
271.2095344542
 21
174.0187082122
 31
0.0
  0
LINE
  5
26E
  8
0
  6
CONTINUOUS
 62
     7
 10
268.0345344416
 20
177.1937082249
 30
0.0
 11
264.8595344289
 21
180.3687082375
 31
0.0
  0
LINE
  5
26F
  8
0
  6
CONTINUOUS
 62
     7
 10
261.6845344163
 20
183.5437082501
 30
0.0
 11
258.5095344037
 21
186.7187082628
 31
0.0
  0
LINE
  5
270
  8
0
  6
CONTINUOUS
 62
     7
 10
255.334534391
 20
189.8937082754
 30
0.0
 11
253.0095343445
 21
192.218708322
 31
0.0
  0
LINE
  5
271
  8
0
  6
CONTINUOUS
 62
     7
 10
261.6845343804
 20
196.2437082647
 30
0.0
 11
258.5095343678
 21
199.4187082774
 31
0.0
  0
LINE
  5
272
  8
0
  6
CONTINUOUS
 62
     7
 10
296.8970343658
 20
161.0312082793
 30
0.0
 11
296.6095345193
 21
161.3187081258
 31
0.0
  0
LINE
  5
273
  8
0
  6
CONTINUOUS
 62
     7
 10
293.4345345067
 20
164.4937081384
 30
0.0
 11
290.2595344941
 21
167.668708151
 31
0.0
  0
LINE
  5
274
  8
0
  6
CONTINUOUS
 62
     7
 10
287.0845344814
 20
170.8437081637
 30
0.0
 11
283.9095344688
 21
174.0187081763
 31
0.0
  0
LINE
  5
275
  8
0
  6
CONTINUOUS
 62
     7
 10
280.7345344562
 20
177.1937081889
 30
0.0
 11
277.5595344435
 21
180.3687082016
 31
0.0
  0
LINE
  5
276
  8
0
  6
CONTINUOUS
 62
     7
 10
274.3845344309
 20
183.5437082142
 30
0.0
 11
271.2095344183
 21
186.7187082268
 31
0.0
  0
LINE
  5
277
  8
0
  6
CONTINUOUS
 62
     7
 10
298.0095343445
 20
172.6187082793
 30
0.0
 11
296.6095344834
 21
174.0187081404
 31
0.0
  0
LINE
  5
278
  8
0
  6
CONTINUOUS
 62
     7
 10
293.4345344708
 20
177.193708153
 30
0.0
 11
290.2595344582
 21
180.3687081656
 31
0.0
  0
LINE
  5
279
  8
0
  6
CONTINUOUS
 62
     7
 10
287.0845344455
 20
183.5437081783
 30
0.0
 11
283.9095344329
 21
186.7187081909
 31
0.0
  0
LINE
  5
27A
  8
0
  6
CONTINUOUS
 62
     7
 10
298.0095343445
 20
185.318708258
 30
0.0
 11
296.6095344475
 21
186.718708155
 31
0.0
  0
LINE
  5
27B
  8
0
  6
CONTINUOUS
 62
     7
 10
293.4345344349
 20
189.8937081676
 30
0.0
 11
291.2970343232
 21
192.0312082793
 31
0.0
  0
LINE
  5
27C
  8
0
  6
CONTINUOUS
 62
     7
 10
267.0095343445
 20
220.0562082793
 30
0.0
 11
312.0095343445
 21
220.0562082793
 31
0.0
  0
LINE
  5
27D
  8
0
  6
CONTINUOUS
 62
     7
 10
267.0095343445
 20
216.8812082793
 30
0.0
 11
312.0095343445
 21
216.8812082793
 31
0.0
  0
LINE
  5
27E
  8
0
  6
CONTINUOUS
 62
     7
 10
267.0095343445
 20
213.7062082793
 30
0.0
 11
312.0095343445
 21
213.7062082793
 31
0.0
  0
LINE
  5
27F
  8
0
  6
CONTINUOUS
 62
     7
 10
270.0095343445
 20
210.5312082793
 30
0.0
 11
312.0095343445
 21
210.5312082793
 31
0.0
  0
LINE
  5
280
  8
0
  6
CONTINUOUS
 62
     7
 10
270.0095343445
 20
207.3562082793
 30
0.0
 11
312.0095343445
 21
207.3562082793
 31
0.0
  0
LINE
  5
281
  8
0
  6
CONTINUOUS
 62
     7
 10
270.0095343445
 20
204.1812082793
 30
0.0
 11
312.0095343445
 21
204.1812082793
 31
0.0
  0
LINE
  5
282
  8
0
  6
CONTINUOUS
 62
     7
 10
270.0095343445
 20
201.0062082793
 30
0.0
 11
312.0095343445
 21
201.0062082793
 31
0.0
  0
LINE
  5
283
  8
0
  6
CONTINUOUS
 62
     7
 10
270.0095343445
 20
197.8312082793
 30
0.0
 11
312.0095343445
 21
197.8312082793
 31
0.0
  0
LINE
  5
284
  8
0
  6
CONTINUOUS
 62
     7
 10
289.0095343445
 20
194.6562082793
 30
0.0
 11
312.0095343445
 21
194.6562082793
 31
0.0
  0
LINE
  5
285
  8
0
  6
CONTINUOUS
 62
     7
 10
299.0095343445
 20
191.4812082793
 30
0.0
 11
312.0095343445
 21
191.4812082793
 31
0.0
  0
LINE
  5
286
  8
0
  6
CONTINUOUS
 62
     7
 10
299.0095343445
 20
188.3062082793
 30
0.0
 11
312.0095343445
 21
188.3062082793
 31
0.0
  0
LINE
  5
287
  8
0
  6
CONTINUOUS
 62
     7
 10
299.0095343445
 20
185.1312082793
 30
0.0
 11
312.0095343445
 21
185.1312082793
 31
0.0
  0
LINE
  5
288
  8
0
  6
CONTINUOUS
 62
     7
 10
272.797034395
 20
196.2437082288
 30
0.0
 11
270.0095343445
 21
199.0312082793
 31
0.0
  0
LINE
  5
289
  8
0
  6
CONTINUOUS
 62
     7
 10
285.4970344096
 20
196.2437081929
 30
0.0
 11
282.322034397
 21
199.4187082055
 31
0.0
  0
LINE
  5
28A
  8
0
  6
CONTINUOUS
 62
     7
 10
279.1470343843
 20
202.5937082182
 30
0.0
 11
275.9720343717
 21
205.7687082308
 31
0.0
  0
LINE
  5
28B
  8
0
  6
CONTINUOUS
 62
     7
 10
272.7970343591
 20
208.9437082434
 30
0.0
 11
269.6220343464
 21
212.1187082561
 31
0.0
  0
LINE
  5
28C
  8
0
  6
CONTINUOUS
 62
     7
 10
310.8970344747
 20
183.5437081064
 30
0.0
 11
307.7220344621
 21
186.7187081191
 31
0.0
  0
LINE
  5
28D
  8
0
  6
CONTINUOUS
 62
     7
 10
304.5470344495
 20
189.8937081317
 30
0.0
 11
301.3720344368
 21
193.0687081443
 31
0.0
  0
LINE
  5
28E
  8
0
  6
CONTINUOUS
 62
     7
 10
298.1970344242
 20
196.243708157
 30
0.0
 11
295.0220344116
 21
199.4187081696
 31
0.0
  0
LINE
  5
28F
  8
0
  6
CONTINUOUS
 62
     7
 10
291.8470343989
 20
202.5937081822
 30
0.0
 11
288.6720343863
 21
205.7687081949
 31
0.0
  0
LINE
  5
290
  8
0
  6
CONTINUOUS
 62
     7
 10
285.4970343737
 20
208.9437082075
 30
0.0
 11
282.322034361
 21
212.1187082201
 31
0.0
  0
LINE
  5
291
  8
0
  6
CONTINUOUS
 62
     7
 10
279.1470343484
 20
215.2937082328
 30
0.0
 11
275.9720343358
 21
218.4687082454
 31
0.0
  0
LINE
  5
292
  8
0
  6
CONTINUOUS
 62
     7
 10
272.7970343232
 20
221.643708258
 30
0.0
 11
271.5095343018
 21
222.9312082793
 31
0.0
  0
LINE
  5
293
  8
0
  6
CONTINUOUS
 62
     7
 10
310.8970344388
 20
196.243708121
 30
0.0
 11
307.7220344262
 21
199.4187081337
 31
0.0
  0
LINE
  5
294
  8
0
  6
CONTINUOUS
 62
     7
 10
304.5470344136
 20
202.5937081463
 30
0.0
 11
301.3720344009
 21
205.7687081589
 31
0.0
  0
LINE
  5
295
  8
0
  6
CONTINUOUS
 62
     7
 10
298.1970343883
 20
208.9437081716
 30
0.0
 11
295.0220343757
 21
212.1187081842
 31
0.0
  0
LINE
  5
296
  8
0
  6
CONTINUOUS
 62
     7
 10
291.847034363
 20
215.2937081968
 30
0.0
 11
288.6720343504
 21
218.4687082095
 31
0.0
  0
LINE
  5
297
  8
0
  6
CONTINUOUS
 62
     7
 10
285.4970343378
 20
221.6437082221
 30
0.0
 11
284.2095342805
 21
222.9312082793
 31
0.0
  0
LINE
  5
298
  8
0
  6
CONTINUOUS
 62
     7
 10
310.8970344029
 20
208.9437081357
 30
0.0
 11
307.7220343903
 21
212.1187081483
 31
0.0
  0
LINE
  5
299
  8
0
  6
CONTINUOUS
 62
     7
 10
304.5470343776
 20
215.2937081609
 30
0.0
 11
301.372034365
 21
218.4687081736
 31
0.0
  0
LINE
  5
29A
  8
0
  6
CONTINUOUS
 62
     7
 10
298.1970343524
 20
221.6437081862
 30
0.0
 11
296.9095342592
 21
222.9312082793
 31
0.0
  0
LINE
  5
29B
  8
0
  6
CONTINUOUS
 62
     7
 10
310.897034367
 20
221.6437081503
 30
0.0
 11
309.6095342379
 21
222.9312082793
 31
0.0
  0
LINE
  5
29C
  8
0
  6
CONTINUOUS
 62
     7
 10
273.590784395
 20
196.2437082288
 30
0.0
 11
270.4157843824
 21
199.4187082414
 31
0.0
  0
LINE
  5
29D
  8
0
  6
CONTINUOUS
 62
     7
 10
286.2907844096
 20
196.2437081929
 30
0.0
 11
283.115784397
 21
199.4187082055
 31
0.0
  0
LINE
  5
29E
  8
0
  6
CONTINUOUS
 62
     7
 10
279.9407843843
 20
202.5937082182
 30
0.0
 11
276.7657843717
 21
205.7687082308
 31
0.0
  0
LINE
  5
29F
  8
0
  6
CONTINUOUS
 62
     7
 10
273.5907843591
 20
208.9437082434
 30
0.0
 11
270.4157843464
 21
212.1187082561
 31
0.0
  0
LINE
  5
2A0
  8
0
  6
CONTINUOUS
 62
     7
 10
267.2407843338
 20
215.2937082687
 30
0.0
 11
267.0095343445
 21
215.524958258
 31
0.0
  0
LINE
  5
2A1
  8
0
  6
CONTINUOUS
 62
     7
 10
289.6032843232
 20
192.9312082793
 30
0.0
 11
289.4657844222
 21
193.0687081803
 31
0.0
  0
LINE
  5
2A2
  8
0
  6
CONTINUOUS
 62
     7
 10
311.6907844747
 20
183.5437081064
 30
0.0
 11
308.5157844621
 21
186.7187081191
 31
0.0
  0
LINE
  5
2A3
  8
0
  6
CONTINUOUS
 62
     7
 10
305.3407844495
 20
189.8937081317
 30
0.0
 11
302.1657844368
 21
193.0687081443
 31
0.0
  0
LINE
  5
2A4
  8
0
  6
CONTINUOUS
 62
     7
 10
298.9907844242
 20
196.243708157
 30
0.0
 11
295.8157844116
 21
199.4187081696
 31
0.0
  0
LINE
  5
2A5
  8
0
  6
CONTINUOUS
 62
     7
 10
292.6407843989
 20
202.5937081822
 30
0.0
 11
289.4657843863
 21
205.7687081949
 31
0.0
  0
LINE
  5
2A6
  8
0
  6
CONTINUOUS
 62
     7
 10
286.2907843737
 20
208.9437082075
 30
0.0
 11
283.115784361
 21
212.1187082201
 31
0.0
  0
LINE
  5
2A7
  8
0
  6
CONTINUOUS
 62
     7
 10
279.9407843484
 20
215.2937082328
 30
0.0
 11
276.7657843358
 21
218.4687082454
 31
0.0
  0
LINE
  5
2A8
  8
0
  6
CONTINUOUS
 62
     7
 10
273.5907843232
 20
221.643708258
 30
0.0
 11
272.3032843018
 21
222.9312082793
 31
0.0
  0
LINE
  5
2A9
  8
0
  6
CONTINUOUS
 62
     7
 10
311.6907844388
 20
196.243708121
 30
0.0
 11
308.5157844262
 21
199.4187081337
 31
0.0
  0
LINE
  5
2AA
  8
0
  6
CONTINUOUS
 62
     7
 10
305.3407844136
 20
202.5937081463
 30
0.0
 11
302.1657844009
 21
205.7687081589
 31
0.0
  0
LINE
  5
2AB
  8
0
  6
CONTINUOUS
 62
     7
 10
298.9907843883
 20
208.9437081716
 30
0.0
 11
295.8157843757
 21
212.1187081842
 31
0.0
  0
LINE
  5
2AC
  8
0
  6
CONTINUOUS
 62
     7
 10
292.640784363
 20
215.2937081968
 30
0.0
 11
289.4657843504
 21
218.4687082095
 31
0.0
  0
LINE
  5
2AD
  8
0
  6
CONTINUOUS
 62
     7
 10
286.2907843378
 20
221.6437082221
 30
0.0
 11
285.0032842805
 21
222.9312082793
 31
0.0
  0
LINE
  5
2AE
  8
0
  6
CONTINUOUS
 62
     7
 10
311.6907844029
 20
208.9437081357
 30
0.0
 11
308.5157843903
 21
212.1187081483
 31
0.0
  0
LINE
  5
2AF
  8
0
  6
CONTINUOUS
 62
     7
 10
305.3407843776
 20
215.2937081609
 30
0.0
 11
302.165784365
 21
218.4687081736
 31
0.0
  0
LINE
  5
2B0
  8
0
  6
CONTINUOUS
 62
     7
 10
298.9907843524
 20
221.6437081862
 30
0.0
 11
297.7032842592
 21
222.9312082793
 31
0.0
  0
LINE
  5
2B1
  8
0
  6
CONTINUOUS
 62
     7
 10
311.690784367
 20
221.6437081503
 30
0.0
 11
310.4032842379
 21
222.9312082793
 31
0.0
  0
LINE
  5
2B2
  8
0
  6
CONTINUOUS
 62
     7
 10
274.384534395
 20
196.2437082288
 30
0.0
 11
271.2095343824
 21
199.4187082414
 31
0.0
  0
LINE
  5
2B3
  8
0
  6
CONTINUOUS
 62
     7
 10
287.0845344096
 20
196.2437081929
 30
0.0
 11
283.909534397
 21
199.4187082055
 31
0.0
  0
LINE
  5
2B4
  8
0
  6
CONTINUOUS
 62
     7
 10
280.7345343843
 20
202.5937082182
 30
0.0
 11
277.5595343717
 21
205.7687082308
 31
0.0
  0
LINE
  5
2B5
  8
0
  6
CONTINUOUS
 62
     7
 10
274.3845343591
 20
208.9437082434
 30
0.0
 11
271.2095343464
 21
212.1187082561
 31
0.0
  0
LINE
  5
2B6
  8
0
  6
CONTINUOUS
 62
     7
 10
268.0345343338
 20
215.2937082687
 30
0.0
 11
267.0095343445
 21
216.318708258
 31
0.0
  0
LINE
  5
2B7
  8
0
  6
CONTINUOUS
 62
     7
 10
290.3970343232
 20
192.9312082793
 30
0.0
 11
290.2595344222
 21
193.0687081803
 31
0.0
  0
LINE
  5
2B8
  8
0
  6
CONTINUOUS
 62
     7
 10
299.7845344601
 20
183.5437081424
 30
0.0
 11
299.0095343445
 21
184.318708258
 31
0.0
  0
LINE
  5
2B9
  8
0
  6
CONTINUOUS
 62
     7
 10
312.0095343445
 20
184.0187082367
 30
0.0
 11
309.3095344621
 21
186.7187081191
 31
0.0
  0
LINE
  5
2BA
  8
0
  6
CONTINUOUS
 62
     7
 10
306.1345344495
 20
189.8937081317
 30
0.0
 11
302.9595344368
 21
193.0687081443
 31
0.0
  0
LINE
  5
2BB
  8
0
  6
CONTINUOUS
 62
     7
 10
299.7845344242
 20
196.243708157
 30
0.0
 11
296.6095344116
 21
199.4187081696
 31
0.0
  0
LINE
  5
2BC
  8
0
  6
CONTINUOUS
 62
     7
 10
293.4345343989
 20
202.5937081822
 30
0.0
 11
290.2595343863
 21
205.7687081949
 31
0.0
  0
LINE
  5
2BD
  8
0
  6
CONTINUOUS
 62
     7
 10
287.0845343737
 20
208.9437082075
 30
0.0
 11
283.909534361
 21
212.1187082201
 31
0.0
  0
LINE
  5
2BE
  8
0
  6
CONTINUOUS
 62
     7
 10
280.7345343484
 20
215.2937082328
 30
0.0
 11
277.5595343358
 21
218.4687082454
 31
0.0
  0
LINE
  5
2BF
  8
0
  6
CONTINUOUS
 62
     7
 10
274.3845343232
 20
221.643708258
 30
0.0
 11
273.0970343018
 21
222.9312082793
 31
0.0
  0
LINE
  5
2C0
  8
0
  6
CONTINUOUS
 62
     7
 10
312.0095343445
 20
196.7187082154
 30
0.0
 11
309.3095344262
 21
199.4187081337
 31
0.0
  0
LINE
  5
2C1
  8
0
  6
CONTINUOUS
 62
     7
 10
306.1345344136
 20
202.5937081463
 30
0.0
 11
302.9595344009
 21
205.7687081589
 31
0.0
  0
LINE
  5
2C2
  8
0
  6
CONTINUOUS
 62
     7
 10
299.7845343883
 20
208.9437081716
 30
0.0
 11
296.6095343757
 21
212.1187081842
 31
0.0
  0
LINE
  5
2C3
  8
0
  6
CONTINUOUS
 62
     7
 10
293.434534363
 20
215.2937081968
 30
0.0
 11
290.2595343504
 21
218.4687082095
 31
0.0
  0
LINE
  5
2C4
  8
0
  6
CONTINUOUS
 62
     7
 10
287.0845343378
 20
221.6437082221
 30
0.0
 11
285.7970342805
 21
222.9312082793
 31
0.0
  0
LINE
  5
2C5
  8
0
  6
CONTINUOUS
 62
     7
 10
312.0095343445
 20
209.4187081941
 30
0.0
 11
309.3095343903
 21
212.1187081483
 31
0.0
  0
LINE
  5
2C6
  8
0
  6
CONTINUOUS
 62
     7
 10
306.1345343776
 20
215.2937081609
 30
0.0
 11
302.959534365
 21
218.4687081736
 31
0.0
  0
LINE
  5
2C7
  8
0
  6
CONTINUOUS
 62
     7
 10
299.7845343524
 20
221.6437081862
 30
0.0
 11
298.4970342592
 21
222.9312082793
 31
0.0
  0
LINE
  5
2C8
  8
0
  6
CONTINUOUS
 62
     7
 10
312.0095343445
 20
222.1187081728
 30
0.0
 11
311.1970342379
 21
222.9312082793
 31
0.0
  0
LINE
  5
2C9
  8
0
  6
CONTINUOUS
 62
     7
 10
254.3729596745
 20
215.3748897305
 30
0.0
 11
256.8414179777
 21
217.8433480337
 31
0.0
  0
LINE
  5
2CA
  8
0
  6
CONTINUOUS
 62
     7
 10
256.6180237048
 20
213.1298257002
 30
0.0
 11
257.2006794255
 21
213.7124814209
 31
0.0
  0
LINE
  5
2CB
  8
0
  6
CONTINUOUS
 62
     7
 10
258.8630877351
 20
210.8847616699
 30
0.0
 11
260.9419816717
 21
212.9636556066
 31
0.0
  0
LINE
  5
2CC
  8
0
  6
CONTINUOUS
 62
     7
 10
261.1081517653
 20
208.6396976397
 30
0.0
 11
261.690807486
 21
209.2223533603
 31
0.0
  0
LINE
  5
2CD
  8
0
  6
CONTINUOUS
 62
     7
 10
312.0095343445
 20
182.9312082793
 30
0.0
 11
299.0095343445
 21
182.9312082793
 31
0.0
  0
LINE
  5
2CE
  8
0
  6
CONTINUOUS
 62
     7
 10
299.0095343445
 20
182.9312082793
 30
0.0
 11
299.0095343445
 21
192.9312082793
 31
0.0
  0
LINE
  5
2CF
  8
0
  6
CONTINUOUS
 62
     7
 10
299.0095343445
 20
192.9312082793
 30
0.0
 11
289.0095343445
 21
192.9312082793
 31
0.0
  0
LINE
  5
2D0
  8
0
  6
CONTINUOUS
 62
     7
 10
289.0095343445
 20
192.9312082793
 30
0.0
 11
289.0095343445
 21
195.9312082793
 31
0.0
  0
LINE
  5
2D1
  8
0
  6
CONTINUOUS
 62
     7
 10
289.0095343445
 20
195.9312082793
 30
0.0
 11
270.0095343445
 21
195.9312082793
 31
0.0
  0
LINE
  5
2D2
  8
0
  6
CONTINUOUS
 62
     7
 10
270.0095343445
 20
195.9312082793
 30
0.0
 11
270.0095343445
 21
210.9312082793
 31
0.0
  0
LINE
  5
2D3
  8
0
  6
CONTINUOUS
 62
     7
 10
270.0095343445
 20
210.9312082793
 30
0.0
 11
267.0095343445
 21
210.9312082793
 31
0.0
  0
LINE
  5
2D4
  8
0
  6
CONTINUOUS
 62
     7
 10
267.0095343445
 20
210.9312082793
 30
0.0
 11
267.0095343445
 21
222.9312082793
 31
0.0
  0
LINE
  5
2D5
  8
0
  6
CONTINUOUS
 62
     7
 10
267.0095343445
 20
222.9312082793
 30
0.0
 11
312.0095343445
 21
222.9312082793
 31
0.0
  0
LINE
  5
2D6
  8
0
  6
CONTINUOUS
 62
     7
 10
312.0095343445
 20
222.9312082793
 30
0.0
 11
312.0095343445
 21
182.9312082793
 31
0.0
  0
LINE
  5
2D7
  8
0
  6
CONTINUOUS
 62
     7
 10
289.0095343445
 20
192.9312082793
 30
0.0
 11
288.9595343445
 21
192.9312082793
 31
0.0
  0
LINE
  5
2D8
  8
0
  6
CONTINUOUS
 62
     7
 10
267.0095343445
 20
192.9312082793
 30
0.0
 11
271.0095343445
 21
192.9312082793
 31
0.0
  0
LINE
  5
2D9
  8
0
  6
CONTINUOUS
 62
     7
 10
267.0095343445
 20
210.9312082793
 30
0.0
 11
267.0095343445
 21
209.7041329779
 31
0.0
  0
LINE
  5
2DA
  8
0
  6
CONTINUOUS
 62
     7
 10
267.0095343445
 20
196.9312082793
 30
0.0
 11
267.0095343445
 21
192.9312082793
 31
0.0
  0
LINE
  5
2DB
  8
0
  6
CONTINUOUS
 62
     7
 10
253.0095343445
 20
201.0312082793
 30
0.0
 11
263.0095343445
 21
201.0312082793
 31
0.0
  0
LINE
  5
2DC
  8
0
  6
CONTINUOUS
 62
     7
 10
263.0095343445
 20
201.0312082793
 30
0.0
 11
263.0095343445
 21
189.0312082793
 31
0.0
  0
LINE
  5
2DD
  8
0
  6
CONTINUOUS
 62
     7
 10
263.0095343445
 20
189.0312082793
 30
0.0
 11
289.0095343445
 21
189.0312082793
 31
0.0
  0
LINE
  5
2DE
  8
0
  6
CONTINUOUS
 62
     7
 10
289.0095343445
 20
189.0312082793
 30
0.0
 11
289.0095343445
 21
192.0312082793
 31
0.0
  0
LINE
  5
2DF
  8
0
  6
CONTINUOUS
 62
     7
 10
289.0095343445
 20
192.0312082793
 30
0.0
 11
298.0095343445
 21
192.0312082793
 31
0.0
  0
LINE
  5
2E0
  8
0
  6
CONTINUOUS
 62
     7
 10
298.0095343445
 20
192.0312082793
 30
0.0
 11
298.0095343445
 21
161.0312082793
 31
0.0
  0
LINE
  5
2E1
  8
0
  6
CONTINUOUS
 62
     7
 10
298.0095343445
 20
161.0312082793
 30
0.0
 11
253.0095343445
 21
161.0312082793
 31
0.0
  0
LINE
  5
2E2
  8
0
  6
CONTINUOUS
 62
     7
 10
253.0095343445
 20
161.0312082793
 30
0.0
 11
253.0095343445
 21
201.0312082793
 31
0.0
  0
LINE
  5
2E3
  8
0
  6
CONTINUOUS
 62
     7
 10
288.9595343445
 20
192.0312082793
 30
0.0
 11
289.0095343445
 21
192.0312082793
 31
0.0
  0
CIRCLE
  5
2E4
  8
0
  6
CONTINUOUS
 62
     7
 10
258.5095343445
 20
210.5312082793
 30
0.0
 40
3.440000000000006
  0
LINE
  5
2E5
  8
0
  6
CONTINUOUS
 62
     7
 10
266.6461954022
 20
202.8865246941
 30
0.0
 11
269.4073862972
 21
204.059480295
 31
0.0
  0
LINE
  5
2E6
  8
0
  6
CONTINUOUS
 62
     7
 10
269.6911222044
 20
203.3915530493
 30
0.0
 11
269.4073862972
 21
204.059480295
 31
0.0
  0
ARC
  5
2E7
  8
0
  6
CONTINUOUS
 62
     7
 10
266.0095343445
 20
201.8276122482
 30
0.0
 40
4.000000000000012
 50
0.0
 51
23.015815337
  0
LINE
  5
2E8
  8
0
  6
CONTINUOUS
 62
     7
 10
270.0095343445
 20
196.9312082793
 30
0.0
 11
270.0095343445
 21
201.8276122482
 31
0.0
  0
ARC
  5
2E9
  8
0
  6
CONTINUOUS
 62
     7
 10
271.0095343445
 20
196.9312082793
 30
0.0
 40
1.0
 50
180.0
 51
270.0
  0
LINE
  5
2EA
  8
0
  6
CONTINUOUS
 62
     7
 10
279.4595343445
 20
195.9312082793
 30
0.0
 11
271.0095343445
 21
195.9312082793
 31
0.0
  0
LINE
  5
2EB
  8
0
  6
CONTINUOUS
 62
     7
 10
279.4595343445
 20
195.9312082793
 30
0.0
 11
279.4595343445
 21
194.9312082793
 31
0.0
  0
LINE
  5
2EC
  8
0
  6
CONTINUOUS
 62
     7
 10
279.4595343445
 20
194.9312082793
 30
0.0
 11
277.4595343445
 21
192.9312082793
 31
0.0
  0
LINE
  5
2ED
  8
0
  6
CONTINUOUS
 62
     7
 10
277.4595343445
 20
192.9312082793
 30
0.0
 11
271.0095343445
 21
192.9312082793
 31
0.0
  0
ARC
  5
2EE
  8
0
  6
CONTINUOUS
 62
     7
 10
271.0095343445
 20
196.9312082793
 30
0.0
 40
4.0
 50
180.0
 51
270.0
  0
LINE
  5
2EF
  8
0
  6
CONTINUOUS
 62
     7
 10
267.0095343445
 20
196.9312082793
 30
0.0
 11
267.0095343445
 21
201.8276122482
 31
0.0
  0
ARC
  5
2F0
  8
0
  6
CONTINUOUS
 62
     7
 10
266.0095343445
 20
201.8276122482
 30
0.0
 40
1.0
 50
0.0
 51
23.015815337
  0
LINE
  5
2F1
  8
0
  6
CONTINUOUS
 62
     7
 10
266.9299313095
 20
202.2185974485
 30
0.0
 11
266.6461954022
 21
202.8865246941
 31
0.0
  0
LINE
  5
2F2
  8
0
  6
CONTINUOUS
 62
     7
 10
288.9595343445
 20
192.9312082793
 30
0.0
 11
287.4595343445
 21
192.9312082793
 31
0.0
  0
LINE
  5
2F3
  8
0
  6
CONTINUOUS
 62
     7
 10
287.4595343445
 20
192.9312082793
 30
0.0
 11
285.4595343445
 21
194.9312082793
 31
0.0
  0
LINE
  5
2F4
  8
0
  6
CONTINUOUS
 62
     7
 10
285.4595343445
 20
194.9312082793
 30
0.0
 11
285.4595343445
 21
195.9312082793
 31
0.0
  0
LINE
  5
2F5
  8
0
  6
CONTINUOUS
 62
     7
 10
288.9595343445
 20
195.9312082793
 30
0.0
 11
285.4595343445
 21
195.9312082793
 31
0.0
  0
LINE
  5
2F6
  8
0
  6
CONTINUOUS
 62
     7
 10
288.9595343445
 20
192.9312082793
 30
0.0
 11
288.9595343445
 21
195.9312082793
 31
0.0
  0
LINE
  5
2F7
  8
0
  6
CONTINUOUS
 62
     7
 10
279.4595343445
 20
194.9312082793
 30
0.0
 11
285.4595343445
 21
194.9312082793
 31
0.0
  0
LINE
  5
2F8
  8
0
  6
CONTINUOUS
 62
     7
 10
277.4595343445
 20
192.9312082793
 30
0.0
 11
287.4595343445
 21
192.9312082793
 31
0.0
  0
LINE
  5
2F9
  8
0
  6
CONTINUOUS
 62
     7
 10
265.4125115819
 20
213.4635972815
 30
0.0
 11
269.4073862972
 21
204.059480295
 31
0.0
  0
LINE
  5
2FA
  8
0
  6
CONTINUOUS
 62
     7
 10
266.0095343445
 20
204.3852538144
 30
0.0
 11
266.6461954022
 21
202.8865246941
 31
0.0
  0
LINE
  5
2FB
  8
0
  6
CONTINUOUS
 62
     7
 10
266.0095343445
 20
193.0312082793
 30
0.0
 11
266.0095343445
 21
210.5312082793
 31
0.0
  0
ARC
  5
2FC
  8
0
  6
CONTINUOUS
 62
     7
 10
267.0095343445
 20
193.0312082793
 30
0.0
 40
1.0
 50
180.0
 51
270.0
  0
LINE
  5
2FD
  8
0
  6
CONTINUOUS
 62
     7
 10
277.4595343445
 20
192.0312082793
 30
0.0
 11
267.0095343445
 21
192.0312082793
 31
0.0
  0
LINE
  5
2FE
  8
0
  6
CONTINUOUS
 62
     7
 10
277.4595343445
 20
192.0312082793
 30
0.0
 11
279.4595343445
 21
190.0312082793
 31
0.0
  0
LINE
  5
2FF
  8
0
  6
CONTINUOUS
 62
     7
 10
279.4595343445
 20
190.0312082793
 30
0.0
 11
279.4595343445
 21
189.0312082793
 31
0.0
  0
LINE
  5
300
  8
0
  6
CONTINUOUS
 62
     7
 10
279.4595343445
 20
189.0312082793
 30
0.0
 11
267.0095343445
 21
189.0312082793
 31
0.0
  0
ARC
  5
301
  8
0
  6
CONTINUOUS
 62
     7
 10
267.0095343445
 20
193.0312082793
 30
0.0
 40
4.000000000000028
 50
180.0
 51
270.0
  0
LINE
  5
302
  8
0
  6
CONTINUOUS
 62
     7
 10
263.0095343445
 20
193.0312082793
 30
0.0
 11
263.0095343445
 21
210.5312082793
 31
0.0
  0
ARC
  5
303
  8
0
  6
CONTINUOUS
 62
     7
 10
258.5095343445
 20
210.5312082793
 30
0.0
 40
4.500000000000005
 50
0.0
 51
302.2309526355
  0
LINE
  5
304
  8
0
  6
CONTINUOUS
 62
     7
 10
262.5095343445
 20
204.1869195091
 30
0.0
 11
260.9095343445
 21
206.7246350172
 31
0.0
  0
ARC
  5
305
  8
0
  6
CONTINUOUS
 62
     7
 10
258.5095343445
 20
210.5312082793
 30
0.0
 40
7.500000000000035
 50
0.0
 51
302.2309526355
  0
LINE
  5
306
  8
0
  6
CONTINUOUS
 62
     7
 10
285.4595343445
 20
189.0312082793
 30
0.0
 11
285.4595343445
 21
190.0312082793
 31
0.0
  0
LINE
  5
307
  8
0
  6
CONTINUOUS
 62
     7
 10
285.4595343445
 20
190.0312082793
 30
0.0
 11
279.4595343445
 21
190.0312082793
 31
0.0
  0
LINE
  5
308
  8
0
  6
CONTINUOUS
 62
     7
 10
285.4595343445
 20
190.0312082793
 30
0.0
 11
287.4595343445
 21
192.0312082793
 31
0.0
  0
LINE
  5
309
  8
0
  6
CONTINUOUS
 62
     7
 10
287.4595343445
 20
192.0312082793
 30
0.0
 11
277.4595343445
 21
192.0312082793
 31
0.0
  0
LINE
  5
30A
  8
0
  6
CONTINUOUS
 62
     7
 10
288.9595343445
 20
192.0312082793
 30
0.0
 11
287.4595343445
 21
192.0312082793
 31
0.0
  0
LINE
  5
30B
  8
0
  6
CONTINUOUS
 62
     7
 10
288.9595343445
 20
189.0312082793
 30
0.0
 11
285.4595343445
 21
189.0312082793
 31
0.0
  0
LINE
  5
30C
  8
0
  6
CONTINUOUS
 62
     7
 10
288.9595343445
 20
189.0312082793
 30
0.0
 11
288.9595343445
 21
192.0312082793
 31
0.0
  0
CIRCLE
  5
30D
  8
0
  6
CONTINUOUS
 62
     7
 10
258.5095343445
 20
210.5312082793
 30
0.0
 40
4.211324865405317
  0
CIRCLE
  5
30E
  8
0
  6
CONTINUOUS
 62
     7
 10
258.5095343445
 20
210.5312082793
 30
0.0
 40
3.738675134594899
  0
CIRCLE
  5
30F
  8
0
  6
CONTINUOUS
 62
     7
 10
258.5095343445
 20
210.5312082793
 30
0.0
 40
3.450000000000102
  0
ARC
  5
310
  8
0
  6
CONTINUOUS
 62
     7
 10
258.5095343445
 20
210.5312082793
 30
0.0
 40
4.5
 50
302.2309526355
 51
0.0
  0
LINE
  5
311
  8
0
  6
CONTINUOUS
 62
     7
 10
263.0095343445
 20
204.5312082793
 30
0.0
 11
262.5095343445
 21
204.1869195091
 31
0.0
  0
DIMENSION
  5
312
  8
0
  6
CONTINUOUS
 62
     7
  2
_D_9
 10
289.0095343445
 20
147.355902629
 30
0.0
 11
273.7595343445
 21
147.355902629
 31
0.0
 70
   160
  1
<>
  3
SLDDIMSTYLE1
 13
258.5095343445
 23
200.5312082793
 33
0.0
 14
289.0095343445
 24
189.0312082793
 34
0.0
 50
0.0
  0
DIMENSION
  5
31C
  8
0
  6
CONTINUOUS
 62
     7
  2
_D_10
 10
289.0095343445
 20
154.7608121912
 30
0.0
 11
276.0095343445
 21
154.7608121912
 31
0.0
 70
   160
  1
<>
  3
SLDDIMSTYLE1
 13
263.0095343445
 23
189.0312082793
 33
0.0
 14
289.0095343445
 24
189.0312082793
 34
0.0
 50
0.0
  0
DIMENSION
  5
326
  8
0
  6
CONTINUOUS
 62
     7
  2
_D_11
 10
240.7460330734
 20
189.0312082793
 30
0.0
 11
240.7460330734
 21
199.7812082793
 31
0.0
 70
   160
  1
<>
  3
SLDDIMSTYLE3
 13
248.5095343445
 23
210.5312082793
 33
0.0
 14
263.0095343445
 24
189.0312082793
 34
0.0
 50
90.0
  0
DIMENSION
  5
332
  8
0
  6
CONTINUOUS
 62
     7
  2
_D_12
 10
325.3691980801
 20
189.0312082793
 30
0.0
 11
325.3691980801
 21
192.4812082793
 31
0.0
 70
   160
  1
<>
  3
SLDDIMSTYLE4
 13
289.0095343445
 23
195.9312082793
 33
0.0
 14
289.0095343445
 24
189.0312082793
 34
0.0
 50
90.0
  0
DIMENSION
  5
33F
  8
0
  6
CONTINUOUS
 62
     7
  2
_D_13
 10
289.0095343445
 20
239.9312082793
 30
0.0
 11
273.7595343445
 21
239.9312082793
 31
0.0
 70
   160
  1
<>
  3
SLDDIMSTYLE1
 13
258.5095343445
 23
220.5312082793
 33
0.0
 14
289.0095343445
 24
195.9312082793
 34
0.0
 50
0.0
  0
DIMENSION
  5
349
  8
0
  6
CONTINUOUS
 62
     7
  2
_D_14
 10
289.0095343445
 20
230.8617070977
 30
0.0
 11
278.0095343445
 21
230.8617070977
 31
0.0
 70
   160
  1
<>
  3
SLDDIMSTYLE1
 13
267.0095343445
 23
222.9312082793
 33
0.0
 14
289.0095343445
 24
195.9312082793
 34
0.0
 50
0.0
  0
DIMENSION
  5
353
  8
0
  6
CONTINUOUS
 62
     7
  2
_D_15
 10
263.8128352034
 20
205.2279074204
 30
0.0
 11
246.063514803
 21
222.9772478208
 31
0.0
 70
   163
  1
<>
  3
SLDDIMSTYLE5
 15
253.2062334856
 25
215.8345091382
 35
0.0
 40
0.0
  0
DIMENSION
  5
360
  8
0
  6
CONTINUOUS
 62
     7
  2
_D_16
 10
319.0693539354
 20
192.0312082793
 30
0.0
 11
319.0693539354
 21
190.5312082793
 31
0.0
 70
   160
  1
<>
  3
SLDDIMSTYLE3
 13
289.0095343445
 23
189.0312082793
 33
0.0
 14
298.0095343445
 24
192.0312082793
 34
0.0
 50
90.0
  0
INSERT
  5
377
  8
0
  6
CONTINUOUS
 62
     7
  2
SW_CENTERMARKSYMBOL_8
 10
258.5095343445
 20
210.5312082793
 30
0.0
  0
CIRCLE
  5
378
  8
0
  6
CONTINUOUS
 62
     7
 10
92.6020943171
 20
65.8890311169
 30
0.0
 40
7.500000000000001
  0
LINE
  5
379
  8
0
  6
CONTINUOUS
 62
     7
 10
105.1020943171
 20
51.2890311169
 30
0.0
 11
105.1020943171
 21
48.2890311169
 31
0.0
  0
LINE
  5
37A
  8
0
  6
CONTINUOUS
 62
     7
 10
105.1020943171
 20
48.2890311169
 30
0.0
 11
123.0520943171
 21
48.2890311169
 31
0.0
  0
LINE
  5
37B
  8
0
  6
CONTINUOUS
 62
     7
 10
105.1020943171
 20
51.2890311169
 30
0.0
 11
123.0520943171
 21
51.2890311169
 31
0.0
  0
LINE
  5
37C
  8
0
  6
CONTINUOUS
 62
     7
 10
123.0520943171
 20
51.2890311169
 30
0.0
 11
123.0520943171
 21
48.2890311169
 31
0.0
  0
LINE
  5
37D
  8
0
  6
CONTINUOUS
 62
     7
 10
104.1020943171
 20
57.1854350858
 30
0.0
 11
101.1020943171
 21
57.1854350858
 31
0.0
  0
ARC
  5
37E
  8
0
  6
CONTINUOUS
 62
     7
 10
100.1020943171
 20
57.1854350858
 30
0.0
 40
1.0
 50
0.0
 51
23.015815337
  0
LINE
  5
37F
  8
0
  6
CONTINUOUS
 62
     7
 10
101.0224912821
 20
57.5764202861
 30
0.0
 11
103.7836821771
 21
58.7493758869
 31
0.0
  0
ARC
  5
380
  8
0
  6
CONTINUOUS
 62
     7
 10
100.1020943171
 20
57.1854350858
 30
0.0
 40
4.000000000000003
 50
0.0
 51
23.015815337
  0
LINE
  5
381
  8
0
  6
CONTINUOUS
 62
     7
 10
101.1020943171
 20
52.2890311169
 30
0.0
 11
104.1020943171
 21
52.2890311169
 31
0.0
  0
ARC
  5
382
  8
0
  6
CONTINUOUS
 62
     7
 10
105.1020943171
 20
52.2890311169
 30
0.0
 40
4.000000000000007
 50
180.0
 51
270.0
  0
ARC
  5
383
  8
0
  6
CONTINUOUS
 62
     7
 10
105.1020943171
 20
52.2890311169
 30
0.0
 40
1.0
 50
180.0
 51
270.0
  0
LINE
  5
384
  8
0
  6
CONTINUOUS
 62
     7
 10
101.1020943171
 20
57.1854350858
 30
0.0
 11
101.1020943171
 21
52.2890311169
 31
0.0
  0
LINE
  5
385
  8
0
  6
CONTINUOUS
 62
     7
 10
104.1020943171
 20
57.1854350858
 30
0.0
 11
104.1020943171
 21
52.2890311169
 31
0.0
  0
LINE
  5
386
  8
0
  6
CONTINUOUS
 62
     7
 10
99.0897918613
 20
62.1260827283
 30
0.0
 11
101.0224912821
 21
57.5764202861
 31
0.0
  0
LINE
  5
387
  8
0
  6
CONTINUOUS
 62
     7
 10
99.5050715546
 20
68.8214201191
 30
0.0
 11
103.7836821771
 21
58.7493758869
 31
0.0
  0
ARC
  5
388
  8
0
  6
CONTINUOUS
 62
     7
 10
101.1020943171
 20
48.3890311169
 30
0.0
 40
1.000000000000007
 50
180.0
 51
270.0
  0
LINE
  5
389
  8
0
  6
CONTINUOUS
 62
     7
 10
101.1020943171
 20
47.3890311169
 30
0.0
 11
101.1020943171
 21
44.3890311169
 31
0.0
  0
ARC
  5
38A
  8
0
  6
CONTINUOUS
 62
     7
 10
101.1020943171
 20
48.3890311169
 30
0.0
 40
4.000000000000007
 50
180.0
 51
270.0
  0
LINE
  5
38B
  8
0
  6
CONTINUOUS
 62
     7
 10
97.1020943171
 20
48.3890311169
 30
0.0
 11
100.1020943171
 21
48.3890311169
 31
0.0
  0
LINE
  5
38C
  8
0
  6
CONTINUOUS
 62
     7
 10
97.1020943171
 20
55.0419361556
 30
0.0
 11
97.1020943171
 21
48.3890311169
 31
0.0
  0
LINE
  5
38D
  8
0
  6
CONTINUOUS
 62
     7
 10
100.1020943171
 20
55.0419361556
 30
0.0
 11
97.1020943171
 21
55.0419361556
 31
0.0
  0
LINE
  5
38E
  8
0
  6
CONTINUOUS
 62
     7
 10
100.1020943171
 20
55.0419361556
 30
0.0
 11
100.1020943171
 21
48.3890311169
 31
0.0
  0
LINE
  5
38F
  8
0
  6
CONTINUOUS
 62
     7
 10
101.1020943171
 20
44.3890311169
 30
0.0
 11
123.0520943171
 21
44.3890311169
 31
0.0
  0
LINE
  5
390
  8
0
  6
CONTINUOUS
 62
     7
 10
101.1020943171
 20
47.3890311169
 30
0.0
 11
123.0520943171
 21
47.3890311169
 31
0.0
  0
LINE
  5
391
  8
0
  6
CONTINUOUS
 62
     7
 10
123.0520943171
 20
47.3890311169
 30
0.0
 11
123.0520943171
 21
44.3890311169
 31
0.0
  0
LINE
  5
392
  8
0
  6
CONTINUOUS
 62
     7
 10
97.1020943171
 20
56.5419361556
 30
0.0
 11
100.1020943171
 21
56.5419361556
 31
0.0
  0
LINE
  5
393
  8
0
  6
CONTINUOUS
 62
     7
 10
97.1020943171
 20
55.0419361556
 30
0.0
 11
97.1020943171
 21
56.5419361556
 31
0.0
  0
LINE
  5
394
  8
0
  6
CONTINUOUS
 62
     7
 10
100.1020943171
 20
56.5419361556
 30
0.0
 11
100.1020943171
 21
55.0419361556
 31
0.0
  0
LINE
  5
395
  8
0
  6
CONTINUOUS
 62
     7
 10
97.1020943171
 20
58.0419361556
 30
0.0
 11
100.1020943171
 21
58.0419361556
 31
0.0
  0
LINE
  5
396
  8
0
  6
CONTINUOUS
 62
     7
 10
97.1020943171
 20
56.5419361556
 30
0.0
 11
97.1020943171
 21
58.0419361556
 31
0.0
  0
LINE
  5
397
  8
0
  6
CONTINUOUS
 62
     7
 10
100.1020943171
 20
58.0419361556
 30
0.0
 11
100.1020943171
 21
56.5419361556
 31
0.0
  0
LINE
  5
398
  8
0
  6
CONTINUOUS
 62
     7
 10
97.1020943171
 20
59.8890311169
 30
0.0
 11
97.1020943171
 21
58.0419361556
 31
0.0
  0
LINE
  5
399
  8
0
  6
CONTINUOUS
 62
     7
 10
100.1020943171
 20
59.743076652
 30
0.0
 11
100.1020943171
 21
58.0419361556
 31
0.0
  0
INSERT
  5
39A
  8
0
  6
CONTINUOUS
 62
     7
  2
BREUER_UND_SCHMITZ_LOGO
 10
233.2565861336
 20
91.25840344
 30
0.0
 41
0.8
 42
0.8
 43
0.8
 50
0.000000005
  0
INSERT
  5
39B
  8
0
  6
CONTINUOUS
 62
     7
  2
BREUER_UND_SCHMITZ_LOGO
 10
257.7420896407
 20
80.2261554026
 30
0.0
 41
1.2
 42
1.2
 43
1.2
 50
0.0
  0
DIMENSION
  5
39C
  8
0
  6
CONTINUOUS
 62
     7
  2
_D_17
 10
87.5461217849
 20
60.3494335004
 30
0.0
 11
104.8367271736
 21
79.2939572202
 31
0.0
 70
   163
  1
<>
  3
SLDDIMSTYLE6
 15
97.6580668494
 25
71.4286287335
 35
0.0
 40
0.0
  0
INSERT
  5
3B1
  8
0
  6
CONTINUOUS
 62
     7
  2
SW_CENTERMARKSYMBOL_9
 10
92.6020943171
 20
65.8890311169
 30
0.0
  0
LINE
  5
3B2
  8
0
  6
CONTINUOUS
 62
     7
 10
383.6379237497
 20
87.2354412376
 30
0.0
 11
383.6374813799
 21
86.7810585462
 31
0.0
  0
LINE
  5
3B3
  8
0
  6
CONTINUOUS
 62
     7
 10
391.1374778256
 20
86.7737568346
 30
0.0
 11
391.1379201953
 21
87.2281395259
 31
0.0
  0
LINE
  5
3B4
  8
0
  6
CONTINUOUS
 62
     7
 10
384.0555357565
 20
86.0620473542
 30
0.0
 11
384.2774441613
 21
85.8825466976
 31
0.0
  0
LINE
  5
3B5
  8
0
  6
CONTINUOUS
 62
     7
 10
390.495766745
 20
85.876492775
 30
0.0
 11
390.7180242389
 21
86.0555610085
 31
0.0
  0
LINE
  5
3B6
  8
0
  6
CONTINUOUS
 62
     7
 10
383.6622540847
 20
112.226489261
 30
0.0
 11
383.661811715
 21
111.7721065697
 31
0.0
  0
LINE
  5
3B7
  8
0
  6
CONTINUOUS
 62
     7
 10
391.1365930861
 20
85.8649914519
 30
0.0
 11
391.1370354559
 21
86.3193741433
 31
0.0
  0
LINE
  5
3B8
  8
0
  6
CONTINUOUS
 62
     7
 10
383.6370390102
 20
86.3266758549
 30
0.0
 11
383.6365966405
 21
85.8722931636
 31
0.0
  0
LINE
  5
3B9
  8
0
  6
CONTINUOUS
 62
     7
 10
383.6631388241
 20
113.1352546437
 30
0.0
 11
383.6626964544
 21
112.6808719524
 31
0.0
  0
LINE
  5
3BA
  8
0
  6
CONTINUOUS
 62
     7
 10
384.0807508309
 20
111.9618607604
 30
0.0
 11
384.3026592358
 21
111.7823601038
 31
0.0
  0
LINE
  5
3BB
  8
0
  6
CONTINUOUS
 62
     7
 10
390.5209818195
 20
111.7763061811
 30
0.0
 11
390.7432393134
 21
111.9553744147
 31
0.0
  0
LINE
  5
3BC
  8
0
  6
CONTINUOUS
 62
     7
 10
391.1723365601
 20
122.5791129119
 30
0.0
 11
391.1733040165
 21
123.5728414183
 31
0.0
  0
LINE
  5
3BD
  8
0
  6
CONTINUOUS
 62
     7
 10
383.6733075708
 20
123.5801431299
 30
0.0
 11
383.6723401145
 21
122.5864146235
 31
0.0
  0
LINE
  5
3BE
  8
0
  6
CONTINUOUS
 62
     7
 10
391.2596867496
 20
119.5932023446
 30
0.0
 11
391.2147419853
 21
73.4279209049
 31
0.0
  0
LINE
  5
3BF
  8
0
  6
CONTINUOUS
 62
     7
 10
392.9074916951
 20
119.4434332065
 30
0.0
 11
392.908688462
 21
120.6726994219
 31
0.0
  0
LINE
  5
3C0
  8
0
  6
CONTINUOUS
 62
     7
 10
383.6723401145
 20
122.5864146235
 30
0.0
 11
383.6631388241
 21
113.1352546437
 31
0.0
  0
LINE
  5
3C1
  8
0
  6
CONTINUOUS
 62
     7
 10
383.6365966405
 20
85.8722931636
 30
0.0
 11
383.6273953501
 21
76.4211331838
 31
0.0
  0
LINE
  5
3C2
  8
0
  6
CONTINUOUS
 62
     7
 10
383.661811715
 20
111.7721065697
 30
0.0
 11
383.6379237497
 21
87.2354412376
 31
0.0
  0
LINE
  5
3C3
  8
0
  6
CONTINUOUS
 62
     7
 10
391.1379201953
 20
87.2281395259
 30
0.0
 11
391.1615870895
 21
111.5377303865
 31
0.0
  0
LINE
  5
3C4
  8
0
  6
CONTINUOUS
 62
     7
 10
385.6953680506
 20
124.9667498488
 30
0.0
 11
385.696698809
 21
126.333646262
 31
0.0
  0
POLYLINE
  5
3C5
  8
0
  6
CONTINUOUS
 62
     7
 66
     1
 10
0.0
 20
0.0
 30
0.0
 70
   128
  0
VERTEX
  5
437
  8
0
  6
CONTINUOUS
 62
     7
 10
391.1379201953
 20
87.2281395259
 30
0.0
  0
VERTEX
  5
438
  8
0
  6
CONTINUOUS
 62
     7
 10
391.1313705378
 20
87.1363286687
 30
0.0
  0
VERTEX
  5
439
  8
0
  6
CONTINUOUS
 62
     7
 10
391.0592208905
 20
86.9099186292
 30
0.0
  0
VERTEX
  5
43A
  8
0
  6
CONTINUOUS
 62
     7
 10
390.9088238807
 20
86.6903687274
 30
0.0
  0
VERTEX
  5
43B
  8
0
  6
CONTINUOUS
 62
     7
 10
390.6833849595
 20
86.4823582881
 30
0.0
  0
VERTEX
  5
43C
  8
0
  6
CONTINUOUS
 62
     7
 10
390.3877089661
 20
86.2903206928
 30
0.0
  0
VERTEX
  5
43D
  8
0
  6
CONTINUOUS
 62
     7
 10
390.0280977211
 20
86.1183488894
 30
0.0
  0
VERTEX
  5
43E
  8
0
  6
CONTINUOUS
 62
     7
 10
389.6122157138
 20
85.9701081583
 30
0.0
  0
VERTEX
  5
43F
  8
0
  6
CONTINUOUS
 62
     7
 10
389.148926747
 20
85.8487579933
 30
0.0
  0
VERTEX
  5
440
  8
0
  6
CONTINUOUS
 62
     7
 10
388.6481050209
 20
85.7568847625
 30
0.0
  0
VERTEX
  5
441
  8
0
  6
CONTINUOUS
 62
     7
 10
388.1204246809
 20
85.6964465843
 30
0.0
  0
VERTEX
  5
442
  8
0
  6
CONTINUOUS
 62
     7
 10
387.5771323175
 20
85.6687315936
 30
0.0
  0
VERTEX
  5
443
  8
0
  6
CONTINUOUS
 62
     7
 10
387.029807264
 20
85.6743304872
 30
0.0
  0
VERTEX
  5
444
  8
0
  6
CONTINUOUS
 62
     7
 10
386.4901148038
 20
85.7131239345
 30
0.0
  0
VERTEX
  5
445
  8
0
  6
CONTINUOUS
 62
     7
 10
385.9695575447
 20
85.7842851206
 30
0.0
  0
VERTEX
  5
446
  8
0
  6
CONTINUOUS
 62
     7
 10
385.4792302609
 20
85.8862973681
 30
0.0
  0
VERTEX
  5
447
  8
0
  6
CONTINUOUS
 62
     7
 10
385.0295834271
 20
86.0169864633
 30
0.0
  0
VERTEX
  5
448
  8
0
  6
CONTINUOUS
 62
     7
 10
384.630200485
 20
86.1735669949
 30
0.0
  0
VERTEX
  5
449
  8
0
  6
CONTINUOUS
 62
     7
 10
384.2895935886
 20
86.3527017208
 30
0.0
  0
VERTEX
  5
44A
  8
0
  6
CONTINUOUS
 62
     7
 10
384.0150221825
 20
86.5505726952
 30
0.0
  0
VERTEX
  5
44B
  8
0
  6
CONTINUOUS
 62
     7
 10
383.8123382796
 20
86.7629626419
 30
0.0
  0
VERTEX
  5
44C
  8
0
  6
CONTINUOUS
 62
     7
 10
383.6858617353
 20
86.985344838
 30
0.0
  0
VERTEX
  5
44D
  8
0
  6
CONTINUOUS
 62
     7
 10
383.6382881777
 20
87.2129795929
 30
0.0
  0
VERTEX
  5
44E
  8
0
  6
CONTINUOUS
 62
     7
 10
383.6379237497
 20
87.2354412376
 30
0.0
  0
SEQEND
  5
819
  8
0
  6
CONTINUOUS
 62
     7
  0
LINE
  5
3C6
  8
0
  6
CONTINUOUS
 62
     7
 10
391.1309281681
 20
86.6819459773
 30
0.0
 11
391.1374778256
 21
86.7737568346
 31
0.0
  0
POLYLINE
  5
3C7
  8
0
  6
CONTINUOUS
 62
     7
 66
     1
 10
0.0
 20
0.0
 30
0.0
 70
   128
  0
VERTEX
  5
44F
  8
0
  6
CONTINUOUS
 62
     7
 10
383.6374813799
 20
86.7810585462
 30
0.0
  0
VERTEX
  5
450
  8
0
  6
CONTINUOUS
 62
     7
 10
383.637845808
 20
86.7585969016
 30
0.0
  0
VERTEX
  5
451
  8
0
  6
CONTINUOUS
 62
     7
 10
383.6854193656
 20
86.5309621467
 30
0.0
  0
VERTEX
  5
452
  8
0
  6
CONTINUOUS
 62
     7
 10
383.8118959099
 20
86.3085799506
 30
0.0
  0
VERTEX
  5
453
  8
0
  6
CONTINUOUS
 62
     7
 10
384.0145798128
 20
86.0961900039
 30
0.0
  0
VERTEX
  5
454
  8
0
  6
CONTINUOUS
 62
     7
 10
384.2891512189
 20
85.8983190294
 30
0.0
  0
VERTEX
  5
455
  8
0
  6
CONTINUOUS
 62
     7
 10
384.6297581153
 20
85.7191843036
 30
0.0
  0
VERTEX
  5
456
  8
0
  6
CONTINUOUS
 62
     7
 10
385.0291410574
 20
85.5626037719
 30
0.0
  0
VERTEX
  5
457
  8
0
  6
CONTINUOUS
 62
     7
 10
385.4787878912
 20
85.4319146768
 30
0.0
  0
VERTEX
  5
458
  8
0
  6
CONTINUOUS
 62
     7
 10
385.969115175
 20
85.3299024292
 30
0.0
  0
VERTEX
  5
459
  8
0
  6
CONTINUOUS
 62
     7
 10
386.4896724341
 20
85.2587412432
 30
0.0
  0
VERTEX
  5
45A
  8
0
  6
CONTINUOUS
 62
     7
 10
387.0293648943
 20
85.2199477959
 30
0.0
  0
VERTEX
  5
45B
  8
0
  6
CONTINUOUS
 62
     7
 10
387.5766899477
 20
85.2143489022
 30
0.0
  0
VERTEX
  5
45C
  8
0
  6
CONTINUOUS
 62
     7
 10
388.1199823112
 20
85.242063893
 30
0.0
  0
VERTEX
  5
45D
  8
0
  6
CONTINUOUS
 62
     7
 10
388.6476626511
 20
85.3025020711
 30
0.0
  0
VERTEX
  5
45E
  8
0
  6
CONTINUOUS
 62
     7
 10
389.1484843773
 20
85.3943753019
 30
0.0
  0
VERTEX
  5
45F
  8
0
  6
CONTINUOUS
 62
     7
 10
389.611773344
 20
85.5157254669
 30
0.0
  0
VERTEX
  5
460
  8
0
  6
CONTINUOUS
 62
     7
 10
390.0276553514
 20
85.663966198
 30
0.0
  0
VERTEX
  5
461
  8
0
  6
CONTINUOUS
 62
     7
 10
390.3872665964
 20
85.8359380015
 30
0.0
  0
VERTEX
  5
462
  8
0
  6
CONTINUOUS
 62
     7
 10
390.6829425897
 20
86.0279755968
 30
0.0
  0
VERTEX
  5
463
  8
0
  6
CONTINUOUS
 62
     7
 10
390.9083815109
 20
86.2359860361
 30
0.0
  0
VERTEX
  5
464
  8
0
  6
CONTINUOUS
 62
     7
 10
391.0587785208
 20
86.4555359379
 30
0.0
  0
VERTEX
  5
465
  8
0
  6
CONTINUOUS
 62
     7
 10
391.1309281681
 20
86.6819459773
 30
0.0
  0
SEQEND
  5
81A
  8
0
  6
CONTINUOUS
 62
     7
  0
POLYLINE
  5
3C8
  8
0
  6
CONTINUOUS
 62
     7
 66
     1
 10
0.0
 20
0.0
 30
0.0
 70
   128
  0
VERTEX
  5
466
  8
0
  6
CONTINUOUS
 62
     7
 10
390.495766745
 20
85.876492775
 30
0.0
  0
VERTEX
  5
467
  8
0
  6
CONTINUOUS
 62
     7
 10
390.4454241964
 20
85.8374022258
 30
0.0
  0
VERTEX
  5
468
  8
0
  6
CONTINUOUS
 62
     7
 10
390.1575616779
 20
85.6553610003
 30
0.0
  0
VERTEX
  5
469
  8
0
  6
CONTINUOUS
 62
     7
 10
389.8078151623
 20
85.4933093645
 30
0.0
  0
VERTEX
  5
46A
  8
0
  6
CONTINUOUS
 62
     7
 10
389.4039974089
 20
85.3548672841
 30
0.0
  0
VERTEX
  5
46B
  8
0
  6
CONTINUOUS
 62
     7
 10
388.955129039
 20
85.2431273265
 30
0.0
  0
VERTEX
  5
46C
  8
0
  6
CONTINUOUS
 62
     7
 10
388.4712370303
 20
85.1605855777
 30
0.0
  0
VERTEX
  5
46D
  8
0
  6
CONTINUOUS
 62
     7
 10
387.9631307306
 20
85.1090858839
 30
0.0
  0
VERTEX
  5
46E
  8
0
  6
CONTINUOUS
 62
     7
 10
387.442160395
 20
85.0897786632
 30
0.0
  0
VERTEX
  5
46F
  8
0
  6
CONTINUOUS
 62
     7
 10
386.91996364
 20
85.103095207
 30
0.0
  0
VERTEX
  5
470
  8
0
  6
CONTINUOUS
 62
     7
 10
386.4082054781
 20
85.1487380457
 30
0.0
  0
VERTEX
  5
471
  8
0
  6
CONTINUOUS
 62
     7
 10
385.9183177411
 20
85.2256875938
 30
0.0
  0
VERTEX
  5
472
  8
0
  6
CONTINUOUS
 62
     7
 10
385.4612437114
 20
85.3322249254
 30
0.0
  0
VERTEX
  5
473
  8
0
  6
CONTINUOUS
 62
     7
 10
385.0471936677
 20
85.4659701727
 30
0.0
  0
VERTEX
  5
474
  8
0
  6
CONTINUOUS
 62
     7
 10
384.6854168036
 20
85.6239356878
 30
0.0
  0
VERTEX
  5
475
  8
0
  6
CONTINUOUS
 62
     7
 10
384.3839946165
 20
85.8025927821
 30
0.0
  0
VERTEX
  5
476
  8
0
  6
CONTINUOUS
 62
     7
 10
384.2774441613
 20
85.8825466976
 30
0.0
  0
SEQEND
  5
81B
  8
0
  6
CONTINUOUS
 62
     7
  0
POLYLINE
  5
3C9
  8
0
  6
CONTINUOUS
 62
     7
 66
     1
 10
0.0
 20
0.0
 30
0.0
 70
   128
  0
VERTEX
  5
477
  8
0
  6
CONTINUOUS
 62
     7
 10
384.3026592358
 20
111.7823601038
 30
0.0
  0
VERTEX
  5
478
  8
0
  6
CONTINUOUS
 62
     7
 10
384.409209691
 20
111.7024061883
 30
0.0
  0
VERTEX
  5
479
  8
0
  6
CONTINUOUS
 62
     7
 10
384.710631878
 20
111.5237490939
 30
0.0
  0
VERTEX
  5
47A
  8
0
  6
CONTINUOUS
 62
     7
 10
385.0724087421
 20
111.3657835788
 30
0.0
  0
VERTEX
  5
47B
  8
0
  6
CONTINUOUS
 62
     7
 10
385.4864587859
 20
111.2320383315
 30
0.0
  0
VERTEX
  5
47C
  8
0
  6
CONTINUOUS
 62
     7
 10
385.9435328155
 20
111.1255009999
 30
0.0
  0
VERTEX
  5
47D
  8
0
  6
CONTINUOUS
 62
     7
 10
386.4334205526
 20
111.0485514519
 30
0.0
  0
VERTEX
  5
47E
  8
0
  6
CONTINUOUS
 62
     7
 10
386.9451787144
 20
111.0029086131
 30
0.0
  0
VERTEX
  5
47F
  8
0
  6
CONTINUOUS
 62
     7
 10
387.4673754695
 20
110.9895920693
 30
0.0
  0
VERTEX
  5
480
  8
0
  6
CONTINUOUS
 62
     7
 10
387.9883458051
 20
111.00889929
 30
0.0
  0
VERTEX
  5
481
  8
0
  6
CONTINUOUS
 62
     7
 10
388.4964521048
 20
111.0603989838
 30
0.0
  0
VERTEX
  5
482
  8
0
  6
CONTINUOUS
 62
     7
 10
388.9803441135
 20
111.1429407327
 30
0.0
  0
VERTEX
  5
483
  8
0
  6
CONTINUOUS
 62
     7
 10
389.4292124834
 20
111.2546806903
 30
0.0
  0
VERTEX
  5
484
  8
0
  6
CONTINUOUS
 62
     7
 10
389.8330302368
 20
111.3931227706
 30
0.0
  0
VERTEX
  5
485
  8
0
  6
CONTINUOUS
 62
     7
 10
390.1827767523
 20
111.5551744064
 30
0.0
  0
VERTEX
  5
486
  8
0
  6
CONTINUOUS
 62
     7
 10
390.4706392709
 20
111.737215632
 30
0.0
  0
VERTEX
  5
487
  8
0
  6
CONTINUOUS
 62
     7
 10
390.5209818195
 20
111.7763061811
 30
0.0
  0
SEQEND
  5
81C
  8
0
  6
CONTINUOUS
 62
     7
  0
LINE
  5
3CA
  8
0
  6
CONTINUOUS
 62
     7
 10
383.6688037422
 20
112.3183001183
 30
0.0
 11
383.7022053074
 21
112.4536419271
 31
0.0
  0
POLYLINE
  5
3CB
  8
0
  6
CONTINUOUS
 62
     7
 66
     1
 10
0.0
 20
0.0
 30
0.0
 70
   128
  0
VERTEX
  5
488
  8
0
  6
CONTINUOUS
 62
     7
 10
390.9849818883
 20
111.7445121247
 30
0.0
  0
VERTEX
  5
489
  8
0
  6
CONTINUOUS
 62
     7
 10
390.829551139
 20
111.5756851098
 30
0.0
  0
VERTEX
  5
48A
  8
0
  6
CONTINUOUS
 62
     7
 10
390.5682967291
 20
111.3751260579
 30
0.0
  0
VERTEX
  5
48B
  8
0
  6
CONTINUOUS
 62
     7
 10
390.2397767117
 20
111.1926345228
 30
0.0
  0
VERTEX
  5
48C
  8
0
  6
CONTINUOUS
 62
     7
 10
389.8509929206
 20
111.032099995
 30
0.0
  0
VERTEX
  5
48D
  8
0
  6
CONTINUOUS
 62
     7
 10
389.4102316074
 20
110.896943989
 30
0.0
  0
VERTEX
  5
48E
  8
0
  6
CONTINUOUS
 62
     7
 10
388.9268868342
 20
110.7900471206
 30
0.0
  0
VERTEX
  5
48F
  8
0
  6
CONTINUOUS
 62
     7
 10
388.4112602557
 20
110.7136877109
 30
0.0
  0
VERTEX
  5
490
  8
0
  6
CONTINUOUS
 62
     7
 10
387.8743415572
 20
110.6694932281
 30
0.0
  0
VERTEX
  5
491
  8
0
  6
CONTINUOUS
 62
     7
 10
387.3275742287
 20
110.6584056009
 30
0.0
  0
VERTEX
  5
492
  8
0
  6
CONTINUOUS
 62
     7
 10
386.7826116663
 20
110.6806611429
 30
0.0
  0
VERTEX
  5
493
  8
0
  6
CONTINUOUS
 62
     7
 10
386.2510688011
 20
110.7357855157
 30
0.0
  0
VERTEX
  5
494
  8
0
  6
CONTINUOUS
 62
     7
 10
385.7442745463
 20
110.8226038392
 30
0.0
  0
VERTEX
  5
495
  8
0
  6
CONTINUOUS
 62
     7
 10
385.2730303416
 20
110.9392657314
 30
0.0
  0
VERTEX
  5
496
  8
0
  6
CONTINUOUS
 62
     7
 10
384.8473799392
 20
111.0832847466
 30
0.0
  0
VERTEX
  5
497
  8
0
  6
CONTINUOUS
 62
     7
 10
384.4763953382
 20
111.2515913697
 30
0.0
  0
VERTEX
  5
498
  8
0
  6
CONTINUOUS
 62
     7
 10
384.1679834315
 20
111.4405984371
 30
0.0
  0
VERTEX
  5
499
  8
0
  6
CONTINUOUS
 62
     7
 10
383.9287174833
 20
111.6462775913
 30
0.0
  0
VERTEX
  5
49A
  8
0
  6
CONTINUOUS
 62
     7
 10
383.763697032
 20
111.8642451383
 30
0.0
  0
VERTEX
  5
49B
  8
0
  6
CONTINUOUS
 62
     7
 10
383.6764392019
 20
112.0898554782
 30
0.0
  0
VERTEX
  5
49C
  8
0
  6
CONTINUOUS
 62
     7
 10
383.6688037422
 20
112.3183001183
 30
0.0
  0
SEQEND
  5
81D
  8
0
  6
CONTINUOUS
 62
     7
  0
POLYLINE
  5
3CC
  8
0
  6
CONTINUOUS
 62
     7
 66
     1
 10
0.0
 20
0.0
 30
0.0
 70
   128
  0
VERTEX
  5
49D
  8
0
  6
CONTINUOUS
 62
     7
 10
383.661811715
 20
111.7721065697
 30
0.0
  0
VERTEX
  5
49E
  8
0
  6
CONTINUOUS
 62
     7
 10
383.6759968322
 20
111.6354727869
 30
0.0
  0
VERTEX
  5
49F
  8
0
  6
CONTINUOUS
 62
     7
 10
383.7632546622
 20
111.409862447
 30
0.0
  0
VERTEX
  5
4A0
  8
0
  6
CONTINUOUS
 62
     7
 10
383.9282751136
 20
111.1918949
 30
0.0
  0
VERTEX
  5
4A1
  8
0
  6
CONTINUOUS
 62
     7
 10
384.1675410617
 20
110.9862157458
 30
0.0
  0
VERTEX
  5
4A2
  8
0
  6
CONTINUOUS
 62
     7
 10
384.4759529685
 20
110.7972086784
 30
0.0
  0
VERTEX
  5
4A3
  8
0
  6
CONTINUOUS
 62
     7
 10
384.8469375694
 20
110.6289020553
 30
0.0
  0
VERTEX
  5
4A4
  8
0
  6
CONTINUOUS
 62
     7
 10
385.2725879719
 20
110.48488304
 30
0.0
  0
VERTEX
  5
4A5
  8
0
  6
CONTINUOUS
 62
     7
 10
385.7438321766
 20
110.3682211478
 30
0.0
  0
VERTEX
  5
4A6
  8
0
  6
CONTINUOUS
 62
     7
 10
386.2506264313
 20
110.2814028244
 30
0.0
  0
VERTEX
  5
4A7
  8
0
  6
CONTINUOUS
 62
     7
 10
386.7821692966
 20
110.2262784515
 30
0.0
  0
VERTEX
  5
4A8
  8
0
  6
CONTINUOUS
 62
     7
 10
387.3271318589
 20
110.2040229096
 30
0.0
  0
VERTEX
  5
4A9
  8
0
  6
CONTINUOUS
 62
     7
 10
387.8738991875
 20
110.2151105368
 30
0.0
  0
VERTEX
  5
4AA
  8
0
  6
CONTINUOUS
 62
     7
 10
388.410817886
 20
110.2593050196
 30
0.0
  0
VERTEX
  5
4AB
  8
0
  6
CONTINUOUS
 62
     7
 10
388.9264444645
 20
110.3356644293
 30
0.0
  0
VERTEX
  5
4AC
  8
0
  6
CONTINUOUS
 62
     7
 10
389.4097892377
 20
110.4425612977
 30
0.0
  0
VERTEX
  5
4AD
  8
0
  6
CONTINUOUS
 62
     7
 10
389.8505505509
 20
110.5777173036
 30
0.0
  0
VERTEX
  5
4AE
  8
0
  6
CONTINUOUS
 62
     7
 10
390.239334342
 20
110.7382518315
 30
0.0
  0
VERTEX
  5
4AF
  8
0
  6
CONTINUOUS
 62
     7
 10
390.5678543594
 20
110.9207433665
 30
0.0
  0
VERTEX
  5
4B0
  8
0
  6
CONTINUOUS
 62
     7
 10
390.8291087693
 20
111.1213024185
 30
0.0
  0
VERTEX
  5
4B1
  8
0
  6
CONTINUOUS
 62
     7
 10
391.0175293875
 20
111.3356544194
 30
0.0
  0
VERTEX
  5
4B2
  8
0
  6
CONTINUOUS
 62
     7
 10
391.1291003558
 20
111.5592308284
 30
0.0
  0
VERTEX
  5
4B3
  8
0
  6
CONTINUOUS
 62
     7
 10
391.1328538908
 20
111.5713732279
 30
0.0
  0
SEQEND
  5
81E
  8
0
  6
CONTINUOUS
 62
     7
  0
POLYLINE
  5
3CD
  8
0
  6
CONTINUOUS
 62
     7
 66
     1
 10
0.0
 20
0.0
 30
0.0
 70
   128
  0
VERTEX
  5
4B4
  8
0
  6
CONTINUOUS
 62
     7
 10
384.2774441613
 20
85.8825466976
 30
0.0
  0
VERTEX
  5
4B5
  8
0
  6
CONTINUOUS
 62
     7
 10
384.3216199932
 20
85.8479574184
 30
0.0
  0
VERTEX
  5
4B6
  8
0
  6
CONTINUOUS
 62
     7
 10
384.6075546608
 20
85.664927177
 30
0.0
  0
VERTEX
  5
4B7
  8
0
  6
CONTINUOUS
 62
     7
 10
384.955583317
 20
85.5016728327
 30
0.0
  0
VERTEX
  5
4B8
  8
0
  6
CONTINUOUS
 62
     7
 10
385.3579315767
 20
85.3618412178
 30
0.0
  0
VERTEX
  5
4B9
  8
0
  6
CONTINUOUS
 62
     7
 10
385.8056116447
 20
85.2485559395
 30
0.0
  0
VERTEX
  5
4BA
  8
0
  6
CONTINUOUS
 62
     7
 10
386.288623088
 20
85.1643476037
 30
0.0
  0
VERTEX
  5
4BB
  8
0
  6
CONTINUOUS
 62
     7
 10
386.7961762292
 20
85.1110972855
 30
0.0
  0
VERTEX
  5
4BC
  8
0
  6
CONTINUOUS
 62
     7
 10
387.3169331697
 20
85.089994509
 30
0.0
  0
VERTEX
  5
4BD
  8
0
  6
CONTINUOUS
 62
     7
 10
387.83926106
 20
85.1015106754
 30
0.0
  0
VERTEX
  5
4BE
  8
0
  6
CONTINUOUS
 62
     7
 10
388.3514919583
 20
85.1453885325
 30
0.0
  0
VERTEX
  5
4BF
  8
0
  6
CONTINUOUS
 62
     7
 10
388.8421834725
 20
85.2206479215
 30
0.0
  0
VERTEX
  5
4C0
  8
0
  6
CONTINUOUS
 62
     7
 10
389.3003743653
 20
85.3256076721
 30
0.0
  0
VERTEX
  5
4C1
  8
0
  6
CONTINUOUS
 62
     7
 10
389.7158294091
 20
85.4579231568
 30
0.0
  0
VERTEX
  5
4C2
  8
0
  6
CONTINUOUS
 62
     7
 10
390.0792680249
 20
85.6146386664
 30
0.0
  0
VERTEX
  5
4C3
  8
0
  6
CONTINUOUS
 62
     7
 10
390.3825715944
 20
85.7922534353
 30
0.0
  0
VERTEX
  5
4C4
  8
0
  6
CONTINUOUS
 62
     7
 10
390.495766745
 20
85.876492775
 30
0.0
  0
SEQEND
  5
81F
  8
0
  6
CONTINUOUS
 62
     7
  0
LINE
  5
3CE
  8
0
  6
CONTINUOUS
 62
     7
 10
383.6539102018
 20
86.4743035308
 30
0.0
 11
383.6769902329
 21
86.5538285209
 31
0.0
  0
POLYLINE
  5
3CF
  8
0
  6
CONTINUOUS
 62
     7
 66
     1
 10
0.0
 20
0.0
 30
0.0
 70
   128
  0
VERTEX
  5
4C5
  8
0
  6
CONTINUOUS
 62
     7
 10
391.0975266029
 20
86.5466041686
 30
0.0
  0
VERTEX
  5
4C6
  8
0
  6
CONTINUOUS
 62
     7
 10
391.1081095392
 20
86.514029181
 30
0.0
  0
VERTEX
  5
4C7
  8
0
  6
CONTINUOUS
 62
     7
 10
391.1361419594
 20
86.2858456127
 30
0.0
  0
VERTEX
  5
4C8
  8
0
  6
CONTINUOUS
 62
     7
 10
391.0842687213
 20
86.0584544585
 30
0.0
  0
VERTEX
  5
4C9
  8
0
  6
CONTINUOUS
 62
     7
 10
390.953595413
 20
85.836702166
 30
0.0
  0
VERTEX
  5
4CA
  8
0
  6
CONTINUOUS
 62
     7
 10
390.7469071092
 20
85.6253150004
 30
0.0
  0
VERTEX
  5
4CB
  8
0
  6
CONTINUOUS
 62
     7
 10
390.4686090122
 20
85.428798312
 30
0.0
  0
VERTEX
  5
4CC
  8
0
  6
CONTINUOUS
 62
     7
 10
390.1246325628
 20
85.251340513
 30
0.0
  0
VERTEX
  5
4CD
  8
0
  6
CONTINUOUS
 62
     7
 10
389.7223090218
 20
85.0967238082
 30
0.0
  0
VERTEX
  5
4CE
  8
0
  6
CONTINUOUS
 62
     7
 10
389.2702132171
 20
84.9682435843
 30
0.0
  0
VERTEX
  5
4CF
  8
0
  6
CONTINUOUS
 62
     7
 10
388.7779807857
 20
84.8686381741
 30
0.0
  0
VERTEX
  5
4D0
  8
0
  6
CONTINUOUS
 62
     7
 10
388.2561028073
 20
84.800030494
 30
0.0
  0
VERTEX
  5
4D1
  8
0
  6
CONTINUOUS
 62
     7
 10
387.7157022051
 20
84.7638827977
 30
0.0
  0
VERTEX
  5
4D2
  8
0
  6
CONTINUOUS
 62
     7
 10
387.1682966797
 20
84.7609655104
 30
0.0
  0
VERTEX
  5
4D3
  8
0
  6
CONTINUOUS
 62
     7
 10
386.6255532293
 20
84.7913408093
 30
0.0
  0
VERTEX
  5
4D4
  8
0
  6
CONTINUOUS
 62
     7
 10
386.0990394884
 20
84.8543612973
 30
0.0
  0
VERTEX
  5
4D5
  8
0
  6
CONTINUOUS
 62
     7
 10
385.5999771833
 20
84.9486838024
 30
0.0
  0
VERTEX
  5
4D6
  8
0
  6
CONTINUOUS
 62
     7
 10
385.1390029606
 20
85.072298004
 30
0.0
  0
VERTEX
  5
4D7
  8
0
  6
CONTINUOUS
 62
     7
 10
384.7259416855
 20
85.2225692801
 30
0.0
  0
VERTEX
  5
4D8
  8
0
  6
CONTINUOUS
 62
     7
 10
384.3695970418
 20
85.3962948592
 30
0.0
  0
VERTEX
  5
4D9
  8
0
  6
CONTINUOUS
 62
     7
 10
384.0775638972
 20
85.5897720824
 30
0.0
  0
VERTEX
  5
4DA
  8
0
  6
CONTINUOUS
 62
     7
 10
383.8560664309
 20
85.7988773184
 30
0.0
  0
VERTEX
  5
4DB
  8
0
  6
CONTINUOUS
 62
     7
 10
383.709825477
 20
86.0191538522
 30
0.0
  0
VERTEX
  5
4DC
  8
0
  6
CONTINUOUS
 62
     7
 10
383.6419579075
 20
86.245906872
 30
0.0
  0
VERTEX
  5
4DD
  8
0
  6
CONTINUOUS
 62
     7
 10
383.6539102018
 20
86.4743035308
 30
0.0
  0
VERTEX
  5
4DE
  8
0
  6
CONTINUOUS
 62
     7
 10
383.6539102018
 20
86.4743035308
 30
0.0
  0
SEQEND
  5
820
  8
0
  6
CONTINUOUS
 62
     7
  0
POLYLINE
  5
3D0
  8
0
  6
CONTINUOUS
 62
     7
 66
     1
 10
0.0
 20
0.0
 30
0.0
 70
   128
  0
VERTEX
  5
4DF
  8
0
  6
CONTINUOUS
 62
     7
 10
383.6365966405
 20
85.8722931636
 30
0.0
  0
VERTEX
  5
4E0
  8
0
  6
CONTINUOUS
 62
     7
 10
383.6415155378
 20
85.7915241807
 30
0.0
  0
VERTEX
  5
4E1
  8
0
  6
CONTINUOUS
 62
     7
 10
383.7093831073
 20
85.5647711609
 30
0.0
  0
VERTEX
  5
4E2
  8
0
  6
CONTINUOUS
 62
     7
 10
383.8556240612
 20
85.3444946271
 30
0.0
  0
VERTEX
  5
4E3
  8
0
  6
CONTINUOUS
 62
     7
 10
384.0771215274
 20
85.135389391
 30
0.0
  0
VERTEX
  5
4E4
  8
0
  6
CONTINUOUS
 62
     7
 10
384.3691546721
 20
84.9419121679
 30
0.0
  0
VERTEX
  5
4E5
  8
0
  6
CONTINUOUS
 62
     7
 10
384.7254993157
 20
84.7681865887
 30
0.0
  0
VERTEX
  5
4E6
  8
0
  6
CONTINUOUS
 62
     7
 10
385.1385605909
 20
84.6179153127
 30
0.0
  0
VERTEX
  5
4E7
  8
0
  6
CONTINUOUS
 62
     7
 10
385.5995348136
 20
84.4943011111
 30
0.0
  0
VERTEX
  5
4E8
  8
0
  6
CONTINUOUS
 62
     7
 10
386.0985971187
 20
84.399978606
 30
0.0
  0
VERTEX
  5
4E9
  8
0
  6
CONTINUOUS
 62
     7
 10
386.6251108596
 20
84.3369581179
 30
0.0
  0
VERTEX
  5
4EA
  8
0
  6
CONTINUOUS
 62
     7
 10
387.1678543099
 20
84.3065828191
 30
0.0
  0
VERTEX
  5
4EB
  8
0
  6
CONTINUOUS
 62
     7
 10
387.7152598354
 20
84.3095001063
 30
0.0
  0
VERTEX
  5
4EC
  8
0
  6
CONTINUOUS
 62
     7
 10
388.2556604376
 20
84.3456478027
 30
0.0
  0
VERTEX
  5
4ED
  8
0
  6
CONTINUOUS
 62
     7
 10
388.7775384159
 20
84.4142554827
 30
0.0
  0
VERTEX
  5
4EE
  8
0
  6
CONTINUOUS
 62
     7
 10
389.2697708473
 20
84.5138608929
 30
0.0
  0
VERTEX
  5
4EF
  8
0
  6
CONTINUOUS
 62
     7
 10
389.7218666521
 20
84.6423411169
 30
0.0
  0
VERTEX
  5
4F0
  8
0
  6
CONTINUOUS
 62
     7
 10
390.1241901931
 20
84.7969578217
 30
0.0
  0
VERTEX
  5
4F1
  8
0
  6
CONTINUOUS
 62
     7
 10
390.4681666425
 20
84.9744156207
 30
0.0
  0
VERTEX
  5
4F2
  8
0
  6
CONTINUOUS
 62
     7
 10
390.7464647395
 20
85.170932309
 30
0.0
  0
VERTEX
  5
4F3
  8
0
  6
CONTINUOUS
 62
     7
 10
390.9531530433
 20
85.3823194747
 30
0.0
  0
VERTEX
  5
4F4
  8
0
  6
CONTINUOUS
 62
     7
 10
391.0838263516
 20
85.6040717672
 30
0.0
  0
VERTEX
  5
4F5
  8
0
  6
CONTINUOUS
 62
     7
 10
391.1356995896
 20
85.8314629214
 30
0.0
  0
VERTEX
  5
4F6
  8
0
  6
CONTINUOUS
 62
     7
 10
391.1365930861
 20
85.8649914519
 30
0.0
  0
SEQEND
  5
821
  8
0
  6
CONTINUOUS
 62
     7
  0
POLYLINE
  5
3D1
  8
0
  6
CONTINUOUS
 62
     7
 66
     1
 10
0.0
 20
0.0
 30
0.0
 70
   128
  0
VERTEX
  5
4F7
  8
0
  6
CONTINUOUS
 62
     7
 10
390.5401640715
 20
112.2653359776
 30
0.0
  0
VERTEX
  5
4F8
  8
0
  6
CONTINUOUS
 62
     7
 10
390.4129240406
 20
112.190134099
 30
0.0
  0
VERTEX
  5
4F9
  8
0
  6
CONTINUOUS
 62
     7
 10
390.0533127956
 20
112.0181622955
 30
0.0
  0
VERTEX
  5
4FA
  8
0
  6
CONTINUOUS
 62
     7
 10
389.6374307882
 20
111.8699215644
 30
0.0
  0
VERTEX
  5
4FB
  8
0
  6
CONTINUOUS
 62
     7
 10
389.1741418215
 20
111.7485713994
 30
0.0
  0
VERTEX
  5
4FC
  8
0
  6
CONTINUOUS
 62
     7
 10
388.6733200953
 20
111.6566981686
 30
0.0
  0
VERTEX
  5
4FD
  8
0
  6
CONTINUOUS
 62
     7
 10
388.1456397554
 20
111.5962599904
 30
0.0
  0
VERTEX
  5
4FE
  8
0
  6
CONTINUOUS
 62
     7
 10
387.6023473919
 20
111.5685449997
 30
0.0
  0
VERTEX
  5
4FF
  8
0
  6
CONTINUOUS
 62
     7
 10
387.0550223385
 20
111.5741438934
 30
0.0
  0
VERTEX
  5
500
  8
0
  6
CONTINUOUS
 62
     7
 10
386.5153298783
 20
111.6129373407
 30
0.0
  0
VERTEX
  5
501
  8
0
  6
CONTINUOUS
 62
     7
 10
385.9947726192
 20
111.6840985267
 30
0.0
  0
VERTEX
  5
502
  8
0
  6
CONTINUOUS
 62
     7
 10
385.5044453353
 20
111.7861107743
 30
0.0
  0
VERTEX
  5
503
  8
0
  6
CONTINUOUS
 62
     7
 10
385.0547985016
 20
111.9167998694
 30
0.0
  0
VERTEX
  5
504
  8
0
  6
CONTINUOUS
 62
     7
 10
384.6554155595
 20
112.073380401
 30
0.0
  0
VERTEX
  5
505
  8
0
  6
CONTINUOUS
 62
     7
 10
384.3148086631
 20
112.2525151269
 30
0.0
  0
VERTEX
  5
506
  8
0
  6
CONTINUOUS
 62
     7
 10
384.040237257
 20
112.4503861013
 30
0.0
  0
VERTEX
  5
507
  8
0
  6
CONTINUOUS
 62
     7
 10
383.8375533541
 20
112.6627760481
 30
0.0
  0
VERTEX
  5
508
  8
0
  6
CONTINUOUS
 62
     7
 10
383.7110768098
 20
112.8851582441
 30
0.0
  0
VERTEX
  5
509
  8
0
  6
CONTINUOUS
 62
     7
 10
383.6635032522
 20
113.1127929991
 30
0.0
  0
VERTEX
  5
50A
  8
0
  6
CONTINUOUS
 62
     7
 10
383.6631388241
 20
113.1352546437
 30
0.0
  0
SEQEND
  5
822
  8
0
  6
CONTINUOUS
 62
     7
  0
POLYLINE
  5
3D2
  8
0
  6
CONTINUOUS
 62
     7
 66
     1
 10
0.0
 20
0.0
 30
0.0
 70
   128
  0
VERTEX
  5
50B
  8
0
  6
CONTINUOUS
 62
     7
 10
383.6626964544
 20
112.6808719524
 30
0.0
  0
VERTEX
  5
50C
  8
0
  6
CONTINUOUS
 62
     7
 10
383.6630608824
 20
112.6584103078
 30
0.0
  0
VERTEX
  5
50D
  8
0
  6
CONTINUOUS
 62
     7
 10
383.7106344401
 20
112.4307755528
 30
0.0
  0
VERTEX
  5
50E
  8
0
  6
CONTINUOUS
 62
     7
 10
383.8371109843
 20
112.2083933567
 30
0.0
  0
VERTEX
  5
50F
  8
0
  6
CONTINUOUS
 62
     7
 10
384.0397948872
 20
111.99600341
 30
0.0
  0
VERTEX
  5
510
  8
0
  6
CONTINUOUS
 62
     7
 10
384.3143662933
 20
111.7981324356
 30
0.0
  0
VERTEX
  5
511
  8
0
  6
CONTINUOUS
 62
     7
 10
384.6549731897
 20
111.6189977097
 30
0.0
  0
VERTEX
  5
512
  8
0
  6
CONTINUOUS
 62
     7
 10
385.0543561319
 20
111.4624171781
 30
0.0
  0
VERTEX
  5
513
  8
0
  6
CONTINUOUS
 62
     7
 10
385.5040029656
 20
111.3317280829
 30
0.0
  0
VERTEX
  5
514
  8
0
  6
CONTINUOUS
 62
     7
 10
385.9943302495
 20
111.2297158354
 30
0.0
  0
VERTEX
  5
515
  8
0
  6
CONTINUOUS
 62
     7
 10
386.5148875086
 20
111.1585546494
 30
0.0
  0
VERTEX
  5
516
  8
0
  6
CONTINUOUS
 62
     7
 10
387.0545799688
 20
111.119761202
 30
0.0
  0
VERTEX
  5
517
  8
0
  6
CONTINUOUS
 62
     7
 10
387.6019050222
 20
111.1141623084
 30
0.0
  0
VERTEX
  5
518
  8
0
  6
CONTINUOUS
 62
     7
 10
388.1451973857
 20
111.1418772991
 30
0.0
  0
VERTEX
  5
519
  8
0
  6
CONTINUOUS
 62
     7
 10
388.6728777256
 20
111.2023154773
 30
0.0
  0
VERTEX
  5
51A
  8
0
  6
CONTINUOUS
 62
     7
 10
389.1736994518
 20
111.2941887081
 30
0.0
  0
VERTEX
  5
51B
  8
0
  6
CONTINUOUS
 62
     7
 10
389.6369884185
 20
111.4155388731
 30
0.0
  0
VERTEX
  5
51C
  8
0
  6
CONTINUOUS
 62
     7
 10
390.0528704259
 20
111.5637796042
 30
0.0
  0
VERTEX
  5
51D
  8
0
  6
CONTINUOUS
 62
     7
 10
390.4124816709
 20
111.7357514076
 30
0.0
  0
VERTEX
  5
51E
  8
0
  6
CONTINUOUS
 62
     7
 10
390.7081576642
 20
111.9277890029
 30
0.0
  0
VERTEX
  5
51F
  8
0
  6
CONTINUOUS
 62
     7
 10
390.7793662182
 20
111.9852613517
 30
0.0
  0
SEQEND
  5
823
  8
0
  6
CONTINUOUS
 62
     7
  0
POLYLINE
  5
3D3
  8
0
  6
CONTINUOUS
 62
     7
 66
     1
 10
0.0
 20
0.0
 30
0.0
 70
   128
  0
VERTEX
  5
520
  8
0
  6
CONTINUOUS
 62
     7
 10
390.5209818195
 20
111.7763061811
 30
0.0
  0
VERTEX
  5
521
  8
0
  6
CONTINUOUS
 62
     7
 10
390.4706392709
 20
111.737215632
 30
0.0
  0
VERTEX
  5
522
  8
0
  6
CONTINUOUS
 62
     7
 10
390.1827767523
 20
111.5551744064
 30
0.0
  0
VERTEX
  5
523
  8
0
  6
CONTINUOUS
 62
     7
 10
389.8330302368
 20
111.3931227706
 30
0.0
  0
VERTEX
  5
524
  8
0
  6
CONTINUOUS
 62
     7
 10
389.4292124834
 20
111.2546806903
 30
0.0
  0
VERTEX
  5
525
  8
0
  6
CONTINUOUS
 62
     7
 10
388.9803441135
 20
111.1429407327
 30
0.0
  0
VERTEX
  5
526
  8
0
  6
CONTINUOUS
 62
     7
 10
388.4964521048
 20
111.0603989838
 30
0.0
  0
VERTEX
  5
527
  8
0
  6
CONTINUOUS
 62
     7
 10
387.9883458051
 20
111.00889929
 30
0.0
  0
VERTEX
  5
528
  8
0
  6
CONTINUOUS
 62
     7
 10
387.4673754695
 20
110.9895920693
 30
0.0
  0
VERTEX
  5
529
  8
0
  6
CONTINUOUS
 62
     7
 10
386.9451787144
 20
111.0029086131
 30
0.0
  0
VERTEX
  5
52A
  8
0
  6
CONTINUOUS
 62
     7
 10
386.4334205526
 20
111.0485514519
 30
0.0
  0
VERTEX
  5
52B
  8
0
  6
CONTINUOUS
 62
     7
 10
385.9435328155
 20
111.1255009999
 30
0.0
  0
VERTEX
  5
52C
  8
0
  6
CONTINUOUS
 62
     7
 10
385.4864587859
 20
111.2320383315
 30
0.0
  0
VERTEX
  5
52D
  8
0
  6
CONTINUOUS
 62
     7
 10
385.0724087421
 20
111.3657835788
 30
0.0
  0
VERTEX
  5
52E
  8
0
  6
CONTINUOUS
 62
     7
 10
384.710631878
 20
111.5237490939
 30
0.0
  0
VERTEX
  5
52F
  8
0
  6
CONTINUOUS
 62
     7
 10
384.409209691
 20
111.7024061883
 30
0.0
  0
VERTEX
  5
530
  8
0
  6
CONTINUOUS
 62
     7
 10
384.3026592358
 20
111.7823601038
 30
0.0
  0
SEQEND
  5
824
  8
0
  6
CONTINUOUS
 62
     7
  0
POLYLINE
  5
3D4
  8
0
  6
CONTINUOUS
 62
     7
 66
     1
 10
0.0
 20
0.0
 30
0.0
 70
   128
  0
VERTEX
  5
531
  8
0
  6
CONTINUOUS
 62
     7
 10
388.431244032
 20
122.0683693746
 30
0.0
  0
VERTEX
  5
532
  8
0
  6
CONTINUOUS
 62
     7
 10
387.8945912765
 20
122.023621041
 30
0.0
  0
VERTEX
  5
533
  8
0
  6
CONTINUOUS
 62
     7
 10
387.3478938891
 20
122.0119694618
 30
0.0
  0
VERTEX
  5
534
  8
0
  6
CONTINUOUS
 62
     7
 10
386.8028037756
 20
122.03366297
 30
0.0
  0
VERTEX
  5
535
  8
0
  6
CONTINUOUS
 62
     7
 10
386.2709385853
 20
122.0882392063
 30
0.0
  0
VERTEX
  5
536
  8
0
  6
CONTINUOUS
 62
     7
 10
385.7636341013
 20
122.1745349728
 30
0.0
  0
VERTEX
  5
537
  8
0
  6
CONTINUOUS
 62
     7
 10
385.291702638
 20
122.2907110253
 30
0.0
  0
VERTEX
  5
538
  8
0
  6
CONTINUOUS
 62
     7
 10
384.8652025952
 20
122.4342912727
 30
0.0
  0
VERTEX
  5
539
  8
0
  6
CONTINUOUS
 62
     7
 10
384.4932240809
 20
122.6022155515
 30
0.0
  0
VERTEX
  5
53A
  8
0
  6
CONTINUOUS
 62
     7
 10
384.1836951711
 20
122.7909048471
 30
0.0
  0
VERTEX
  5
53B
  8
0
  6
CONTINUOUS
 62
     7
 10
383.9432129374
 20
122.9963375748
 30
0.0
  0
VERTEX
  5
53C
  8
0
  6
CONTINUOUS
 62
     7
 10
383.7769028409
 20
123.2141352927
 30
0.0
  0
VERTEX
  5
53D
  8
0
  6
CONTINUOUS
 62
     7
 10
383.6883094926
 20
123.4396560206
 30
0.0
  0
VERTEX
  5
53E
  8
0
  6
CONTINUOUS
 62
     7
 10
383.679321106
 20
123.6680931756
 30
0.0
  0
VERTEX
  5
53F
  8
0
  6
CONTINUOUS
 62
     7
 10
383.7501292529
 20
123.8945780164
 30
0.0
  0
VERTEX
  5
540
  8
0
  6
CONTINUOUS
 62
     7
 10
383.8992247806
 20
124.1142834119
 30
0.0
  0
VERTEX
  5
541
  8
0
  6
CONTINUOUS
 62
     7
 10
384.1234299767
 20
124.322526723
 30
0.0
  0
VERTEX
  5
542
  8
0
  6
CONTINUOUS
 62
     7
 10
384.4179662968
 20
124.514869605
 30
0.0
  0
VERTEX
  5
543
  8
0
  6
CONTINUOUS
 62
     7
 10
384.7765562105
 20
124.6872126034
 30
0.0
  0
VERTEX
  5
544
  8
0
  6
CONTINUOUS
 62
     7
 10
385.1915569964
 20
124.8358825264
 30
0.0
  0
VERTEX
  5
545
  8
0
  6
CONTINUOUS
 62
     7
 10
385.6541236333
 20
124.9577107326
 30
0.0
  0
VERTEX
  5
546
  8
0
  6
CONTINUOUS
 62
     7
 10
386.1543973164
 20
125.0501006653
 30
0.0
  0
VERTEX
  5
547
  8
0
  6
CONTINUOUS
 62
     7
 10
386.6817155807
 20
125.1110831936
 30
0.0
  0
VERTEX
  5
548
  8
0
  6
CONTINUOUS
 62
     7
 10
387.2248395528
 20
125.1393585808
 30
0.0
  0
VERTEX
  5
549
  8
0
  6
CONTINUOUS
 62
     7
 10
387.7721934883
 20
125.134324186
 30
0.0
  0
VERTEX
  5
54A
  8
0
  6
CONTINUOUS
 62
     7
 10
388.3121114883
 20
125.0960873086
 30
0.0
  0
VERTEX
  5
54B
  8
0
  6
CONTINUOUS
 62
     7
 10
388.833086138
 20
125.0254629013
 30
0.0
  0
VERTEX
  5
54C
  8
0
  6
CONTINUOUS
 62
     7
 10
389.3240137673
 20
124.9239562007
 30
0.0
  0
VERTEX
  5
54D
  8
0
  6
CONTINUOUS
 62
     7
 10
389.774431106
 20
124.7937306459
 30
0.0
  0
VERTEX
  5
54E
  8
0
  6
CONTINUOUS
 62
     7
 10
390.1747382906
 20
124.6375617685
 30
0.0
  0
VERTEX
  5
54F
  8
0
  6
CONTINUOUS
 62
     7
 10
390.5164034684
 20
124.4587780371
 30
0.0
  0
VERTEX
  5
550
  8
0
  6
CONTINUOUS
 62
     7
 10
390.7921446394
 20
124.2611899163
 30
0.0
  0
VERTEX
  5
551
  8
0
  6
CONTINUOUS
 62
     7
 10
390.9960848592
 20
124.0490086541
 30
0.0
  0
VERTEX
  5
552
  8
0
  6
CONTINUOUS
 62
     7
 10
391.1238774961
 20
123.8267565256
 30
0.0
  0
VERTEX
  5
553
  8
0
  6
CONTINUOUS
 62
     7
 10
391.1727988719
 20
123.5991704491
 30
0.0
  0
VERTEX
  5
554
  8
0
  6
CONTINUOUS
 62
     7
 10
391.1418063124
 20
123.3711010266
 30
0.0
  0
VERTEX
  5
555
  8
0
  6
CONTINUOUS
 62
     7
 10
391.0315603702
 20
123.147409162
 30
0.0
  0
VERTEX
  5
556
  8
0
  6
CONTINUOUS
 62
     7
 10
390.8444107462
 20
122.932862459
 30
0.0
  0
VERTEX
  5
557
  8
0
  6
CONTINUOUS
 62
     7
 10
390.5843462097
 20
122.732033608
 30
0.0
  0
VERTEX
  5
558
  8
0
  6
CONTINUOUS
 62
     7
 10
390.2569095848
 20
122.5492029274
 30
0.0
  0
VERTEX
  5
559
  8
0
  6
CONTINUOUS
 62
     7
 10
389.8690796146
 20
122.3882671357
 30
0.0
  0
VERTEX
  5
55A
  8
0
  6
CONTINUOUS
 62
     7
 10
389.4291222216
 20
122.2526562999
 30
0.0
  0
VERTEX
  5
55B
  8
0
  6
CONTINUOUS
 62
     7
 10
388.9464143339
 20
122.1452607295
 30
0.0
  0
VERTEX
  5
55C
  8
0
  6
CONTINUOUS
 62
     7
 10
388.431244032
 20
122.0683693746
 30
0.0
  0
SEQEND
  5
825
  8
0
  6
CONTINUOUS
 62
     7
  0
POLYLINE
  5
3D5
  8
0
  6
CONTINUOUS
 62
     7
 66
     1
 10
0.0
 20
0.0
 30
0.0
 70
   128
  0
VERTEX
  5
55D
  8
0
  6
CONTINUOUS
 62
     7
 10
388.4302765757
 20
121.0746408682
 30
0.0
  0
VERTEX
  5
55E
  8
0
  6
CONTINUOUS
 62
     7
 10
387.8936238202
 20
121.0298925346
 30
0.0
  0
VERTEX
  5
55F
  8
0
  6
CONTINUOUS
 62
     7
 10
387.3469264328
 20
121.0182409554
 30
0.0
  0
VERTEX
  5
560
  8
0
  6
CONTINUOUS
 62
     7
 10
386.8018363193
 20
121.0399344636
 30
0.0
  0
VERTEX
  5
561
  8
0
  6
CONTINUOUS
 62
     7
 10
386.2699711289
 20
121.0945106998
 30
0.0
  0
VERTEX
  5
562
  8
0
  6
CONTINUOUS
 62
     7
 10
385.762666645
 20
121.1808064664
 30
0.0
  0
VERTEX
  5
563
  8
0
  6
CONTINUOUS
 62
     7
 10
385.2907351817
 20
121.2969825188
 30
0.0
  0
VERTEX
  5
564
  8
0
  6
CONTINUOUS
 62
     7
 10
384.8642351389
 20
121.4405627663
 30
0.0
  0
VERTEX
  5
565
  8
0
  6
CONTINUOUS
 62
     7
 10
384.4922566245
 20
121.6084870451
 30
0.0
  0
VERTEX
  5
566
  8
0
  6
CONTINUOUS
 62
     7
 10
384.1827277148
 20
121.7971763407
 30
0.0
  0
VERTEX
  5
567
  8
0
  6
CONTINUOUS
 62
     7
 10
383.9422454811
 20
122.0026090684
 30
0.0
  0
VERTEX
  5
568
  8
0
  6
CONTINUOUS
 62
     7
 10
383.7759353846
 20
122.2204067863
 30
0.0
  0
VERTEX
  5
569
  8
0
  6
CONTINUOUS
 62
     7
 10
383.6873420363
 20
122.4459275141
 30
0.0
  0
VERTEX
  5
56A
  8
0
  6
CONTINUOUS
 62
     7
 10
383.6723401145
 20
122.5864146235
 30
0.0
  0
SEQEND
  5
826
  8
0
  6
CONTINUOUS
 62
     7
  0
POLYLINE
  5
3D6
  8
0
  6
CONTINUOUS
 62
     7
 66
     1
 10
0.0
 20
0.0
 30
0.0
 70
   128
  0
VERTEX
  5
56B
  8
0
  6
CONTINUOUS
 62
     7
 10
391.1723365601
 20
122.5791129119
 30
0.0
  0
VERTEX
  5
56C
  8
0
  6
CONTINUOUS
 62
     7
 10
391.1408388561
 20
122.3773725202
 30
0.0
  0
VERTEX
  5
56D
  8
0
  6
CONTINUOUS
 62
     7
 10
391.0305929139
 20
122.1536806556
 30
0.0
  0
VERTEX
  5
56E
  8
0
  6
CONTINUOUS
 62
     7
 10
390.8434432899
 20
121.9391339525
 30
0.0
  0
VERTEX
  5
56F
  8
0
  6
CONTINUOUS
 62
     7
 10
390.5833787534
 20
121.7383051016
 30
0.0
  0
VERTEX
  5
570
  8
0
  6
CONTINUOUS
 62
     7
 10
390.2559421284
 20
121.555474421
 30
0.0
  0
VERTEX
  5
571
  8
0
  6
CONTINUOUS
 62
     7
 10
389.8681121582
 20
121.3945386293
 30
0.0
  0
VERTEX
  5
572
  8
0
  6
CONTINUOUS
 62
     7
 10
389.4281547653
 20
121.2589277935
 30
0.0
  0
VERTEX
  5
573
  8
0
  6
CONTINUOUS
 62
     7
 10
388.9454468776
 20
121.1515322231
 30
0.0
  0
VERTEX
  5
574
  8
0
  6
CONTINUOUS
 62
     7
 10
388.4302765757
 20
121.0746408682
 30
0.0
  0
SEQEND
  5
827
  8
0
  6
CONTINUOUS
 62
     7
  0
LINE
  5
3D7
  8
0
  6
CONTINUOUS
 62
     7
 10
393.2301465755
 20
119.3829900972
 30
0.0
 11
393.1415288966
 21
118.7581947242
 31
0.0
  0
LINE
  5
3D8
  8
0
  6
CONTINUOUS
 62
     7
 10
393.2301465755
 20
119.3829900972
 30
0.0
 11
402.1894668085
 21
119.1545183972
 31
0.0
  0
LINE
  5
3D9
  8
0
  6
CONTINUOUS
 62
     7
 10
402.1894668085
 20
119.1545183972
 30
0.0
 11
402.1008491296
 21
118.5297230242
 31
0.0
  0
LINE
  5
3DA
  8
0
  6
CONTINUOUS
 62
     7
 10
393.1415288966
 20
118.7581947242
 30
0.0
 11
402.1008491296
 21
118.5297230242
 31
0.0
  0
LINE
  5
3DB
  8
0
  6
CONTINUOUS
 62
     7
 10
393.1415288966
 20
118.7581947242
 30
0.0
 11
393.0965841323
 21
72.5929132844
 31
0.0
  0
LINE
  5
3DC
  8
0
  6
CONTINUOUS
 62
     7
 10
402.1008491296
 20
118.5297230242
 30
0.0
 11
402.0559043652
 21
72.3644415844
 31
0.0
  0
LINE
  5
3DD
  8
0
  6
CONTINUOUS
 62
     7
 10
393.0965841323
 20
72.5929132844
 30
0.0
 11
402.0559043652
 21
72.3644415844
 31
0.0
  0
POLYLINE
  5
3DE
  8
0
  6
CONTINUOUS
 62
     7
 66
     1
 10
0.0
 20
0.0
 30
0.0
 70
   128
  0
VERTEX
  5
575
  8
0
  6
CONTINUOUS
 62
     7
 10
396.3243770418
 20
81.1668064811
 30
0.0
  0
VERTEX
  5
576
  8
0
  6
CONTINUOUS
 62
     7
 10
395.8787291287
 20
81.1416594619
 30
0.0
  0
VERTEX
  5
577
  8
0
  6
CONTINUOUS
 62
     7
 10
395.4473336155
 20
81.0442995208
 30
0.0
  0
VERTEX
  5
578
  8
0
  6
CONTINUOUS
 62
     7
 10
395.0440559091
 20
80.8778558863
 30
0.0
  0
VERTEX
  5
579
  8
0
  6
CONTINUOUS
 62
     7
 10
394.6818576868
 20
80.6476781938
 30
0.0
  0
VERTEX
  5
57A
  8
0
  6
CONTINUOUS
 62
     7
 10
394.3723802973
 20
80.3611645438
 30
0.0
  0
VERTEX
  5
57B
  8
0
  6
CONTINUOUS
 62
     7
 10
394.1255705986
 20
80.0275237208
 30
0.0
  0
VERTEX
  5
57C
  8
0
  6
CONTINUOUS
 62
     7
 10
393.9493612576
 20
79.6574792152
 30
0.0
  0
VERTEX
  5
57D
  8
0
  6
CONTINUOUS
 62
     7
 10
393.8494157875
 20
79.262924562
 30
0.0
  0
VERTEX
  5
57E
  8
0
  6
CONTINUOUS
 62
     7
 10
393.8289465178
 20
78.8565410723
 30
0.0
  0
VERTEX
  5
57F
  8
0
  6
CONTINUOUS
 62
     7
 10
393.8886113477
 20
78.451390246
 30
0.0
  0
VERTEX
  5
580
  8
0
  6
CONTINUOUS
 62
     7
 10
394.0264926006
 20
78.0604939638
 30
0.0
  0
VERTEX
  5
581
  8
0
  6
CONTINUOUS
 62
     7
 10
394.2381586595
 20
77.696415954
 30
0.0
  0
VERTEX
  5
582
  8
0
  6
CONTINUOUS
 62
     7
 10
394.5168064031
 20
77.3708579834
 30
0.0
  0
VERTEX
  5
583
  8
0
  6
CONTINUOUS
 62
     7
 10
394.8534798637
 20
77.094283753
 30
0.0
  0
VERTEX
  5
584
  8
0
  6
CONTINUOUS
 62
     7
 10
395.2373580792
 20
76.8755825861
 30
0.0
  0
VERTEX
  5
585
  8
0
  6
CONTINUOUS
 62
     7
 10
395.6561028879
 20
76.7217837182
 30
0.0
  0
VERTEX
  5
586
  8
0
  6
CONTINUOUS
 62
     7
 10
396.0962554872
 20
76.6378303714
 30
0.0
  0
VERTEX
  5
587
  8
0
  6
CONTINUOUS
 62
     7
 10
396.5436690103
 20
76.6264208754
 30
0.0
  0
VERTEX
  5
588
  8
0
  6
CONTINUOUS
 62
     7
 10
396.9839632184
 20
76.6879219408
 30
0.0
  0
VERTEX
  5
589
  8
0
  6
CONTINUOUS
 62
     7
 10
397.4029866935
 20
76.8203568727
 30
0.0
  0
VERTEX
  5
58A
  8
0
  6
CONTINUOUS
 62
     7
 10
397.7872716762
 20
77.0194691035
 30
0.0
  0
VERTEX
  5
58B
  8
0
  6
CONTINUOUS
 62
     7
 10
398.1244669311
 20
77.2788590022
 30
0.0
  0
VERTEX
  5
58C
  8
0
  6
CONTINUOUS
 62
     7
 10
398.4037347252
 20
77.590189564
 30
0.0
  0
VERTEX
  5
58D
  8
0
  6
CONTINUOUS
 62
     7
 10
398.6160991618
 20
77.9434543686
 30
0.0
  0
VERTEX
  5
58E
  8
0
  6
CONTINUOUS
 62
     7
 10
398.7547346732
 20
78.3272991944
 30
0.0
  0
VERTEX
  5
58F
  8
0
  6
CONTINUOUS
 62
     7
 10
398.8151854
 20
78.729386953
 30
0.0
  0
VERTEX
  5
590
  8
0
  6
CONTINUOUS
 62
     7
 10
398.7955084061
 20
79.1367942128
 30
0.0
  0
VERTEX
  5
591
  8
0
  6
CONTINUOUS
 62
     7
 10
398.6963361262
 20
79.5364265694
 30
0.0
  0
VERTEX
  5
592
  8
0
  6
CONTINUOUS
 62
     7
 10
398.5208560391
 20
79.9154395101
 30
0.0
  0
VERTEX
  5
593
  8
0
  6
CONTINUOUS
 62
     7
 10
398.2747082191
 20
80.2616512469
 30
0.0
  0
VERTEX
  5
594
  8
0
  6
CONTINUOUS
 62
     7
 10
397.9658040597
 20
80.56393425
 30
0.0
  0
VERTEX
  5
595
  8
0
  6
CONTINUOUS
 62
     7
 10
397.6040719947
 20
80.8125728947
 30
0.0
  0
VERTEX
  5
596
  8
0
  6
CONTINUOUS
 62
     7
 10
397.2011383903
 20
80.9995757306
 30
0.0
  0
VERTEX
  5
597
  8
0
  6
CONTINUOUS
 62
     7
 10
396.7699538642
 20
81.1189323325
 30
0.0
  0
VERTEX
  5
598
  8
0
  6
CONTINUOUS
 62
     7
 10
396.3243770418
 20
81.1668064811
 30
0.0
  0
SEQEND
  5
828
  8
0
  6
CONTINUOUS
 62
     7
  0
POLYLINE
  5
3DF
  8
0
  6
CONTINUOUS
 62
     7
 66
     1
 10
0.0
 20
0.0
 30
0.0
 70
   128
  0
VERTEX
  5
599
  8
0
  6
CONTINUOUS
 62
     7
 10
398.8308474769
 20
92.2355412768
 30
0.0
  0
VERTEX
  5
59A
  8
0
  6
CONTINUOUS
 62
     7
 10
398.3851995639
 20
92.2103942576
 30
0.0
  0
VERTEX
  5
59B
  8
0
  6
CONTINUOUS
 62
     7
 10
397.9538040507
 20
92.1130343164
 30
0.0
  0
VERTEX
  5
59C
  8
0
  6
CONTINUOUS
 62
     7
 10
397.5505263443
 20
91.9465906819
 30
0.0
  0
VERTEX
  5
59D
  8
0
  6
CONTINUOUS
 62
     7
 10
397.188328122
 20
91.7164129895
 30
0.0
  0
VERTEX
  5
59E
  8
0
  6
CONTINUOUS
 62
     7
 10
396.8788507325
 20
91.4298993395
 30
0.0
  0
VERTEX
  5
59F
  8
0
  6
CONTINUOUS
 62
     7
 10
396.6320410338
 20
91.0962585164
 30
0.0
  0
VERTEX
  5
5A0
  8
0
  6
CONTINUOUS
 62
     7
 10
396.4558316928
 20
90.7262140108
 30
0.0
  0
VERTEX
  5
5A1
  8
0
  6
CONTINUOUS
 62
     7
 10
396.3558862227
 20
90.3316593576
 30
0.0
  0
VERTEX
  5
5A2
  8
0
  6
CONTINUOUS
 62
     7
 10
396.335416953
 20
89.925275868
 30
0.0
  0
VERTEX
  5
5A3
  8
0
  6
CONTINUOUS
 62
     7
 10
396.3950817829
 20
89.5201250416
 30
0.0
  0
VERTEX
  5
5A4
  8
0
  6
CONTINUOUS
 62
     7
 10
396.5329630358
 20
89.1292287595
 30
0.0
  0
VERTEX
  5
5A5
  8
0
  6
CONTINUOUS
 62
     7
 10
396.7446290947
 20
88.7651507497
 30
0.0
  0
VERTEX
  5
5A6
  8
0
  6
CONTINUOUS
 62
     7
 10
397.0232768383
 20
88.4395927791
 30
0.0
  0
VERTEX
  5
5A7
  8
0
  6
CONTINUOUS
 62
     7
 10
397.3599502989
 20
88.1630185487
 30
0.0
  0
VERTEX
  5
5A8
  8
0
  6
CONTINUOUS
 62
     7
 10
397.7438285144
 20
87.9443173818
 30
0.0
  0
VERTEX
  5
5A9
  8
0
  6
CONTINUOUS
 62
     7
 10
398.1625733231
 20
87.7905185138
 30
0.0
  0
VERTEX
  5
5AA
  8
0
  6
CONTINUOUS
 62
     7
 10
398.6027259224
 20
87.7065651671
 30
0.0
  0
VERTEX
  5
5AB
  8
0
  6
CONTINUOUS
 62
     7
 10
399.0501394455
 20
87.6951556711
 30
0.0
  0
VERTEX
  5
5AC
  8
0
  6
CONTINUOUS
 62
     7
 10
399.4904336536
 20
87.7566567365
 30
0.0
  0
VERTEX
  5
5AD
  8
0
  6
CONTINUOUS
 62
     7
 10
399.9094571287
 20
87.8890916684
 30
0.0
  0
VERTEX
  5
5AE
  8
0
  6
CONTINUOUS
 62
     7
 10
400.2937421114
 20
88.0882038992
 30
0.0
  0
VERTEX
  5
5AF
  8
0
  6
CONTINUOUS
 62
     7
 10
400.6309373663
 20
88.3475937979
 30
0.0
  0
VERTEX
  5
5B0
  8
0
  6
CONTINUOUS
 62
     7
 10
400.9102051604
 20
88.6589243597
 30
0.0
  0
VERTEX
  5
5B1
  8
0
  6
CONTINUOUS
 62
     7
 10
401.122569597
 20
89.0121891643
 30
0.0
  0
VERTEX
  5
5B2
  8
0
  6
CONTINUOUS
 62
     7
 10
401.2612051084
 20
89.3960339901
 30
0.0
  0
VERTEX
  5
5B3
  8
0
  6
CONTINUOUS
 62
     7
 10
401.3216558352
 20
89.7981217486
 30
0.0
  0
VERTEX
  5
5B4
  8
0
  6
CONTINUOUS
 62
     7
 10
401.3019788413
 20
90.2055290085
 30
0.0
  0
VERTEX
  5
5B5
  8
0
  6
CONTINUOUS
 62
     7
 10
401.2028065614
 20
90.6051613651
 30
0.0
  0
VERTEX
  5
5B6
  8
0
  6
CONTINUOUS
 62
     7
 10
401.0273264743
 20
90.9841743057
 30
0.0
  0
VERTEX
  5
5B7
  8
0
  6
CONTINUOUS
 62
     7
 10
400.7811786543
 20
91.3303860426
 30
0.0
  0
VERTEX
  5
5B8
  8
0
  6
CONTINUOUS
 62
     7
 10
400.4722744949
 20
91.6326690456
 30
0.0
  0
VERTEX
  5
5B9
  8
0
  6
CONTINUOUS
 62
     7
 10
400.1105424299
 20
91.8813076904
 30
0.0
  0
VERTEX
  5
5BA
  8
0
  6
CONTINUOUS
 62
     7
 10
399.7076088255
 20
92.0683105262
 30
0.0
  0
VERTEX
  5
5BB
  8
0
  6
CONTINUOUS
 62
     7
 10
399.2764242994
 20
92.1876671282
 30
0.0
  0
VERTEX
  5
5BC
  8
0
  6
CONTINUOUS
 62
     7
 10
398.8308474769
 20
92.2355412768
 30
0.0
  0
SEQEND
  5
829
  8
0
  6
CONTINUOUS
 62
     7
  0
POLYLINE
  5
3E0
  8
0
  6
CONTINUOUS
 62
     7
 66
     1
 10
0.0
 20
0.0
 30
0.0
 70
   128
  0
VERTEX
  5
5BD
  8
0
  6
CONTINUOUS
 62
     7
 10
396.3460531584
 20
103.4315583566
 30
0.0
  0
VERTEX
  5
5BE
  8
0
  6
CONTINUOUS
 62
     7
 10
395.9004052453
 20
103.4064113374
 30
0.0
  0
VERTEX
  5
5BF
  8
0
  6
CONTINUOUS
 62
     7
 10
395.4690097322
 20
103.3090513962
 30
0.0
  0
VERTEX
  5
5C0
  8
0
  6
CONTINUOUS
 62
     7
 10
395.0657320258
 20
103.1426077617
 30
0.0
  0
VERTEX
  5
5C1
  8
0
  6
CONTINUOUS
 62
     7
 10
394.7035338034
 20
102.9124300693
 30
0.0
  0
VERTEX
  5
5C2
  8
0
  6
CONTINUOUS
 62
     7
 10
394.3940564139
 20
102.6259164193
 30
0.0
  0
VERTEX
  5
5C3
  8
0
  6
CONTINUOUS
 62
     7
 10
394.1472467153
 20
102.2922755962
 30
0.0
  0
VERTEX
  5
5C4
  8
0
  6
CONTINUOUS
 62
     7
 10
393.9710373743
 20
101.9222310906
 30
0.0
  0
VERTEX
  5
5C5
  8
0
  6
CONTINUOUS
 62
     7
 10
393.8710919041
 20
101.5276764374
 30
0.0
  0
VERTEX
  5
5C6
  8
0
  6
CONTINUOUS
 62
     7
 10
393.8506226344
 20
101.1212929478
 30
0.0
  0
VERTEX
  5
5C7
  8
0
  6
CONTINUOUS
 62
     7
 10
393.9102874644
 20
100.7161421214
 30
0.0
  0
VERTEX
  5
5C8
  8
0
  6
CONTINUOUS
 62
     7
 10
394.0481687173
 20
100.3252458393
 30
0.0
  0
VERTEX
  5
5C9
  8
0
  6
CONTINUOUS
 62
     7
 10
394.2598347762
 20
99.9611678295
 30
0.0
  0
VERTEX
  5
5CA
  8
0
  6
CONTINUOUS
 62
     7
 10
394.5384825198
 20
99.6356098589
 30
0.0
  0
VERTEX
  5
5CB
  8
0
  6
CONTINUOUS
 62
     7
 10
394.8751559804
 20
99.3590356284
 30
0.0
  0
VERTEX
  5
5CC
  8
0
  6
CONTINUOUS
 62
     7
 10
395.2590341959
 20
99.1403344615
 30
0.0
  0
VERTEX
  5
5CD
  8
0
  6
CONTINUOUS
 62
     7
 10
395.6777790046
 20
98.9865355936
 30
0.0
  0
VERTEX
  5
5CE
  8
0
  6
CONTINUOUS
 62
     7
 10
396.1179316038
 20
98.9025822469
 30
0.0
  0
VERTEX
  5
5CF
  8
0
  6
CONTINUOUS
 62
     7
 10
396.5653451269
 20
98.8911727509
 30
0.0
  0
VERTEX
  5
5D0
  8
0
  6
CONTINUOUS
 62
     7
 10
397.0056393351
 20
98.9526738163
 30
0.0
  0
VERTEX
  5
5D1
  8
0
  6
CONTINUOUS
 62
     7
 10
397.4246628101
 20
99.0851087482
 30
0.0
  0
VERTEX
  5
5D2
  8
0
  6
CONTINUOUS
 62
     7
 10
397.8089477929
 20
99.284220979
 30
0.0
  0
VERTEX
  5
5D3
  8
0
  6
CONTINUOUS
 62
     7
 10
398.1461430478
 20
99.5436108777
 30
0.0
  0
VERTEX
  5
5D4
  8
0
  6
CONTINUOUS
 62
     7
 10
398.4254108419
 20
99.8549414395
 30
0.0
  0
VERTEX
  5
5D5
  8
0
  6
CONTINUOUS
 62
     7
 10
398.6377752785
 20
100.2082062441
 30
0.0
  0
VERTEX
  5
5D6
  8
0
  6
CONTINUOUS
 62
     7
 10
398.7764107899
 20
100.5920510699
 30
0.0
  0
VERTEX
  5
5D7
  8
0
  6
CONTINUOUS
 62
     7
 10
398.8368615167
 20
100.9941388284
 30
0.0
  0
VERTEX
  5
5D8
  8
0
  6
CONTINUOUS
 62
     7
 10
398.8171845227
 20
101.4015460883
 30
0.0
  0
VERTEX
  5
5D9
  8
0
  6
CONTINUOUS
 62
     7
 10
398.7180122429
 20
101.8011784449
 30
0.0
  0
VERTEX
  5
5DA
  8
0
  6
CONTINUOUS
 62
     7
 10
398.5425321557
 20
102.1801913855
 30
0.0
  0
VERTEX
  5
5DB
  8
0
  6
CONTINUOUS
 62
     7
 10
398.2963843357
 20
102.5264031224
 30
0.0
  0
VERTEX
  5
5DC
  8
0
  6
CONTINUOUS
 62
     7
 10
397.9874801763
 20
102.8286861254
 30
0.0
  0
VERTEX
  5
5DD
  8
0
  6
CONTINUOUS
 62
     7
 10
397.6257481113
 20
103.0773247702
 30
0.0
  0
VERTEX
  5
5DE
  8
0
  6
CONTINUOUS
 62
     7
 10
397.222814507
 20
103.264327606
 30
0.0
  0
VERTEX
  5
5DF
  8
0
  6
CONTINUOUS
 62
     7
 10
396.7916299809
 20
103.383684208
 30
0.0
  0
VERTEX
  5
5E0
  8
0
  6
CONTINUOUS
 62
     7
 10
396.3460531584
 20
103.4315583566
 30
0.0
  0
SEQEND
  5
82A
  8
0
  6
CONTINUOUS
 62
     7
  0
POLYLINE
  5
3E1
  8
0
  6
CONTINUOUS
 62
     7
 66
     1
 10
0.0
 20
0.0
 30
0.0
 70
   128
  0
VERTEX
  5
5E1
  8
0
  6
CONTINUOUS
 62
     7
 10
398.8525235936
 20
114.5002931522
 30
0.0
  0
VERTEX
  5
5E2
  8
0
  6
CONTINUOUS
 62
     7
 10
398.4068756805
 20
114.475146133
 30
0.0
  0
VERTEX
  5
5E3
  8
0
  6
CONTINUOUS
 62
     7
 10
397.9754801674
 20
114.3777861919
 30
0.0
  0
VERTEX
  5
5E4
  8
0
  6
CONTINUOUS
 62
     7
 10
397.572202461
 20
114.2113425574
 30
0.0
  0
VERTEX
  5
5E5
  8
0
  6
CONTINUOUS
 62
     7
 10
397.2100042386
 20
113.981164865
 30
0.0
  0
VERTEX
  5
5E6
  8
0
  6
CONTINUOUS
 62
     7
 10
396.9005268491
 20
113.694651215
 30
0.0
  0
VERTEX
  5
5E7
  8
0
  6
CONTINUOUS
 62
     7
 10
396.6537171505
 20
113.3610103919
 30
0.0
  0
VERTEX
  5
5E8
  8
0
  6
CONTINUOUS
 62
     7
 10
396.4775078095
 20
112.9909658863
 30
0.0
  0
VERTEX
  5
5E9
  8
0
  6
CONTINUOUS
 62
     7
 10
396.3775623393
 20
112.5964112331
 30
0.0
  0
VERTEX
  5
5EA
  8
0
  6
CONTINUOUS
 62
     7
 10
396.3570930696
 20
112.1900277434
 30
0.0
  0
VERTEX
  5
5EB
  8
0
  6
CONTINUOUS
 62
     7
 10
396.4167578996
 20
111.7848769171
 30
0.0
  0
VERTEX
  5
5EC
  8
0
  6
CONTINUOUS
 62
     7
 10
396.5546391525
 20
111.3939806349
 30
0.0
  0
VERTEX
  5
5ED
  8
0
  6
CONTINUOUS
 62
     7
 10
396.7663052114
 20
111.0299026252
 30
0.0
  0
VERTEX
  5
5EE
  8
0
  6
CONTINUOUS
 62
     7
 10
397.044952955
 20
110.7043446545
 30
0.0
  0
VERTEX
  5
5EF
  8
0
  6
CONTINUOUS
 62
     7
 10
397.3816264156
 20
110.4277704241
 30
0.0
  0
VERTEX
  5
5F0
  8
0
  6
CONTINUOUS
 62
     7
 10
397.7655046311
 20
110.2090692572
 30
0.0
  0
VERTEX
  5
5F1
  8
0
  6
CONTINUOUS
 62
     7
 10
398.1842494398
 20
110.0552703893
 30
0.0
  0
VERTEX
  5
5F2
  8
0
  6
CONTINUOUS
 62
     7
 10
398.624402039
 20
109.9713170425
 30
0.0
  0
VERTEX
  5
5F3
  8
0
  6
CONTINUOUS
 62
     7
 10
399.0718155621
 20
109.9599075465
 30
0.0
  0
VERTEX
  5
5F4
  8
0
  6
CONTINUOUS
 62
     7
 10
399.5121097703
 20
110.0214086119
 30
0.0
  0
VERTEX
  5
5F5
  8
0
  6
CONTINUOUS
 62
     7
 10
399.9311332453
 20
110.1538435439
 30
0.0
  0
VERTEX
  5
5F6
  8
0
  6
CONTINUOUS
 62
     7
 10
400.3154182281
 20
110.3529557746
 30
0.0
  0
VERTEX
  5
5F7
  8
0
  6
CONTINUOUS
 62
     7
 10
400.652613483
 20
110.6123456733
 30
0.0
  0
VERTEX
  5
5F8
  8
0
  6
CONTINUOUS
 62
     7
 10
400.9318812771
 20
110.9236762352
 30
0.0
  0
VERTEX
  5
5F9
  8
0
  6
CONTINUOUS
 62
     7
 10
401.1442457137
 20
111.2769410397
 30
0.0
  0
VERTEX
  5
5FA
  8
0
  6
CONTINUOUS
 62
     7
 10
401.2828812251
 20
111.6607858656
 30
0.0
  0
VERTEX
  5
5FB
  8
0
  6
CONTINUOUS
 62
     7
 10
401.3433319519
 20
112.0628736241
 30
0.0
  0
VERTEX
  5
5FC
  8
0
  6
CONTINUOUS
 62
     7
 10
401.3236549579
 20
112.4702808839
 30
0.0
  0
VERTEX
  5
5FD
  8
0
  6
CONTINUOUS
 62
     7
 10
401.2244826781
 20
112.8699132406
 30
0.0
  0
VERTEX
  5
5FE
  8
0
  6
CONTINUOUS
 62
     7
 10
401.0490025909
 20
113.2489261812
 30
0.0
  0
VERTEX
  5
5FF
  8
0
  6
CONTINUOUS
 62
     7
 10
400.8028547709
 20
113.5951379181
 30
0.0
  0
VERTEX
  5
600
  8
0
  6
CONTINUOUS
 62
     7
 10
400.4939506115
 20
113.8974209211
 30
0.0
  0
VERTEX
  5
601
  8
0
  6
CONTINUOUS
 62
     7
 10
400.1322185465
 20
114.1460595658
 30
0.0
  0
VERTEX
  5
602
  8
0
  6
CONTINUOUS
 62
     7
 10
399.7292849422
 20
114.3330624017
 30
0.0
  0
VERTEX
  5
603
  8
0
  6
CONTINUOUS
 62
     7
 10
399.2981004161
 20
114.4524190036
 30
0.0
  0
VERTEX
  5
604
  8
0
  6
CONTINUOUS
 62
     7
 10
398.8525235936
 20
114.5002931522
 30
0.0
  0
SEQEND
  5
82B
  8
0
  6
CONTINUOUS
 62
     7
  0
LINE
  5
3E2
  8
0
  6
CONTINUOUS
 62
     7
 10
402.1894668085
 20
119.1545183972
 30
0.0
 11
402.1445220441
 21
72.9892369574
 31
0.0
  0
LINE
  5
3E3
  8
0
  6
CONTINUOUS
 62
     7
 10
402.1445220441
 20
72.9892369574
 30
0.0
 11
402.0559043652
 21
72.3644415844
 31
0.0
  0
POLYLINE
  5
3E4
  8
0
  6
CONTINUOUS
 62
     7
 66
     1
 10
0.0
 20
0.0
 30
0.0
 70
   128
  0
VERTEX
  5
605
  8
0
  6
CONTINUOUS
 62
     7
 10
392.7605593264
 20
119.6039834499
 30
0.0
  0
VERTEX
  5
606
  8
0
  6
CONTINUOUS
 62
     7
 10
392.7643870845
 20
119.5631083704
 30
0.0
  0
VERTEX
  5
607
  8
0
  6
CONTINUOUS
 62
     7
 10
392.7872488946
 20
119.5233149586
 30
0.0
  0
VERTEX
  5
608
  8
0
  6
CONTINUOUS
 62
     7
 10
392.82826619
 20
119.486132453
 30
0.0
  0
VERTEX
  5
609
  8
0
  6
CONTINUOUS
 62
     7
 10
392.8858626992
 20
119.4529897564
 30
0.0
  0
VERTEX
  5
60A
  8
0
  6
CONTINUOUS
 62
     7
 10
392.9578250205
 20
119.4251605242
 30
0.0
  0
VERTEX
  5
60B
  8
0
  6
CONTINUOUS
 62
     7
 10
393.0413876824
 20
119.4037142179
 30
0.0
  0
VERTEX
  5
60C
  8
0
  6
CONTINUOUS
 62
     7
 10
393.1333394186
 20
119.3894750073
 30
0.0
  0
VERTEX
  5
60D
  8
0
  6
CONTINUOUS
 62
     7
 10
393.2301465755
 20
119.3829900972
 30
0.0
  0
SEQEND
  5
82C
  8
0
  6
CONTINUOUS
 62
     7
  0
POLYLINE
  5
3E5
  8
0
  6
CONTINUOUS
 62
     7
 66
     1
 10
0.0
 20
0.0
 30
0.0
 70
   128
  0
VERTEX
  5
60E
  8
0
  6
CONTINUOUS
 62
     7
 10
391.2631799003
 20
119.6421681352
 30
0.0
  0
VERTEX
  5
60F
  8
0
  6
CONTINUOUS
 62
     7
 10
391.2784909327
 20
119.4786678171
 30
0.0
  0
VERTEX
  5
610
  8
0
  6
CONTINUOUS
 62
     7
 10
391.3699381728
 20
119.3194941699
 30
0.0
  0
VERTEX
  5
611
  8
0
  6
CONTINUOUS
 62
     7
 10
391.5340073546
 20
119.1707641475
 30
0.0
  0
VERTEX
  5
612
  8
0
  6
CONTINUOUS
 62
     7
 10
391.7643933913
 20
119.0381933612
 30
0.0
  0
VERTEX
  5
613
  8
0
  6
CONTINUOUS
 62
     7
 10
392.0522426767
 20
118.9268764321
 30
0.0
  0
VERTEX
  5
614
  8
0
  6
CONTINUOUS
 62
     7
 10
392.3864933243
 20
118.8410912072
 30
0.0
  0
VERTEX
  5
615
  8
0
  6
CONTINUOUS
 62
     7
 10
392.7543002692
 20
118.7841343647
 30
0.0
  0
VERTEX
  5
616
  8
0
  6
CONTINUOUS
 62
     7
 10
393.1415288966
 20
118.7581947242
 30
0.0
  0
SEQEND
  5
82D
  8
0
  6
CONTINUOUS
 62
     7
  0
LINE
  5
3E6
  8
0
  6
CONTINUOUS
 62
     7
 10
391.2631799003
 20
119.6421681352
 30
0.0
 11
392.7605593264
 21
119.6039834499
 31
0.0
  0
POLYLINE
  5
3E7
  8
0
  6
CONTINUOUS
 62
     7
 66
     1
 10
0.0
 20
0.0
 30
0.0
 70
   128
  0
VERTEX
  5
617
  8
0
  6
CONTINUOUS
 62
     7
 10
393.0965841323
 20
72.5929132844
 30
0.0
  0
VERTEX
  5
618
  8
0
  6
CONTINUOUS
 62
     7
 10
392.7093555049
 20
72.618852925
 30
0.0
  0
VERTEX
  5
619
  8
0
  6
CONTINUOUS
 62
     7
 10
392.34154856
 20
72.6758097675
 30
0.0
  0
VERTEX
  5
61A
  8
0
  6
CONTINUOUS
 62
     7
 10
392.0072979124
 20
72.7615949923
 30
0.0
  0
VERTEX
  5
61B
  8
0
  6
CONTINUOUS
 62
     7
 10
391.7194486269
 20
72.8729119215
 30
0.0
  0
VERTEX
  5
61C
  8
0
  6
CONTINUOUS
 62
     7
 10
391.4890625903
 20
73.0054827077
 30
0.0
  0
VERTEX
  5
61D
  8
0
  6
CONTINUOUS
 62
     7
 10
391.3249934085
 20
73.1542127302
 30
0.0
  0
VERTEX
  5
61E
  8
0
  6
CONTINUOUS
 62
     7
 10
391.2335461684
 20
73.3133863774
 30
0.0
  0
VERTEX
  5
61F
  8
0
  6
CONTINUOUS
 62
     7
 10
391.2147419853
 20
73.4279209049
 30
0.0
  0
SEQEND
  5
82E
  8
0
  6
CONTINUOUS
 62
     7
  0
POLYLINE
  5
3E8
  8
0
  6
CONTINUOUS
 62
     7
 66
     1
 10
0.0
 20
0.0
 30
0.0
 70
   128
  0
VERTEX
  5
620
  8
0
  6
CONTINUOUS
 62
     7
 10
398.9107173067
 20
114.0080580183
 30
0.0
  0
VERTEX
  5
621
  8
0
  6
CONTINUOUS
 62
     7
 10
398.5653620742
 20
113.9801201799
 30
0.0
  0
VERTEX
  5
622
  8
0
  6
CONTINUOUS
 62
     7
 10
398.2385534867
 20
113.8802008122
 30
0.0
  0
VERTEX
  5
623
  8
0
  6
CONTINUOUS
 62
     7
 10
397.9479098801
 20
113.713686594
 30
0.0
  0
VERTEX
  5
624
  8
0
  6
CONTINUOUS
 62
     7
 10
397.7090999262
 20
113.48955435
 30
0.0
  0
VERTEX
  5
625
  8
0
  6
CONTINUOUS
 62
     7
 10
397.5349979315
 20
113.2198871075
 30
0.0
  0
VERTEX
  5
626
  8
0
  6
CONTINUOUS
 62
     7
 10
397.4349897796
 20
112.9192226973
 30
0.0
  0
VERTEX
  5
627
  8
0
  6
CONTINUOUS
 62
     7
 10
397.4144669359
 20
112.6037700155
 30
0.0
  0
VERTEX
  5
628
  8
0
  6
CONTINUOUS
 62
     7
 10
397.4745357922
 20
112.2905351979
 30
0.0
  0
VERTEX
  5
629
  8
0
  6
CONTINUOUS
 62
     7
 10
397.6119580208
 20
111.9964048147
 30
0.0
  0
VERTEX
  5
62A
  8
0
  6
CONTINUOUS
 62
     7
 10
397.819325154
 20
111.7372355108
 30
0.0
  0
VERTEX
  5
62B
  8
0
  6
CONTINUOUS
 62
     7
 10
398.0854579758
 20
111.5269991706
 30
0.0
  0
VERTEX
  5
62C
  8
0
  6
CONTINUOUS
 62
     7
 10
398.3960091969
 20
111.3770296896
 30
0.0
  0
VERTEX
  5
62D
  8
0
  6
CONTINUOUS
 62
     7
 10
398.7342369207
 20
111.2954119612
 30
0.0
  0
VERTEX
  5
62E
  8
0
  6
CONTINUOUS
 62
     7
 10
399.0819072029
 20
111.2865460185
 30
0.0
  0
VERTEX
  5
62F
  8
0
  6
CONTINUOUS
 62
     7
 10
399.4202770488
 20
111.3509098265
 30
0.0
  0
VERTEX
  5
630
  8
0
  6
CONTINUOUS
 62
     7
 10
399.7311048522
 20
111.4850335159
 30
0.0
  0
VERTEX
  5
631
  8
0
  6
CONTINUOUS
 62
     7
 10
399.997633806
 20
111.6816864437
 30
0.0
  0
VERTEX
  5
632
  8
0
  6
CONTINUOUS
 62
     7
 10
400.2054952651
 20
111.9302669998
 30
0.0
  0
VERTEX
  5
633
  8
0
  6
CONTINUOUS
 62
     7
 10
400.3434833645
 20
112.217374142
 30
0.0
  0
VERTEX
  5
634
  8
0
  6
CONTINUOUS
 62
     7
 10
400.4041591301
 20
112.5275298499
 30
0.0
  0
VERTEX
  5
635
  8
0
  6
CONTINUOUS
 62
     7
 10
400.3842515157
 20
112.8440135491
 30
0.0
  0
VERTEX
  5
636
  8
0
  6
CONTINUOUS
 62
     7
 10
400.2848337458
 20
113.1497635215
 30
0.0
  0
VERTEX
  5
637
  8
0
  6
CONTINUOUS
 62
     7
 10
400.1112654583
 20
113.4282967068
 30
0.0
  0
VERTEX
  5
638
  8
0
  6
CONTINUOUS
 62
     7
 10
399.8729037643
 20
113.6645973089
 30
0.0
  0
VERTEX
  5
639
  8
0
  6
CONTINUOUS
 62
     7
 10
399.5825988045
 20
113.8459263013
 30
0.0
  0
VERTEX
  5
63A
  8
0
  6
CONTINUOUS
 62
     7
 10
399.2560009945
 20
113.9625081911
 30
0.0
  0
VERTEX
  5
63B
  8
0
  6
CONTINUOUS
 62
     7
 10
398.9107173067
 20
114.0080580183
 30
0.0
  0
SEQEND
  5
82F
  8
0
  6
CONTINUOUS
 62
     7
  0
LINE
  5
3E9
  8
0
  6
CONTINUOUS
 62
     7
 10
392.9051953113
 20
120.6237336313
 30
0.0
 11
392.7605593264
 21
119.6039834499
 31
0.0
  0
LINE
  5
3EA
  8
0
  6
CONTINUOUS
 62
     7
 10
392.9051953113
 20
120.6237336313
 30
0.0
 11
391.4078158852
 21
120.6619183166
 31
0.0
  0
LINE
  5
3EB
  8
0
  6
CONTINUOUS
 62
     7
 10
391.4078158852
 20
120.6619183166
 30
0.0
 11
391.2631799003
 21
119.6421681352
 31
0.0
  0
LINE
  5
3EC
  8
0
  6
CONTINUOUS
 62
     7
 10
397.4415499977
 20
112.8913597538
 30
0.0
 11
397.4434661652
 21
112.95905628
 31
0.0
  0
ARC
  5
3ED
  8
0
  6
CONTINUOUS
 62
     7
 10
398.9549838559
 20
112.9824999499
 30
0.0
 40
1.516175642341106
 50
183.4462356644
 51
342.9927146277
  0
ARC
  5
3EE
  8
0
  6
CONTINUOUS
 62
     7
 10
392.4918499079
 20
120.6665841291
 30
0.0
 40
0.4155605704158587
 50
354.0814297333
 51
43.6643788612
  0
ARC
  5
3EF
  8
0
  6
CONTINUOUS
 62
     7
 10
391.3044795343
 20
120.672630941
 30
0.0
 40
0.1038901426039647
 50
354.0814297333
 51
43.6643788612
  0
LINE
  5
3F0
  8
0
  6
CONTINUOUS
 62
     7
 10
391.3796333032
 20
120.7443601035
 30
0.0
 11
392.7924649834
 21
120.9535007792
 31
0.0
  0
LINE
  5
3F1
  8
0
  6
CONTINUOUS
 62
     7
 10
391.1726004331
 20
122.8501516423
 30
0.0
 11
392.7924649834
 21
120.9535007792
 31
0.0
  0
LINE
  5
3F2
  8
0
  6
CONTINUOUS
 62
     7
 10
390.5493653618
 20
121.7164959574
 30
0.0
 11
391.3796333032
 21
120.7443601035
 31
0.0
  0
LINE
  5
3F3
  8
0
  6
CONTINUOUS
 62
     7
 10
391.2485419636
 20
111.43591753
 30
0.0
 11
390.3628219947
 21
112.4729805014
 31
0.0
  0
LINE
  5
3F4
  8
0
  6
CONTINUOUS
 62
     7
 10
390.3270785207
 20
75.7588590414
 30
0.0
 11
391.2159980058
 21
74.7180498524
 31
0.0
  0
LINE
  5
3F5
  8
0
  6
CONTINUOUS
 62
     7
 10
390.5136218878
 20
85.0023744975
 30
0.0
 11
391.22199978
 21
84.1729560499
 31
0.0
  0
LINE
  5
3F6
  8
0
  6
CONTINUOUS
 62
     7
 10
391.22199978
 20
84.1729560499
 30
0.0
 11
391.2485419636
 21
111.43591753
 31
0.0
  0
LINE
  5
3F7
  8
0
  6
CONTINUOUS
 62
     7
 10
390.3625199858
 20
112.1627702887
 30
0.0
 11
390.3717212761
 21
121.6139302685
 31
0.0
  0
POLYLINE
  5
3F8
  8
0
  6
CONTINUOUS
 62
     7
 66
     1
 10
0.0
 20
0.0
 30
0.0
 70
   128
  0
VERTEX
  5
63C
  8
0
  6
CONTINUOUS
 62
     7
 10
383.6631388241
 20
113.1352546437
 30
0.0
  0
VERTEX
  5
63D
  8
0
  6
CONTINUOUS
 62
     7
 10
383.6955198016
 20
112.9293852025
 30
0.0
  0
VERTEX
  5
63E
  8
0
  6
CONTINUOUS
 62
     7
 10
383.8071520773
 20
112.7049888662
 30
0.0
  0
VERTEX
  5
63F
  8
0
  6
CONTINUOUS
 62
     7
 10
383.9960656441
 20
112.4897354832
 30
0.0
  0
VERTEX
  5
640
  8
0
  6
CONTINUOUS
 62
     7
 10
384.2582118207
 20
112.2882382339
 30
0.0
  0
VERTEX
  5
641
  8
0
  6
CONTINUOUS
 62
     7
 10
384.5879724486
 20
112.1048154855
 30
0.0
  0
VERTEX
  5
642
  8
0
  6
CONTINUOUS
 62
     7
 10
384.9782802973
 20
111.9433982437
 30
0.0
  0
VERTEX
  5
643
  8
0
  6
CONTINUOUS
 62
     7
 10
385.4207705247
 20
111.8074459053
 30
0.0
  0
VERTEX
  5
644
  8
0
  6
CONTINUOUS
 62
     7
 10
385.9059599477
 20
111.6998721185
 30
0.0
  0
VERTEX
  5
645
  8
0
  6
CONTINUOUS
 62
     7
 10
386.4234502797
 20
111.6229823398
 30
0.0
  0
VERTEX
  5
646
  8
0
  6
CONTINUOUS
 62
     7
 10
386.9621509805
 20
111.5784244246
 30
0.0
  0
VERTEX
  5
647
  8
0
  6
CONTINUOUS
 62
     7
 10
387.5105169422
 20
111.567153311
 30
0.0
  0
VERTEX
  5
648
  8
0
  6
CONTINUOUS
 62
     7
 10
388.0567959169
 20
111.5894105549
 30
0.0
  0
VERTEX
  5
649
  8
0
  6
CONTINUOUS
 62
     7
 10
388.5892803835
 20
111.6447191524
 30
0.0
  0
VERTEX
  5
64A
  8
0
  6
CONTINUOUS
 62
     7
 10
389.0965584567
 20
111.731893763
 30
0.0
  0
VERTEX
  5
64B
  8
0
  6
CONTINUOUS
 62
     7
 10
389.5677584594
 20
111.8490661132
 30
0.0
  0
VERTEX
  5
64C
  8
0
  6
CONTINUOUS
 62
     7
 10
389.9927819177
 20
111.993725036
 30
0.0
  0
VERTEX
  5
64D
  8
0
  6
CONTINUOUS
 62
     7
 10
390.3625199858
 20
112.1627702887
 30
0.0
  0
SEQEND
  5
830
  8
0
  6
CONTINUOUS
 62
     7
  0
POLYLINE
  5
3F9
  8
0
  6
CONTINUOUS
 62
     7
 66
     1
 10
0.0
 20
0.0
 30
0.0
 70
   128
  0
VERTEX
  5
64E
  8
0
  6
CONTINUOUS
 62
     7
 10
390.3717212761
 20
121.6139302685
 30
0.0
  0
VERTEX
  5
64F
  8
0
  6
CONTINUOUS
 62
     7
 10
390.0019832081
 20
121.4448850158
 30
0.0
  0
VERTEX
  5
650
  8
0
  6
CONTINUOUS
 62
     7
 10
389.5769597497
 20
121.300226093
 30
0.0
  0
VERTEX
  5
651
  8
0
  6
CONTINUOUS
 62
     7
 10
389.105759747
 20
121.1830537428
 30
0.0
  0
VERTEX
  5
652
  8
0
  6
CONTINUOUS
 62
     7
 10
388.5984816738
 20
121.0958791322
 30
0.0
  0
VERTEX
  5
653
  8
0
  6
CONTINUOUS
 62
     7
 10
388.0659972072
 20
121.0405705347
 30
0.0
  0
VERTEX
  5
654
  8
0
  6
CONTINUOUS
 62
     7
 10
387.5197182325
 20
121.0183132908
 30
0.0
  0
VERTEX
  5
655
  8
0
  6
CONTINUOUS
 62
     7
 10
386.9713522708
 20
121.0295844044
 30
0.0
  0
VERTEX
  5
656
  8
0
  6
CONTINUOUS
 62
     7
 10
386.43265157
 20
121.0741423196
 30
0.0
  0
VERTEX
  5
657
  8
0
  6
CONTINUOUS
 62
     7
 10
385.915161238
 20
121.1510320983
 30
0.0
  0
VERTEX
  5
658
  8
0
  6
CONTINUOUS
 62
     7
 10
385.4299718151
 20
121.258605885
 30
0.0
  0
VERTEX
  5
659
  8
0
  6
CONTINUOUS
 62
     7
 10
384.9874815876
 20
121.3945582235
 30
0.0
  0
VERTEX
  5
65A
  8
0
  6
CONTINUOUS
 62
     7
 10
384.597173739
 20
121.5559754653
 30
0.0
  0
VERTEX
  5
65B
  8
0
  6
CONTINUOUS
 62
     7
 10
384.267413111
 20
121.7393982136
 30
0.0
  0
VERTEX
  5
65C
  8
0
  6
CONTINUOUS
 62
     7
 10
384.0052669344
 20
121.940895463
 30
0.0
  0
VERTEX
  5
65D
  8
0
  6
CONTINUOUS
 62
     7
 10
383.8163533676
 20
122.156148846
 30
0.0
  0
VERTEX
  5
65E
  8
0
  6
CONTINUOUS
 62
     7
 10
383.704721092
 20
122.3805451823
 30
0.0
  0
VERTEX
  5
65F
  8
0
  6
CONTINUOUS
 62
     7
 10
383.6723401145
 20
122.5864146235
 30
0.0
  0
SEQEND
  5
831
  8
0
  6
CONTINUOUS
 62
     7
  0
POLYLINE
  5
3FA
  8
0
  6
CONTINUOUS
 62
     7
 66
     1
 10
0.0
 20
0.0
 30
0.0
 70
   128
  0
VERTEX
  5
660
  8
0
  6
CONTINUOUS
 62
     7
 10
396.4042468715
 20
102.9393232226
 30
0.0
  0
VERTEX
  5
661
  8
0
  6
CONTINUOUS
 62
     7
 10
396.058891639
 20
102.9113853843
 30
0.0
  0
VERTEX
  5
662
  8
0
  6
CONTINUOUS
 62
     7
 10
395.7320830516
 20
102.8114660165
 30
0.0
  0
VERTEX
  5
663
  8
0
  6
CONTINUOUS
 62
     7
 10
395.4414394449
 20
102.6449517984
 30
0.0
  0
VERTEX
  5
664
  8
0
  6
CONTINUOUS
 62
     7
 10
395.202629491
 20
102.4208195544
 30
0.0
  0
VERTEX
  5
665
  8
0
  6
CONTINUOUS
 62
     7
 10
395.0285274963
 20
102.1511523118
 30
0.0
  0
VERTEX
  5
666
  8
0
  6
CONTINUOUS
 62
     7
 10
394.9285193444
 20
101.8504879016
 30
0.0
  0
VERTEX
  5
667
  8
0
  6
CONTINUOUS
 62
     7
 10
394.9079965007
 20
101.5350352198
 30
0.0
  0
VERTEX
  5
668
  8
0
  6
CONTINUOUS
 62
     7
 10
394.968065357
 20
101.2218004023
 30
0.0
  0
VERTEX
  5
669
  8
0
  6
CONTINUOUS
 62
     7
 10
395.1054875856
 20
100.927670019
 30
0.0
  0
VERTEX
  5
66A
  8
0
  6
CONTINUOUS
 62
     7
 10
395.3128547188
 20
100.6685007152
 30
0.0
  0
VERTEX
  5
66B
  8
0
  6
CONTINUOUS
 62
     7
 10
395.5789875406
 20
100.458264375
 30
0.0
  0
VERTEX
  5
66C
  8
0
  6
CONTINUOUS
 62
     7
 10
395.8895387617
 20
100.3082948939
 30
0.0
  0
VERTEX
  5
66D
  8
0
  6
CONTINUOUS
 62
     7
 10
396.2277664855
 20
100.2266771656
 30
0.0
  0
VERTEX
  5
66E
  8
0
  6
CONTINUOUS
 62
     7
 10
396.5754367677
 20
100.2178112228
 30
0.0
  0
VERTEX
  5
66F
  8
0
  6
CONTINUOUS
 62
     7
 10
396.9138066136
 20
100.2821750309
 30
0.0
  0
VERTEX
  5
670
  8
0
  6
CONTINUOUS
 62
     7
 10
397.224634417
 20
100.4162987202
 30
0.0
  0
VERTEX
  5
671
  8
0
  6
CONTINUOUS
 62
     7
 10
397.4911633708
 20
100.6129516481
 30
0.0
  0
VERTEX
  5
672
  8
0
  6
CONTINUOUS
 62
     7
 10
397.6990248299
 20
100.8615322041
 30
0.0
  0
VERTEX
  5
673
  8
0
  6
CONTINUOUS
 62
     7
 10
397.8370129293
 20
101.1486393463
 30
0.0
  0
VERTEX
  5
674
  8
0
  6
CONTINUOUS
 62
     7
 10
397.897688695
 20
101.4587950542
 30
0.0
  0
VERTEX
  5
675
  8
0
  6
CONTINUOUS
 62
     7
 10
397.8777810805
 20
101.7752787535
 30
0.0
  0
VERTEX
  5
676
  8
0
  6
CONTINUOUS
 62
     7
 10
397.7783633106
 20
102.0810287258
 30
0.0
  0
VERTEX
  5
677
  8
0
  6
CONTINUOUS
 62
     7
 10
397.6047950231
 20
102.3595619111
 30
0.0
  0
VERTEX
  5
678
  8
0
  6
CONTINUOUS
 62
     7
 10
397.3664333291
 20
102.5958625133
 30
0.0
  0
VERTEX
  5
679
  8
0
  6
CONTINUOUS
 62
     7
 10
397.0761283693
 20
102.7771915057
 30
0.0
  0
VERTEX
  5
67A
  8
0
  6
CONTINUOUS
 62
     7
 10
396.7495305593
 20
102.8937733954
 30
0.0
  0
VERTEX
  5
67B
  8
0
  6
CONTINUOUS
 62
     7
 10
396.4042468715
 20
102.9393232226
 30
0.0
  0
SEQEND
  5
832
  8
0
  6
CONTINUOUS
 62
     7
  0
LINE
  5
3FB
  8
0
  6
CONTINUOUS
 62
     7
 10
394.9350795625
 20
101.8226249582
 30
0.0
 11
394.93699573
 21
101.8903214844
 31
0.0
  0
ARC
  5
3FC
  8
0
  6
CONTINUOUS
 62
     7
 10
396.4485134207
 20
101.9137651543
 30
0.0
 40
1.516175642341474
 50
183.4462356645
 51
342.9927146274
  0
POLYLINE
  5
3FD
  8
0
  6
CONTINUOUS
 62
     7
 66
     1
 10
0.0
 20
0.0
 30
0.0
 70
   128
  0
VERTEX
  5
67C
  8
0
  6
CONTINUOUS
 62
     7
 10
398.8890411901
 20
91.7433061428
 30
0.0
  0
VERTEX
  5
67D
  8
0
  6
CONTINUOUS
 62
     7
 10
398.5436859575
 20
91.7153683045
 30
0.0
  0
VERTEX
  5
67E
  8
0
  6
CONTINUOUS
 62
     7
 10
398.2168773701
 20
91.6154489367
 30
0.0
  0
VERTEX
  5
67F
  8
0
  6
CONTINUOUS
 62
     7
 10
397.9262337634
 20
91.4489347186
 30
0.0
  0
VERTEX
  5
680
  8
0
  6
CONTINUOUS
 62
     7
 10
397.6874238095
 20
91.2248024746
 30
0.0
  0
VERTEX
  5
681
  8
0
  6
CONTINUOUS
 62
     7
 10
397.5133218148
 20
90.955135232
 30
0.0
  0
VERTEX
  5
682
  8
0
  6
CONTINUOUS
 62
     7
 10
397.413313663
 20
90.6544708218
 30
0.0
  0
VERTEX
  5
683
  8
0
  6
CONTINUOUS
 62
     7
 10
397.3927908192
 20
90.33901814
 30
0.0
  0
VERTEX
  5
684
  8
0
  6
CONTINUOUS
 62
     7
 10
397.4528596755
 20
90.0257833225
 30
0.0
  0
VERTEX
  5
685
  8
0
  6
CONTINUOUS
 62
     7
 10
397.5902819042
 20
89.7316529392
 30
0.0
  0
VERTEX
  5
686
  8
0
  6
CONTINUOUS
 62
     7
 10
397.7976490373
 20
89.4724836354
 30
0.0
  0
VERTEX
  5
687
  8
0
  6
CONTINUOUS
 62
     7
 10
398.0637818591
 20
89.2622472952
 30
0.0
  0
VERTEX
  5
688
  8
0
  6
CONTINUOUS
 62
     7
 10
398.3743330803
 20
89.1122778141
 30
0.0
  0
VERTEX
  5
689
  8
0
  6
CONTINUOUS
 62
     7
 10
398.712560804
 20
89.0306600858
 30
0.0
  0
VERTEX
  5
68A
  8
0
  6
CONTINUOUS
 62
     7
 10
399.0602310863
 20
89.021794143
 30
0.0
  0
VERTEX
  5
68B
  8
0
  6
CONTINUOUS
 62
     7
 10
399.3986009321
 20
89.0861579511
 30
0.0
  0
VERTEX
  5
68C
  8
0
  6
CONTINUOUS
 62
     7
 10
399.7094287356
 20
89.2202816404
 30
0.0
  0
VERTEX
  5
68D
  8
0
  6
CONTINUOUS
 62
     7
 10
399.9759576893
 20
89.4169345683
 30
0.0
  0
VERTEX
  5
68E
  8
0
  6
CONTINUOUS
 62
     7
 10
400.1838191484
 20
89.6655151243
 30
0.0
  0
VERTEX
  5
68F
  8
0
  6
CONTINUOUS
 62
     7
 10
400.3218072479
 20
89.9526222665
 30
0.0
  0
VERTEX
  5
690
  8
0
  6
CONTINUOUS
 62
     7
 10
400.3824830135
 20
90.2627779745
 30
0.0
  0
VERTEX
  5
691
  8
0
  6
CONTINUOUS
 62
     7
 10
400.362575399
 20
90.5792616737
 30
0.0
  0
VERTEX
  5
692
  8
0
  6
CONTINUOUS
 62
     7
 10
400.2631576292
 20
90.885011646
 30
0.0
  0
VERTEX
  5
693
  8
0
  6
CONTINUOUS
 62
     7
 10
400.0895893416
 20
91.1635448313
 30
0.0
  0
VERTEX
  5
694
  8
0
  6
CONTINUOUS
 62
     7
 10
399.8512276476
 20
91.3998454335
 30
0.0
  0
VERTEX
  5
695
  8
0
  6
CONTINUOUS
 62
     7
 10
399.5609226879
 20
91.5811744259
 30
0.0
  0
VERTEX
  5
696
  8
0
  6
CONTINUOUS
 62
     7
 10
399.2343248779
 20
91.6977563156
 30
0.0
  0
VERTEX
  5
697
  8
0
  6
CONTINUOUS
 62
     7
 10
398.8890411901
 20
91.7433061428
 30
0.0
  0
SEQEND
  5
833
  8
0
  6
CONTINUOUS
 62
     7
  0
LINE
  5
3FE
  8
0
  6
CONTINUOUS
 62
     7
 10
397.4198738811
 20
90.6266078784
 30
0.0
 11
397.4217900485
 21
90.6943044046
 31
0.0
  0
ARC
  5
3FF
  8
0
  6
CONTINUOUS
 62
     7
 10
398.9333077393
 20
90.7177480745
 30
0.0
 40
1.516175642341417
 50
183.4462356645
 51
342.9927146274
  0
POLYLINE
  5
400
  8
0
  6
CONTINUOUS
 62
     7
 66
     1
 10
0.0
 20
0.0
 30
0.0
 70
   128
  0
VERTEX
  5
698
  8
0
  6
CONTINUOUS
 62
     7
 10
396.3825707549
 20
80.6745713471
 30
0.0
  0
VERTEX
  5
699
  8
0
  6
CONTINUOUS
 62
     7
 10
396.0372155223
 20
80.6466335088
 30
0.0
  0
VERTEX
  5
69A
  8
0
  6
CONTINUOUS
 62
     7
 10
395.7104069349
 20
80.5467141411
 30
0.0
  0
VERTEX
  5
69B
  8
0
  6
CONTINUOUS
 62
     7
 10
395.4197633282
 20
80.3801999229
 30
0.0
  0
VERTEX
  5
69C
  8
0
  6
CONTINUOUS
 62
     7
 10
395.1809533743
 20
80.1560676789
 30
0.0
  0
VERTEX
  5
69D
  8
0
  6
CONTINUOUS
 62
     7
 10
395.0068513796
 20
79.8864004364
 30
0.0
  0
VERTEX
  5
69E
  8
0
  6
CONTINUOUS
 62
     7
 10
394.9068432278
 20
79.5857360261
 30
0.0
  0
VERTEX
  5
69F
  8
0
  6
CONTINUOUS
 62
     7
 10
394.8863203841
 20
79.2702833444
 30
0.0
  0
VERTEX
  5
6A0
  8
0
  6
CONTINUOUS
 62
     7
 10
394.9463892403
 20
78.9570485268
 30
0.0
  0
VERTEX
  5
6A1
  8
0
  6
CONTINUOUS
 62
     7
 10
395.083811469
 20
78.6629181436
 30
0.0
  0
VERTEX
  5
6A2
  8
0
  6
CONTINUOUS
 62
     7
 10
395.2911786021
 20
78.4037488397
 30
0.0
  0
VERTEX
  5
6A3
  8
0
  6
CONTINUOUS
 62
     7
 10
395.5573114239
 20
78.1935124995
 30
0.0
  0
VERTEX
  5
6A4
  8
0
  6
CONTINUOUS
 62
     7
 10
395.8678626451
 20
78.0435430185
 30
0.0
  0
VERTEX
  5
6A5
  8
0
  6
CONTINUOUS
 62
     7
 10
396.2060903688
 20
77.9619252901
 30
0.0
  0
VERTEX
  5
6A6
  8
0
  6
CONTINUOUS
 62
     7
 10
396.5537606511
 20
77.9530593474
 30
0.0
  0
VERTEX
  5
6A7
  8
0
  6
CONTINUOUS
 62
     7
 10
396.8921304969
 20
78.0174231554
 30
0.0
  0
VERTEX
  5
6A8
  8
0
  6
CONTINUOUS
 62
     7
 10
397.2029583004
 20
78.1515468448
 30
0.0
  0
VERTEX
  5
6A9
  8
0
  6
CONTINUOUS
 62
     7
 10
397.4694872541
 20
78.3481997726
 30
0.0
  0
VERTEX
  5
6AA
  8
0
  6
CONTINUOUS
 62
     7
 10
397.6773487132
 20
78.5967803287
 30
0.0
  0
VERTEX
  5
6AB
  8
0
  6
CONTINUOUS
 62
     7
 10
397.8153368127
 20
78.8838874708
 30
0.0
  0
VERTEX
  5
6AC
  8
0
  6
CONTINUOUS
 62
     7
 10
397.8760125783
 20
79.1940431788
 30
0.0
  0
VERTEX
  5
6AD
  8
0
  6
CONTINUOUS
 62
     7
 10
397.8561049638
 20
79.510526878
 30
0.0
  0
VERTEX
  5
6AE
  8
0
  6
CONTINUOUS
 62
     7
 10
397.756687194
 20
79.8162768503
 30
0.0
  0
VERTEX
  5
6AF
  8
0
  6
CONTINUOUS
 62
     7
 10
397.5831189064
 20
80.0948100356
 30
0.0
  0
VERTEX
  5
6B0
  8
0
  6
CONTINUOUS
 62
     7
 10
397.3447572124
 20
80.3311106378
 30
0.0
  0
VERTEX
  5
6B1
  8
0
  6
CONTINUOUS
 62
     7
 10
397.0544522527
 20
80.5124396302
 30
0.0
  0
VERTEX
  5
6B2
  8
0
  6
CONTINUOUS
 62
     7
 10
396.7278544427
 20
80.6290215199
 30
0.0
  0
VERTEX
  5
6B3
  8
0
  6
CONTINUOUS
 62
     7
 10
396.3825707549
 20
80.6745713471
 30
0.0
  0
SEQEND
  5
834
  8
0
  6
CONTINUOUS
 62
     7
  0
LINE
  5
401
  8
0
  6
CONTINUOUS
 62
     7
 10
394.9134034459
 20
79.5578730827
 30
0.0
 11
394.9153196133
 21
79.6255696084
 31
0.0
  0
ARC
  5
402
  8
0
  6
CONTINUOUS
 62
     7
 10
396.4268373041
 20
79.6490132789
 30
0.0
 40
1.51617564238061
 50
183.446235666
 51
342.9927145927
  0
LINE
  5
403
  8
0
  6
CONTINUOUS
 62
     7
 10
391.1368569592
 20
86.1360301824
 30
0.0
 11
391.2238118332
 21
86.0342173259
 31
0.0
  0
POLYLINE
  5
404
  8
0
  6
CONTINUOUS
 62
     7
 66
     1
 10
0.0
 20
0.0
 30
0.0
 70
   128
  0
VERTEX
  5
6B4
  8
0
  6
CONTINUOUS
 62
     7
 10
390.3359778021
 20
84.8998088085
 30
0.0
  0
VERTEX
  5
6B5
  8
0
  6
CONTINUOUS
 62
     7
 10
389.9662397341
 20
84.7307635558
 30
0.0
  0
VERTEX
  5
6B6
  8
0
  6
CONTINUOUS
 62
     7
 10
389.5412162757
 20
84.5861046331
 30
0.0
  0
VERTEX
  5
6B7
  8
0
  6
CONTINUOUS
 62
     7
 10
389.0700162731
 20
84.4689322829
 30
0.0
  0
VERTEX
  5
6B8
  8
0
  6
CONTINUOUS
 62
     7
 10
388.5627381998
 20
84.3817576722
 30
0.0
  0
VERTEX
  5
6B9
  8
0
  6
CONTINUOUS
 62
     7
 10
388.0302537332
 20
84.3264490748
 30
0.0
  0
VERTEX
  5
6BA
  8
0
  6
CONTINUOUS
 62
     7
 10
387.4839747586
 20
84.3041918309
 30
0.0
  0
VERTEX
  5
6BB
  8
0
  6
CONTINUOUS
 62
     7
 10
386.9356087968
 20
84.3154629444
 30
0.0
  0
VERTEX
  5
6BC
  8
0
  6
CONTINUOUS
 62
     7
 10
386.396908096
 20
84.3600208597
 30
0.0
  0
VERTEX
  5
6BD
  8
0
  6
CONTINUOUS
 62
     7
 10
385.8794177641
 20
84.4369106383
 30
0.0
  0
VERTEX
  5
6BE
  8
0
  6
CONTINUOUS
 62
     7
 10
385.3942283411
 20
84.5444844251
 30
0.0
  0
VERTEX
  5
6BF
  8
0
  6
CONTINUOUS
 62
     7
 10
384.9517381136
 20
84.6804367636
 30
0.0
  0
VERTEX
  5
6C0
  8
0
  6
CONTINUOUS
 62
     7
 10
384.561430265
 20
84.8418540054
 30
0.0
  0
VERTEX
  5
6C1
  8
0
  6
CONTINUOUS
 62
     7
 10
384.2316696371
 20
85.0252767537
 30
0.0
  0
VERTEX
  5
6C2
  8
0
  6
CONTINUOUS
 62
     7
 10
383.9695234604
 20
85.226774003
 30
0.0
  0
VERTEX
  5
6C3
  8
0
  6
CONTINUOUS
 62
     7
 10
383.7806098936
 20
85.4420273861
 30
0.0
  0
VERTEX
  5
6C4
  8
0
  6
CONTINUOUS
 62
     7
 10
383.668977618
 20
85.6664237224
 30
0.0
  0
VERTEX
  5
6C5
  8
0
  6
CONTINUOUS
 62
     7
 10
383.6365966405
 20
85.8722931636
 30
0.0
  0
SEQEND
  5
835
  8
0
  6
CONTINUOUS
 62
     7
  0
LINE
  5
405
  8
0
  6
CONTINUOUS
 62
     7
 10
390.3267765118
 20
75.4486488287
 30
0.0
 11
390.3359778021
 21
84.8998088085
 31
0.0
  0
POLYLINE
  5
406
  8
0
  6
CONTINUOUS
 62
     7
 66
     1
 10
0.0
 20
0.0
 30
0.0
 70
   128
  0
VERTEX
  5
6C6
  8
0
  6
CONTINUOUS
 62
     7
 10
383.6273953501
 20
76.4211331838
 30
0.0
  0
VERTEX
  5
6C7
  8
0
  6
CONTINUOUS
 62
     7
 10
383.6597763277
 20
76.2152637426
 30
0.0
  0
VERTEX
  5
6C8
  8
0
  6
CONTINUOUS
 62
     7
 10
383.7714086033
 20
75.9908674063
 30
0.0
  0
VERTEX
  5
6C9
  8
0
  6
CONTINUOUS
 62
     7
 10
383.9603221701
 20
75.7756140233
 30
0.0
  0
VERTEX
  5
6CA
  8
0
  6
CONTINUOUS
 62
     7
 10
384.2224683467
 20
75.5741167739
 30
0.0
  0
VERTEX
  5
6CB
  8
0
  6
CONTINUOUS
 62
     7
 10
384.5522289746
 20
75.3906940256
 30
0.0
  0
VERTEX
  5
6CC
  8
0
  6
CONTINUOUS
 62
     7
 10
384.9425368233
 20
75.2292767838
 30
0.0
  0
VERTEX
  5
6CD
  8
0
  6
CONTINUOUS
 62
     7
 10
385.3850270507
 20
75.0933244453
 30
0.0
  0
VERTEX
  5
6CE
  8
0
  6
CONTINUOUS
 62
     7
 10
385.8702164737
 20
74.9857506586
 30
0.0
  0
VERTEX
  5
6CF
  8
0
  6
CONTINUOUS
 62
     7
 10
386.3877068057
 20
74.9088608799
 30
0.0
  0
VERTEX
  5
6D0
  8
0
  6
CONTINUOUS
 62
     7
 10
386.9264075065
 20
74.8643029646
 30
0.0
  0
VERTEX
  5
6D1
  8
0
  6
CONTINUOUS
 62
     7
 10
387.4747734682
 20
74.8530318511
 30
0.0
  0
VERTEX
  5
6D2
  8
0
  6
CONTINUOUS
 62
     7
 10
388.0210524429
 20
74.875289095
 30
0.0
  0
VERTEX
  5
6D3
  8
0
  6
CONTINUOUS
 62
     7
 10
388.5535369095
 20
74.9305976924
 30
0.0
  0
VERTEX
  5
6D4
  8
0
  6
CONTINUOUS
 62
     7
 10
389.0608149827
 20
75.0177723031
 30
0.0
  0
VERTEX
  5
6D5
  8
0
  6
CONTINUOUS
 62
     7
 10
389.5320149854
 20
75.1349446533
 30
0.0
  0
VERTEX
  5
6D6
  8
0
  6
CONTINUOUS
 62
     7
 10
389.9570384438
 20
75.279603576
 30
0.0
  0
VERTEX
  5
6D7
  8
0
  6
CONTINUOUS
 62
     7
 10
390.3267765118
 20
75.4486488287
 30
0.0
  0
SEQEND
  5
836
  8
0
  6
CONTINUOUS
 62
     7
  0
LINE
  5
407
  8
0
  6
CONTINUOUS
 62
     7
 10
385.4998455901
 20
124.9214031044
 30
0.0
 11
385.6932056584
 21
126.2846804715
 31
0.0
  0
POLYLINE
  5
408
  8
0
  6
CONTINUOUS
 62
     7
 66
     1
 10
0.0
 20
0.0
 30
0.0
 70
   128
  0
VERTEX
  5
6D8
  8
0
  6
CONTINUOUS
 62
     7
 10
391.1328538908
 20
111.5713732279
 30
0.0
  0
VERTEX
  5
6D9
  8
0
  6
CONTINUOUS
 62
     7
 10
391.1019262339
 20
111.4869444726
 30
0.0
  0
VERTEX
  5
6DA
  8
0
  6
CONTINUOUS
 62
     7
 10
390.9680748585
 20
111.2691119893
 30
0.0
  0
VERTEX
  5
6DB
  8
0
  6
CONTINUOUS
 62
     7
 10
390.7607170879
 20
111.061600716
 30
0.0
  0
VERTEX
  5
6DC
  8
0
  6
CONTINUOUS
 62
     7
 10
390.4841389139
 20
110.8686998174
 30
0.0
  0
VERTEX
  5
6DD
  8
0
  6
CONTINUOUS
 62
     7
 10
390.1440570827
 20
110.6943964682
 30
0.0
  0
VERTEX
  5
6DE
  8
0
  6
CONTINUOUS
 62
     7
 10
389.7475009328
 20
110.5422934401
 30
0.0
  0
VERTEX
  5
6DF
  8
0
  6
CONTINUOUS
 62
     7
 10
389.3026671014
 20
110.4155346344
 30
0.0
  0
VERTEX
  5
6E0
  8
0
  6
CONTINUOUS
 62
     7
 10
388.8187501034
 20
110.3167400984
 30
0.0
  0
VERTEX
  5
6E1
  8
0
  6
CONTINUOUS
 62
     7
 10
388.3057522855
 20
110.2479518708
 30
0.0
  0
VERTEX
  5
6E2
  8
0
  6
CONTINUOUS
 62
     7
 10
387.7742770816
 20
110.2105917732
 30
0.0
  0
VERTEX
  5
6E3
  8
0
  6
CONTINUOUS
 62
     7
 10
387.2353098451
 20
110.2054320221
 30
0.0
  0
VERTEX
  5
6E4
  8
0
  6
CONTINUOUS
 62
     7
 10
386.6999907859
 20
110.2325792672
 30
0.0
  0
VERTEX
  5
6E5
  8
0
  6
CONTINUOUS
 62
     7
 10
386.1793847083
 20
110.2914723872
 30
0.0
  0
VERTEX
  5
6E6
  8
0
  6
CONTINUOUS
 62
     7
 10
385.6842523054
 20
110.3808940877
 30
0.0
  0
VERTEX
  5
6E7
  8
0
  6
CONTINUOUS
 62
     7
 10
385.2248277413
 20
110.4989960625
 30
0.0
  0
VERTEX
  5
6E8
  8
0
  6
CONTINUOUS
 62
     7
 10
384.8106071148
 20
110.6433371969
 30
0.0
  0
VERTEX
  5
6E9
  8
0
  6
CONTINUOUS
 62
     7
 10
384.4501521798
 20
110.8109340247
 30
0.0
  0
VERTEX
  5
6EA
  8
0
  6
CONTINUOUS
 62
     7
 10
384.1509133776
 20
110.9983223948
 30
0.0
  0
VERTEX
  5
6EB
  8
0
  6
CONTINUOUS
 62
     7
 10
383.9190758397
 20
111.2016290739
 30
0.0
  0
VERTEX
  5
6EC
  8
0
  6
CONTINUOUS
 62
     7
 10
383.7594315434
 20
111.4166518046
 30
0.0
  0
VERTEX
  5
6ED
  8
0
  6
CONTINUOUS
 62
     7
 10
383.6752802647
 20
111.6389461637
 30
0.0
  0
VERTEX
  5
6EE
  8
0
  6
CONTINUOUS
 62
     7
 10
383.661811715
 20
111.7721065697
 30
0.0
  0
SEQEND
  5
837
  8
0
  6
CONTINUOUS
 62
     7
  0
POLYLINE
  5
409
  8
0
  6
CONTINUOUS
 62
     7
 66
     1
 10
0.0
 20
0.0
 30
0.0
 70
   128
  0
VERTEX
  5
6EF
  8
0
  6
CONTINUOUS
 62
     7
 10
383.6379237497
 20
87.2354412376
 30
0.0
  0
VERTEX
  5
6F0
  8
0
  6
CONTINUOUS
 62
     7
 10
383.6513922994
 20
87.1022808316
 30
0.0
  0
VERTEX
  5
6F1
  8
0
  6
CONTINUOUS
 62
     7
 10
383.7355435782
 20
86.8799864725
 30
0.0
  0
VERTEX
  5
6F2
  8
0
  6
CONTINUOUS
 62
     7
 10
383.8951878744
 20
86.6649637418
 30
0.0
  0
VERTEX
  5
6F3
  8
0
  6
CONTINUOUS
 62
     7
 10
384.1270254124
 20
86.4616570626
 30
0.0
  0
VERTEX
  5
6F4
  8
0
  6
CONTINUOUS
 62
     7
 10
384.4262642145
 20
86.2742686925
 30
0.0
  0
VERTEX
  5
6F5
  8
0
  6
CONTINUOUS
 62
     7
 10
384.7867191495
 20
86.1066718648
 30
0.0
  0
VERTEX
  5
6F6
  8
0
  6
CONTINUOUS
 62
     7
 10
385.200939776
 20
85.9623307304
 30
0.0
  0
VERTEX
  5
6F7
  8
0
  6
CONTINUOUS
 62
     7
 10
385.6603643401
 20
85.8442287556
 30
0.0
  0
VERTEX
  5
6F8
  8
0
  6
CONTINUOUS
 62
     7
 10
386.155496743
 20
85.754807055
 30
0.0
  0
VERTEX
  5
6F9
  8
0
  6
CONTINUOUS
 62
     7
 10
386.6761028206
 20
85.6959139351
 30
0.0
  0
VERTEX
  5
6FA
  8
0
  6
CONTINUOUS
 62
     7
 10
387.2114218798
 20
85.66876669
 30
0.0
  0
VERTEX
  5
6FB
  8
0
  6
CONTINUOUS
 62
     7
 10
387.7503891164
 20
85.6739264411
 30
0.0
  0
VERTEX
  5
6FC
  8
0
  6
CONTINUOUS
 62
     7
 10
388.2818643202
 20
85.7112865386
 30
0.0
  0
VERTEX
  5
6FD
  8
0
  6
CONTINUOUS
 62
     7
 10
388.7948621381
 20
85.7800747663
 30
0.0
  0
VERTEX
  5
6FE
  8
0
  6
CONTINUOUS
 62
     7
 10
389.2787791361
 20
85.8788693022
 30
0.0
  0
VERTEX
  5
6FF
  8
0
  6
CONTINUOUS
 62
     7
 10
389.7236129675
 20
86.005628108
 30
0.0
  0
VERTEX
  5
700
  8
0
  6
CONTINUOUS
 62
     7
 10
390.1201691174
 20
86.157731136
 30
0.0
  0
VERTEX
  5
701
  8
0
  6
CONTINUOUS
 62
     7
 10
390.4602509486
 20
86.3320344853
 30
0.0
  0
VERTEX
  5
702
  8
0
  6
CONTINUOUS
 62
     7
 10
390.7368291226
 20
86.5249353839
 30
0.0
  0
VERTEX
  5
703
  8
0
  6
CONTINUOUS
 62
     7
 10
390.9441868933
 20
86.7324466572
 30
0.0
  0
VERTEX
  5
704
  8
0
  6
CONTINUOUS
 62
     7
 10
391.0780382686
 20
86.9502791405
 30
0.0
  0
VERTEX
  5
705
  8
0
  6
CONTINUOUS
 62
     7
 10
391.1356166011
 20
87.1739303345
 30
0.0
  0
VERTEX
  5
706
  8
0
  6
CONTINUOUS
 62
     7
 10
391.1379201953
 20
87.2281395259
 30
0.0
  0
SEQEND
  5
838
  8
0
  6
CONTINUOUS
 62
     7
  0
ARC
  5
40A
  8
0
  6
CONTINUOUS
 62
     7
 10
391.7465128763
 20
124.1233341044
 30
0.0
 40
7.789850596640176
 50
174.0022050578
 51
179.6111183741
  0
LINE
  5
40B
  8
0
  6
CONTINUOUS
 62
     7
 10
385.6932056584
 20
126.2846804715
 30
0.0
 11
384.1958262322
 21
126.3228651567
 31
0.0
  0
LINE
  5
40C
  8
0
  6
CONTINUOUS
 62
     7
 10
383.9993045648
 20
124.9372970616
 30
0.0
 11
384.1958262322
 21
126.3228651567
 31
0.0
  0
POLYLINE
  5
40D
  8
0
  6
CONTINUOUS
 62
     7
 66
     1
 10
0.0
 20
0.0
 30
0.0
 70
   128
  0
VERTEX
  5
707
  8
0
  6
CONTINUOUS
 62
     7
 10
384.1958262322
 20
126.3228651567
 30
0.0
  0
VERTEX
  5
708
  8
0
  6
CONTINUOUS
 62
     7
 10
384.1919984741
 20
126.3637402362
 30
0.0
  0
VERTEX
  5
709
  8
0
  6
CONTINUOUS
 62
     7
 10
384.1691366641
 20
126.403533648
 30
0.0
  0
VERTEX
  5
70A
  8
0
  6
CONTINUOUS
 62
     7
 10
384.1281193687
 20
126.4407161536
 30
0.0
  0
VERTEX
  5
70B
  8
0
  6
CONTINUOUS
 62
     7
 10
384.0705228595
 20
126.4738588502
 30
0.0
  0
VERTEX
  5
70C
  8
0
  6
CONTINUOUS
 62
     7
 10
383.9985605381
 20
126.5016880825
 30
0.0
  0
VERTEX
  5
70D
  8
0
  6
CONTINUOUS
 62
     7
 10
383.9149978762
 20
126.5231343887
 30
0.0
  0
VERTEX
  5
70E
  8
0
  6
CONTINUOUS
 62
     7
 10
383.82304614
 20
126.5373735993
 30
0.0
  0
VERTEX
  5
70F
  8
0
  6
CONTINUOUS
 62
     7
 10
383.7262389832
 20
126.5438585095
 30
0.0
  0
SEQEND
  5
839
  8
0
  6
CONTINUOUS
 62
     7
  0
LINE
  5
40E
  8
0
  6
CONTINUOUS
 62
     7
 10
383.7262389832
 20
126.5438585095
 30
0.0
 11
383.8148566621
 21
127.1686538825
 31
0.0
  0
POLYLINE
  5
40F
  8
0
  6
CONTINUOUS
 62
     7
 66
     1
 10
0.0
 20
0.0
 30
0.0
 70
   128
  0
VERTEX
  5
710
  8
0
  6
CONTINUOUS
 62
     7
 10
385.6932056584
 20
126.2846804715
 30
0.0
  0
VERTEX
  5
711
  8
0
  6
CONTINUOUS
 62
     7
 10
385.677894626
 20
126.4481807895
 30
0.0
  0
VERTEX
  5
712
  8
0
  6
CONTINUOUS
 62
     7
 10
385.5864473858
 20
126.6073544368
 30
0.0
  0
VERTEX
  5
713
  8
0
  6
CONTINUOUS
 62
     7
 10
385.4223782041
 20
126.7560844592
 30
0.0
  0
VERTEX
  5
714
  8
0
  6
CONTINUOUS
 62
     7
 10
385.1919921674
 20
126.8886552454
 30
0.0
  0
VERTEX
  5
715
  8
0
  6
CONTINUOUS
 62
     7
 10
384.9041428819
 20
126.9999721746
 30
0.0
  0
VERTEX
  5
716
  8
0
  6
CONTINUOUS
 62
     7
 10
384.5698922343
 20
127.0857573994
 30
0.0
  0
VERTEX
  5
717
  8
0
  6
CONTINUOUS
 62
     7
 10
384.2020852895
 20
127.1427142419
 30
0.0
  0
VERTEX
  5
718
  8
0
  6
CONTINUOUS
 62
     7
 10
383.8148566621
 20
127.1686538825
 30
0.0
  0
SEQEND
  5
83A
  8
0
  6
CONTINUOUS
 62
     7
  0
LINE
  5
410
  8
0
  6
CONTINUOUS
 62
     7
 10
372.7704128487
 20
126.8232431231
 30
0.0
 11
372.7254680844
 21
80.6579616834
 31
0.0
  0
LINE
  5
411
  8
0
  6
CONTINUOUS
 62
     7
 10
383.7262389832
 20
126.5438585095
 30
0.0
 11
372.7704128487
 21
126.8232431231
 31
0.0
  0
LINE
  5
412
  8
0
  6
CONTINUOUS
 62
     7
 10
383.6312494096
 20
80.3798532628
 30
0.0
 11
372.7254680844
 21
80.6579616834
 31
0.0
  0
POLYLINE
  5
413
  8
0
  6
CONTINUOUS
 62
     7
 66
     1
 10
0.0
 20
0.0
 30
0.0
 70
   128
  0
VERTEX
  5
719
  8
0
  6
CONTINUOUS
 62
     7
 10
378.4694259972
 20
84.6237504132
 30
0.0
  0
VERTEX
  5
71A
  8
0
  6
CONTINUOUS
 62
     7
 10
378.9150739103
 20
84.6488974324
 30
0.0
  0
VERTEX
  5
71B
  8
0
  6
CONTINUOUS
 62
     7
 10
379.3464694234
 20
84.7462573736
 30
0.0
  0
VERTEX
  5
71C
  8
0
  6
CONTINUOUS
 62
     7
 10
379.7497471298
 20
84.9127010081
 30
0.0
  0
VERTEX
  5
71D
  8
0
  6
CONTINUOUS
 62
     7
 10
380.1119453522
 20
85.1428787005
 30
0.0
  0
VERTEX
  5
71E
  8
0
  6
CONTINUOUS
 62
     7
 10
380.4214227417
 20
85.4293923505
 30
0.0
  0
VERTEX
  5
71F
  8
0
  6
CONTINUOUS
 62
     7
 10
380.6682324403
 20
85.7630331736
 30
0.0
  0
VERTEX
  5
720
  8
0
  6
CONTINUOUS
 62
     7
 10
380.8444417813
 20
86.1330776792
 30
0.0
  0
VERTEX
  5
721
  8
0
  6
CONTINUOUS
 62
     7
 10
380.9443872515
 20
86.5276323324
 30
0.0
  0
VERTEX
  5
722
  8
0
  6
CONTINUOUS
 62
     7
 10
380.9648565212
 20
86.9340158221
 30
0.0
  0
VERTEX
  5
723
  8
0
  6
CONTINUOUS
 62
     7
 10
380.9051916912
 20
87.3391666484
 30
0.0
  0
VERTEX
  5
724
  8
0
  6
CONTINUOUS
 62
     7
 10
380.7673104383
 20
87.7300629305
 30
0.0
  0
VERTEX
  5
725
  8
0
  6
CONTINUOUS
 62
     7
 10
380.5556443795
 20
88.0941409403
 30
0.0
  0
VERTEX
  5
726
  8
0
  6
CONTINUOUS
 62
     7
 10
380.2769966358
 20
88.4196989109
 30
0.0
  0
VERTEX
  5
727
  8
0
  6
CONTINUOUS
 62
     7
 10
379.9403231753
 20
88.6962731414
 30
0.0
  0
VERTEX
  5
728
  8
0
  6
CONTINUOUS
 62
     7
 10
379.5564449598
 20
88.9149743083
 30
0.0
  0
VERTEX
  5
729
  8
0
  6
CONTINUOUS
 62
     7
 10
379.137700151
 20
89.0687731762
 30
0.0
  0
VERTEX
  5
72A
  8
0
  6
CONTINUOUS
 62
     7
 10
378.6975475518
 20
89.152726523
 30
0.0
  0
VERTEX
  5
72B
  8
0
  6
CONTINUOUS
 62
     7
 10
378.2501340287
 20
89.1641360189
 30
0.0
  0
VERTEX
  5
72C
  8
0
  6
CONTINUOUS
 62
     7
 10
377.8098398206
 20
89.1026349536
 30
0.0
  0
VERTEX
  5
72D
  8
0
  6
CONTINUOUS
 62
     7
 10
377.3908163455
 20
88.9702000216
 30
0.0
  0
VERTEX
  5
72E
  8
0
  6
CONTINUOUS
 62
     7
 10
377.0065313627
 20
88.7710877909
 30
0.0
  0
VERTEX
  5
72F
  8
0
  6
CONTINUOUS
 62
     7
 10
376.6693361078
 20
88.5116978922
 30
0.0
  0
VERTEX
  5
730
  8
0
  6
CONTINUOUS
 62
     7
 10
376.3900683137
 20
88.2003673303
 30
0.0
  0
VERTEX
  5
731
  8
0
  6
CONTINUOUS
 62
     7
 10
376.1777038771
 20
87.8471025258
 30
0.0
  0
VERTEX
  5
732
  8
0
  6
CONTINUOUS
 62
     7
 10
376.0390683657
 20
87.4632576999
 30
0.0
  0
VERTEX
  5
733
  8
0
  6
CONTINUOUS
 62
     7
 10
375.9786176389
 20
87.0611699414
 30
0.0
  0
VERTEX
  5
734
  8
0
  6
CONTINUOUS
 62
     7
 10
375.9982946329
 20
86.6537626815
 30
0.0
  0
VERTEX
  5
735
  8
0
  6
CONTINUOUS
 62
     7
 10
376.0974669127
 20
86.2541303249
 30
0.0
  0
VERTEX
  5
736
  8
0
  6
CONTINUOUS
 62
     7
 10
376.2729469999
 20
85.8751173843
 30
0.0
  0
VERTEX
  5
737
  8
0
  6
CONTINUOUS
 62
     7
 10
376.5190948199
 20
85.5289056474
 30
0.0
  0
VERTEX
  5
738
  8
0
  6
CONTINUOUS
 62
     7
 10
376.8279989793
 20
85.2266226444
 30
0.0
  0
VERTEX
  5
739
  8
0
  6
CONTINUOUS
 62
     7
 10
377.1897310443
 20
84.9779839996
 30
0.0
  0
VERTEX
  5
73A
  8
0
  6
CONTINUOUS
 62
     7
 10
377.5926646486
 20
84.7909811638
 30
0.0
  0
VERTEX
  5
73B
  8
0
  6
CONTINUOUS
 62
     7
 10
378.0238491748
 20
84.6716245619
 30
0.0
  0
VERTEX
  5
73C
  8
0
  6
CONTINUOUS
 62
     7
 10
378.4694259972
 20
84.6237504132
 30
0.0
  0
SEQEND
  5
83B
  8
0
  6
CONTINUOUS
 62
     7
  0
POLYLINE
  5
414
  8
0
  6
CONTINUOUS
 62
     7
 66
     1
 10
0.0
 20
0.0
 30
0.0
 70
   128
  0
VERTEX
  5
73D
  8
0
  6
CONTINUOUS
 62
     7
 10
375.9846316787
 20
95.819767493
 30
0.0
  0
VERTEX
  5
73E
  8
0
  6
CONTINUOUS
 62
     7
 10
376.4302795918
 20
95.8449145122
 30
0.0
  0
VERTEX
  5
73F
  8
0
  6
CONTINUOUS
 62
     7
 10
376.8616751049
 20
95.9422744534
 30
0.0
  0
VERTEX
  5
740
  8
0
  6
CONTINUOUS
 62
     7
 10
377.2649528113
 20
96.1087180879
 30
0.0
  0
VERTEX
  5
741
  8
0
  6
CONTINUOUS
 62
     7
 10
377.6271510337
 20
96.3388957803
 30
0.0
  0
VERTEX
  5
742
  8
0
  6
CONTINUOUS
 62
     7
 10
377.9366284232
 20
96.6254094303
 30
0.0
  0
VERTEX
  5
743
  8
0
  6
CONTINUOUS
 62
     7
 10
378.1834381218
 20
96.9590502534
 30
0.0
  0
VERTEX
  5
744
  8
0
  6
CONTINUOUS
 62
     7
 10
378.3596474628
 20
97.329094759
 30
0.0
  0
VERTEX
  5
745
  8
0
  6
CONTINUOUS
 62
     7
 10
378.459592933
 20
97.7236494122
 30
0.0
  0
VERTEX
  5
746
  8
0
  6
CONTINUOUS
 62
     7
 10
378.4800622027
 20
98.1300329018
 30
0.0
  0
VERTEX
  5
747
  8
0
  6
CONTINUOUS
 62
     7
 10
378.4203973727
 20
98.5351837282
 30
0.0
  0
VERTEX
  5
748
  8
0
  6
CONTINUOUS
 62
     7
 10
378.2825161198
 20
98.9260800103
 30
0.0
  0
VERTEX
  5
749
  8
0
  6
CONTINUOUS
 62
     7
 10
378.0708500609
 20
99.2901580201
 30
0.0
  0
VERTEX
  5
74A
  8
0
  6
CONTINUOUS
 62
     7
 10
377.7922023173
 20
99.6157159907
 30
0.0
  0
VERTEX
  5
74B
  8
0
  6
CONTINUOUS
 62
     7
 10
377.4555288567
 20
99.8922902212
 30
0.0
  0
VERTEX
  5
74C
  8
0
  6
CONTINUOUS
 62
     7
 10
377.0716506412
 20
100.1109913881
 30
0.0
  0
VERTEX
  5
74D
  8
0
  6
CONTINUOUS
 62
     7
 10
376.6529058325
 20
100.264790256
 30
0.0
  0
VERTEX
  5
74E
  8
0
  6
CONTINUOUS
 62
     7
 10
376.2127532332
 20
100.3487436028
 30
0.0
  0
VERTEX
  5
74F
  8
0
  6
CONTINUOUS
 62
     7
 10
375.7653397102
 20
100.3601530987
 30
0.0
  0
VERTEX
  5
750
  8
0
  6
CONTINUOUS
 62
     7
 10
375.325045502
 20
100.2986520333
 30
0.0
  0
VERTEX
  5
751
  8
0
  6
CONTINUOUS
 62
     7
 10
374.9060220269
 20
100.1662171014
 30
0.0
  0
VERTEX
  5
752
  8
0
  6
CONTINUOUS
 62
     7
 10
374.5217370442
 20
99.9671048707
 30
0.0
  0
VERTEX
  5
753
  8
0
  6
CONTINUOUS
 62
     7
 10
374.1845417893
 20
99.707714972
 30
0.0
  0
VERTEX
  5
754
  8
0
  6
CONTINUOUS
 62
     7
 10
373.9052739952
 20
99.3963844101
 30
0.0
  0
VERTEX
  5
755
  8
0
  6
CONTINUOUS
 62
     7
 10
373.6929095586
 20
99.0431196055
 30
0.0
  0
VERTEX
  5
756
  8
0
  6
CONTINUOUS
 62
     7
 10
373.5542740472
 20
98.6592747797
 30
0.0
  0
VERTEX
  5
757
  8
0
  6
CONTINUOUS
 62
     7
 10
373.4938233204
 20
98.2571870212
 30
0.0
  0
VERTEX
  5
758
  8
0
  6
CONTINUOUS
 62
     7
 10
373.5135003143
 20
97.8497797613
 30
0.0
  0
VERTEX
  5
759
  8
0
  6
CONTINUOUS
 62
     7
 10
373.6126725942
 20
97.4501474047
 30
0.0
  0
VERTEX
  5
75A
  8
0
  6
CONTINUOUS
 62
     7
 10
373.7881526813
 20
97.0711344641
 30
0.0
  0
VERTEX
  5
75B
  8
0
  6
CONTINUOUS
 62
     7
 10
374.0343005013
 20
96.7249227272
 30
0.0
  0
VERTEX
  5
75C
  8
0
  6
CONTINUOUS
 62
     7
 10
374.3432046608
 20
96.4226397242
 30
0.0
  0
VERTEX
  5
75D
  8
0
  6
CONTINUOUS
 62
     7
 10
374.7049367258
 20
96.1740010794
 30
0.0
  0
VERTEX
  5
75E
  8
0
  6
CONTINUOUS
 62
     7
 10
375.1078703301
 20
95.9869982436
 30
0.0
  0
VERTEX
  5
75F
  8
0
  6
CONTINUOUS
 62
     7
 10
375.5390548562
 20
95.8676416417
 30
0.0
  0
VERTEX
  5
760
  8
0
  6
CONTINUOUS
 62
     7
 10
375.9846316787
 20
95.819767493
 30
0.0
  0
SEQEND
  5
83C
  8
0
  6
CONTINUOUS
 62
     7
  0
POLYLINE
  5
415
  8
0
  6
CONTINUOUS
 62
     7
 66
     1
 10
0.0
 20
0.0
 30
0.0
 70
   128
  0
VERTEX
  5
761
  8
0
  6
CONTINUOUS
 62
     7
 10
378.4911021139
 20
106.8885022887
 30
0.0
  0
VERTEX
  5
762
  8
0
  6
CONTINUOUS
 62
     7
 10
378.936750027
 20
106.9136493079
 30
0.0
  0
VERTEX
  5
763
  8
0
  6
CONTINUOUS
 62
     7
 10
379.3681455401
 20
107.0110092491
 30
0.0
  0
VERTEX
  5
764
  8
0
  6
CONTINUOUS
 62
     7
 10
379.7714232465
 20
107.1774528835
 30
0.0
  0
VERTEX
  5
765
  8
0
  6
CONTINUOUS
 62
     7
 10
380.1336214689
 20
107.407630576
 30
0.0
  0
VERTEX
  5
766
  8
0
  6
CONTINUOUS
 62
     7
 10
380.4430988583
 20
107.694144226
 30
0.0
  0
VERTEX
  5
767
  8
0
  6
CONTINUOUS
 62
     7
 10
380.689908557
 20
108.0277850491
 30
0.0
  0
VERTEX
  5
768
  8
0
  6
CONTINUOUS
 62
     7
 10
380.866117898
 20
108.3978295547
 30
0.0
  0
VERTEX
  5
769
  8
0
  6
CONTINUOUS
 62
     7
 10
380.9660633682
 20
108.7923842079
 30
0.0
  0
VERTEX
  5
76A
  8
0
  6
CONTINUOUS
 62
     7
 10
380.9865326379
 20
109.1987676975
 30
0.0
  0
VERTEX
  5
76B
  8
0
  6
CONTINUOUS
 62
     7
 10
380.9268678079
 20
109.6039185239
 30
0.0
  0
VERTEX
  5
76C
  8
0
  6
CONTINUOUS
 62
     7
 10
380.788986555
 20
109.994814806
 30
0.0
  0
VERTEX
  5
76D
  8
0
  6
CONTINUOUS
 62
     7
 10
380.5773204961
 20
110.3588928158
 30
0.0
  0
VERTEX
  5
76E
  8
0
  6
CONTINUOUS
 62
     7
 10
380.2986727525
 20
110.6844507864
 30
0.0
  0
VERTEX
  5
76F
  8
0
  6
CONTINUOUS
 62
     7
 10
379.9619992919
 20
110.9610250168
 30
0.0
  0
VERTEX
  5
770
  8
0
  6
CONTINUOUS
 62
     7
 10
379.5781210764
 20
111.1797261837
 30
0.0
  0
VERTEX
  5
771
  8
0
  6
CONTINUOUS
 62
     7
 10
379.1593762677
 20
111.3335250516
 30
0.0
  0
VERTEX
  5
772
  8
0
  6
CONTINUOUS
 62
     7
 10
378.7192236684
 20
111.4174783984
 30
0.0
  0
VERTEX
  5
773
  8
0
  6
CONTINUOUS
 62
     7
 10
378.2718101454
 20
111.4288878944
 30
0.0
  0
VERTEX
  5
774
  8
0
  6
CONTINUOUS
 62
     7
 10
377.8315159372
 20
111.367386829
 30
0.0
  0
VERTEX
  5
775
  8
0
  6
CONTINUOUS
 62
     7
 10
377.4124924621
 20
111.2349518971
 30
0.0
  0
VERTEX
  5
776
  8
0
  6
CONTINUOUS
 62
     7
 10
377.0282074794
 20
111.0358396663
 30
0.0
  0
VERTEX
  5
777
  8
0
  6
CONTINUOUS
 62
     7
 10
376.6910122245
 20
110.7764497676
 30
0.0
  0
VERTEX
  5
778
  8
0
  6
CONTINUOUS
 62
     7
 10
376.4117444304
 20
110.4651192058
 30
0.0
  0
VERTEX
  5
779
  8
0
  6
CONTINUOUS
 62
     7
 10
376.1993799938
 20
110.1118544012
 30
0.0
  0
VERTEX
  5
77A
  8
0
  6
CONTINUOUS
 62
     7
 10
376.0607444824
 20
109.7280095754
 30
0.0
  0
VERTEX
  5
77B
  8
0
  6
CONTINUOUS
 62
     7
 10
376.0002937556
 20
109.3259218169
 30
0.0
  0
VERTEX
  5
77C
  8
0
  6
CONTINUOUS
 62
     7
 10
376.0199707495
 20
108.918514557
 30
0.0
  0
VERTEX
  5
77D
  8
0
  6
CONTINUOUS
 62
     7
 10
376.1191430294
 20
108.5188822004
 30
0.0
  0
VERTEX
  5
77E
  8
0
  6
CONTINUOUS
 62
     7
 10
376.2946231165
 20
108.1398692598
 30
0.0
  0
VERTEX
  5
77F
  8
0
  6
CONTINUOUS
 62
     7
 10
376.5407709365
 20
107.7936575229
 30
0.0
  0
VERTEX
  5
780
  8
0
  6
CONTINUOUS
 62
     7
 10
376.849675096
 20
107.4913745198
 30
0.0
  0
VERTEX
  5
781
  8
0
  6
CONTINUOUS
 62
     7
 10
377.211407161
 20
107.2427358751
 30
0.0
  0
VERTEX
  5
782
  8
0
  6
CONTINUOUS
 62
     7
 10
377.6143407653
 20
107.0557330393
 30
0.0
  0
VERTEX
  5
783
  8
0
  6
CONTINUOUS
 62
     7
 10
378.0455252914
 20
106.9363764373
 30
0.0
  0
VERTEX
  5
784
  8
0
  6
CONTINUOUS
 62
     7
 10
378.4911021139
 20
106.8885022887
 30
0.0
  0
SEQEND
  5
83D
  8
0
  6
CONTINUOUS
 62
     7
  0
POLYLINE
  5
416
  8
0
  6
CONTINUOUS
 62
     7
 66
     1
 10
0.0
 20
0.0
 30
0.0
 70
   128
  0
VERTEX
  5
785
  8
0
  6
CONTINUOUS
 62
     7
 10
376.0063077953
 20
118.0845193685
 30
0.0
  0
VERTEX
  5
786
  8
0
  6
CONTINUOUS
 62
     7
 10
376.4519557084
 20
118.1096663877
 30
0.0
  0
VERTEX
  5
787
  8
0
  6
CONTINUOUS
 62
     7
 10
376.8833512215
 20
118.2070263289
 30
0.0
  0
VERTEX
  5
788
  8
0
  6
CONTINUOUS
 62
     7
 10
377.2866289279
 20
118.3734699633
 30
0.0
  0
VERTEX
  5
789
  8
0
  6
CONTINUOUS
 62
     7
 10
377.6488271503
 20
118.6036476558
 30
0.0
  0
VERTEX
  5
78A
  8
0
  6
CONTINUOUS
 62
     7
 10
377.9583045398
 20
118.8901613058
 30
0.0
  0
VERTEX
  5
78B
  8
0
  6
CONTINUOUS
 62
     7
 10
378.2051142384
 20
119.2238021289
 30
0.0
  0
VERTEX
  5
78C
  8
0
  6
CONTINUOUS
 62
     7
 10
378.3813235794
 20
119.5938466344
 30
0.0
  0
VERTEX
  5
78D
  8
0
  6
CONTINUOUS
 62
     7
 10
378.4812690496
 20
119.9884012877
 30
0.0
  0
VERTEX
  5
78E
  8
0
  6
CONTINUOUS
 62
     7
 10
378.5017383193
 20
120.3947847773
 30
0.0
  0
VERTEX
  5
78F
  8
0
  6
CONTINUOUS
 62
     7
 10
378.4420734893
 20
120.7999356037
 30
0.0
  0
VERTEX
  5
790
  8
0
  6
CONTINUOUS
 62
     7
 10
378.3041922365
 20
121.1908318858
 30
0.0
  0
VERTEX
  5
791
  8
0
  6
CONTINUOUS
 62
     7
 10
378.0925261776
 20
121.5549098956
 30
0.0
  0
VERTEX
  5
792
  8
0
  6
CONTINUOUS
 62
     7
 10
377.8138784339
 20
121.8804678662
 30
0.0
  0
VERTEX
  5
793
  8
0
  6
CONTINUOUS
 62
     7
 10
377.4772049734
 20
122.1570420966
 30
0.0
  0
VERTEX
  5
794
  8
0
  6
CONTINUOUS
 62
     7
 10
377.0933267579
 20
122.3757432635
 30
0.0
  0
VERTEX
  5
795
  8
0
  6
CONTINUOUS
 62
     7
 10
376.6745819491
 20
122.5295421314
 30
0.0
  0
VERTEX
  5
796
  8
0
  6
CONTINUOUS
 62
     7
 10
376.2344293499
 20
122.6134954782
 30
0.0
  0
VERTEX
  5
797
  8
0
  6
CONTINUOUS
 62
     7
 10
375.7870158268
 20
122.6249049742
 30
0.0
  0
VERTEX
  5
798
  8
0
  6
CONTINUOUS
 62
     7
 10
375.3467216187
 20
122.5634039088
 30
0.0
  0
VERTEX
  5
799
  8
0
  6
CONTINUOUS
 62
     7
 10
374.9276981436
 20
122.4309689769
 30
0.0
  0
VERTEX
  5
79A
  8
0
  6
CONTINUOUS
 62
     7
 10
374.5434131608
 20
122.2318567461
 30
0.0
  0
VERTEX
  5
79B
  8
0
  6
CONTINUOUS
 62
     7
 10
374.2062179059
 20
121.9724668474
 30
0.0
  0
VERTEX
  5
79C
  8
0
  6
CONTINUOUS
 62
     7
 10
373.9269501119
 20
121.6611362856
 30
0.0
  0
VERTEX
  5
79D
  8
0
  6
CONTINUOUS
 62
     7
 10
373.7145856752
 20
121.307871481
 30
0.0
  0
VERTEX
  5
79E
  8
0
  6
CONTINUOUS
 62
     7
 10
373.5759501638
 20
120.9240266552
 30
0.0
  0
VERTEX
  5
79F
  8
0
  6
CONTINUOUS
 62
     7
 10
373.5154994371
 20
120.5219388966
 30
0.0
  0
VERTEX
  5
7A0
  8
0
  6
CONTINUOUS
 62
     7
 10
373.535176431
 20
120.1145316368
 30
0.0
  0
VERTEX
  5
7A1
  8
0
  6
CONTINUOUS
 62
     7
 10
373.6343487109
 20
119.7148992802
 30
0.0
  0
VERTEX
  5
7A2
  8
0
  6
CONTINUOUS
 62
     7
 10
373.809828798
 20
119.3358863395
 30
0.0
  0
VERTEX
  5
7A3
  8
0
  6
CONTINUOUS
 62
     7
 10
374.055976618
 20
118.9896746027
 30
0.0
  0
VERTEX
  5
7A4
  8
0
  6
CONTINUOUS
 62
     7
 10
374.3648807774
 20
118.6873915996
 30
0.0
  0
VERTEX
  5
7A5
  8
0
  6
CONTINUOUS
 62
     7
 10
374.7266128424
 20
118.4387529549
 30
0.0
  0
VERTEX
  5
7A6
  8
0
  6
CONTINUOUS
 62
     7
 10
375.1295464468
 20
118.251750119
 30
0.0
  0
VERTEX
  5
7A7
  8
0
  6
CONTINUOUS
 62
     7
 10
375.5607309729
 20
118.1323935171
 30
0.0
  0
VERTEX
  5
7A8
  8
0
  6
CONTINUOUS
 62
     7
 10
376.0063077953
 20
118.0845193685
 30
0.0
  0
SEQEND
  5
83E
  8
0
  6
CONTINUOUS
 62
     7
  0
LINE
  5
417
  8
0
  6
CONTINUOUS
 62
     7
 10
372.7704128487
 20
126.8232431231
 30
0.0
 11
372.8590305276
 21
127.4480384961
 31
0.0
  0
LINE
  5
418
  8
0
  6
CONTINUOUS
 62
     7
 10
383.8148566621
 20
127.1686538825
 30
0.0
 11
372.8590305276
 21
127.4480384961
 31
0.0
  0
POLYLINE
  5
419
  8
0
  6
CONTINUOUS
 62
     7
 66
     1
 10
0.0
 20
0.0
 30
0.0
 70
   128
  0
VERTEX
  5
7A9
  8
0
  6
CONTINUOUS
 62
     7
 10
376.0662709874
 20
119.4098149998
 30
0.0
  0
VERTEX
  5
7AA
  8
0
  6
CONTINUOUS
 62
     7
 10
376.41162622
 20
119.4377528382
 30
0.0
  0
VERTEX
  5
7AB
  8
0
  6
CONTINUOUS
 62
     7
 10
376.7384348074
 20
119.5376722059
 30
0.0
  0
VERTEX
  5
7AC
  8
0
  6
CONTINUOUS
 62
     7
 10
377.0290784141
 20
119.7041864241
 30
0.0
  0
VERTEX
  5
7AD
  8
0
  6
CONTINUOUS
 62
     7
 10
377.267888368
 20
119.9283186681
 30
0.0
  0
VERTEX
  5
7AE
  8
0
  6
CONTINUOUS
 62
     7
 10
377.4419903626
 20
120.1979859106
 30
0.0
  0
VERTEX
  5
7AF
  8
0
  6
CONTINUOUS
 62
     7
 10
377.5419985145
 20
120.4986503208
 30
0.0
  0
VERTEX
  5
7B0
  8
0
  6
CONTINUOUS
 62
     7
 10
377.5625213582
 20
120.8141030026
 30
0.0
  0
VERTEX
  5
7B1
  8
0
  6
CONTINUOUS
 62
     7
 10
377.502452502
 20
121.1273378201
 30
0.0
  0
VERTEX
  5
7B2
  8
0
  6
CONTINUOUS
 62
     7
 10
377.3650302733
 20
121.4214682034
 30
0.0
  0
VERTEX
  5
7B3
  8
0
  6
CONTINUOUS
 62
     7
 10
377.1576631401
 20
121.6806375073
 30
0.0
  0
VERTEX
  5
7B4
  8
0
  6
CONTINUOUS
 62
     7
 10
376.8915303183
 20
121.8908738475
 30
0.0
  0
VERTEX
  5
7B5
  8
0
  6
CONTINUOUS
 62
     7
 10
376.5809790972
 20
122.0408433285
 30
0.0
  0
VERTEX
  5
7B6
  8
0
  6
CONTINUOUS
 62
     7
 10
376.2427513734
 20
122.1224610569
 30
0.0
  0
VERTEX
  5
7B7
  8
0
  6
CONTINUOUS
 62
     7
 10
375.8950810912
 20
122.1313269996
 30
0.0
  0
VERTEX
  5
7B8
  8
0
  6
CONTINUOUS
 62
     7
 10
375.5567112453
 20
122.0669631916
 30
0.0
  0
VERTEX
  5
7B9
  8
0
  6
CONTINUOUS
 62
     7
 10
375.2458834419
 20
121.9328395022
 30
0.0
  0
VERTEX
  5
7BA
  8
0
  6
CONTINUOUS
 62
     7
 10
374.9793544882
 20
121.7361865744
 30
0.0
  0
VERTEX
  5
7BB
  8
0
  6
CONTINUOUS
 62
     7
 10
374.771493029
 20
121.4876060183
 30
0.0
  0
VERTEX
  5
7BC
  8
0
  6
CONTINUOUS
 62
     7
 10
374.6335049296
 20
121.2004988761
 30
0.0
  0
VERTEX
  5
7BD
  8
0
  6
CONTINUOUS
 62
     7
 10
374.572829164
 20
120.8903431682
 30
0.0
  0
VERTEX
  5
7BE
  8
0
  6
CONTINUOUS
 62
     7
 10
374.5927367784
 20
120.573859469
 30
0.0
  0
VERTEX
  5
7BF
  8
0
  6
CONTINUOUS
 62
     7
 10
374.6921545483
 20
120.2681094966
 30
0.0
  0
VERTEX
  5
7C0
  8
0
  6
CONTINUOUS
 62
     7
 10
374.8657228359
 20
119.9895763113
 30
0.0
  0
VERTEX
  5
7C1
  8
0
  6
CONTINUOUS
 62
     7
 10
375.1040845298
 20
119.7532757092
 30
0.0
  0
VERTEX
  5
7C2
  8
0
  6
CONTINUOUS
 62
     7
 10
375.3943894896
 20
119.5719467168
 30
0.0
  0
VERTEX
  5
7C3
  8
0
  6
CONTINUOUS
 62
     7
 10
375.7209872996
 20
119.455364827
 30
0.0
  0
VERTEX
  5
7C4
  8
0
  6
CONTINUOUS
 62
     7
 10
376.0662709874
 20
119.4098149998
 30
0.0
  0
SEQEND
  5
83F
  8
0
  6
CONTINUOUS
 62
     7
  0
ARC
  5
41A
  8
0
  6
CONTINUOUS
 62
     7
 10
376.1868336917
 20
121.0413961428
 30
0.0
 40
1.426223601800042
 50
266.3408205693
 51
344.7844348011
  0
ARC
  5
41B
  8
0
  6
CONTINUOUS
 62
     7
 10
376.0795399928
 20
121.09588253
 30
0.0
 40
1.477891968525913
 50
180.3401234286
 51
270.6307861727
  0
POLYLINE
  5
41C
  8
0
  6
CONTINUOUS
 62
     7
 66
     1
 10
0.0
 20
0.0
 30
0.0
 70
   128
  0
VERTEX
  5
7C5
  8
0
  6
CONTINUOUS
 62
     7
 10
378.5510653059
 20
108.21379792
 30
0.0
  0
VERTEX
  5
7C6
  8
0
  6
CONTINUOUS
 62
     7
 10
378.8964205385
 20
108.2417357584
 30
0.0
  0
VERTEX
  5
7C7
  8
0
  6
CONTINUOUS
 62
     7
 10
379.2232291259
 20
108.3416551261
 30
0.0
  0
VERTEX
  5
7C8
  8
0
  6
CONTINUOUS
 62
     7
 10
379.5138727326
 20
108.5081693443
 30
0.0
  0
VERTEX
  5
7C9
  8
0
  6
CONTINUOUS
 62
     7
 10
379.7526826865
 20
108.7323015883
 30
0.0
  0
VERTEX
  5
7CA
  8
0
  6
CONTINUOUS
 62
     7
 10
379.9267846812
 20
109.0019688308
 30
0.0
  0
VERTEX
  5
7CB
  8
0
  6
CONTINUOUS
 62
     7
 10
380.0267928331
 20
109.302633241
 30
0.0
  0
VERTEX
  5
7CC
  8
0
  6
CONTINUOUS
 62
     7
 10
380.0473156768
 20
109.6180859228
 30
0.0
  0
VERTEX
  5
7CD
  8
0
  6
CONTINUOUS
 62
     7
 10
379.9872468205
 20
109.9313207404
 30
0.0
  0
VERTEX
  5
7CE
  8
0
  6
CONTINUOUS
 62
     7
 10
379.8498245918
 20
110.2254511236
 30
0.0
  0
VERTEX
  5
7CF
  8
0
  6
CONTINUOUS
 62
     7
 10
379.6424574587
 20
110.4846204275
 30
0.0
  0
VERTEX
  5
7D0
  8
0
  6
CONTINUOUS
 62
     7
 10
379.3763246369
 20
110.6948567677
 30
0.0
  0
VERTEX
  5
7D1
  8
0
  6
CONTINUOUS
 62
     7
 10
379.0657734157
 20
110.8448262487
 30
0.0
  0
VERTEX
  5
7D2
  8
0
  6
CONTINUOUS
 62
     7
 10
378.727545692
 20
110.9264439771
 30
0.0
  0
VERTEX
  5
7D3
  8
0
  6
CONTINUOUS
 62
     7
 10
378.3798754097
 20
110.9353099198
 30
0.0
  0
VERTEX
  5
7D4
  8
0
  6
CONTINUOUS
 62
     7
 10
378.0415055639
 20
110.8709461118
 30
0.0
  0
VERTEX
  5
7D5
  8
0
  6
CONTINUOUS
 62
     7
 10
377.7306777604
 20
110.7368224224
 30
0.0
  0
VERTEX
  5
7D6
  8
0
  6
CONTINUOUS
 62
     7
 10
377.4641488067
 20
110.5401694946
 30
0.0
  0
VERTEX
  5
7D7
  8
0
  6
CONTINUOUS
 62
     7
 10
377.2562873476
 20
110.2915889385
 30
0.0
  0
VERTEX
  5
7D8
  8
0
  6
CONTINUOUS
 62
     7
 10
377.1182992481
 20
110.0044817963
 30
0.0
  0
VERTEX
  5
7D9
  8
0
  6
CONTINUOUS
 62
     7
 10
377.0576234825
 20
109.6943260884
 30
0.0
  0
VERTEX
  5
7DA
  8
0
  6
CONTINUOUS
 62
     7
 10
377.077531097
 20
109.3778423892
 30
0.0
  0
VERTEX
  5
7DB
  8
0
  6
CONTINUOUS
 62
     7
 10
377.1769488668
 20
109.0720924168
 30
0.0
  0
VERTEX
  5
7DC
  8
0
  6
CONTINUOUS
 62
     7
 10
377.3505171544
 20
108.7935592315
 30
0.0
  0
VERTEX
  5
7DD
  8
0
  6
CONTINUOUS
 62
     7
 10
377.5888788484
 20
108.5572586294
 30
0.0
  0
VERTEX
  5
7DE
  8
0
  6
CONTINUOUS
 62
     7
 10
377.8791838081
 20
108.375929637
 30
0.0
  0
VERTEX
  5
7DF
  8
0
  6
CONTINUOUS
 62
     7
 10
378.2057816181
 20
108.2593477472
 30
0.0
  0
VERTEX
  5
7E0
  8
0
  6
CONTINUOUS
 62
     7
 10
378.5510653059
 20
108.21379792
 30
0.0
  0
SEQEND
  5
840
  8
0
  6
CONTINUOUS
 62
     7
  0
ARC
  5
41D
  8
0
  6
CONTINUOUS
 62
     7
 10
378.6716280103
 20
109.845379063
 30
0.0
 40
1.426223601843487
 50
266.3408205699
 51
344.7844347798
  0
ARC
  5
41E
  8
0
  6
CONTINUOUS
 62
     7
 10
378.5643343114
 20
109.8998654503
 30
0.0
 40
1.477891968607028
 50
180.3401234644
 51
270.6307861715
  0
POLYLINE
  5
41F
  8
0
  6
CONTINUOUS
 62
     7
 66
     1
 10
0.0
 20
0.0
 30
0.0
 70
   128
  0
VERTEX
  5
7E1
  8
0
  6
CONTINUOUS
 62
     7
 10
376.0445948707
 20
97.1450631244
 30
0.0
  0
VERTEX
  5
7E2
  8
0
  6
CONTINUOUS
 62
     7
 10
376.3899501033
 20
97.1730009627
 30
0.0
  0
VERTEX
  5
7E3
  8
0
  6
CONTINUOUS
 62
     7
 10
376.7167586907
 20
97.2729203304
 30
0.0
  0
VERTEX
  5
7E4
  8
0
  6
CONTINUOUS
 62
     7
 10
377.0074022974
 20
97.4394345486
 30
0.0
  0
VERTEX
  5
7E5
  8
0
  6
CONTINUOUS
 62
     7
 10
377.2462122513
 20
97.6635667926
 30
0.0
  0
VERTEX
  5
7E6
  8
0
  6
CONTINUOUS
 62
     7
 10
377.420314246
 20
97.9332340351
 30
0.0
  0
VERTEX
  5
7E7
  8
0
  6
CONTINUOUS
 62
     7
 10
377.5203223979
 20
98.2338984454
 30
0.0
  0
VERTEX
  5
7E8
  8
0
  6
CONTINUOUS
 62
     7
 10
377.5408452416
 20
98.5493511271
 30
0.0
  0
VERTEX
  5
7E9
  8
0
  6
CONTINUOUS
 62
     7
 10
377.4807763853
 20
98.8625859447
 30
0.0
  0
VERTEX
  5
7EA
  8
0
  6
CONTINUOUS
 62
     7
 10
377.3433541566
 20
99.1567163279
 30
0.0
  0
VERTEX
  5
7EB
  8
0
  6
CONTINUOUS
 62
     7
 10
377.1359870235
 20
99.4158856318
 30
0.0
  0
VERTEX
  5
7EC
  8
0
  6
CONTINUOUS
 62
     7
 10
376.8698542017
 20
99.626121972
 30
0.0
  0
VERTEX
  5
7ED
  8
0
  6
CONTINUOUS
 62
     7
 10
376.5593029806
 20
99.7760914531
 30
0.0
  0
VERTEX
  5
7EE
  8
0
  6
CONTINUOUS
 62
     7
 10
376.2210752568
 20
99.8577091814
 30
0.0
  0
VERTEX
  5
7EF
  8
0
  6
CONTINUOUS
 62
     7
 10
375.8734049745
 20
99.8665751242
 30
0.0
  0
VERTEX
  5
7F0
  8
0
  6
CONTINUOUS
 62
     7
 10
375.5350351287
 20
99.8022113161
 30
0.0
  0
VERTEX
  5
7F1
  8
0
  6
CONTINUOUS
 62
     7
 10
375.2242073252
 20
99.6680876267
 30
0.0
  0
VERTEX
  5
7F2
  8
0
  6
CONTINUOUS
 62
     7
 10
374.9576783715
 20
99.4714346989
 30
0.0
  0
VERTEX
  5
7F3
  8
0
  6
CONTINUOUS
 62
     7
 10
374.7498169124
 20
99.2228541428
 30
0.0
  0
VERTEX
  5
7F4
  8
0
  6
CONTINUOUS
 62
     7
 10
374.6118288129
 20
98.9357470007
 30
0.0
  0
VERTEX
  5
7F5
  8
0
  6
CONTINUOUS
 62
     7
 10
374.5511530473
 20
98.6255912927
 30
0.0
  0
VERTEX
  5
7F6
  8
0
  6
CONTINUOUS
 62
     7
 10
374.5710606618
 20
98.3091075935
 30
0.0
  0
VERTEX
  5
7F7
  8
0
  6
CONTINUOUS
 62
     7
 10
374.6704784316
 20
98.0033576212
 30
0.0
  0
VERTEX
  5
7F8
  8
0
  6
CONTINUOUS
 62
     7
 10
374.8440467192
 20
97.7248244359
 30
0.0
  0
VERTEX
  5
7F9
  8
0
  6
CONTINUOUS
 62
     7
 10
375.0824084132
 20
97.4885238337
 30
0.0
  0
VERTEX
  5
7FA
  8
0
  6
CONTINUOUS
 62
     7
 10
375.3727133729
 20
97.3071948413
 30
0.0
  0
VERTEX
  5
7FB
  8
0
  6
CONTINUOUS
 62
     7
 10
375.6993111829
 20
97.1906129516
 30
0.0
  0
VERTEX
  5
7FC
  8
0
  6
CONTINUOUS
 62
     7
 10
376.0445948707
 20
97.1450631244
 30
0.0
  0
SEQEND
  5
841
  8
0
  6
CONTINUOUS
 62
     7
  0
ARC
  5
420
  8
0
  6
CONTINUOUS
 62
     7
 10
376.1651575751
 20
98.7766442673
 30
0.0
 40
1.426223601834308
 50
266.3408205698
 51
344.7844347844
  0
ARC
  5
421
  8
0
  6
CONTINUOUS
 62
     7
 10
376.0578638762
 20
98.8311306546
 30
0.0
 40
1.477891968587278
 50
180.3401234557
 51
270.6307861718
  0
POLYLINE
  5
422
  8
0
  6
CONTINUOUS
 62
     7
 66
     1
 10
0.0
 20
0.0
 30
0.0
 70
   128
  0
VERTEX
  5
7FD
  8
0
  6
CONTINUOUS
 62
     7
 10
378.5293891893
 20
85.9490460446
 30
0.0
  0
VERTEX
  5
7FE
  8
0
  6
CONTINUOUS
 62
     7
 10
378.8747444219
 20
85.9769838829
 30
0.0
  0
VERTEX
  5
7FF
  8
0
  6
CONTINUOUS
 62
     7
 10
379.2015530093
 20
86.0769032506
 30
0.0
  0
VERTEX
  5
800
  8
0
  6
CONTINUOUS
 62
     7
 10
379.492196616
 20
86.2434174688
 30
0.0
  0
VERTEX
  5
801
  8
0
  6
CONTINUOUS
 62
     7
 10
379.7310065699
 20
86.4675497128
 30
0.0
  0
VERTEX
  5
802
  8
0
  6
CONTINUOUS
 62
     7
 10
379.9051085645
 20
86.7372169553
 30
0.0
  0
VERTEX
  5
803
  8
0
  6
CONTINUOUS
 62
     7
 10
380.0051167164
 20
87.0378813656
 30
0.0
  0
VERTEX
  5
804
  8
0
  6
CONTINUOUS
 62
     7
 10
380.0256395601
 20
87.3533340473
 30
0.0
  0
VERTEX
  5
805
  8
0
  6
CONTINUOUS
 62
     7
 10
379.9655707038
 20
87.6665688649
 30
0.0
  0
VERTEX
  5
806
  8
0
  6
CONTINUOUS
 62
     7
 10
379.8281484752
 20
87.9606992481
 30
0.0
  0
VERTEX
  5
807
  8
0
  6
CONTINUOUS
 62
     7
 10
379.620781342
 20
88.219868552
 30
0.0
  0
VERTEX
  5
808
  8
0
  6
CONTINUOUS
 62
     7
 10
379.3546485202
 20
88.4301048922
 30
0.0
  0
VERTEX
  5
809
  8
0
  6
CONTINUOUS
 62
     7
 10
379.0440972991
 20
88.5800743733
 30
0.0
  0
VERTEX
  5
80A
  8
0
  6
CONTINUOUS
 62
     7
 10
378.7058695753
 20
88.6616921016
 30
0.0
  0
VERTEX
  5
80B
  8
0
  6
CONTINUOUS
 62
     7
 10
378.3581992931
 20
88.6705580444
 30
0.0
  0
VERTEX
  5
80C
  8
0
  6
CONTINUOUS
 62
     7
 10
378.0198294472
 20
88.6061942363
 30
0.0
  0
VERTEX
  5
80D
  8
0
  6
CONTINUOUS
 62
     7
 10
377.7090016438
 20
88.4720705469
 30
0.0
  0
VERTEX
  5
80E
  8
0
  6
CONTINUOUS
 62
     7
 10
377.44247269
 20
88.2754176191
 30
0.0
  0
VERTEX
  5
80F
  8
0
  6
CONTINUOUS
 62
     7
 10
377.2346112309
 20
88.0268370631
 30
0.0
  0
VERTEX
  5
810
  8
0
  6
CONTINUOUS
 62
     7
 10
377.0966231315
 20
87.7397299209
 30
0.0
  0
VERTEX
  5
811
  8
0
  6
CONTINUOUS
 62
     7
 10
377.0359473659
 20
87.4295742129
 30
0.0
  0
VERTEX
  5
812
  8
0
  6
CONTINUOUS
 62
     7
 10
377.0558549803
 20
87.1130905137
 30
0.0
  0
VERTEX
  5
813
  8
0
  6
CONTINUOUS
 62
     7
 10
377.1552727502
 20
86.8073405414
 30
0.0
  0
VERTEX
  5
814
  8
0
  6
CONTINUOUS
 62
     7
 10
377.3288410378
 20
86.5288073561
 30
0.0
  0
VERTEX
  5
815
  8
0
  6
CONTINUOUS
 62
     7
 10
377.5672027317
 20
86.2925067539
 30
0.0
  0
VERTEX
  5
816
  8
0
  6
CONTINUOUS
 62
     7
 10
377.8575076915
 20
86.1111777615
 30
0.0
  0
VERTEX
  5
817
  8
0
  6
CONTINUOUS
 62
     7
 10
378.1841055015
 20
85.9945958718
 30
0.0
  0
VERTEX
  5
818
  8
0
  6
CONTINUOUS
 62
     7
 10
378.5293891893
 20
85.9490460446
 30
0.0
  0
SEQEND
  5
842
  8
0
  6
CONTINUOUS
 62
     7
  0
ARC
  5
423
  8
0
  6
CONTINUOUS
 62
     7
 10
378.6499518936
 20
87.5806271876
 30
0.0
 40
1.426223601842288
 50
266.3408205699
 51
344.7844347804
  0
ARC
  5
424
  8
0
  6
CONTINUOUS
 62
     7
 10
378.5426581947
 20
87.6351135748
 30
0.0
 40
1.477891968604903
 50
180.3401234635
 51
270.6307861715
  0
LINE
  5
425
  8
0
  6
CONTINUOUS
 62
     7
 10
392.7605593264
 20
119.6039834499
 30
0.0
 11
392.7605354892
 21
119.5794988775
 31
0.0
  0
LINE
  5
426
  8
0
  6
CONTINUOUS
 62
     7
 10
392.9051953113
 20
120.6237336313
 30
0.0
 11
392.9040476205
 21
119.4448762006
 31
0.0
  0
LINE
  5
427
  8
0
  6
CONTINUOUS
 62
     7
 10
391.3796333032
 20
120.7443601035
 30
0.0
 11
391.3793577024
 21
120.4612750455
 31
0.0
  0
LINE
  5
428
  8
0
  6
CONTINUOUS
 62
     7
 10
385.6932056584
 20
126.2846804715
 30
0.0
 11
385.691921846
 21
124.9660050205
 31
0.0
  0
LINE
  5
429
  8
0
  6
CONTINUOUS
 62
     7
 10
383.9993045648
 20
124.9372970616
 30
0.0
 11
385.4202739077
 21
124.9010609105
 31
0.0
  0
LINE
  5
42A
  8
0
  6
CONTINUOUS
 62
     7
 10
383.7262389832
 20
126.5438585095
 30
0.0
 11
383.7236016484
 21
123.834904439
 31
0.0
  0
INSERT
  5
42B
  8
0
  6
CONTINUOUS
 62
     7
  2
BREUER_UND_SCHMITZ_LOGO
 10
285.2894875543
 20
46.4395355721
 30
0.0
 41
0.8
 42
0.8
 43
0.8
  0
INSERT
  5
42C
  8
0
  6
CONTINUOUS
 62
     7
  2
BREUER_UND_SCHMITZ_LOGO
 10
283.0425330841
 20
46.6891971799
 30
0.0
 41
0.8
 42
0.8
 43
0.8
  0
INSERT
  5
42D
  8
0
  6
CONTINUOUS
 62
     7
  2
BREUER_UND_SCHMITZ_LOGO
 10
291.7443364484
 20
69.1695142371
 30
0.0
  0
INSERT
  5
42E
  8
0
  6
CONTINUOUS
 62
     7
  2
BREUER_UND_SCHMITZ_LOGO
 10
282.6680406724
 20
48.4368284344
 30
0.0
 41
0.8
 42
0.8
 43
0.8
  0
INSERT
  5
42F
  8
0
  6
CONTINUOUS
 62
     7
  2
BREUER_UND_SCHMITZ_LOGO
 10
283.9163487114
 20
46.4395355721
 30
0.0
 41
0.8
 42
0.8
 43
0.8
  0
INSERT
  5
430
  8
0
  6
CONTINUOUS
 62
     7
  2
BREUER_UND_SCHMITZ_LOGO
 10
282.6680406724
 20
48.0623360227
 30
0.0
 41
0.8
 42
0.8
 43
0.8
  0
INSERT
  5
431
  8
0
  6
CONTINUOUS
 62
     7
  2
BREUER_UND_SCHMITZ_LOGO
 10
281.3204910808
 20
45.5454838172
 30
0.0
 41
0.8
 42
0.8
 43
0.8
  0
INSERT
  5
432
  8
0
  6
CONTINUOUS
 62
     7
  2
BREUER_UND_SCHMITZ_LOGO
 10
282.5260846133
 20
45.4745665506
 30
0.0
 41
0.8
 42
0.8
 43
0.8
  0
INSERT
  5
433
  8
0
  6
CONTINUOUS
 62
     7
  2
BREUER_UND_SCHMITZ_LOGO
 10
281.3204910808
 20
45.5454838172
 30
0.0
 41
0.8
 42
0.8
 43
0.8
  0
INSERT
  5
434
  8
0
  6
CONTINUOUS
 62
     7
  2
BREUER_UND_SCHMITZ_LOGO
 10
281.6750774139
 20
45.5454838172
 30
0.0
 41
0.8
 42
0.8
 43
0.8
  0
LINE
  5
435
  8
0
  6
CENTERX2
 62
     7
 10
387.3894267259
 20
88.7774067426
 30
0.0
 11
387.3853112948
 21
84.5502172926
 31
0.0
  0
LINE
  5
436
  8
0
  6
CENTERX2
 62
     7
 10
387.4146418003
 20
114.6772201487
 30
0.0
 11
387.4105263693
 21
110.4500306987
 31
0.0
  0
ENDSEC
  0
EOF
